  0
SECTION
  2
HEADER
  9
$ACADVER
  1
AC1015
  9
$ACADMAINTVER
 70
    10
  9
$DWGCODEPAGE
  3
ANSI_1252
  9
$INSBASE
 10
0.0
 20
0.0
 30
0.0
  9
$EXTMIN
 10
3.0
 20
0.9120735238999991
 30
0.0
  9
$EXTMAX
 10
68.20471809489936
 20
43.2347584853
 30
0.0
  9
$LIMMIN
 10
0.0
 20
0.0
  9
$LIMMAX
 10
0.0
 20
0.0
  9
$ORTHOMODE
 70
     0
  9
$REGENMODE
 70
     1
  9
$FILLMODE
 70
     1
  9
$QTEXTMODE
 70
     0
  9
$MIRRTEXT
 70
     1
  9
$LTSCALE
 40
1.0
  9
$ATTMODE
 70
     1
  9
$TEXTSIZE
 40
0.0
  9
$TRACEWID
 40
0.05
  9
$TEXTSTYLE
  7
Standard
  9
$CLAYER
  8
0
  9
$CELTYPE
  6
Continuous
  9
$CECOLOR
 62
   256
  9
$CELTSCALE
 40
1.0
  9
$DISPSILH
 70
     0
  9
$DIMSCALE
 40
1.0
  9
$DIMASZ
 40
0.0
  9
$DIMEXO
 40
0.0
  9
$DIMDLI
 40
0.38
  9
$DIMRND
 40
0.0
  9
$DIMDLE
 40
0.0
  9
$DIMEXE
 40
0.18
  9
$DIMTP
 40
0.0
  9
$DIMTM
 40
0.0
  9
$DIMTXT
 40
0.4
  9
$DIMCEN
 40
0.09
  9
$DIMTSZ
 40
0.0
  9
$DIMTOL
 70
     0
  9
$DIMLIM
 70
     0
  9
$DIMTIH
 70
     1
  9
$DIMTOH
 70
     1
  9
$DIMSE1
 70
     0
  9
$DIMSE2
 70
     0
  9
$DIMTAD
 70
     0
  9
$DIMZIN
 70
     0
  9
$DIMBLK
  1

  9
$DIMASO
 70
     1
  9
$DIMSHO
 70
     1
  9
$DIMPOST
  1

  9
$DIMAPOST
  1

  9
$DIMALT
 70
     0
  9
$DIMALTD
 70
     2
  9
$DIMALTF
 40
25.4
  9
$DIMLFAC
 40
1.0
  9
$DIMTOFL
 70
     0
  9
$DIMTVP
 40
0.0
  9
$DIMTIX
 70
     0
  9
$DIMSOXD
 70
     0
  9
$DIMSAH
 70
     0
  9
$DIMBLK1
  1

  9
$DIMBLK2
  1

  9
$DIMSTYLE
  2
Standard
  9
$DIMCLRD
 70
     0
  9
$DIMCLRE
 70
     0
  9
$DIMCLRT
 70
     0
  9
$DIMTFAC
 40
1.0
  9
$DIMGAP
 40
0.0
  9
$DIMJUST
 70
     0
  9
$DIMSD1
 70
     0
  9
$DIMSD2
 70
     0
  9
$DIMTOLJ
 70
     1
  9
$DIMTZIN
 70
     0
  9
$DIMALTZ
 70
     0
  9
$DIMALTTZ
 70
     0
  9
$DIMUPT
 70
     0
  9
$DIMDEC
 70
     4
  9
$DIMTDEC
 70
     4
  9
$DIMALTU
 70
     2
  9
$DIMALTTD
 70
     2
  9
$DIMTXSTY
  7
Standard
  9
$DIMAUNIT
 70
     0
  9
$DIMADEC
 70
     0
  9
$DIMALTRND
 40
0.0
  9
$DIMAZIN
 70
     0
  9
$DIMDSEP
 70
     0
  9
$DIMATFIT
 70
     3
  9
$DIMFRAC
 70
     0
  9
$DIMLDRBLK
  1

  9
$DIMLUNIT
 70
     2
  9
$DIMLWD
 70
     0
  9
$DIMLWE
 70
     0
  9
$DIMTMOVE
 70
     0
  9
$LUNITS
 70
     2
  9
$LUPREC
 70
     3
  9
$SKETCHINC
 40
0.1
  9
$FILLETRAD
 40
0.0
  9
$AUNITS
 70
     0
  9
$AUPREC
 70
     0
  9
$MENU
  1
acad
  9
$ELEVATION
 40
0.0
  9
$PELEVATION
 40
0.0
  9
$THICKNESS
 40
0.0
  9
$LIMCHECK
 70
     0
  9
$CHAMFERA
 40
0.0
  9
$CHAMFERB
 40
0.0
  9
$CHAMFERC
 40
0.0
  9
$CHAMFERD
 40
0.0
  9
$SKPOLY
 70
     0
  9
$TDCREATE
 40
2453398.479431053
  9
$TDUCREATE
 40
2453398.812764386
  9
$TDUPDATE
 40
2453398.496157940
  9
$TDUUPDATE
 40
2453398.829491273
  9
$TDINDWG
 40
0.0010150810
  9
$TDUSRTIMER
 40
0.0010148958
  9
$USRTIMER
 70
     1
  9
$ANGBASE
 50
0.0
  9
$ANGDIR
 70
     0
  9
$PDMODE
 70
     0
  9
$PDSIZE
 40
-1.0
  9
$PLINEWID
 40
0.0
  9
$SPLFRAME
 70
     0
  9
$SPLINETYPE
 70
     6
  9
$SPLINESEGS
 70
     8
  9
$HANDSEED
  5
2F5
  9
$SURFTAB1
 70
     6
  9
$SURFTAB2
 70
     6
  9
$SURFTYPE
 70
     6
  9
$SURFU
 70
     6
  9
$SURFV
 70
     6
  9
$UCSBASE
  2

  9
$UCSNAME
  2

  9
$UCSORG
 10
0.0
 20
0.0
 30
0.0
  9
$UCSXDIR
 10
1.0
 20
0.0
 30
0.0
  9
$UCSYDIR
 10
0.0
 20
1.0
 30
0.0
  9
$UCSORTHOREF
  2

  9
$UCSORTHOVIEW
 70
     0
  9
$UCSORGTOP
 10
0.0
 20
0.0
 30
0.0
  9
$UCSORGBOTTOM
 10
0.0
 20
0.0
 30
0.0
  9
$UCSORGLEFT
 10
0.0
 20
0.0
 30
0.0
  9
$UCSORGRIGHT
 10
0.0
 20
0.0
 30
0.0
  9
$UCSORGFRONT
 10
0.0
 20
0.0
 30
0.0
  9
$UCSORGBACK
 10
0.0
 20
0.0
 30
0.0
  9
$PUCSBASE
  2

  9
$PUCSNAME
  2

  9
$PUCSORG
 10
0.0
 20
0.0
 30
0.0
  9
$PUCSXDIR
 10
1.0
 20
0.0
 30
0.0
  9
$PUCSYDIR
 10
0.0
 20
1.0
 30
0.0
  9
$PUCSORTHOREF
  2

  9
$PUCSORTHOVIEW
 70
     0
  9
$PUCSORGTOP
 10
0.0
 20
0.0
 30
0.0
  9
$PUCSORGBOTTOM
 10
0.0
 20
0.0
 30
0.0
  9
$PUCSORGLEFT
 10
0.0
 20
0.0
 30
0.0
  9
$PUCSORGRIGHT
 10
0.0
 20
0.0
 30
0.0
  9
$PUCSORGFRONT
 10
0.0
 20
0.0
 30
0.0
  9
$PUCSORGBACK
 10
0.0
 20
0.0
 30
0.0
  9
$USERI1
 70
     0
  9
$USERI2
 70
     0
  9
$USERI3
 70
     0
  9
$USERI4
 70
     0
  9
$USERI5
 70
     0
  9
$USERR1
 40
0.0
  9
$USERR2
 40
0.0
  9
$USERR3
 40
0.0
  9
$USERR4
 40
0.0
  9
$USERR5
 40
0.0
  9
$WORLDVIEW
 70
     1
  9
$SHADEDGE
 70
     3
  9
$SHADEDIF
 70
    70
  9
$TILEMODE
 70
     1
  9
$MAXACTVP
 70
    16
  9
$PINSBASE
 10
0.0
 20
0.0
 30
0.0
  9
$PLIMCHECK
 70
     0
  9
$PEXTMIN
 10
1.000000000000000E+20
 20
1.000000000000000E+20
 30
1.000000000000000E+20
  9
$PEXTMAX
 10
-1.000000000000000E+20
 20
-1.000000000000000E+20
 30
-1.000000000000000E+20
  9
$PLIMMIN
 10
0.0
 20
0.0
  9
$PLIMMAX
 10
12.0
 20
9.0
  9
$UNITMODE
 70
     0
  9
$VISRETAIN
 70
     0
  9
$PLINEGEN
 70
     1
  9
$PSLTSCALE
 70
     1
  9
$TREEDEPTH
 70
  3020
  9
$CMLSTYLE
  2
Standard
  9
$CMLJUST
 70
     0
  9
$CMLSCALE
 40
1.0
  9
$PROXYGRAPHICS
 70
     0
  9
$MEASUREMENT
 70
     0
  9
$CELWEIGHT
370
     0
  9
$ENDCAPS
280
     0
  9
$JOINSTYLE
280
     0
  9
$LWDISPLAY
290
     1
  9
$INSUNITS
 70
     0
  9
$HYPERLINKBASE
  1

  9
$STYLESHEET
  1

  9
$XEDIT
290
     1
  9
$CEPSNTYPE
380
     0
  9
$PSTYLEMODE
290
     1
  9
$FINGERPRINTGUID
  2

  9
$VERSIONGUID
  2
{1A716937-E70F-42A9-828E-512E8EE105F9}
  9
$EXTNAMES
290
     1
  9
$PSVPSCALE
 40
0.0
  9
$OLESTARTUP
290
     0
  0
ENDSEC
  0
SECTION
  2
CLASSES
  0
CLASS
  1
LWPOLYLINE
  2
AcDbPolyline
  3
AutoCAD 2000
 90
    32768
280
     0
281
     1
  0
CLASS
  1
IMAGE
  2
AcDbRasterImage
  3
ISM
 90
    32895
280
     0
281
     1
  0
CLASS
  1
OLE2FRAME
  2
AcDbOle2Frame
  3
AutoCAD 2000
 90
    32768
280
     0
281
     1
  0
CLASS
  1
HATCH
  2
AcDbHatch
  3
AutoCAD 2000
 90
    32768
280
     0
281
     1
  0
CLASS
  1
DICTIONARYVAR
  2
AcDbDictionaryVar
  3
AutoCAD 2000
 90
    32768
280
     0
281
     0
  0
CLASS
  1
RASTERVARIABLES
  2
AcDbRasterVariables
  3
ISM
 90
    32768
280
     0
281
     0
  0
CLASS
  1
IMAGEDEF
  2
AcDbRasterImageDef
  3
ISM
 90
    32768
280
     0
281
     0
  0
CLASS
  1
IMAGEDEF_REACTOR
  2
AcDbRasterImageDefReactor
  3
ISM
 90
    32769
280
     0
281
     0
  0
CLASS
  1
IDBUFFER
  2
AcDbIdBuffer
  3
AutoCAD 2000
 90
    32768
280
     0
281
     0
  0
CLASS
  1
SPATIAL_FILTER
  2
AcDbSpatialFilter
  3
AutoCAD 2000
 90
    32768
280
     0
281
     0
  0
CLASS
  1
XRECORD
  2
AcDbXrecord
  3
AutoCAD 2000
 90
    32768
280
     0
281
     0
  0
CLASS
  1
SORTENTSTABLE
  2
AcDbSortentsTable
  3
AutoCAD 2000
 90
    32768
280
     0
281
     0
  0
CLASS
  1
LAYER_INDEX
  2
AcDbLayerIndex
  3
AutoCAD 2000
 90
    32768
280
     0
281
     0
  0
CLASS
  1
SPATIAL_INDEX
  2
AcDbSpatialIndex
  3
AutoCAD 2000
 90
    32768
280
     0
281
     0
  0
CLASS
  1
OBJECT_PTR
  2
CAseDLPNTableRecord
  3
"ASE-LPNTableRecord"
 90
    32769
280
     0
281
     0
  0
CLASS
  1
LAYOUT
  2
AcDbLayout
  3
AutoCAD 2000
 90
        0
280
     0
281
     0
  0
CLASS
  1
PLOTSETTINGS
  2
AcDbPlotSettings
  3
AutoCAD 2000
 90
    32768
280
     0
281
     0
  0
CLASS
  1
ACDBDICTIONARYWDFLT
  2
AcDbDictionaryWithDefault
  3
AutoCAD 2000
 90
        0
280
     0
281
     0
  0
CLASS
  1
ACDBPLACEHOLDER
  2
AcDbPlaceHolder
  3
AutoCAD 2000
 90
        0
280
     0
281
     0
  0
CLASS
  1
VBA_PROJECT
  2
AcDbVbaProject
  3
acadvba
 90
    32768
280
     0
281
     0
  0
CLASS
  1
WIPEOUT
  2
AcDbWipeout
  3
WipeOut|AutoCAD Express Tool|expresstools@autodesk.com
 90
    32895
280
     0
281
     1
  0
CLASS
  1
WIPEOUTVARIABLES
  2
AcDbWipeoutVariables
  3
WipeOut|AutoCAD Express Tool|expresstools@autodesk.com
 90
        0
280
     0
281
     0
  0
CLASS
  1
RTEXT
  2
RText
  3
RText|AutoCAD Express Tool|expresstools@autodesk.com
 90
    32768
280
     0
281
     1
  0
CLASS
  1
ARCALIGNEDTEXT
  2
AcDbArcAlignedText
  3
ATEXT|AutoCAD Express Tool|expresstools@autodesk.com
 90
    32768
280
     0
281
     1
  0
ENDSEC
  0
SECTION
  2
TABLES
  0
TABLE
  2
VPORT
  5
7
330
0
100
AcDbSymbolTable
 70
     3
  0
VPORT
  5
2F4
330
7
100
AcDbSymbolTableRecord
100
AcDbViewportTableRecord
  2
*Active
 70
     0
 10
0.0
 20
0.0
 11
1.0
 21
1.0
 12
35.61636623994298
 22
21.99999999999998
 13
0.0
 23
0.0
 14
1.0
 24
1.0
 15
0.0
 25
0.0
 16
0.0
 26
0.0
 36
1.0
 17
0.0
 27
0.0
 37
0.0
 40
43.99999998751272
 41
1.5
 42
50.0
 43
0.0
 44
0.0
 50
0.0
 51
0.0
 71
     0
 72
  2000
 73
     1
 74
     1
 75
     0
 76
     0
 77
     0
 78
     0
281
     0
 65
     0
110
0.0
120
0.0
130
0.0
111
1.0
121
0.0
131
0.0
112
0.0
122
1.0
132
0.0
 79
     0
146
0.0
  0
ENDTAB
  0
TABLE
  2
LTYPE
  5
4
330
0
100
AcDbSymbolTable
 70
     6
  0
LTYPE
  5
11
330
4
100
AcDbSymbolTableRecord
100
AcDbLinetypeTableRecord
  2
ByBlock
 70
     0
  3

 72
    65
 73
     0
 40
0.0
  0
LTYPE
  5
12
330
4
100
AcDbSymbolTableRecord
100
AcDbLinetypeTableRecord
  2
ByLayer
 70
     0
  3

 72
    65
 73
     0
 40
0.0
  0
LTYPE
  5
13
330
4
100
AcDbSymbolTableRecord
100
AcDbLinetypeTableRecord
  2
Continuous
 70
     0
  3
Solid line
 72
    65
 73
     0
 40
0.0
  0
LTYPE
  5
24
330
4
100
AcDbSymbolTableRecord
100
AcDbLinetypeTableRecord
  2
HIDDEN
 70
     0
  3
Hidden __ __ __ __ __ __ __ __ __ __ __ __ __ __
 72
    65
 73
     2
 40
0.075
 49
0.05
 74
     0
 49
-0.025
 74
     0
  0
LTYPE
  5
25
330
4
100
AcDbSymbolTableRecord
100
AcDbLinetypeTableRecord
  2
PHANTOM
 70
     0
  3
Phantom ______  __  __  ______  __  __  ______
 72
    65
 73
     6
 40
0.5
 49
0.25
 74
     0
 49
-0.05
 74
     0
 49
0.05
 74
     0
 49
-0.05
 74
     0
 49
0.05
 74
     0
 49
-0.05
 74
     0
  0
LTYPE
  5
26
330
4
100
AcDbSymbolTableRecord
100
AcDbLinetypeTableRecord
  2
CENTER
 70
     0
  3
Center ____ _ ____ _ ____ _ ____ _ ____ _ ____
 72
    65
 73
     4
 40
0.4
 49
0.25
 74
     0
 49
-0.05
 74
     0
 49
0.05
 74
     0
 49
-0.05
 74
     0
  0
LTYPE
  5
27
330
4
100
AcDbSymbolTableRecord
100
AcDbLinetypeTableRecord
  2
CENTERX2
 70
     0
  3
Center (2x) ________  __  ________  __  _____
 72
    65
 73
     4
 40
0.8
 49
0.5
 74
     0
 49
-0.1
 74
     0
 49
0.1
 74
     0
 49
-0.1
 74
     0
  0
LTYPE
  5
28
330
4
100
AcDbSymbolTableRecord
100
AcDbLinetypeTableRecord
  2
DOT2
 70
     0
  3
Dot (.5x) ........................................
 72
    65
 73
     2
 40
0.025
 49
0.0
 74
     0
 49
-0.025
 74
     0
  0
ENDTAB
  0
TABLE
  2
LAYER
  5
2
330
0
100
AcDbSymbolTable
 70
     1
  0
LAYER
  5
14
330
2
100
AcDbSymbolTableRecord
100
AcDbLayerTableRecord
  2
0
 70
     0
 62
     7
  6
Continuous
370
    -3
390
1D
  0
ENDTAB
  0
TABLE
  2
STYLE
  5
3
330
0
100
AcDbSymbolTable
 70
     2
  0
STYLE
  5
17
330
3
100
AcDbSymbolTableRecord
100
AcDbTextStyleTableRecord
  2
Standard
 70
     0
 40
0.0
 41
1.0
 50
0.0
 71
     0
 42
0.0
  3
txt
  4

  0
STYLE
  5
75
330
3
100
AcDbSymbolTableRecord
100
AcDbTextStyleTableRecord
  2
SLDTEXTSTYLE0
 70
     0
 40
0.0
 41
0.75
 50
0.0
 71
     0
 42
0.0
  3
txt
  4

  0
ENDTAB
  0
TABLE
  2
VIEW
  5
5
330
0
100
AcDbSymbolTable
 70
     0
  0
ENDTAB
  0
TABLE
  2
UCS
  5
6
330
0
100
AcDbSymbolTable
 70
     0
  0
ENDTAB
  0
TABLE
  2
APPID
  5
8
330
0
100
AcDbSymbolTable
 70
     1
  0
APPID
  5
16
330
8
100
AcDbSymbolTableRecord
100
AcDbRegAppTableRecord
  2
ACAD
 70
     0
  0
ENDTAB
  0
TABLE
  2
DIMSTYLE
  5
9
330
0
100
AcDbSymbolTable
 70
     5
100
AcDbDimStyleTable
 71
     0
  0
DIMSTYLE
105
18
330
9
100
AcDbSymbolTableRecord
100
AcDbDimStyleTableRecord
  2
Standard
 70
     0
340
17
  0
DIMSTYLE
105
DA
102
{ACAD_REACTORS
330
DE
330
EB
330
F9
330
106
330
113
330
120
330
139
330
146
330
153
330
161
330
16E
330
1AB
330
1CF
102
}
330
9
100
AcDbSymbolTableRecord
100
AcDbDimStyleTableRecord
  2
SLDDIMSTYLE0
 70
     0
 41
0.75
 44
0.48
 78
    12
140
0.4
147
0.1
173
     1
176
     7
177
     7
178
     7
271
     3
284
    12
340
17
  0
DIMSTYLE
105
129
102
{ACAD_REACTORS
330
12D
330
17C
102
}
330
9
100
AcDbSymbolTableRecord
100
AcDbDimStyleTableRecord
  2
SLDDIMSTYLE1
 70
     0
 41
0.75
 44
0.48
 78
    12
140
0.4
147
0.1
172
     1
173
     1
176
     7
177
     7
178
     7
271
     3
284
    12
340
17
  0
DIMSTYLE
105
188
102
{ACAD_REACTORS
330
18E
330
19E
102
}
330
9
100
AcDbSymbolTableRecord
100
AcDbDimStyleTableRecord
  2
SLDDIMSTYLE2
 70
     0
 41
0.75
 44
0.48
 78
    12
140
0.4
147
0.1
173
     1
176
     1
177
     1
178
     1
271
     0
284
    12
340
17
  0
DIMSTYLE
105
1D1
330
9
100
AcDbSymbolTableRecord
100
AcDbDimStyleTableRecord
  2
SLDDIMSTYLE3
 70
     0
 41
0.75
 44
0.0
140
0.75
147
0.1875
173
     1
271
     0
272
     0
340
17
  0
ENDTAB
  0
TABLE
  2
BLOCK_RECORD
  5
1
330
0
100
AcDbSymbolTable
 70
    21
  0
BLOCK_RECORD
  5
A
330
1
100
AcDbSymbolTableRecord
100
AcDbBlockTableRecord
  2
*MODEL_SPACE
340
20
  0
BLOCK_RECORD
  5
B
330
1
100
AcDbSymbolTableRecord
100
AcDbBlockTableRecord
  2
*PAPER_SPACE
340
21
  0
BLOCK_RECORD
  5
A8
330
1
100
AcDbSymbolTableRecord
100
AcDbBlockTableRecord
  2
NOTE50
340
0
102
{BLKREFS
331
AE
102
}
  0
BLOCK_RECORD
  5
D1
330
1
100
AcDbSymbolTableRecord
100
AcDbBlockTableRecord
  2
*D1
340
0
  0
BLOCK_RECORD
  5
DF
330
1
100
AcDbSymbolTableRecord
100
AcDbBlockTableRecord
  2
*D2
340
0
  0
BLOCK_RECORD
  5
EC
330
1
100
AcDbSymbolTableRecord
100
AcDbBlockTableRecord
  2
*D3
340
0
  0
BLOCK_RECORD
  5
FA
330
1
100
AcDbSymbolTableRecord
100
AcDbBlockTableRecord
  2
*D4
340
0
  0
BLOCK_RECORD
  5
107
330
1
100
AcDbSymbolTableRecord
100
AcDbBlockTableRecord
  2
*D5
340
0
  0
BLOCK_RECORD
  5
114
330
1
100
AcDbSymbolTableRecord
100
AcDbBlockTableRecord
  2
*D6
340
0
  0
BLOCK_RECORD
  5
121
330
1
100
AcDbSymbolTableRecord
100
AcDbBlockTableRecord
  2
*D7
340
0
  0
BLOCK_RECORD
  5
12E
330
1
100
AcDbSymbolTableRecord
100
AcDbBlockTableRecord
  2
*D8
340
0
  0
BLOCK_RECORD
  5
13A
330
1
100
AcDbSymbolTableRecord
100
AcDbBlockTableRecord
  2
*D9
340
0
  0
BLOCK_RECORD
  5
147
330
1
100
AcDbSymbolTableRecord
100
AcDbBlockTableRecord
  2
*D10
340
0
  0
BLOCK_RECORD
  5
154
330
1
100
AcDbSymbolTableRecord
100
AcDbBlockTableRecord
  2
*D11
340
0
  0
BLOCK_RECORD
  5
162
330
1
100
AcDbSymbolTableRecord
100
AcDbBlockTableRecord
  2
*D12
340
0
  0
BLOCK_RECORD
  5
16F
330
1
100
AcDbSymbolTableRecord
100
AcDbBlockTableRecord
  2
*D13
340
0
  0
BLOCK_RECORD
  5
17D
330
1
100
AcDbSymbolTableRecord
100
AcDbBlockTableRecord
  2
*D14
340
0
  0
BLOCK_RECORD
  5
18F
330
1
100
AcDbSymbolTableRecord
100
AcDbBlockTableRecord
  2
*D15
340
0
  0
BLOCK_RECORD
  5
19F
330
1
100
AcDbSymbolTableRecord
100
AcDbBlockTableRecord
  2
*D16
340
0
  0
BLOCK_RECORD
  5
1AC
330
1
100
AcDbSymbolTableRecord
100
AcDbBlockTableRecord
  2
NOTE67
340
0
102
{BLKREFS
331
1B0
102
}
  0
BLOCK_RECORD
  5
1B1
330
1
100
AcDbSymbolTableRecord
100
AcDbBlockTableRecord
  2
NOTE68
340
0
102
{BLKREFS
331
1B5
102
}
  0
BLOCK_RECORD
  5
1C3
330
1
100
AcDbSymbolTableRecord
100
AcDbBlockTableRecord
  2
*D19
340
0
  0
BLOCK_RECORD
  5
1D2
330
1
100
AcDbSymbolTableRecord
100
AcDbBlockTableRecord
  2
NOTE69
340
0
102
{BLKREFS
331
1D9
102
}
  0
ENDTAB
  0
ENDSEC
  0
SECTION
  2
BLOCKS
  0
BLOCK
  5
D
330
A
100
AcDbEntity
  8
0
100
AcDbBlockBegin
  2
*MODEL_SPACE
 70
     0
 10
0.0
 20
0.0
 30
0.0
  3
*MODEL_SPACE
  1

  0
ENDBLK
  5
E
330
A
100
AcDbEntity
  8
0
100
AcDbBlockEnd
  0
BLOCK
  5
F
330
B
100
AcDbEntity
 67
     1
  8
0
100
AcDbBlockBegin
  2
*PAPER_SPACE
 70
     0
 10
0.0
 20
0.0
 30
0.0
  3
*PAPER_SPACE
  1

  0
ENDBLK
  5
10
330
B
100
AcDbEntity
 67
     1
  8
0
100
AcDbBlockEnd
  0
BLOCK
  5
A9
330
A8
100
AcDbEntity
  8
0
 62
     0
100
AcDbBlockBegin
  2
NOTE50
 70
     0
 10
0.0
 20
0.0
 30
0.0
  3
NOTE50
  1

  0
MTEXT
  5
AA
330
A8
100
AcDbEntity
  8
0
 62
     7
100
AcDbMText
 10
0.0
 20
0.0
 30
0.0
 40
0.36
 41
0.0
 71
     1
 72
     1
  1
BREAK SHARP EDGES 0.010 RAD %%p 0.003
  7
SLDTEXTSTYLE0
 73
     1
 44
1.0
  0
MTEXT
  5
AB
330
A8
100
AcDbEntity
  8
0
 62
     7
100
AcDbMText
 10
0.0
 20
-0.5400000000000002
 30
0.0
 40
0.36
 41
0.0
 71
     1
 72
     1
  1
MACHINED SURF FINISH  
  7
SLDTEXTSTYLE0
 73
     1
 44
1.0
  0
MTEXT
  5
AC
330
A8
100
AcDbEntity
  8
0
 62
     7
100
AcDbMText
 10
5.543999999999998
 20
-0.5400000000000002
 30
0.0
 40
0.36
 41
0.0
 71
     1
 72
     1
  1
< 125 MICROINCH
  7
SLDTEXTSTYLE0
 73
     1
 44
1.0
  0
ENDBLK
  5
AD
330
A8
100
AcDbEntity
  8
0
100
AcDbBlockEnd
  0
BLOCK
  5
D2
330
D1
100
AcDbEntity
  8
0
 62
     7
100
AcDbBlockBegin
  2
*D1
 70
     1
 10
0.0
 20
0.0
 30
0.0
  3
*D1
  1

  0
MTEXT
  5
D3
330
D1
100
AcDbEntity
  8
0
 62
     7
100
AcDbMText
 10
28.91253348599999
 20
17.3314834038
 30
0.0
 40
0.4
 41
0.0
 71
     7
 72
     1
  1
33 1/2"
  7
SLDTEXTSTYLE0
 73
     1
 44
1.0
  0
LINE
  5
D4
330
D1
100
AcDbEntity
  8
0
 62
     7
100
AcDbLine
 10
46.5629048068
 20
25.8925655398
 30
0.0
 11
46.5629048068
 21
17.0313275548
 31
0.0
  0
LINE
  5
D5
330
D1
100
AcDbEntity
  8
0
 62
     7
100
AcDbLine
 10
13.0629048068
 20
25.8925655398
 30
0.0
 11
13.0629048068
 21
17.0313275548
 31
0.0
  0
LINE
  5
D6
330
D1
100
AcDbEntity
  8
0
 62
     7
100
AcDbLine
 10
46.5629048068
 20
17.5113275548
 30
0.0
 11
30.9632761275
 21
17.5113275548
 31
0.0
  0
LINE
  5
D7
330
D1
100
AcDbEntity
  8
0
 62
     7
100
AcDbLine
 10
13.0629048068
 20
17.5113275548
 30
0.0
 11
28.66253348599999
 21
17.5113275548
 31
0.0
  0
SOLID
  5
D8
330
D1
100
AcDbEntity
  8
0
 62
     7
100
AcDbTrace
 10
46.5629048068
 20
17.5113275548
 30
0.0
 11
45.8129048068
 21
17.6363275548
 31
0.0
 12
45.8129048068
 22
17.3863275548
 32
0.0
 13
45.8129048068
 23
17.3863275548
 33
0.0
  0
SOLID
  5
D9
330
D1
100
AcDbEntity
  8
0
 62
     7
100
AcDbTrace
 10
13.0629048068
 20
17.5113275548
 30
0.0
 11
13.8129048068
 21
17.3863275548
 31
0.0
 12
13.8129048068
 22
17.6363275548
 32
0.0
 13
13.8129048068
 23
17.6363275548
 33
0.0
  0
POINT
  5
DB
330
D1
100
AcDbEntity
  8
0
 62
     7
100
AcDbPoint
 10
46.5629048068
 20
26.0525655398
 30
0.0
  0
POINT
  5
DC
330
D1
100
AcDbEntity
  8
0
 62
     7
100
AcDbPoint
 10
13.0629048068
 20
26.0525655398
 30
0.0
  0
ENDBLK
  5
DD
330
D1
100
AcDbEntity
  8
0
 62
     7
100
AcDbBlockEnd
  0
BLOCK
  5
E0
330
DF
100
AcDbEntity
  8
0
 62
     7
100
AcDbBlockBegin
  2
*D2
 70
     1
 10
0.0
 20
0.0
 30
0.0
  3
*D2
  1

  0
MTEXT
  5
E1
330
DF
100
AcDbEntity
  8
0
 62
     7
100
AcDbMText
 10
56.473078908
 20
29.3727213889
 30
0.0
 40
0.4
 41
0.0
 71
     7
 72
     1
  1
7"
  7
SLDTEXTSTYLE0
 73
     1
 44
1.0
  0
LINE
  5
E2
330
DF
100
AcDbEntity
  8
0
 62
     7
100
AcDbLine
 10
33.97290480679998
 20
33.0525655398
 30
0.0
 11
57.213178908
 21
33.0525655398
 31
0.0
  0
LINE
  5
E3
330
DF
100
AcDbEntity
  8
0
 62
     7
100
AcDbLine
 10
46.7229048068
 20
26.0525655398
 30
0.0
 11
57.213178908
 21
26.0525655398
 31
0.0
  0
LINE
  5
E4
330
DF
100
AcDbEntity
  8
0
 62
     7
100
AcDbLine
 10
56.73317890799999
 20
33.0525655398
 30
0.0
 11
56.73317890799999
 21
29.9324096908
 31
0.0
  0
LINE
  5
E5
330
DF
100
AcDbEntity
  8
0
 62
     7
100
AcDbLine
 10
56.73317890799999
 20
26.0525655398
 30
0.0
 11
56.73317890799999
 21
29.1727213889
 31
0.0
  0
SOLID
  5
E6
330
DF
100
AcDbEntity
  8
0
 62
     7
100
AcDbTrace
 10
56.73317890799999
 20
33.0525655398
 30
0.0
 11
56.608178908
 21
32.3025655398
 31
0.0
 12
56.858178908
 22
32.3025655398
 32
0.0
 13
56.858178908
 23
32.3025655398
 33
0.0
  0
SOLID
  5
E7
330
DF
100
AcDbEntity
  8
0
 62
     7
100
AcDbTrace
 10
56.73317890799999
 20
26.0525655398
 30
0.0
 11
56.858178908
 21
26.8025655398
 31
0.0
 12
56.608178908
 22
26.8025655398
 32
0.0
 13
56.608178908
 23
26.8025655398
 33
0.0
  0
POINT
  5
E8
330
DF
100
AcDbEntity
  8
0
 62
     7
100
AcDbPoint
 10
33.8129048068
 20
33.0525655398
 30
0.0
  0
POINT
  5
E9
330
DF
100
AcDbEntity
  8
0
 62
     7
100
AcDbPoint
 10
46.5629048068
 20
26.0525655398
 30
0.0
  0
ENDBLK
  5
EA
330
DF
100
AcDbEntity
  8
0
 62
     7
100
AcDbBlockEnd
  0
BLOCK
  5
ED
330
EC
100
AcDbEntity
  8
0
 62
     7
100
AcDbBlockBegin
  2
*D3
 70
     1
 10
0.0
 20
0.0
 30
0.0
  3
*D3
  1

  0
MTEXT
  5
EE
330
EC
100
AcDbEntity
  8
0
 62
     7
100
AcDbMText
 10
49.47745771859999
 20
23.32354355739998
 30
0.0
 40
0.4
 41
0.0
 71
     7
 72
     1
  1
1 1/8"
  7
SLDTEXTSTYLE0
 73
     1
 44
1.0
  0
LINE
  5
EF
330
EC
100
AcDbEntity
  8
0
 62
     7
100
AcDbLine
 10
46.7229048068
 20
27.1660926004
 30
0.0
 11
49.2074577186
 21
27.1660926004
 31
0.0
  0
LINE
  5
F0
330
EC
100
AcDbEntity
  8
0
 62
     7
100
AcDbLine
 10
46.7229048068
 20
26.0525655398
 30
0.0
 11
49.2074577186
 21
26.0525655398
 31
0.0
  0
LINE
  5
F1
330
EC
100
AcDbEntity
  8
0
 62
     7
100
AcDbLine
 10
49.22745771859999
 20
23.5033877083
 30
0.0
 11
48.7274577186
 21
23.5033877083
 31
0.0
  0
LINE
  5
F2
330
EC
100
AcDbEntity
  8
0
 62
     7
100
AcDbLine
 10
48.7274577186
 20
23.5033877083
 30
0.0
 11
48.7274577186
 21
26.0525655398
 31
0.0
  0
LINE
  5
F3
330
EC
100
AcDbEntity
  8
0
 62
     7
100
AcDbLine
 10
48.7274577186
 20
27.1660926004
 30
0.0
 11
48.7274577186
 21
29.16609260039999
 31
0.0
  0
SOLID
  5
F4
330
EC
100
AcDbEntity
  8
0
 62
     7
100
AcDbTrace
 10
48.7274577186
 20
27.1660926004
 30
0.0
 11
48.85245771859999
 21
27.91609260039999
 31
0.0
 12
48.60245771859999
 22
27.91609260039999
 32
0.0
 13
48.60245771859999
 23
27.91609260039999
 33
0.0
  0
SOLID
  5
F5
330
EC
100
AcDbEntity
  8
0
 62
     7
100
AcDbTrace
 10
48.7274577186
 20
26.0525655398
 30
0.0
 11
48.60245771859999
 21
25.3025655398
 31
0.0
 12
48.85245771859999
 22
25.3025655398
 32
0.0
 13
48.85245771859999
 23
25.3025655398
 33
0.0
  0
POINT
  5
F6
330
EC
100
AcDbEntity
  8
0
 62
     7
100
AcDbPoint
 10
46.5629048068
 20
27.1660926004
 30
0.0
  0
POINT
  5
F7
330
EC
100
AcDbEntity
  8
0
 62
     7
100
AcDbPoint
 10
46.5629048068
 20
26.0525655398
 30
0.0
  0
ENDBLK
  5
F8
330
EC
100
AcDbEntity
  8
0
 62
     7
100
AcDbBlockEnd
  0
BLOCK
  5
FB
330
FA
100
AcDbEntity
  8
0
 62
     7
100
AcDbBlockBegin
  2
*D4
 70
     1
 10
0.0
 20
0.0
 30
0.0
  3
*D4
  1

  0
MTEXT
  5
FC
330
FA
100
AcDbEntity
  8
0
 62
     7
100
AcDbMText
 10
53.40437877319999
 20
27.62272138889999
 30
0.0
 40
0.4
 41
0.0
 71
     7
 72
     1
  1
3 1/2"
  7
SLDTEXTSTYLE0
 73
     1
 44
1.0
  0
LINE
  5
FD
330
FA
100
AcDbEntity
  8
0
 62
     7
100
AcDbLine
 10
46.0669048068
 20
29.55256553979999
 30
0.0
 11
54.6447214147
 21
29.55256553979999
 31
0.0
  0
LINE
  5
FE
330
FA
100
AcDbEntity
  8
0
 62
     7
100
AcDbLine
 10
46.7229048068
 20
26.0525655398
 30
0.0
 11
54.6447214147
 21
26.0525655398
 31
0.0
  0
LINE
  5
FF
330
FA
100
AcDbEntity
  8
0
 62
     7
100
AcDbLine
 10
54.1647214147
 20
29.55256553979999
 30
0.0
 11
54.1647214147
 21
28.1824096908
 31
0.0
  0
LINE
  5
100
330
FA
100
AcDbEntity
  8
0
 62
     7
100
AcDbLine
 10
54.1647214147
 20
26.0525655398
 30
0.0
 11
54.1647214147
 21
27.42272138889999
 31
0.0
  0
SOLID
  5
101
330
FA
100
AcDbEntity
  8
0
 62
     7
100
AcDbTrace
 10
54.1647214147
 20
29.55256553979999
 30
0.0
 11
54.0397214147
 21
28.8025655398
 31
0.0
 12
54.2897214147
 22
28.8025655398
 32
0.0
 13
54.2897214147
 23
28.8025655398
 33
0.0
  0
SOLID
  5
102
330
FA
100
AcDbEntity
  8
0
 62
     7
100
AcDbTrace
 10
54.1647214147
 20
26.0525655398
 30
0.0
 11
54.2897214147
 21
26.8025655398
 31
0.0
 12
54.0397214147
 22
26.8025655398
 32
0.0
 13
54.0397214147
 23
26.8025655398
 33
0.0
  0
POINT
  5
103
330
FA
100
AcDbEntity
  8
0
 62
     7
100
AcDbPoint
 10
45.9069048068
 20
29.55256553979999
 30
0.0
  0
POINT
  5
104
330
FA
100
AcDbEntity
  8
0
 62
     7
100
AcDbPoint
 10
46.5629048068
 20
26.0525655398
 30
0.0
  0
ENDBLK
  5
105
330
FA
100
AcDbEntity
  8
0
 62
     7
100
AcDbBlockEnd
  0
BLOCK
  5
108
330
107
100
AcDbEntity
  8
0
 62
     7
100
AcDbBlockBegin
  2
*D5
 70
     1
 10
0.0
 20
0.0
 30
0.0
  3
*D5
  1

  0
MTEXT
  5
109
330
107
100
AcDbEntity
  8
0
 62
     7
100
AcDbMText
 10
29.55280480679999
 20
35.780289806
 30
0.0
 40
0.4
 41
0.0
 71
     7
 72
     1
  1
8"
  7
SLDTEXTSTYLE0
 73
     1
 44
1.0
  0
LINE
  5
10A
330
107
100
AcDbEntity
  8
0
 62
     7
100
AcDbLine
 10
33.8129048068
 20
33.2125655398
 30
0.0
 11
33.8129048068
 21
36.440133957
 31
0.0
  0
LINE
  5
10B
330
107
100
AcDbEntity
  8
0
 62
     7
100
AcDbLine
 10
25.81290480679998
 20
33.2125655398
 30
0.0
 11
25.81290480679998
 21
36.440133957
 31
0.0
  0
LINE
  5
10C
330
107
100
AcDbEntity
  8
0
 62
     7
100
AcDbLine
 10
33.8129048068
 20
35.960133957
 30
0.0
 11
30.3230048068
 21
35.960133957
 31
0.0
  0
LINE
  5
10D
330
107
100
AcDbEntity
  8
0
 62
     7
100
AcDbLine
 10
25.81290480679998
 20
35.960133957
 30
0.0
 11
29.3028048068
 21
35.960133957
 31
0.0
  0
SOLID
  5
10E
330
107
100
AcDbEntity
  8
0
 62
     7
100
AcDbTrace
 10
33.8129048068
 20
35.960133957
 30
0.0
 11
33.06290480679999
 21
36.08513395699999
 31
0.0
 12
33.06290480679999
 22
35.83513395699999
 32
0.0
 13
33.06290480679999
 23
35.83513395699999
 33
0.0
  0
SOLID
  5
10F
330
107
100
AcDbEntity
  8
0
 62
     7
100
AcDbTrace
 10
25.81290480679998
 20
35.960133957
 30
0.0
 11
26.5629048068
 21
35.83513395699999
 31
0.0
 12
26.5629048068
 22
36.08513395699999
 32
0.0
 13
26.5629048068
 23
36.08513395699999
 33
0.0
  0
POINT
  5
110
330
107
100
AcDbEntity
  8
0
 62
     7
100
AcDbPoint
 10
33.8129048068
 20
33.0525655398
 30
0.0
  0
POINT
  5
111
330
107
100
AcDbEntity
  8
0
 62
     7
100
AcDbPoint
 10
25.81290480679998
 20
33.0525655398
 30
0.0
  0
ENDBLK
  5
112
330
107
100
AcDbEntity
  8
0
 62
     7
100
AcDbBlockEnd
  0
BLOCK
  5
115
330
114
100
AcDbEntity
  8
0
 62
     7
100
AcDbBlockBegin
  2
*D6
 70
     1
 10
0.0
 20
0.0
 30
0.0
  3
*D6
  1

  0
MTEXT
  5
116
330
114
100
AcDbEntity
  8
0
 62
     7
100
AcDbMText
 10
10.1773331961
 20
28.3727213889
 30
0.0
 40
0.4
 41
0.0
 71
     7
 72
     1
  1
5"
  7
SLDTEXTSTYLE0
 73
     1
 44
1.0
  0
LINE
  5
117
330
114
100
AcDbEntity
  8
0
 62
     7
100
AcDbLine
 10
29.6529048068
 20
31.0525655398
 30
0.0
 11
9.9574331961
 21
31.0525655398
 31
0.0
  0
LINE
  5
118
330
114
100
AcDbEntity
  8
0
 62
     7
100
AcDbLine
 10
12.9029048068
 20
26.0525655398
 30
0.0
 11
9.9574331961
 21
26.0525655398
 31
0.0
  0
LINE
  5
119
330
114
100
AcDbEntity
  8
0
 62
     7
100
AcDbLine
 10
10.4374331961
 20
31.0525655398
 30
0.0
 11
10.4374331961
 21
28.9324096908
 31
0.0
  0
LINE
  5
11A
330
114
100
AcDbEntity
  8
0
 62
     7
100
AcDbLine
 10
10.4374331961
 20
26.0525655398
 30
0.0
 11
10.4374331961
 21
28.17272138889999
 31
0.0
  0
SOLID
  5
11B
330
114
100
AcDbEntity
  8
0
 62
     7
100
AcDbTrace
 10
10.4374331961
 20
31.0525655398
 30
0.0
 11
10.3124331961
 21
30.3025655398
 31
0.0
 12
10.5624331961
 22
30.3025655398
 32
0.0
 13
10.5624331961
 23
30.3025655398
 33
0.0
  0
SOLID
  5
11C
330
114
100
AcDbEntity
  8
0
 62
     7
100
AcDbTrace
 10
10.4374331961
 20
26.0525655398
 30
0.0
 11
10.5624331961
 21
26.8025655398
 31
0.0
 12
10.3124331961
 22
26.8025655398
 32
0.0
 13
10.3124331961
 23
26.8025655398
 33
0.0
  0
POINT
  5
11D
330
114
100
AcDbEntity
  8
0
 62
     7
100
AcDbPoint
 10
29.8129048068
 20
31.0525655398
 30
0.0
  0
POINT
  5
11E
330
114
100
AcDbEntity
  8
0
 62
     7
100
AcDbPoint
 10
13.0629048068
 20
26.0525655398
 30
0.0
  0
ENDBLK
  5
11F
330
114
100
AcDbEntity
  8
0
 62
     7
100
AcDbBlockEnd
  0
BLOCK
  5
122
330
121
100
AcDbEntity
  8
0
 62
     7
100
AcDbBlockBegin
  2
*D7
 70
     1
 10
0.0
 20
0.0
 30
0.0
  3
*D7
  1

  0
MTEXT
  5
123
330
121
100
AcDbEntity
  8
0
 62
     7
100
AcDbMText
 10
32.8452095875
 20
30.24284723
 30
0.0
 40
0.4
 41
0.0
 71
     7
 72
     1
  1
%%c
  7
SLDTEXTSTYLE0
 73
     1
 44
1.0
  0
MTEXT
  5
124
330
121
100
AcDbEntity
  8
0
 62
     7
100
AcDbMText
 10
33.5283401535
 20
30.24284723
 30
0.0
 40
0.4
 41
0.0
 71
     7
 72
     1
  1
1 1/2"
  7
SLDTEXTSTYLE0
 73
     1
 44
1.0
  0
MTEXT
  5
125
330
121
100
AcDbEntity
  8
0
 62
     7
100
AcDbMText
 10
34.9691960025
 20
30.24284723
 30
0.0
 40
0.4
 41
0.0
 71
     7
 72
     1
  1
 DRILL THRU
  7
SLDTEXTSTYLE0
 73
     1
 44
1.0
  0
LINE
  5
126
330
121
100
AcDbEntity
  8
0
 62
     7
100
AcDbLine
 10
30.5200447164
 20
30.8026592608
 30
0.0
 11
31.5952095875
 21
30.4226913809
 31
0.0
  0
LINE
  5
127
330
121
100
AcDbEntity
  8
0
 62
     7
100
AcDbLine
 10
31.5952095875
 20
30.4226913809
 30
0.0
 11
32.5952095875
 21
30.4226913809
 31
0.0
  0
SOLID
  5
128
330
121
100
AcDbEntity
  8
0
 62
     7
100
AcDbTrace
 10
30.5200447164
 20
30.8026592608
 30
0.0
 11
31.1855335795
 21
30.4348963303
 31
0.0
 12
31.2688356725
 22
30.6706096334
 32
0.0
 13
31.2688356725
 23
30.6706096334
 33
0.0
  0
POINT
  5
12A
330
121
100
AcDbEntity
  8
0
 62
     7
100
AcDbPoint
 10
30.5200447164
 20
30.8026592608
 30
0.0
  0
POINT
  5
12B
330
121
100
AcDbEntity
  8
0
 62
     7
100
AcDbPoint
 10
29.1057648972
 20
31.3024718188
 30
0.0
  0
ENDBLK
  5
12C
330
121
100
AcDbEntity
  8
0
100
AcDbBlockEnd
  0
BLOCK
  5
12F
330
12E
100
AcDbEntity
  8
0
 62
     7
100
AcDbBlockBegin
  2
*D8
 70
     1
 10
0.0
 20
0.0
 30
0.0
  3
*D8
  1

  0
MTEXT
  5
130
330
12E
100
AcDbEntity
  8
0
 62
     7
100
AcDbMText
 10
26.8235165235
 20
23.44786138789999
 30
0.0
 40
0.4
 41
0.0
 71
     7
 72
     1
  1
2 3/4"
  7
SLDTEXTSTYLE0
 73
     1
 44
1.0
  0
LINE
  5
131
330
12E
100
AcDbEntity
  8
0
 62
     7
100
AcDbLine
 10
32.5629048068
 20
27.8925655398
 30
0.0
 11
32.5629048068
 21
23.14770553889998
 31
0.0
  0
LINE
  5
132
330
12E
100
AcDbEntity
  8
0
 62
     7
100
AcDbLine
 10
32.5629048068
 20
23.62770553889999
 30
0.0
 11
29.8129048068
 21
23.62770553889999
 31
0.0
  0
LINE
  5
133
330
12E
100
AcDbEntity
  8
0
 62
     7
100
AcDbLine
 10
29.8129048068
 20
23.62770553889999
 30
0.0
 11
28.7139459575
 21
23.62770553889999
 31
0.0
  0
SOLID
  5
134
330
12E
100
AcDbEntity
  8
0
 62
     7
100
AcDbTrace
 10
32.5629048068
 20
23.62770553889999
 30
0.0
 11
31.81290480679999
 21
23.7527055389
 31
0.0
 12
31.81290480679999
 22
23.5027055389
 32
0.0
 13
31.81290480679999
 23
23.5027055389
 33
0.0
  0
SOLID
  5
135
330
12E
100
AcDbEntity
  8
0
 62
     7
100
AcDbTrace
 10
29.8129048068
 20
23.62770553889999
 30
0.0
 11
30.56290480679999
 21
23.5027055389
 31
0.0
 12
30.56290480679999
 22
23.7527055389
 32
0.0
 13
30.56290480679999
 23
23.7527055389
 33
0.0
  0
POINT
  5
136
330
12E
100
AcDbEntity
  8
0
 62
     7
100
AcDbPoint
 10
32.5629048068
 20
28.05256553979999
 30
0.0
  0
POINT
  5
137
330
12E
100
AcDbEntity
  8
0
 62
     7
100
AcDbPoint
 10
29.8129048068
 20
25.4812718665
 30
0.0
  0
ENDBLK
  5
138
330
12E
100
AcDbEntity
  8
0
 62
     7
100
AcDbBlockEnd
  0
BLOCK
  5
13B
330
13A
100
AcDbEntity
  8
0
 62
     7
100
AcDbBlockBegin
  2
*D9
 70
     1
 10
0.0
 20
0.0
 30
0.0
  3
*D9
  1

  0
MTEXT
  5
13C
330
13A
100
AcDbEntity
  8
0
 62
     7
100
AcDbMText
 10
34.5525621653
 20
23.4182308228
 30
0.0
 40
0.4
 41
0.0
 71
     7
 72
     1
  1
5 1/2"
  7
SLDTEXTSTYLE0
 73
     1
 44
1.0
  0
LINE
  5
13D
330
13A
100
AcDbEntity
  8
0
 62
     7
100
AcDbLine
 10
32.5629048068
 20
27.8925655398
 30
0.0
 11
32.5629048068
 21
23.1180749738
 31
0.0
  0
LINE
  5
13E
330
13A
100
AcDbEntity
  8
0
 62
     7
100
AcDbLine
 10
38.06290480679999
 20
27.8925655398
 30
0.0
 11
38.06290480679999
 21
23.1180749738
 31
0.0
  0
LINE
  5
13F
330
13A
100
AcDbEntity
  8
0
 62
     7
100
AcDbLine
 10
32.5629048068
 20
23.5980749738
 30
0.0
 11
34.3025621653
 21
23.5980749738
 31
0.0
  0
LINE
  5
140
330
13A
100
AcDbEntity
  8
0
 62
     7
100
AcDbLine
 10
38.06290480679999
 20
23.5980749738
 30
0.0
 11
36.3232474483
 21
23.5980749738
 31
0.0
  0
SOLID
  5
141
330
13A
100
AcDbEntity
  8
0
 62
     7
100
AcDbTrace
 10
32.5629048068
 20
23.5980749738
 30
0.0
 11
33.31290480679999
 21
23.4730749738
 31
0.0
 12
33.31290480679999
 22
23.7230749738
 32
0.0
 13
33.31290480679999
 23
23.7230749738
 33
0.0
  0
SOLID
  5
142
330
13A
100
AcDbEntity
  8
0
 62
     7
100
AcDbTrace
 10
38.06290480679999
 20
23.5980749738
 30
0.0
 11
37.3129048068
 21
23.7230749738
 31
0.0
 12
37.3129048068
 22
23.4730749738
 32
0.0
 13
37.3129048068
 23
23.4730749738
 33
0.0
  0
POINT
  5
143
330
13A
100
AcDbEntity
  8
0
 62
     7
100
AcDbPoint
 10
32.5629048068
 20
28.05256553979999
 30
0.0
  0
POINT
  5
144
330
13A
100
AcDbEntity
  8
0
 62
     7
100
AcDbPoint
 10
38.06290480679999
 20
28.05256553979999
 30
0.0
  0
ENDBLK
  5
145
330
13A
100
AcDbEntity
  8
0
 62
     7
100
AcDbBlockEnd
  0
BLOCK
  5
148
330
147
100
AcDbEntity
  8
0
 62
     7
100
AcDbBlockBegin
  2
*D10
 70
     1
 10
0.0
 20
0.0
 30
0.0
  3
*D10
  1

  0
MTEXT
  5
149
330
147
100
AcDbEntity
  8
0
 62
     7
100
AcDbMText
 10
40.0525621653
 20
23.4182308228
 30
0.0
 40
0.4
 41
0.0
 71
     7
 72
     1
  1
5 1/2"
  7
SLDTEXTSTYLE0
 73
     1
 44
1.0
  0
LINE
  5
14A
330
147
100
AcDbEntity
  8
0
 62
     7
100
AcDbLine
 10
38.06290480679999
 20
27.8925655398
 30
0.0
 11
38.06290480679999
 21
23.1180749738
 31
0.0
  0
LINE
  5
14B
330
147
100
AcDbEntity
  8
0
 62
     7
100
AcDbLine
 10
43.56290480680001
 20
27.8925655398
 30
0.0
 11
43.56290480680001
 21
23.1180749738
 31
0.0
  0
LINE
  5
14C
330
147
100
AcDbEntity
  8
0
 62
     7
100
AcDbLine
 10
38.06290480679999
 20
23.5980749738
 30
0.0
 11
39.8025621653
 21
23.5980749738
 31
0.0
  0
LINE
  5
14D
330
147
100
AcDbEntity
  8
0
 62
     7
100
AcDbLine
 10
43.56290480680001
 20
23.5980749738
 30
0.0
 11
41.8232474483
 21
23.5980749738
 31
0.0
  0
SOLID
  5
14E
330
147
100
AcDbEntity
  8
0
 62
     7
100
AcDbTrace
 10
38.06290480679999
 20
23.5980749738
 30
0.0
 11
38.8129048068
 21
23.4730749738
 31
0.0
 12
38.8129048068
 22
23.7230749738
 32
0.0
 13
38.8129048068
 23
23.7230749738
 33
0.0
  0
SOLID
  5
14F
330
147
100
AcDbEntity
  8
0
 62
     7
100
AcDbTrace
 10
43.56290480680001
 20
23.5980749738
 30
0.0
 11
42.8129048068
 21
23.7230749738
 31
0.0
 12
42.8129048068
 22
23.4730749738
 32
0.0
 13
42.8129048068
 23
23.4730749738
 33
0.0
  0
POINT
  5
150
330
147
100
AcDbEntity
  8
0
 62
     7
100
AcDbPoint
 10
38.06290480679999
 20
28.05256553979999
 30
0.0
  0
POINT
  5
151
330
147
100
AcDbEntity
  8
0
 62
     7
100
AcDbPoint
 10
43.56290480680001
 20
28.05256553979999
 30
0.0
  0
ENDBLK
  5
152
330
147
100
AcDbEntity
  8
0
 62
     7
100
AcDbBlockEnd
  0
BLOCK
  5
155
330
154
100
AcDbEntity
  8
0
 62
     7
100
AcDbBlockBegin
  2
*D11
 70
     1
 10
0.0
 20
0.0
 30
0.0
  3
*D11
  1

  0
MTEXT
  5
156
330
154
100
AcDbEntity
  8
0
 62
     7
100
AcDbMText
 10
52.09223568329999
 20
25.025945444
 30
0.0
 40
0.4
 41
0.0
 71
     7
 72
     1
  1
2"
  7
SLDTEXTSTYLE0
 73
     1
 44
1.0
  0
LINE
  5
157
330
154
100
AcDbEntity
  8
0
 62
     7
100
AcDbLine
 10
43.7229048068
 20
28.05256553979999
 30
0.0
 11
51.8222356833
 21
28.05256553979999
 31
0.0
  0
LINE
  5
158
330
154
100
AcDbEntity
  8
0
 62
     7
100
AcDbLine
 10
46.7229048068
 20
26.0525655398
 30
0.0
 11
51.8222356833
 21
26.0525655398
 31
0.0
  0
LINE
  5
159
330
154
100
AcDbEntity
  8
0
 62
     7
100
AcDbLine
 10
51.8422356833
 20
25.20578959499999
 30
0.0
 11
51.3422356833
 21
25.20578959499999
 31
0.0
  0
LINE
  5
15A
330
154
100
AcDbEntity
  8
0
 62
     7
100
AcDbLine
 10
51.3422356833
 20
25.20578959499999
 30
0.0
 11
51.3422356833
 21
26.0525655398
 31
0.0
  0
LINE
  5
15B
330
154
100
AcDbEntity
  8
0
 62
     7
100
AcDbLine
 10
51.3422356833
 20
28.05256553979999
 30
0.0
 11
51.3422356833
 21
26.0525655398
 31
0.0
  0
SOLID
  5
15C
330
154
100
AcDbEntity
  8
0
 62
     7
100
AcDbTrace
 10
51.3422356833
 20
28.05256553979999
 30
0.0
 11
51.2172356833
 21
27.3025655398
 31
0.0
 12
51.46723568329999
 22
27.3025655398
 32
0.0
 13
51.46723568329999
 23
27.3025655398
 33
0.0
  0
SOLID
  5
15D
330
154
100
AcDbEntity
  8
0
 62
     7
100
AcDbTrace
 10
51.3422356833
 20
26.0525655398
 30
0.0
 11
51.46723568329999
 21
26.8025655398
 31
0.0
 12
51.2172356833
 22
26.8025655398
 32
0.0
 13
51.2172356833
 23
26.8025655398
 33
0.0
  0
POINT
  5
15E
330
154
100
AcDbEntity
  8
0
 62
     7
100
AcDbPoint
 10
43.56290480680001
 20
28.05256553979999
 30
0.0
  0
POINT
  5
15F
330
154
100
AcDbEntity
  8
0
 62
     7
100
AcDbPoint
 10
46.5629048068
 20
26.0525655398
 30
0.0
  0
ENDBLK
  5
160
330
154
100
AcDbEntity
  8
0
 62
     7
100
AcDbBlockEnd
  0
BLOCK
  5
163
330
162
100
AcDbEntity
  8
0
 62
     7
100
AcDbBlockBegin
  2
*D12
 70
     1
 10
0.0
 20
0.0
 30
0.0
  3
*D12
  1

  0
MTEXT
  5
164
330
162
100
AcDbEntity
  8
0
 62
     7
100
AcDbMText
 10
28.77250480679999
 20
38.6396538948
 30
0.0
 40
0.4
 41
0.0
 71
     7
 72
     1
  1
32 3/16"
  7
SLDTEXTSTYLE0
 73
     1
 44
1.0
  0
LINE
  5
165
330
162
100
AcDbEntity
  8
0
 62
     7
100
AcDbLine
 10
45.9069048068
 20
29.71256553979999
 30
0.0
 11
45.9069048068
 21
39.2994980458
 31
0.0
  0
LINE
  5
166
330
162
100
AcDbEntity
  8
0
 62
     7
100
AcDbLine
 10
13.7189048068
 20
29.71256553979999
 30
0.0
 11
13.7189048068
 21
39.2994980458
 31
0.0
  0
LINE
  5
167
330
162
100
AcDbEntity
  8
0
 62
     7
100
AcDbLine
 10
45.9069048068
 20
38.81949804579999
 30
0.0
 11
31.1033048068
 21
38.81949804579999
 31
0.0
  0
LINE
  5
168
330
162
100
AcDbEntity
  8
0
 62
     7
100
AcDbLine
 10
13.7189048068
 20
38.81949804579999
 30
0.0
 11
28.5225048068
 21
38.81949804579999
 31
0.0
  0
SOLID
  5
169
330
162
100
AcDbEntity
  8
0
 62
     7
100
AcDbTrace
 10
45.9069048068
 20
38.81949804579999
 30
0.0
 11
45.1569048068
 21
38.94449804579999
 31
0.0
 12
45.1569048068
 22
38.69449804579999
 32
0.0
 13
45.1569048068
 23
38.69449804579999
 33
0.0
  0
SOLID
  5
16A
330
162
100
AcDbEntity
  8
0
 62
     7
100
AcDbTrace
 10
13.7189048068
 20
38.81949804579999
 30
0.0
 11
14.4689048068
 21
38.69449804579999
 31
0.0
 12
14.4689048068
 22
38.94449804579999
 32
0.0
 13
14.4689048068
 23
38.94449804579999
 33
0.0
  0
POINT
  5
16B
330
162
100
AcDbEntity
  8
0
 62
     7
100
AcDbPoint
 10
45.9069048068
 20
29.55256553979999
 30
0.0
  0
POINT
  5
16C
330
162
100
AcDbEntity
  8
0
 62
     7
100
AcDbPoint
 10
13.7189048068
 20
29.55256553979999
 30
0.0
  0
ENDBLK
  5
16D
330
162
100
AcDbEntity
  8
0
 62
     7
100
AcDbBlockEnd
  0
BLOCK
  5
170
330
16F
100
AcDbEntity
  8
0
 62
     1
100
AcDbBlockBegin
  2
*D13
 70
     1
 10
0.0
 20
0.0
 30
0.0
  3
*D13
  1

  0
MTEXT
  5
171
330
16F
100
AcDbEntity
  8
0
 62
     7
100
AcDbMText
 10
18.418804634
 20
22.00900431969999
 30
0.0
 40
0.4
 41
0.0
 71
     7
 72
     1
  1
%%c
  7
SLDTEXTSTYLE0
 73
     1
 44
1.0
  0
MTEXT
  5
172
330
16F
100
AcDbEntity
  8
0
 62
     7
100
AcDbMText
 10
19.1019352001
 20
22.00900431969999
 30
0.0
 40
0.4
 41
0.0
 71
     7
 72
     1
  1
17/32"
  7
SLDTEXTSTYLE0
 73
     1
 44
1.0
  0
MTEXT
  5
173
330
16F
100
AcDbEntity
  8
0
 62
     7
100
AcDbMText
 10
20.6625352001
 20
22.00900431969999
 30
0.0
 40
0.4
 41
0.0
 71
     7
 72
     1
  1
 DRILL THRU
  7
SLDTEXTSTYLE0
 73
     1
 44
1.0
  0
MTEXT
  5
174
330
16F
100
AcDbEntity
  8
0
 62
     7
100
AcDbMText
 10
18.418804634
 20
21.24931601779998
 30
0.0
 40
0.4
 41
0.0
 71
     7
 72
     1
  1
%%c.656 X 45%%d COUNTERSINK, BOTH SIDES
  7
SLDTEXTSTYLE0
 73
     1
 44
1.0
  0
MTEXT
  5
175
330
16F
100
AcDbEntity
  8
0
 62
     7
100
AcDbMText
 10
18.418804634
 20
20.48962771589998
 30
0.0
 40
0.4
 41
0.0
 71
     7
 72
     1
  1
TAP 5/8-11 THRU, 6 PLACES
  7
SLDTEXTSTYLE0
 73
     1
 44
1.0
  0
LINE
  5
176
330
16F
100
AcDbEntity
  8
0
 62
     7
100
AcDbLine
 10
16.1066502194
 20
27.79056748729999
 30
0.0
 11
17.168804634
 21
21.4291601688
 31
0.0
  0
LINE
  5
177
330
16F
100
AcDbEntity
  8
0
 62
     7
100
AcDbLine
 10
17.168804634
 20
21.4291601688
 30
0.0
 11
18.168804634
 21
21.4291601688
 31
0.0
  0
SOLID
  5
178
330
16F
100
AcDbEntity
  8
0
 62
     7
100
AcDbTrace
 10
16.1066502194
 20
27.79056748729999
 30
0.0
 11
16.1068734774
 21
27.0302222038
 31
0.0
 12
16.3534598798
 22
27.0713943569
 32
0.0
 13
16.3534598798
 23
27.0713943569
 33
0.0
  0
POINT
  5
179
330
16F
100
AcDbEntity
  8
0
 62
     7
100
AcDbPoint
 10
16.1066502194
 20
27.79056748729999
 30
0.0
  0
POINT
  5
17A
330
16F
100
AcDbEntity
  8
0
 62
     7
100
AcDbPoint
 10
16.01915939419999
 20
28.3145635923
 30
0.0
  0
ENDBLK
  5
17B
330
16F
100
AcDbEntity
  8
0
100
AcDbBlockEnd
  0
BLOCK
  5
17E
330
17D
100
AcDbEntity
  8
0
 62
     1
100
AcDbBlockBegin
  2
*D14
 70
     1
 10
0.0
 20
0.0
 30
0.0
  3
*D14
  1

  0
MTEXT
  5
17F
330
17D
100
AcDbEntity
  8
0
 62
     7
100
AcDbMText
 10
10.5882182932
 20
32.447526834
 30
0.0
 40
0.4
 41
0.0
 71
     7
 72
     1
  1
15%%d
  7
SLDTEXTSTYLE0
 73
     1
 44
1.0
  0
LINE
  5
180
330
17D
100
AcDbEntity
  8
0
 62
     7
100
AcDbLine
 10
13.7613130119
 20
29.7068430305
 30
0.0
 11
14.74235617079999
 21
33.2757957001
 31
0.0
  0
LINE
  5
181
330
17D
100
AcDbEntity
  8
0
 62
     7
100
AcDbLine
 10
13.0629048068
 20
27.3260926004
 30
0.0
 11
13.0629048068
 21
33.5024187323
 31
0.0
  0
ARC
  5
182
330
17D
100
AcDbEntity
  8
0
 62
     7
100
AcDbCircle
 10
11.09790659509999
 20
32.62737098489999
 30
0.0
 40
0.8493573423999999
100
AcDbArc
 50
153.4349488229
 51
206.5650511771
  0
ARC
  5
183
330
17D
100
AcDbEntity
  8
0
 62
     7
100
AcDbCircle
 10
10.7989579158
 20
32.62737098489999
 30
0.0
 40
0.8493573423999999
100
AcDbArc
 50
333.4349488229
 51
26.5650511771
  0
ARC
  5
184
330
17D
100
AcDbEntity
  8
0
 62
     7
100
AcDbCircle
 10
13.0629048068
 20
27.1660926004
 30
0.0
 40
5.856326132
100
AcDbArc
 50
56.56555833229999
 51
74.63
  0
ARC
  5
185
330
17D
100
AcDbEntity
  8
0
 62
     7
100
AcDbCircle
 10
13.0629048068
 20
27.1660926004
 30
0.0
 40
5.856326132
100
AcDbArc
 50
90.0
 51
102.3669299562
  0
SOLID
  5
186
330
17D
100
AcDbEntity
  8
0
 62
     7
100
AcDbTrace
 10
14.6151315555
 20
32.8129632279
 30
0.0
 11
15.28345441529999
 21
32.4503759212
 31
0.0
 12
15.3649247386
 22
32.686728595
 32
0.0
 13
15.3649247386
 23
32.686728595
 33
0.0
  0
SOLID
  5
187
330
17D
100
AcDbEntity
  8
0
 62
     7
100
AcDbTrace
 10
13.0629048068
 20
33.02241873229998
 30
0.0
 11
12.3064698377
 21
33.0994326117
 31
0.0
 12
12.3223807401
 22
32.849939439
 32
0.0
 13
12.3223807401
 23
32.849939439
 33
0.0
  0
POINT
  5
189
330
17D
100
AcDbEntity
  8
0
 62
     7
100
AcDbPoint
 10
13.0629048068
 20
26.3025655398
 30
0.0
  0
POINT
  5
18A
330
17D
100
AcDbEntity
  8
0
 62
     7
100
AcDbPoint
 10
13.0629048068
 20
27.1660926004
 30
0.0
  0
POINT
  5
18B
330
17D
100
AcDbEntity
  8
0
 62
     7
100
AcDbPoint
 10
13.7189048068
 20
29.55256553979999
 30
0.0
  0
POINT
  5
18C
330
17D
100
AcDbEntity
  8
0
 62
     7
100
AcDbPoint
 10
13.0629048068
 20
27.1660926004
 30
0.0
  0
ENDBLK
  5
18D
330
17D
100
AcDbEntity
  8
0
100
AcDbBlockEnd
  0
BLOCK
  5
190
330
18F
100
AcDbEntity
  8
0
 62
     1
100
AcDbBlockBegin
  2
*D15
 70
     1
 10
0.0
 20
0.0
 30
0.0
  3
*D15
  1

  0
MTEXT
  5
191
330
18F
100
AcDbEntity
  8
0
 62
     7
100
AcDbMText
 10
18.093813447
 20
31.8293008831
 30
0.0
 40
0.4
 41
0.0
 71
     7
 72
     1
  1
16%%d
  7
SLDTEXTSTYLE0
 73
     1
 44
1.0
  0
LINE
  5
192
330
18F
100
AcDbEntity
  8
0
 62
     7
100
AcDbLine
 10
25.65290480679998
 20
33.0525655398
 30
0.0
 11
17.90042185
 21
33.0525655398
 31
0.0
  0
ARC
  5
193
330
18F
100
AcDbEntity
  8
0
 62
     7
100
AcDbCircle
 10
18.6035017489
 20
32.00914503399998
 30
0.0
 40
0.8493573423999999
100
AcDbArc
 50
153.4349488229
 51
206.5650511771
  0
ARC
  5
194
330
18F
100
AcDbEntity
  8
0
 62
     7
100
AcDbCircle
 10
18.3045530697
 20
32.00914503399998
 30
0.0
 40
0.8493573423999999
100
AcDbArc
 50
333.4349488229
 51
26.5650511771
  0
ARC
  5
195
330
18F
100
AcDbEntity
  8
0
 62
     7
100
AcDbCircle
 10
25.81290480679998
 20
33.0525655398
 30
0.0
 40
7.432482956799999
100
AcDbArc
 50
165.684340457
 51
180.0
  0
ARC
  5
196
330
18F
100
AcDbEntity
  8
0
 62
     7
100
AcDbCircle
 10
25.81290480679998
 20
33.0525655398
 30
0.0
 40
7.432482956799999
100
AcDbArc
 50
196.1404275857
 51
210.4560871286999
  0
SOLID
  5
197
330
18F
100
AcDbEntity
  8
0
 62
     7
100
AcDbTrace
 10
18.38042185
 20
33.0525655398
 30
0.0
 11
18.54296095589998
 21
33.7953347092
 31
0.0
 12
18.2932769493
 22
33.8079004101
 32
0.0
 13
18.2932769493
 23
33.8079004101
 33
0.0
  0
SOLID
  5
198
330
18F
100
AcDbEntity
  8
0
 62
     7
100
AcDbTrace
 10
18.6733862222
 20
30.9863909866
 30
0.0
 11
18.7996537233
 21
30.2366033379
 31
0.0
 12
19.0360028256
 22
30.31808402199999
 32
0.0
 13
19.0360028256
 23
30.31808402199999
 33
0.0
  0
POINT
  5
199
330
18F
100
AcDbEntity
  8
0
 62
     7
100
AcDbPoint
 10
33.8129048068
 20
33.0525655398
 30
0.0
  0
POINT
  5
19A
330
18F
100
AcDbEntity
  8
0
 62
     7
100
AcDbPoint
 10
25.81290480679998
 20
33.0525655398
 30
0.0
  0
POINT
  5
19B
330
18F
100
AcDbEntity
  8
0
 62
     7
100
AcDbPoint
 10
13.7189048068
 20
29.55256553979999
 30
0.0
  0
POINT
  5
19C
330
18F
100
AcDbEntity
  8
0
 62
     7
100
AcDbPoint
 10
25.81290480679998
 20
33.0525655398
 30
0.0
  0
ENDBLK
  5
19D
330
18F
100
AcDbEntity
  8
0
100
AcDbBlockEnd
  0
BLOCK
  5
1A0
330
19F
100
AcDbEntity
  8
0
 62
     1
100
AcDbBlockBegin
  2
*D16
 70
     1
 10
0.0
 20
0.0
 30
0.0
  3
*D16
  1

  0
MTEXT
  5
1A1
330
19F
100
AcDbEntity
  8
0
100
AcDbMText
 10
37.27732109019999
 20
19.6272586619
 30
0.0
 40
0.4
 41
0.0
 71
     7
 72
     1
  1
16 3/4"
  7
SLDTEXTSTYLE0
 73
     1
 44
1.0
  0
LINE
  5
1A2
330
19F
100
AcDbEntity
  8
0
100
AcDbLine
 10
29.8129048068
 20
23.52729652469998
 30
0.0
 11
29.8129048068
 21
19.32710281289998
 31
0.0
  0
LINE
  5
1A3
330
19F
100
AcDbEntity
  8
0
100
AcDbLine
 10
46.5629048068
 20
26.1425655398
 30
0.0
 11
46.5629048068
 21
19.32710281289998
 31
0.0
  0
LINE
  5
1A4
330
19F
100
AcDbEntity
  8
0
100
AcDbLine
 10
29.8129048068
 20
19.80710281289998
 30
0.0
 11
37.02732109019999
 21
19.80710281289998
 31
0.0
  0
LINE
  5
1A5
330
19F
100
AcDbEntity
  8
0
100
AcDbLine
 10
46.5629048068
 20
19.80710281289998
 30
0.0
 11
39.3679784487
 21
19.80710281289998
 31
0.0
  0
SOLID
  5
1A6
330
19F
100
AcDbEntity
  8
0
100
AcDbTrace
 10
29.8129048068
 20
19.80710281289998
 30
0.0
 11
30.56290480679999
 21
19.6821028129
 31
0.0
 12
30.56290480679999
 22
19.93210281289998
 32
0.0
 13
30.56290480679999
 23
19.93210281289998
 33
0.0
  0
SOLID
  5
1A7
330
19F
100
AcDbEntity
  8
0
100
AcDbTrace
 10
46.5629048068
 20
19.80710281289998
 30
0.0
 11
45.8129048068
 21
19.93210281289998
 31
0.0
 12
45.8129048068
 22
19.6821028129
 32
0.0
 13
45.8129048068
 23
19.6821028129
 33
0.0
  0
POINT
  5
1A8
330
19F
100
AcDbEntity
  8
0
100
AcDbPoint
 10
29.8129048068
 20
23.68729652469999
 30
0.0
  0
POINT
  5
1A9
330
19F
100
AcDbEntity
  8
0
100
AcDbPoint
 10
46.5629048068
 20
26.3025655398
 30
0.0
  0
ENDBLK
  5
1AA
330
19F
100
AcDbEntity
  8
0
 62
     1
100
AcDbBlockEnd
  0
BLOCK
  5
1AD
330
1AC
100
AcDbEntity
  8
0
 62
     0
100
AcDbBlockBegin
  2
NOTE67
 70
     0
 10
0.0
 20
0.0
 30
0.0
  3
NOTE67
  1

  0
MTEXT
  5
1AE
330
1AC
100
AcDbEntity
  8
0
 62
     1
100
AcDbMText
 10
0.0
 20
0.0
 30
0.0
 40
0.75
 41
0.0
 71
     1
 72
     1
  1
{\Fgdt;q}
  7
SLDTEXTSTYLE0
 73
     1
 44
1.0
  0
ENDBLK
  5
1AF
330
1AC
100
AcDbEntity
  8
0
100
AcDbBlockEnd
  0
BLOCK
  5
1B2
330
1B1
100
AcDbEntity
  8
0
 62
     0
100
AcDbBlockBegin
  2
NOTE68
 70
     0
 10
0.0
 20
0.0
 30
0.0
  3
NOTE68
  1

  0
MTEXT
  5
1B3
330
1B1
100
AcDbEntity
  8
0
 62
     1
100
AcDbMText
 10
0.0
 20
0.0
 30
0.0
 40
0.6666666667
 41
0.0
 71
     1
 72
     1
  1
ALL HOLES SYMETRICAL TO {\Fgdt;q}
  7
SLDTEXTSTYLE0
 73
     1
 44
1.0
  0
ENDBLK
  5
1B4
330
1B1
100
AcDbEntity
  8
0
100
AcDbBlockEnd
  0
BLOCK
  5
1C4
330
1C3
100
AcDbEntity
  8
0
 62
     1
100
AcDbBlockBegin
  2
*D19
 70
     1
 10
0.0
 20
0.0
 30
0.0
  3
*D19
  1

  0
MTEXT
  5
1C5
330
1C3
100
AcDbEntity
  8
0
100
AcDbMText
 10
58.6225685716
 20
34.6610927773
 30
0.0
 40
0.4
 41
0.0
 71
     7
 72
     1
  1
1"
  7
SLDTEXTSTYLE0
 73
     1
 44
1.0
  0
LINE
  5
1C6
330
1C3
100
AcDbEntity
  8
0
100
AcDbLine
 10
61.3613275421
 20
33.2125655398
 30
0.0
 11
61.3613275421
 21
35.3209369283
 31
0.0
  0
LINE
  5
1C7
330
1C3
100
AcDbEntity
  8
0
100
AcDbLine
 10
62.3613275421
 20
33.2125655398
 30
0.0
 11
62.3613275421
 21
35.3209369283
 31
0.0
  0
LINE
  5
1C8
330
1C3
100
AcDbEntity
  8
0
100
AcDbLine
 10
61.3613275421
 20
34.84093692829999
 30
0.0
 11
59.31293913760001
 21
34.84093692829999
 31
0.0
  0
LINE
  5
1C9
330
1C3
100
AcDbEntity
  8
0
100
AcDbLine
 10
62.3613275421
 20
34.84093692829999
 30
0.0
 11
64.36132754209999
 21
34.84093692829999
 31
0.0
  0
SOLID
  5
1CA
330
1C3
100
AcDbEntity
  8
0
100
AcDbTrace
 10
61.3613275421
 20
34.84093692829999
 30
0.0
 11
60.61132754209999
 21
34.96593692829998
 31
0.0
 12
60.61132754209999
 22
34.71593692829999
 32
0.0
 13
60.61132754209999
 23
34.71593692829999
 33
0.0
  0
SOLID
  5
1CB
330
1C3
100
AcDbEntity
  8
0
100
AcDbTrace
 10
62.3613275421
 20
34.84093692829999
 30
0.0
 11
63.11132754209999
 21
34.71593692829999
 31
0.0
 12
63.11132754209999
 22
34.96593692829998
 32
0.0
 13
63.11132754209999
 23
34.96593692829998
 33
0.0
  0
POINT
  5
1CC
330
1C3
100
AcDbEntity
  8
0
100
AcDbPoint
 10
61.3613275421
 20
33.0525655398
 30
0.0
  0
POINT
  5
1CD
330
1C3
100
AcDbEntity
  8
0
100
AcDbPoint
 10
62.3613275421
 20
33.0525655398
 30
0.0
  0
ENDBLK
  5
1CE
330
1C3
100
AcDbEntity
  8
0
 62
     1
100
AcDbBlockEnd
  0
BLOCK
  5
1D3
330
1D2
100
AcDbEntity
  8
0
 62
     0
100
AcDbBlockBegin
  2
NOTE69
 70
     0
 10
0.0
 20
0.0
 30
0.0
  3
NOTE69
  1

  0
MTEXT
  5
1D4
330
1D2
100
AcDbEntity
  8
0
 62
     1
100
AcDbMText
 10
-5.1273892618
 20
2.1002063223
 30
0.0
 40
0.4
 41
0.0
 71
     1
 72
     1
  1
1/4" X 45%%d BEVEL
  7
SLDTEXTSTYLE0
 73
     1
 44
1.0
  0
MTEXT
  5
1D5
330
1D2
100
AcDbEntity
  8
0
 62
     1
100
AcDbMText
 10
-5.1273892618
 20
1.500206322299999
 30
0.0
 40
0.4
 41
0.0
 71
     1
 72
     1
  1
BOTH SIDES
  7
SLDTEXTSTYLE0
 73
     1
 44
1.0
  0
MTEXT
  5
1D6
330
1D2
100
AcDbEntity
  8
0
 62
     1
100
AcDbMText
 10
-5.1273892618
 20
0.9002063223
 30
0.0
 40
0.4
 41
0.0
 71
     1
 72
     1
  1
ONE FOR WELDPREP
  7
SLDTEXTSTYLE0
 73
     1
 44
1.0
  0
MTEXT
  5
1D7
330
1D2
100
AcDbEntity
  8
0
 62
     1
100
AcDbMText
 10
-5.1273892618
 20
0.3002063223
 30
0.0
 40
0.4
 41
0.0
 71
     1
 72
     1
  1
ONE FOR CLEARANCE
  7
SLDTEXTSTYLE0
 73
     1
 44
1.0
  0
ENDBLK
  5
1D8
330
1D2
100
AcDbEntity
  8
0
100
AcDbBlockEnd
  0
ENDSEC
  0
SECTION
  2
ENTITIES
  0
LINE
  5
2A
330
A
100
AcDbEntity
  8
0
  6
Continuous
 62
     7
370
     0
100
AcDbLine
 10
13.5
 20
42.5
 30
0.0
 11
6.0
 21
42.5
 31
0.0
  0
LINE
  5
2B
330
A
100
AcDbEntity
  8
0
  6
Continuous
 62
     7
370
     0
100
AcDbLine
 10
21.0
 20
42.5
 30
0.0
 11
13.5
 21
42.5
 31
0.0
  0
LINE
  5
2C
330
A
100
AcDbEntity
  8
0
  6
Continuous
 62
     7
370
     0
100
AcDbLine
 10
66.0
 20
1.5
 30
0.0
 11
58.5
 21
1.5
 31
0.0
  0
LINE
  5
2D
330
A
100
AcDbEntity
  8
0
  6
Continuous
 62
     7
370
     0
100
AcDbLine
 10
66.0
 20
1.5
 30
0.0
 11
66.0
 21
11.75
 31
0.0
  0
LINE
  5
2E
330
A
100
AcDbEntity
  8
0
  6
Continuous
 62
     7
370
     0
100
AcDbLine
 10
66.0
 20
32.25
 30
0.0
 11
66.5
 21
32.25
 31
0.0
  0
LINE
  5
2F
330
A
100
AcDbEntity
  8
0
  6
Continuous
 62
     7
370
     0
100
AcDbLine
 10
66.0
 20
22.0
 30
0.0
 11
66.5
 21
22.0
 31
0.0
  0
LINE
  5
30
330
A
100
AcDbEntity
  8
0
  6
Continuous
 62
     7
370
     0
100
AcDbLine
 10
28.5
 20
42.5
 30
0.0
 11
21.0
 21
42.5
 31
0.0
  0
LINE
  5
31
330
A
100
AcDbEntity
  8
0
  6
Continuous
 62
     7
370
     0
100
AcDbLine
 10
36.0
 20
42.5
 30
0.0
 11
28.5
 21
42.5
 31
0.0
  0
LINE
  5
32
330
A
100
AcDbEntity
  8
0
  6
Continuous
 62
     7
370
     0
100
AcDbLine
 10
43.5
 20
42.5
 30
0.0
 11
36.0
 21
42.5
 31
0.0
  0
LINE
  5
33
330
A
100
AcDbEntity
  8
0
  6
Continuous
 62
     7
370
     0
100
AcDbLine
 10
51.0
 20
42.5
 30
0.0
 11
43.5
 21
42.5
 31
0.0
  0
LINE
  5
34
330
A
100
AcDbEntity
  8
0
  6
Continuous
 62
     7
370
     0
100
AcDbLine
 10
58.5
 20
42.5
 30
0.0
 11
51.0
 21
42.5
 31
0.0
  0
LINE
  5
35
330
A
100
AcDbEntity
  8
0
  6
Continuous
 62
     7
370
     0
100
AcDbLine
 10
66.0
 20
11.75
 30
0.0
 11
66.5
 21
11.75
 31
0.0
  0
LINE
  5
36
330
A
100
AcDbEntity
  8
0
  6
Continuous
 62
     7
370
     0
100
AcDbLine
 10
66.0
 20
42.5
 30
0.0
 11
58.5
 21
42.5
 31
0.0
  0
LINE
  5
37
330
A
100
AcDbEntity
  8
0
  6
Continuous
 62
     7
370
     0
100
AcDbLine
 10
58.5
 20
42.5
 30
0.0
 11
58.5
 21
43.0
 31
0.0
  0
LINE
  5
38
330
A
100
AcDbEntity
  8
0
  6
Continuous
 62
     7
370
     0
100
AcDbLine
 10
51.0
 20
42.5
 30
0.0
 11
51.0
 21
43.0
 31
0.0
  0
LINE
  5
39
330
A
100
AcDbEntity
  8
0
  6
Continuous
 62
     7
370
     0
100
AcDbLine
 10
43.5
 20
42.5
 30
0.0
 11
43.5
 21
43.0
 31
0.0
  0
LINE
  5
3A
330
A
100
AcDbEntity
  8
0
  6
Continuous
 62
     7
370
     0
100
AcDbLine
 10
36.0
 20
42.5
 30
0.0
 11
36.0
 21
43.0
 31
0.0
  0
LINE
  5
3B
330
A
100
AcDbEntity
  8
0
  6
Continuous
 62
     7
370
     0
100
AcDbLine
 10
28.5
 20
42.5
 30
0.0
 11
28.5
 21
43.0
 31
0.0
  0
LINE
  5
3C
330
A
100
AcDbEntity
  8
0
  6
Continuous
 62
     7
370
     0
100
AcDbLine
 10
21.0
 20
42.5
 30
0.0
 11
21.0
 21
43.0
 31
0.0
  0
LINE
  5
3D
330
A
100
AcDbEntity
  8
0
  6
Continuous
 62
     7
370
     0
100
AcDbLine
 10
13.5
 20
42.5
 30
0.0
 11
13.5
 21
43.0
 31
0.0
  0
LINE
  5
3E
330
A
100
AcDbEntity
  8
0
  6
Continuous
 62
     7
370
     0
100
AcDbLine
 10
35.0
 20
6.759999999999998
 30
0.0
 11
35.0
 21
1.504
 31
0.0
  0
LINE
  5
3F
330
A
100
AcDbEntity
  8
0
  6
Continuous
 62
     7
370
     0
100
AcDbLine
 10
44.0
 20
9.5
 30
0.0
 11
66.0
 21
9.5
 31
0.0
  0
LINE
  5
40
330
A
100
AcDbEntity
  8
0
  6
Continuous
 62
     7
370
     0
100
AcDbLine
 10
44.0
 20
9.5
 30
0.0
 11
44.0
 21
1.5
 31
0.0
  0
LINE
  5
41
330
A
100
AcDbEntity
  8
0
  6
Continuous
 62
     7
370
     0
100
AcDbLine
 10
54.0
 20
9.5
 30
0.0
 11
54.0
 21
1.5
 31
0.0
  0
LINE
  5
42
330
A
100
AcDbEntity
  8
0
  6
Continuous
 62
     7
370
     0
100
AcDbLine
 10
54.0
 20
2.251999999999998
 30
0.0
 11
66.0
 21
2.251999999999998
 31
0.0
  0
LINE
  5
43
330
A
100
AcDbEntity
  8
0
  6
Continuous
 62
     7
370
     0
100
AcDbLine
 10
54.0
 20
3.751999999999998
 30
0.0
 11
66.0
 21
3.751999999999998
 31
0.0
  0
LINE
  5
44
330
A
100
AcDbEntity
  8
0
  6
Continuous
 62
     7
370
     0
100
AcDbLine
 10
54.0
 20
6.752
 30
0.0
 11
66.0
 21
6.752
 31
0.0
  0
LINE
  5
45
330
A
100
AcDbEntity
  8
0
  6
Continuous
 62
     7
370
     0
100
AcDbLine
 10
55.5
 20
3.751999999999998
 30
0.0
 11
55.5
 21
1.5
 31
0.0
  0
LINE
  5
46
330
A
100
AcDbEntity
  8
0
  6
Continuous
 62
     7
370
     0
100
AcDbLine
 10
35.0
 20
3.003999999999998
 30
0.0
 11
54.0
 21
3.003999999999998
 31
0.0
  0
LINE
  5
47
330
A
100
AcDbEntity
  8
0
  6
Continuous
 62
     7
370
     0
100
AcDbLine
 10
64.5
 20
3.751999999999998
 30
0.0
 11
64.5
 21
1.5
 31
0.0
  0
LINE
  5
48
330
A
100
AcDbEntity
  8
0
  6
Continuous
 62
     7
370
     0
100
AcDbLine
 10
54.0
 20
8.0
 30
0.0
 11
44.0
 21
8.0
 31
0.0
  0
LINE
  5
49
330
A
100
AcDbEntity
  8
0
  6
Continuous
 62
     7
370
     0
100
AcDbLine
 10
44.0
 20
4.748
 30
0.0
 11
54.0
 21
4.748
 31
0.0
  0
LINE
  5
4A
330
A
100
AcDbEntity
  8
0
  6
Continuous
 62
     7
370
     0
100
AcDbLine
 10
44.0
 20
2.251999999999998
 30
0.0
 11
54.0
 21
2.251999999999998
 31
0.0
  0
LINE
  5
4B
330
A
100
AcDbEntity
  8
0
  6
Continuous
 62
     7
370
     0
100
AcDbLine
 10
35.0
 20
5.256
 30
0.0
 11
44.0
 21
5.256
 31
0.0
  0
LINE
  5
4C
330
A
100
AcDbEntity
  8
0
  6
Continuous
 62
     7
370
     0
100
AcDbLine
 10
66.0
 20
11.75
 30
0.0
 11
66.0
 21
22.0
 31
0.0
  0
LINE
  5
4D
330
A
100
AcDbEntity
  8
0
  6
Continuous
 62
     7
370
     0
100
AcDbLine
 10
66.0
 20
22.0
 30
0.0
 11
66.0
 21
32.25
 31
0.0
  0
LINE
  5
4E
330
A
100
AcDbEntity
  8
0
  6
Continuous
 62
     7
370
     0
100
AcDbLine
 10
66.0
 20
32.25
 30
0.0
 11
66.0
 21
42.5
 31
0.0
  0
LINE
  5
4F
330
A
100
AcDbEntity
  8
0
  6
Continuous
 62
     7
370
     0
100
AcDbLine
 10
58.5
 20
1.5
 30
0.0
 11
51.0
 21
1.5
 31
0.0
  0
LINE
  5
50
330
A
100
AcDbEntity
  8
0
  6
Continuous
 62
     7
370
     0
100
AcDbLine
 10
51.0
 20
1.5
 30
0.0
 11
43.5
 21
1.5
 31
0.0
  0
LINE
  5
51
330
A
100
AcDbEntity
  8
0
  6
Continuous
 62
     7
370
     0
100
AcDbLine
 10
35.0
 20
6.007999999999999
 30
0.0
 11
44.0
 21
6.007999999999999
 31
0.0
  0
LINE
  5
52
330
A
100
AcDbEntity
  8
0
  6
Continuous
 62
     7
370
     0
100
AcDbLine
 10
35.0
 20
3.75
 30
0.0
 11
20.0
 21
3.75
 31
0.0
  0
LINE
  5
53
330
A
100
AcDbEntity
  8
0
  6
Continuous
 62
     7
370
     0
100
AcDbLine
 10
44.0
 20
6.759999999999998
 30
0.0
 11
35.0
 21
6.759999999999998
 31
0.0
  0
LINE
  5
54
330
A
100
AcDbEntity
  8
0
  6
Continuous
 62
     7
370
     0
100
AcDbLine
 10
41.0
 20
6.759999999999998
 30
0.0
 11
41.0
 21
4.503999999999998
 31
0.0
  0
LINE
  5
55
330
A
100
AcDbEntity
  8
0
  6
Continuous
 62
     7
370
     0
100
AcDbLine
 10
44.0
 20
7.247999999999998
 30
0.0
 11
54.0
 21
7.247999999999998
 31
0.0
  0
LINE
  5
56
330
A
100
AcDbEntity
  8
0
  6
Continuous
 62
     7
370
     0
100
AcDbLine
 10
35.0
 20
4.503999999999998
 30
0.0
 11
44.0
 21
4.503999999999998
 31
0.0
  0
LINE
  5
57
330
A
100
AcDbEntity
  8
0
  6
Continuous
 62
     7
370
     0
100
AcDbLine
 10
49.0
 20
8.0
 30
0.0
 11
49.0
 21
4.748
 31
0.0
  0
LINE
  5
58
330
A
100
AcDbEntity
  8
0
  6
Continuous
 62
     7
370
     0
100
AcDbLine
 10
43.5
 20
1.5
 30
0.0
 11
36.0
 21
1.5
 31
0.0
  0
LINE
  5
59
330
A
100
AcDbEntity
  8
0
  6
Continuous
 62
     7
370
     0
100
AcDbLine
 10
36.0
 20
1.5
 30
0.0
 11
28.5
 21
1.5
 31
0.0
  0
LINE
  5
5A
330
A
100
AcDbEntity
  8
0
  6
Continuous
 62
     7
370
     0
100
AcDbLine
 10
28.5
 20
1.5
 30
0.0
 11
21.0
 21
1.5
 31
0.0
  0
LINE
  5
5B
330
A
100
AcDbEntity
  8
0
  6
Continuous
 62
     7
370
     0
100
AcDbLine
 10
21.0
 20
1.5
 30
0.0
 11
13.5
 21
1.5
 31
0.0
  0
LINE
  5
5C
330
A
100
AcDbEntity
  8
0
  6
Continuous
 62
     7
370
     0
100
AcDbLine
 10
51.5
 20
8.0
 30
0.0
 11
51.5
 21
4.748
 31
0.0
  0
LINE
  5
5D
330
A
100
AcDbEntity
  8
0
  6
Continuous
 62
     7
370
     0
100
AcDbLine
 10
13.5
 20
1.5
 30
0.0
 11
6.0
 21
1.5
 31
0.0
  0
LINE
  5
5E
330
A
100
AcDbEntity
  8
0
  6
Continuous
 62
     7
370
     0
100
AcDbLine
 10
3.0
 20
42.5
 30
0.0
 11
3.0
 21
1.5
 31
0.0
  0
LINE
  5
5F
330
A
100
AcDbEntity
  8
0
  6
Continuous
 62
     7
370
     0
100
AcDbLine
 10
6.0
 20
11.75
 30
0.0
 11
6.0
 21
22.0
 31
0.0
  0
LINE
  5
60
330
A
100
AcDbEntity
  8
0
  6
Continuous
 62
     7
370
     0
100
AcDbLine
 10
6.0
 20
22.0
 30
0.0
 11
6.0
 21
32.25
 31
0.0
  0
LINE
  5
61
330
A
100
AcDbEntity
  8
0
  6
Continuous
 62
     7
370
     0
100
AcDbLine
 10
6.0
 20
32.25
 30
0.0
 11
6.0
 21
42.5
 31
0.0
  0
LINE
  5
62
330
A
100
AcDbEntity
  8
0
  6
Continuous
 62
     7
370
     0
100
AcDbLine
 10
6.0
 20
32.25
 30
0.0
 11
5.5
 21
32.25
 31
0.0
  0
LINE
  5
63
330
A
100
AcDbEntity
  8
0
  6
Continuous
 62
     7
370
     0
100
AcDbLine
 10
58.5
 20
1.5
 30
0.0
 11
58.5
 21
1.0
 31
0.0
  0
LINE
  5
64
330
A
100
AcDbEntity
  8
0
  6
Continuous
 62
     7
370
     0
100
AcDbLine
 10
51.0
 20
1.5
 30
0.0
 11
51.0
 21
1.0
 31
0.0
  0
LINE
  5
65
330
A
100
AcDbEntity
  8
0
  6
Continuous
 62
     7
370
     0
100
AcDbLine
 10
43.5
 20
1.5
 30
0.0
 11
43.5
 21
1.0
 31
0.0
  0
LINE
  5
66
330
A
100
AcDbEntity
  8
0
  6
CENTERX2
 62
     7
370
     0
100
AcDbLine
 10
36.0
 20
1.5
 30
0.0
 11
36.0
 21
1.0
 31
0.0
  0
LINE
  5
67
330
A
100
AcDbEntity
  8
0
  6
Continuous
 62
     7
370
     0
100
AcDbLine
 10
28.5
 20
1.5
 30
0.0
 11
28.5
 21
1.0
 31
0.0
  0
LINE
  5
68
330
A
100
AcDbEntity
  8
0
  6
Continuous
 62
     7
370
     0
100
AcDbLine
 10
21.0
 20
1.5
 30
0.0
 11
21.0
 21
1.0
 31
0.0
  0
LINE
  5
69
330
A
100
AcDbEntity
  8
0
  6
Continuous
 62
     7
370
     0
100
AcDbLine
 10
13.5
 20
1.5
 30
0.0
 11
13.5
 21
1.0
 31
0.0
  0
LINE
  5
6A
330
A
100
AcDbEntity
  8
0
  6
Continuous
 62
     7
370
     0
100
AcDbLine
 10
6.0
 20
22.0
 30
0.0
 11
5.5
 21
22.0
 31
0.0
  0
LINE
  5
6B
330
A
100
AcDbEntity
  8
0
  6
Continuous
 62
     7
370
     0
100
AcDbLine
 10
6.0
 20
11.75
 30
0.0
 11
5.5
 21
11.75
 31
0.0
  0
LINE
  5
6C
330
A
100
AcDbEntity
  8
0
  6
Continuous
 62
     7
370
     0
100
AcDbLine
 10
6.0
 20
1.5
 30
0.0
 11
6.0
 21
11.75
 31
0.0
  0
LINE
  5
6D
330
A
100
AcDbEntity
  8
0
  6
Continuous
 62
     7
370
     0
100
AcDbLine
 10
20.0
 20
3.75
 30
0.0
 11
20.0
 21
1.5
 31
0.0
  0
LINE
  5
6E
330
A
100
AcDbEntity
  8
0
  6
Continuous
 62
     7
370
     0
100
AcDbLine
 10
66.0
 20
41.748
 30
0.0
 11
50.0
 21
41.748
 31
0.0
  0
LINE
  5
6F
330
A
100
AcDbEntity
  8
0
  6
Continuous
 62
     7
370
     0
100
AcDbLine
 10
66.0
 20
40.996
 30
0.0
 11
50.0
 21
40.996
 31
0.0
  0
LINE
  5
70
330
A
100
AcDbEntity
  8
0
  6
Continuous
 62
     7
370
     0
100
AcDbLine
 10
66.0
 20
40.24399999999999
 30
0.0
 11
50.0
 21
40.24399999999999
 31
0.0
  0
LINE
  5
71
330
A
100
AcDbEntity
  8
0
  6
Continuous
 62
     7
370
     0
100
AcDbLine
 10
50.0
 20
42.5
 30
0.0
 11
50.0
 21
40.24399999999999
 31
0.0
  0
LINE
  5
72
330
A
100
AcDbEntity
  8
0
  6
Continuous
 62
     7
370
     0
100
AcDbLine
 10
51.5
 20
41.748
 30
0.0
 11
51.5
 21
40.24399999999999
 31
0.0
  0
LINE
  5
73
330
A
100
AcDbEntity
  8
0
  6
Continuous
 62
     7
370
     0
100
AcDbLine
 10
63.0
 20
41.748
 30
0.0
 11
63.0
 21
40.24399999999999
 31
0.0
  0
LINE
  5
74
330
A
100
AcDbEntity
  8
0
  6
Continuous
 62
     7
370
     0
100
AcDbLine
 10
60.5
 20
41.748
 30
0.0
 11
60.5
 21
40.24399999999999
 31
0.0
  0
MTEXT
  5
76
330
A
100
AcDbEntity
  8
0
 62
     1
100
AcDbMText
 10
35.3986174003
 20
3.8068942392
 30
0.0
 40
0.4
 41
0.0
 71
     1
 72
     1
  1
STEEL, A-36, 1" THICK BURNED
  7
SLDTEXTSTYLE0
 73
     1
 44
1.0
  0
MTEXT
  5
77
330
A
100
AcDbEntity
  8
0
 62
     1
100
AcDbMText
 10
46.4989081619
 20
2.8475484791
 30
0.0
 40
0.4
 41
0.0
 71
     1
 72
     1
  1
51.0 lbs
  7
SLDTEXTSTYLE0
 73
     1
 44
1.0
  0
MTEXT
  5
78
330
A
100
AcDbEntity
  8
0
 62
     1
100
AcDbMText
 10
59.8416819922
 20
11.5854497126
 30
0.0
 40
0.6666666667
 41
0.0
 71
     2
 72
     1
  1
1 REQUIRED\PPER ASSEM
  7
SLDTEXTSTYLE0
 73
     1
 44
1.0
  0
MTEXT
  5
79
330
A
100
AcDbEntity
  8
0
 62
     7
100
AcDbMText
 10
66.8535803182
 20
36.3546511702
 30
0.0
 40
0.375
 41
0.0
 71
     1
 72
     1
  1
D
  7
SLDTEXTSTYLE0
 73
     1
 44
1.0
  0
MTEXT
  5
7A
330
A
100
AcDbEntity
  8
0
 62
     7
100
AcDbMText
 10
66.7804233988
 20
26.184845899
 30
0.0
 40
0.375
 41
0.0
 71
     1
 72
     1
  1
C
  7
SLDTEXTSTYLE0
 73
     1
 44
1.0
  0
MTEXT
  5
7B
330
A
100
AcDbEntity
  8
0
 62
     7
100
AcDbMText
 10
66.8244832006
 20
16.8752606386
 30
0.0
 40
0.375
 41
0.0
 71
     1
 72
     1
  1
B
  7
SLDTEXTSTYLE0
 73
     1
 44
1.0
  0
MTEXT
  5
7C
330
A
100
AcDbEntity
  8
0
 62
     7
100
AcDbMText
 10
66.82220664039999
 20
6.855072833099999
 30
0.0
 40
0.375
 41
0.0
 71
     1
 72
     1
  1
A
  7
SLDTEXTSTYLE0
 73
     1
 44
1.0
  0
MTEXT
  5
7D
330
A
100
AcDbEntity
  8
0
 62
     7
100
AcDbMText
 10
3.8574103947
 20
6.773657474199999
 30
0.0
 40
0.375
 41
0.0
 71
     1
 72
     1
  1
A
  7
SLDTEXTSTYLE0
 73
     1
 44
1.0
  0
MTEXT
  5
7E
330
A
100
AcDbEntity
  8
0
 62
     7
100
AcDbMText
 10
3.8446380257
 20
17.1111811225
 30
0.0
 40
0.375
 41
0.0
 71
     1
 72
     1
  1
B
  7
SLDTEXTSTYLE0
 73
     1
 44
1.0
  0
MTEXT
  5
7F
330
A
100
AcDbEntity
  8
0
 62
     7
100
AcDbMText
 10
3.7953116217
 20
27.4969600264
 30
0.0
 40
0.375
 41
0.0
 71
     1
 72
     1
  1
C
  7
SLDTEXTSTYLE0
 73
     1
 44
1.0
  0
MTEXT
  5
80
330
A
100
AcDbEntity
  8
0
 62
     7
100
AcDbMText
 10
3.7821958485
 20
37.2258735343
 30
0.0
 40
0.375
 41
0.0
 71
     1
 72
     1
  1
D
  7
SLDTEXTSTYLE0
 73
     1
 44
1.0
  0
MTEXT
  5
81
330
A
100
AcDbEntity
  8
0
 62
     7
100
AcDbMText
 10
64.7432232461
 20
2.0787142358
 30
0.0
 40
0.36
 41
0.0
 71
     1
 72
     1
  1
REV.
  7
SLDTEXTSTYLE0
 73
     1
 44
1.0
  0
MTEXT
  5
82
330
A
100
AcDbEntity
  8
0
 62
     7
100
AcDbMText
 10
49.3963080474
 20
7.034763897799998
 30
0.0
 40
0.36
 41
0.0
 71
     1
 72
     1
  1
%%p\P%%p\P%%p\P%%p
  7
SLDTEXTSTYLE0
 73
     1
 44
1.0
  0
MTEXT
  5
83
330
A
100
AcDbEntity
  8
0
 62
     7
100
AcDbMText
 10
35.2477660994
 20
4.3899383999
 30
0.0
 40
0.36
 41
0.0
 71
     1
 72
     1
  1
MATERIAL
  7
SLDTEXTSTYLE0
 73
     1
 44
1.0
  0
MTEXT
  5
84
330
A
100
AcDbEntity
  8
0
 62
     7
100
AcDbMText
 10
35.23861362579999
 20
2.9266952275
 30
0.0
 40
0.36
 41
0.0
 71
     1
 72
     1
  1
FINISH
  7
SLDTEXTSTYLE0
 73
     1
 44
1.0
  0
MTEXT
  5
85
330
A
100
AcDbEntity
  8
0
 62
     7
100
AcDbMText
 10
63.2017320133
 20
1.287073523899999
 30
0.0
 40
0.375
 41
0.0
 71
     1
 72
     1
  1
1
  7
SLDTEXTSTYLE0
 73
     1
 44
1.0
  0
MTEXT
  5
86
330
A
100
AcDbEntity
  8
0
 62
     7
100
AcDbMText
 10
54.37754501609999
 20
1.3260431792
 30
0.0
 40
0.375
 41
0.0
 71
     1
 72
     1
  1
2
  7
SLDTEXTSTYLE0
 73
     1
 44
1.0
  0
MTEXT
  5
87
330
A
100
AcDbEntity
  8
0
 62
     7
100
AcDbMText
 10
46.14508672369999
 20
1.3390330643
 30
0.0
 40
0.375
 41
0.0
 71
     1
 72
     1
  1
3
  7
SLDTEXTSTYLE0
 73
     1
 44
1.0
  0
MTEXT
  5
88
330
A
100
AcDbEntity
  8
0
 62
     7
100
AcDbMText
 10
38.7267103229
 20
1.346979509399998
 30
0.0
 40
0.375
 41
0.0
 71
     1
 72
     1
  1
4
  7
SLDTEXTSTYLE0
 73
     1
 44
1.0
  0
MTEXT
  5
89
330
A
100
AcDbEntity
  8
0
 62
     7
100
AcDbMText
 10
30.92505867409998
 20
1.359969394499999
 30
0.0
 40
0.375
 41
0.0
 71
     1
 72
     1
  1
5
  7
SLDTEXTSTYLE0
 73
     1
 44
1.0
  0
MTEXT
  5
8A
330
A
100
AcDbEntity
  8
0
 62
     7
100
AcDbMText
 10
23.6408619944
 20
1.295019968899999
 30
0.0
 40
0.375
 41
0.0
 71
     1
 72
     1
  1
6
  7
SLDTEXTSTYLE0
 73
     1
 44
1.0
  0
MTEXT
  5
8B
330
A
100
AcDbEntity
  8
0
 62
     7
100
AcDbMText
 10
15.7209235146
 20
1.3520229494
 30
0.0
 40
0.375
 41
0.0
 71
     1
 72
     1
  1
7
  7
SLDTEXTSTYLE0
 73
     1
 44
1.0
  0
MTEXT
  5
8C
330
A
100
AcDbEntity
  8
0
 62
     7
100
AcDbMText
 10
8.592605456199999
 20
1.359969394499999
 30
0.0
 40
0.375
 41
0.0
 71
     1
 72
     1
  1
8
  7
SLDTEXTSTYLE0
 73
     1
 44
1.0
  0
MTEXT
  5
8D
330
A
100
AcDbEntity
  8
0
 62
     7
100
AcDbMText
 10
8.4691158123
 20
43.2347584853
 30
0.0
 40
0.375
 41
0.0
 71
     1
 72
     1
  1
8
  7
SLDTEXTSTYLE0
 73
     1
 44
1.0
  0
MTEXT
  5
8E
330
A
100
AcDbEntity
  8
0
 62
     7
100
AcDbMText
 10
16.281827991
 20
43.145609375
 30
0.0
 40
0.375
 41
0.0
 71
     1
 72
     1
  1
7
  7
SLDTEXTSTYLE0
 73
     1
 44
1.0
  0
MTEXT
  5
8F
330
A
100
AcDbEntity
  8
0
 62
     7
100
AcDbMText
 10
23.80685895889999
 20
43.11947482639999
 30
0.0
 40
0.375
 41
0.0
 71
     1
 72
     1
  1
6
  7
SLDTEXTSTYLE0
 73
     1
 44
1.0
  0
MTEXT
  5
90
330
A
100
AcDbEntity
  8
0
 62
     7
100
AcDbMText
 10
31.6247767236
 20
43.0720435981
 30
0.0
 40
0.375
 41
0.0
 71
     1
 72
     1
  1
5
  7
SLDTEXTSTYLE0
 73
     1
 44
1.0
  0
MTEXT
  5
91
330
A
100
AcDbEntity
  8
0
 62
     7
100
AcDbMText
 10
39.3952632601
 20
43.1873272569
 30
0.0
 40
0.375
 41
0.0
 71
     1
 72
     1
  1
4
  7
SLDTEXTSTYLE0
 73
     1
 44
1.0
  0
MTEXT
  5
92
330
A
100
AcDbEntity
  8
0
 62
     7
100
AcDbMText
 10
47.2052089631
 20
43.10458657549999
 30
0.0
 40
0.375
 41
0.0
 71
     1
 72
     1
  1
3
  7
SLDTEXTSTYLE0
 73
     1
 44
1.0
  0
MTEXT
  5
93
330
A
100
AcDbEntity
  8
0
 62
     7
100
AcDbMText
 10
54.68419194049999
 20
43.1534010417
 30
0.0
 40
0.375
 41
0.0
 71
     1
 72
     1
  1
2
  7
SLDTEXTSTYLE0
 73
     1
 44
1.0
  0
MTEXT
  5
94
330
A
100
AcDbEntity
  8
0
 62
     7
100
AcDbMText
 10
62.6675910681
 20
43.0869318489
 30
0.0
 40
0.375
 41
0.0
 71
     1
 72
     1
  1
1
  7
SLDTEXTSTYLE0
 73
     1
 44
1.0
  0
MTEXT
  5
95
330
A
100
AcDbEntity
  8
0
 62
     7
100
AcDbMText
 10
54.6217360465
 20
9.2028695439
 30
0.0
 40
0.6666666667
 41
0.0
 71
     1
 72
     1
  1
RADIO  ASTRONOMY  LAB
  7
SLDTEXTSTYLE0
 73
     1
 44
1.0
  0
MTEXT
  5
96
330
A
100
AcDbEntity
  8
0
 62
     7
100
AcDbMText
 10
60.0910315019
 20
8.0781964362
 30
0.0
 40
0.4
 41
0.0
 71
     2
 72
     1
  1
University of California - Berkeley\PTel: 510-642-5040    Fax: 510-642-3411
  7
SLDTEXTSTYLE0
 73
     1
 44
1.0
  0
MTEXT
  5
97
330
A
100
AcDbEntity
  8
0
 62
     7
100
AcDbMText
 10
37.5359397626
 20
6.5510375446
 30
0.0
 40
0.36
 41
0.0
 71
     1
 72
     1
  1
NAME
  7
SLDTEXTSTYLE0
 73
     1
 44
1.0
  0
MTEXT
  5
98
330
A
100
AcDbEntity
  8
0
 62
     7
100
AcDbMText
 10
41.96775689419999
 20
6.533313707999999
 30
0.0
 40
0.36
 41
0.0
 71
     1
 72
     1
  1
DATE
  7
SLDTEXTSTYLE0
 73
     1
 44
1.0
  0
MTEXT
  5
99
330
A
100
AcDbEntity
  8
0
 62
     7
100
AcDbMText
 10
54.3173217296
 20
2.096611452799999
 30
0.0
 40
0.36
 41
0.0
 71
     1
 72
     1
  1
SIZE
  7
SLDTEXTSTYLE0
 73
     1
 44
1.0
  0
MTEXT
  5
9A
330
A
100
AcDbEntity
  8
0
 62
     7
100
AcDbMText
 10
54.53799952229999
 20
3.376527868999998
 30
0.0
 40
0.75
 41
0.0
 71
     1
 72
     1
  1
B
  7
SLDTEXTSTYLE0
 73
     1
 44
1.0
  0
MTEXT
  5
9B
330
A
100
AcDbEntity
  8
0
 62
     7
100
AcDbMText
 10
44.31685140449999
 20
2.0514646827
 30
0.0
 40
0.36
 41
0.0
 71
     1
 72
     1
  1
SCALE:
  7
SLDTEXTSTYLE0
 73
     1
 44
1.0
  0
MTEXT
  5
9C
330
A
100
AcDbEntity
  8
0
 62
     7
100
AcDbMText
 10
55.69756231220001
 20
2.080001124799998
 30
0.0
 40
0.36
 41
0.0
 71
     1
 72
     1
  1
DWG NUM:      SHEET             OF
  7
SLDTEXTSTYLE0
 73
     1
 44
1.0
  0
MTEXT
  5
9D
330
A
100
AcDbEntity
  8
0
 62
     7
100
AcDbMText
 10
63.9951259177
 20
41.5412107411
 30
0.0
 40
0.36
 41
0.0
 71
     1
 72
     1
  1
DATE
  7
SLDTEXTSTYLE0
 73
     1
 44
1.0
  0
MTEXT
  5
9E
330
A
100
AcDbEntity
  8
0
 62
     7
100
AcDbMText
 10
61.20995431709999
 20
41.53949824139999
 30
0.0
 40
0.36
 41
0.0
 71
     1
 72
     1
  1
NAME
  7
SLDTEXTSTYLE0
 73
     1
 44
1.0
  0
MTEXT
  5
9F
330
A
100
AcDbEntity
  8
0
 62
     7
100
AcDbMText
 10
56.132295403
 20
42.2878586827
 30
0.0
 40
0.36
 41
0.0
 71
     1
 72
     1
  1
REVISIONS
  7
SLDTEXTSTYLE0
 73
     1
 44
1.0
  0
MTEXT
  5
A0
330
A
100
AcDbEntity
  8
0
 62
     7
100
AcDbMText
 10
50.3287943475
 20
41.533732966
 30
0.0
 40
0.36
 41
0.0
 71
     1
 72
     1
  1
REV
  7
SLDTEXTSTYLE0
 73
     1
 44
1.0
  0
MTEXT
  5
A1
330
A
100
AcDbEntity
  8
0
 62
     7
100
AcDbMText
 10
51.8498227663
 20
41.531562701
 30
0.0
 40
0.36
 41
0.0
 71
     1
 72
     1
  1
DESCRIPTION
  7
SLDTEXTSTYLE0
 73
     1
 44
1.0
  0
MTEXT
  5
A2
330
A
100
AcDbEntity
  8
0
 62
     7
100
AcDbMText
 10
44.296078711
 20
2.7937832593
 30
0.0
 40
0.36
 41
0.0
 71
     1
 72
     1
  1
WEIGHT:
  7
SLDTEXTSTYLE0
 73
     1
 44
1.0
  0
MTEXT
  5
A3
330
A
100
AcDbEntity
  8
0
 62
     7
100
AcDbMText
 10
35.2430564705
 20
5.7901778525
 30
0.0
 40
0.36
 41
0.0
 71
     1
 72
     1
  1
DRAWN
  7
SLDTEXTSTYLE0
 73
     1
 44
1.0
  0
MTEXT
  5
A4
330
A
100
AcDbEntity
  8
0
 62
     7
100
AcDbMText
 10
35.2421468027
 20
5.0453216955
 30
0.0
 40
0.36
 41
0.0
 71
     1
 72
     1
  1
CHECKED
  7
SLDTEXTSTYLE0
 73
     1
 44
1.0
  0
MTEXT
  5
A5
330
A
100
AcDbEntity
  8
0
 62
     7
100
AcDbMText
 10
48.6611171697
 20
7.015682038799998
 30
0.0
 40
0.36
 41
0.0
 71
     3
 72
     1
  1
WHOLE & FRACTION\PDECIMAL   X.X\PDECIMAL   X.XX\PDECIMAL   X.XXX
  7
SLDTEXTSTYLE0
 73
     1
 44
1.0
  0
MTEXT
  5
A6
330
A
100
AcDbEntity
  8
0
 62
     7
100
AcDbMText
 10
50.3491902811
 20
7.858944104299999
 30
0.0
 40
0.36
 41
0.0
 71
     2
 72
     1
  1
LINEAR
  7
SLDTEXTSTYLE0
 73
     1
 44
1.0
  0
MTEXT
  5
A7
330
A
100
AcDbEntity
  8
0
 62
     7
100
AcDbMText
 10
52.6712182055
 20
7.8830150626
 30
0.0
 40
0.36
 41
0.0
 71
     2
 72
     1
  1
ANGLE
  7
SLDTEXTSTYLE0
 73
     1
 44
1.0
  0
INSERT
  5
AE
330
A
100
AcDbEntity
  8
0
100
AcDbBlockReference
  2
NOTE50
 10
44.667986743
 20
4.3761790104
 30
0.0
  0
MTEXT
  5
AF
330
A
100
AcDbEntity
  8
0
 62
     7
100
AcDbMText
 10
48.9950139524
 20
9.2356113863
 30
0.0
 40
0.36
 41
0.0
 71
     2
 72
     1
  1
UNLESS OTHERWISE SPECIFIED\PDIMENSIONS ARE INCHES & DEGREES
  7
SLDTEXTSTYLE0
 73
     1
 44
1.0
  0
MTEXT
  5
B0
330
A
100
AcDbEntity
  8
0
 62
     7
100
AcDbMText
 10
44.80520043600001
 20
7.833473812
 30
0.0
 40
0.36
 41
0.0
 71
     1
 72
     1
  1
TOLERANCES:
  7
SLDTEXTSTYLE0
 73
     1
 44
1.0
  0
MTEXT
  5
B1
330
A
100
AcDbEntity
  8
0
 62
     7
100
AcDbMText
 10
51.821847405
 20
7.0312486711
 30
0.0
 40
0.36
 41
0.0
 71
     1
 72
     1
  1
%%p\P%%p\P%%p\P%%p
  7
SLDTEXTSTYLE0
 73
     1
 44
1.0
  0
MTEXT
  5
B2
330
A
100
AcDbEntity
  8
0
 62
     7
100
AcDbMText
 10
58.65360117409998
 20
41.54490574119999
 30
0.0
 40
0.36
 41
0.0
 71
     1
 72
     1
  1
ZONE
  7
SLDTEXTSTYLE0
 73
     1
 44
1.0
  0
MTEXT
  5
B3
330
A
100
AcDbEntity
  8
0
 62
     7
100
AcDbMText
 10
20.3808707277
 20
3.458266668699998
 30
0.0
 40
0.32
 41
0.0
 71
     1
 72
     1
  1
THIS DRAWING IS THE PROPERTY OF AND CONTAINS CONFIDENTIAL\PINFORMATION PROPRIETARY TO THE UNIVERSITY OF CALIFORNIA AND\PSHALL BE USED ONLY FOR THE PURPOSE FOR WHICH IT WAS PROVIDED\PAND SHALL NOT BE REPRODUCED OR DISCLOSED TO OTHERS.
  7
SLDTEXTSTYLE0
 73
     1
 44
1.0
  0
MTEXT
  5
B4
330
A
100
AcDbEntity
  8
0
 62
     7
100
AcDbMText
 10
50.5558344517
 20
40.81959670439998
 30
0.0
 40
0.36
 41
0.0
 71
     1
 72
     1
  1
A
  7
SLDTEXTSTYLE0
 73
     1
 44
1.0
  0
MTEXT
  5
B5
330
A
100
AcDbEntity
  8
0
 62
     7
100
AcDbMText
 10
51.9119836556
 20
40.8186060335
 30
0.0
 40
0.36
 41
0.0
 71
     1
 72
     1
  1
RELEASED
  7
SLDTEXTSTYLE0
 73
     1
 44
1.0
  0
MTEXT
  5
B6
330
A
100
AcDbEntity
  8
0
 62
     7
100
AcDbMText
 10
37.4766966926
 20
5.8405075573
 30
0.0
 40
0.4166666667000002
 41
0.0
 71
     1
 72
     1
  1
M. C. FLEMING
  7
SLDTEXTSTYLE0
 73
     1
 44
1.0
  0
MTEXT
  5
B7
330
A
100
AcDbEntity
  8
0
 62
     7
100
AcDbMText
 10
65.0084175521
 20
3.3082817912
 30
0.0
 40
0.75
 41
0.0
 71
     1
 72
     1
  1
A
  7
SLDTEXTSTYLE0
 73
     1
 44
1.0
  0
MTEXT
  5
B8
330
A
100
AcDbEntity
  8
0
 62
     7
100
AcDbMText
 10
41.2885611079
 20
5.8336167047
 30
0.0
 40
0.4166666667000002
 41
0.0
 71
     1
 72
     1
  1
2004-12-22
  7
SLDTEXTSTYLE0
 73
     1
 44
1.0
  0
MTEXT
  5
B9
330
A
100
AcDbEntity
  8
0
 62
     7
100
AcDbMText
 10
50.04964365300001
 20
7.039306895599999
 30
0.0
 40
0.36
 41
0.0
 71
     1
 72
     1
  1
1/16\P0.1\P0.01\P0.005
  7
SLDTEXTSTYLE0
 73
     1
 44
1.0
  0
MTEXT
  5
BA
330
A
100
AcDbEntity
  8
0
 62
     7
100
AcDbMText
 10
52.4099368779
 20
7.031500408999998
 30
0.0
 40
0.36
 41
0.0
 71
     1
 72
     1
  1
1%%d\P0.1%%d\P0.01%%d\P0.001%%d
  7
SLDTEXTSTYLE0
 73
     1
 44
1.0
  0
MTEXT
  5
BB
330
A
100
AcDbEntity
  8
0
 62
     7
100
AcDbMText
 10
56.32681204409998
 20
3.3806480451
 30
0.0
 40
0.75
 41
0.0
 71
     1
 72
     1
  1
24-09-101   1 of 1
  7
SLDTEXTSTYLE0
 73
     1
 44
1.0
  0
MTEXT
  5
BC
330
A
100
AcDbEntity
  8
0
 62
     7
100
AcDbMText
 10
61.1839129978
 20
40.8203446032
 30
0.0
 40
0.4166666667000002
 41
0.0
 71
     1
 72
     1
  1
M.C.F.
  7
SLDTEXTSTYLE0
 73
     1
 44
1.0
  0
MTEXT
  5
BD
330
A
100
AcDbEntity
  8
0
 62
     7
100
AcDbMText
 10
63.36789603899999
 20
40.8166095859
 30
0.0
 40
0.4166666667000002
 41
0.0
 71
     1
 72
     1
  1
2004-12-22
  7
SLDTEXTSTYLE0
 73
     1
 44
1.0
  0
MTEXT
  5
BE
330
A
100
AcDbEntity
  8
0
 62
     7
100
AcDbMText
 10
61.26721809489936
 20
6.374912431580257
 30
0.0
 40
0.75
 41
0.0
 71
     2
 72
     1
  1
CARMA 6m Base,\PLeg Adaptor, Bottom Flange
  7
SLDTEXTSTYLE0
 73
     1
 44
1.0
  0
CIRCLE
  5
BF
330
A
100
AcDbEntity
  8
0
  6
Continuous
 62
     7
370
    15
100
AcDbCircle
 10
16.0629048068
 20
28.05256553979999
 30
0.0
 40
0.265625
  0
CIRCLE
  5
C0
330
A
100
AcDbEntity
  8
0
  6
Continuous
 62
     7
370
    15
100
AcDbCircle
 10
27.06290480679998
 20
28.05256553979999
 30
0.0
 40
0.265625
  0
CIRCLE
  5
C1
330
A
100
AcDbEntity
  8
0
  6
Continuous
 62
     7
370
    15
100
AcDbCircle
 10
32.5629048068
 20
28.05256553979999
 30
0.0
 40
0.265625
  0
CIRCLE
  5
C2
330
A
100
AcDbEntity
  8
0
  6
Continuous
 62
     7
370
    15
100
AcDbCircle
 10
43.56290480680001
 20
28.05256553979999
 30
0.0
 40
0.265625
  0
LINE
  5
C3
330
A
100
AcDbEntity
  8
0
  6
Continuous
 62
     7
370
    15
100
AcDbLine
 10
13.0629049175
 20
27.1660925762
 30
0.0
 11
13.7189044861
 21
29.55256553419998
 31
0.0
  0
LINE
  5
C4
330
A
100
AcDbEntity
  8
0
  6
Continuous
 62
     7
370
    15
100
AcDbLine
 10
13.7189044861
 20
29.55256553419998
 30
0.0
 11
25.8129048551
 21
33.05256552849999
 31
0.0
  0
LINE
  5
C5
330
A
100
AcDbEntity
  8
0
  6
Continuous
 62
     7
370
    15
100
AcDbLine
 10
25.8129048551
 20
33.05256552849999
 30
0.0
 11
33.8129047584
 21
33.05256552849999
 31
0.0
  0
LINE
  5
C6
330
A
100
AcDbEntity
  8
0
  6
Continuous
 62
     7
370
    15
100
AcDbLine
 10
33.8129047584
 20
33.05256552849999
 30
0.0
 11
45.9069051275
 21
29.55256553419998
 31
0.0
  0
LINE
  5
C7
330
A
100
AcDbEntity
  8
0
  6
Continuous
 62
     7
370
    15
100
AcDbLine
 10
46.562904696
 20
27.1660925762
 30
0.0
 11
46.562904696
 21
26.3025655368
 31
0.0
  0
LINE
  5
C8
330
A
100
AcDbEntity
  8
0
  6
Continuous
 62
     7
370
    15
100
AcDbLine
 10
13.0629049175
 20
26.3025655368
 30
0.0
 11
46.562904696
 21
26.3025655368
 31
0.0
  0
LINE
  5
C9
330
A
100
AcDbEntity
  8
0
  6
Continuous
 62
     7
370
    15
100
AcDbLine
 10
13.0629049175
 20
26.3025655368
 30
0.0
 11
13.0629049175
 21
27.1660925762
 31
0.0
  0
CIRCLE
  5
CA
330
A
100
AcDbEntity
  8
0
  6
Continuous
 62
     7
370
    15
100
AcDbCircle
 10
38.06290480679999
 20
28.05256553979999
 30
0.0
 40
0.265625
  0
CIRCLE
  5
CB
330
A
100
AcDbEntity
  8
0
  6
Continuous
 62
     7
370
    15
100
AcDbCircle
 10
29.8129048068
 20
31.0525655398
 30
0.0
 40
0.75
  0
CIRCLE
  5
CC
330
A
100
AcDbEntity
  8
0
  6
Continuous
 62
     7
370
    15
100
AcDbCircle
 10
21.5629048068
 20
28.05256553979999
 30
0.0
 40
0.265625
  0
LINE
  5
CD
330
A
100
AcDbEntity
  8
0
  6
Continuous
 62
     7
370
    15
100
AcDbLine
 10
45.9069051275
 20
29.55256553419998
 30
0.0
 11
46.562904696
 21
27.1660925762
 31
0.0
  0
LINE
  5
CE
330
A
100
AcDbEntity
  8
0
  6
Continuous
 62
     7
370
    15
100
AcDbLine
 10
46.562904696
 20
26.0525655398
 30
0.0
 11
13.0629049175
 21
26.0525655398
 31
0.0
  0
LINE
  5
CF
330
A
100
AcDbEntity
  8
0
  6
Continuous
 62
     7
370
    15
100
AcDbLine
 10
13.0629049175
 20
26.0525655398
 30
0.0
 11
13.0629049175
 21
26.3025655368
 31
0.0
  0
LINE
  5
D0
330
A
100
AcDbEntity
  8
0
  6
Continuous
 62
     7
370
    15
100
AcDbLine
 10
46.562904696
 20
26.3025655368
 30
0.0
 11
46.562904696
 21
26.0525655398
 31
0.0
  0
DIMENSION
  5
DE
330
A
100
AcDbEntity
  8
0
 62
     7
100
AcDbDimension
  2
*D1
 10
13.0629048068
 20
17.5113275548
 30
0.0
 11
29.8129048068
 21
17.5113275548
 31
0.0
 70
   160
 71
     5
 42
0.0
  3
SLDDIMSTYLE0
100
AcDbAlignedDimension
 13
46.5629048068
 23
26.0525655398
 33
0.0
 14
13.0629048068
 24
26.0525655398
 34
0.0
100
AcDbRotatedDimension
  0
DIMENSION
  5
EB
330
A
100
AcDbEntity
  8
0
 62
     7
100
AcDbDimension
  2
*D2
 10
56.73317890799999
 20
26.0525655398
 30
0.0
 11
56.73317890799999
 21
29.55256553979999
 31
0.0
 70
   160
 71
     5
 42
0.0
  3
SLDDIMSTYLE0
100
AcDbAlignedDimension
 13
33.8129048068
 23
33.0525655398
 33
0.0
 14
46.5629048068
 24
26.0525655398
 34
0.0
 50
90.0
100
AcDbRotatedDimension
  0
DIMENSION
  5
F9
330
A
100
AcDbEntity
  8
0
 62
     7
100
AcDbDimension
  2
*D3
 10
48.7274577186
 20
26.0525655398
 30
0.0
 11
48.7274577186
 21
23.5033877083
 31
0.0
 70
   160
 71
     5
 42
0.0
  3
SLDDIMSTYLE0
100
AcDbAlignedDimension
 13
46.5629048068
 23
27.1660926004
 33
0.0
 14
46.5629048068
 24
26.0525655398
 34
0.0
 50
90.0
100
AcDbRotatedDimension
  0
DIMENSION
  5
106
330
A
100
AcDbEntity
  8
0
 62
     7
100
AcDbDimension
  2
*D4
 10
54.1647214147
 20
26.0525655398
 30
0.0
 11
54.1647214147
 21
27.8025655398
 31
0.0
 70
   160
 71
     5
 42
0.0
  3
SLDDIMSTYLE0
100
AcDbAlignedDimension
 13
45.9069048068
 23
29.55256553979999
 33
0.0
 14
46.5629048068
 24
26.0525655398
 34
0.0
 50
90.0
100
AcDbRotatedDimension
  0
DIMENSION
  5
113
330
A
100
AcDbEntity
  8
0
 62
     7
100
AcDbDimension
  2
*D5
 10
25.81290480679998
 20
35.960133957
 30
0.0
 11
29.8129048068
 21
35.960133957
 31
0.0
 70
   160
 71
     5
 42
0.0
  3
SLDDIMSTYLE0
100
AcDbAlignedDimension
 13
33.8129048068
 23
33.0525655398
 33
0.0
 14
25.81290480679998
 24
33.0525655398
 34
0.0
100
AcDbRotatedDimension
  0
DIMENSION
  5
120
330
A
100
AcDbEntity
  8
0
 62
     7
100
AcDbDimension
  2
*D6
 10
10.4374331961
 20
26.0525655398
 30
0.0
 11
10.4374331961
 21
28.5525655398
 31
0.0
 70
   160
 71
     5
 42
0.0
  3
SLDDIMSTYLE0
100
AcDbAlignedDimension
 13
29.8129048068
 23
31.0525655398
 33
0.0
 14
13.0629048068
 24
26.0525655398
 34
0.0
 50
-90.0
100
AcDbRotatedDimension
  0
DIMENSION
  5
12D
330
A
100
AcDbEntity
  8
0
100
AcDbDimension
  2
*D7
 10
29.1057648972
 20
31.3024718188
 30
0.0
 11
35.44719109689999
 21
30.4226913809
 31
0.0
 70
   163
  1
<> DRILL THRU
 71
     5
 42
0.0
  3
SLDDIMSTYLE1
100
AcDbDiametricDimension
 15
30.5200447164
 25
30.8026592608
 35
0.0
 40
0.0
  0
DIMENSION
  5
139
330
A
100
AcDbEntity
  8
0
 62
     7
100
AcDbDimension
  2
*D8
 10
29.8129048068
 20
23.62770553889999
 30
0.0
 11
27.6437312405
 21
23.62770553889999
 31
0.0
 70
   160
 71
     5
 42
0.0
  3
SLDDIMSTYLE0
100
AcDbAlignedDimension
 13
32.5629048068
 23
28.05256553979999
 33
0.0
 14
29.8129048068
 24
25.4812718665
 34
0.0
100
AcDbRotatedDimension
  0
DIMENSION
  5
146
330
A
100
AcDbEntity
  8
0
 62
     7
100
AcDbDimension
  2
*D9
 10
38.06290480679999
 20
23.5980749738
 30
0.0
 11
35.3129048068
 21
23.5980749738
 31
0.0
 70
   160
 71
     5
 42
0.0
  3
SLDDIMSTYLE0
100
AcDbAlignedDimension
 13
32.5629048068
 23
28.05256553979999
 33
0.0
 14
38.06290480679999
 24
28.05256553979999
 34
0.0
100
AcDbRotatedDimension
  0
DIMENSION
  5
153
330
A
100
AcDbEntity
  8
0
 62
     7
100
AcDbDimension
  2
*D10
 10
43.56290480680001
 20
23.5980749738
 30
0.0
 11
40.81290480679998
 21
23.5980749738
 31
0.0
 70
   160
 71
     5
 42
0.0
  3
SLDDIMSTYLE0
100
AcDbAlignedDimension
 13
38.06290480679999
 23
28.05256553979999
 33
0.0
 14
43.56290480680001
 24
28.05256553979999
 34
0.0
100
AcDbRotatedDimension
  0
DIMENSION
  5
161
330
A
100
AcDbEntity
  8
0
 62
     7
100
AcDbDimension
  2
*D11
 10
51.3422356833
 20
26.0525655398
 30
0.0
 11
51.3422356833
 21
25.20578959499999
 31
0.0
 70
   160
 71
     5
 42
0.0
  3
SLDDIMSTYLE0
100
AcDbAlignedDimension
 13
43.56290480680001
 23
28.05256553979999
 33
0.0
 14
46.5629048068
 24
26.0525655398
 34
0.0
 50
90.0
100
AcDbRotatedDimension
  0
DIMENSION
  5
16E
330
A
100
AcDbEntity
  8
0
 62
     7
100
AcDbDimension
  2
*D12
 10
13.7189048068
 20
38.81949804579999
 30
0.0
 11
29.8129048068
 21
38.81949804579999
 31
0.0
 70
   160
 71
     5
 42
0.0
  3
SLDDIMSTYLE0
100
AcDbAlignedDimension
 13
45.9069048068
 23
29.55256553979999
 33
0.0
 14
13.7189048068
 24
29.55256553979999
 34
0.0
100
AcDbRotatedDimension
  0
DIMENSION
  5
17C
330
A
100
AcDbEntity
  8
0
100
AcDbDimension
  2
*D13
 10
16.01915939419999
 20
28.3145635923
 30
0.0
 11
23.482084634
 21
21.4291601688
 31
0.0
 70
   163
  1
<> DRILL THRU\P%%c.656 X 45%%d COUNTERSINK, BOTH SIDES\PTAP 5/8-11 THRU, 6 PLACES
 71
     5
 42
0.0
  3
SLDDIMSTYLE1
100
AcDbDiametricDimension
 15
16.1066502194
 25
27.79056748729999
 35
0.0
 40
0.0
  0
DIMENSION
  5
18E
330
A
100
AcDbEntity
  8
0
100
AcDbDimension
  2
*D14
 10
13.7189048068
 20
29.55256553979999
 30
0.0
 11
13.8460522207
 21
32.9698186356
 31
0.0
 70
   162
  1
(<>)
 71
     5
 42
0.0
  3
SLDDIMSTYLE2
100
AcDb2LineAngularDimension
 13
13.0629048068
 23
26.3025655398
 33
0.0
 14
13.0629048068
 24
27.1660926004
 34
0.0
 15
13.0629048068
 25
27.1660926004
 35
0.0
 16
14.2332227228
 26
32.9042902041
 36
0.0
  0
DIMENSION
  5
19E
330
A
100
AcDbEntity
  8
0
100
AcDbDimension
  2
*D15
 10
13.7189048068
 20
29.55256553979999
 30
0.0
 11
18.4540274093
 21
32.00914503399998
 31
0.0
 70
   162
  1
(<>)
 71
     5
 42
0.0
  3
SLDDIMSTYLE2
100
AcDb2LineAngularDimension
 13
33.8129048068
 23
33.0525655398
 33
0.0
 14
25.81290480679998
 24
33.0525655398
 34
0.0
 15
25.81290480679998
 25
33.0525655398
 35
0.0
 16
18.3988460755
 26
32.5295588166
 36
0.0
  0
DIMENSION
  5
1AB
330
A
100
AcDbEntity
  8
0
100
AcDbDimension
  2
*D16
 10
46.5629048068
 20
19.80710281289998
 30
0.0
 11
38.1976497694
 21
19.80710281289998
 31
0.0
 70
   160
 71
     5
 42
0.0
  3
SLDDIMSTYLE0
100
AcDbAlignedDimension
 13
29.8129048068
 23
23.68729652469999
 33
0.0
 14
46.5629048068
 24
26.3025655398
 34
0.0
100
AcDbRotatedDimension
  0
INSERT
  5
1B0
330
A
100
AcDbEntity
  8
0
100
AcDbBlockReference
  2
NOTE67
 10
29.9607941956
 20
29.57427407389999
 30
0.0
  0
INSERT
  5
1B5
330
A
100
AcDbEntity
  8
0
100
AcDbBlockReference
  2
NOTE68
 10
23.99727287929998
 20
15.522608917
 30
0.0
  0
LINE
  5
1B6
330
A
100
AcDbEntity
  8
0
  6
CENTERX2
 62
     7
370
     0
100
AcDbLine
 10
29.8129048068
 20
23.68729652469999
 30
0.0
 11
29.8129048068
 21
34.1803416658
 31
0.0
  0
LINE
  5
1B7
330
A
100
AcDbEntity
  8
0
  6
Continuous
 62
     7
370
    15
100
AcDbLine
 10
62.36132752999999
 20
29.55256553419998
 30
0.0
 11
61.3613275421
 21
29.55256553419998
 31
0.0
  0
LINE
  5
1B8
330
A
100
AcDbEntity
  8
0
  6
Continuous
 62
     7
370
    15
100
AcDbLine
 10
62.36132752999999
 20
27.1660925762
 30
0.0
 11
61.3613275421
 21
27.1660925762
 31
0.0
  0
LINE
  5
1B9
330
A
100
AcDbEntity
  8
0
  6
Continuous
 62
     7
370
    15
100
AcDbLine
 10
61.3613275421
 20
29.55256553419998
 30
0.0
 11
61.3613275421
 21
27.1660925762
 31
0.0
  0
LINE
  5
1BA
330
A
100
AcDbEntity
  8
0
  6
Continuous
 62
     7
370
    15
100
AcDbLine
 10
62.36132752999999
 20
29.55256553419998
 30
0.0
 11
62.36132752999999
 21
27.1660925762
 31
0.0
  0
LINE
  5
1BB
330
A
100
AcDbEntity
  8
0
  6
Continuous
 62
     7
370
    15
100
AcDbLine
 10
62.1113275514
 20
26.0525655398
 30
0.0
 11
62.36132752999999
 21
26.3025655368
 31
0.0
  0
LINE
  5
1BC
330
A
100
AcDbEntity
  8
0
  6
Continuous
 62
     7
370
    15
100
AcDbLine
 10
62.1113275514
 20
26.0525655398
 30
0.0
 11
61.61132753909999
 21
26.0525655398
 31
0.0
  0
LINE
  5
1BD
330
A
100
AcDbEntity
  8
0
  6
Continuous
 62
     7
370
    15
100
AcDbLine
 10
61.3613275421
 20
26.3025655368
 30
0.0
 11
61.61132753909999
 21
26.0525655398
 31
0.0
  0
LINE
  5
1BE
330
A
100
AcDbEntity
  8
0
  6
Continuous
 62
     7
370
    15
100
AcDbLine
 10
61.3613275421
 20
27.1660925762
 30
0.0
 11
61.3613275421
 21
26.3025655368
 31
0.0
  0
LINE
  5
1BF
330
A
100
AcDbEntity
  8
0
  6
Continuous
 62
     7
370
    15
100
AcDbLine
 10
62.36132752999999
 20
27.1660925762
 30
0.0
 11
62.36132752999999
 21
26.3025655368
 31
0.0
  0
LINE
  5
1C0
330
A
100
AcDbEntity
  8
0
  6
Continuous
 62
     7
370
    15
100
AcDbLine
 10
62.36132752999999
 20
33.05256552849999
 30
0.0
 11
61.3613275421
 21
33.05256552849999
 31
0.0
  0
LINE
  5
1C1
330
A
100
AcDbEntity
  8
0
  6
Continuous
 62
     7
370
    15
100
AcDbLine
 10
61.3613275421
 20
33.05256552849999
 30
0.0
 11
61.3613275421
 21
29.55256553419998
 31
0.0
  0
LINE
  5
1C2
330
A
100
AcDbEntity
  8
0
  6
Continuous
 62
     7
370
    15
100
AcDbLine
 10
62.36132752999999
 20
33.05256552849999
 30
0.0
 11
62.36132752999999
 21
29.55256553419998
 31
0.0
  0
DIMENSION
  5
1CF
330
A
100
AcDbEntity
  8
0
100
AcDbDimension
  2
*D19
 10
62.3613275421
 20
34.84093692829999
 30
0.0
 11
58.8427538546
 21
34.84093692829999
 31
0.0
 70
   160
 71
     5
 42
0.0
  3
SLDDIMSTYLE0
100
AcDbAlignedDimension
 13
61.3613275421
 23
33.0525655398
 33
0.0
 14
62.3613275421
 24
33.0525655398
 34
0.0
 50
180.0
100
AcDbRotatedDimension
  0
LEADER
  5
1D0
330
A
100
AcDbEntity
  8
0
 62
     1
100
AcDbLeader
  3
SLDDIMSTYLE3
 73
     2
 76
     3
 10
61.47070392879999
 20
26.1931891532
 30
0.0
 10
59.5301031763
 20
21.18163283019999
 30
0.0
 10
58.5301031763
 20
21.18163283019999
 30
0.0
340
1D9
  0
INSERT
  5
1D9
102
{ACAD_REACTORS
330
1D0
102
}
330
A
100
AcDbEntity
  8
0
100
AcDbBlockReference
  2
NOTE69
 10
58.5301031763
 20
21.18163283019999
 30
0.0
  0
POLYLINE
  5
1DA
330
A
100
AcDbEntity
  8
0
  6
Continuous
 62
     7
100
AcDb2dPolyline
 66
     1
 10
0.0
 20
0.0
 30
0.0
 70
   128
 40
0.0023622047
 41
0.0023622047
  0
VERTEX
  5
1DB
330
1DA
100
AcDbEntity
  8
0
100
AcDbVertex
100
AcDb2dVertex
 10
9.6497529944
 20
11.39361892289999
 30
0.0
  0
VERTEX
  5
1DC
330
1DA
100
AcDbEntity
  8
0
100
AcDbVertex
100
AcDb2dVertex
 10
9.6143860522
 20
11.40796228229999
 30
0.0
  0
VERTEX
  5
1DD
330
1DA
100
AcDbEntity
  8
0
100
AcDbVertex
100
AcDb2dVertex
 10
9.5809257511
 20
11.4297999929
 30
0.0
  0
VERTEX
  5
1DE
330
1DA
100
AcDbEntity
  8
0
100
AcDbVertex
100
AcDb2dVertex
 10
9.5511759445
 20
11.45795477799999
 30
0.0
  0
VERTEX
  5
1DF
330
1DA
100
AcDbEntity
  8
0
100
AcDbVertex
100
AcDb2dVertex
 10
9.5267404522
 20
11.49090880579999
 30
0.0
  0
VERTEX
  5
1E0
330
1DA
100
AcDbEntity
  8
0
100
AcDbVertex
100
AcDb2dVertex
 10
9.5089365978
 20
11.52688551609998
 30
0.0
  0
VERTEX
  5
1E1
330
1DA
100
AcDbEntity
  8
0
100
AcDbVertex
100
AcDb2dVertex
 10
9.498724191799999
 20
11.56394539529999
 30
0.0
  0
VERTEX
  5
1E2
330
1DA
100
AcDbEntity
  8
0
100
AcDbVertex
100
AcDb2dVertex
 10
9.496653787699999
 20
11.6000905356
 30
0.0
  0
VERTEX
  5
1E3
330
1DA
100
AcDbEntity
  8
0
100
AcDbVertex
100
AcDb2dVertex
 10
9.502837001399999
 20
11.63337234309999
 30
0.0
  0
VERTEX
  5
1E4
330
1DA
100
AcDbEntity
  8
0
100
AcDbVertex
100
AcDb2dVertex
 10
9.5169404944
 20
11.6619965871
 30
0.0
  0
VERTEX
  5
1E5
330
1DA
100
AcDbEntity
  8
0
100
AcDbVertex
100
AcDb2dVertex
 10
9.538203943600001
 20
11.684420127
 30
0.0
  0
VERTEX
  5
1E6
330
1DA
100
AcDbEntity
  8
0
100
AcDbVertex
100
AcDb2dVertex
 10
9.5654810309
 20
11.6994341041
 30
0.0
  0
VERTEX
  5
1E7
330
1DA
100
AcDbEntity
  8
0
100
AcDbVertex
100
AcDb2dVertex
 10
9.5973012417
 20
11.70622911099999
 30
0.0
  0
VERTEX
  5
1E8
330
1DA
100
AcDbEntity
  8
0
100
AcDbVertex
100
AcDb2dVertex
 10
9.631949139999999
 20
11.704438827
 30
0.0
  0
VERTEX
  5
1E9
330
1DA
100
AcDbEntity
  8
0
100
AcDbVertex
100
AcDb2dVertex
 10
9.6675568487
 20
11.6941597669
 30
0.0
  0
VERTEX
  5
1EA
330
1DA
100
AcDbEntity
  8
0
100
AcDbVertex
100
AcDb2dVertex
 10
9.702204746999999
 20
11.6759460774
 30
0.0
  0
VERTEX
  5
1EB
330
1DA
100
AcDbEntity
  8
0
100
AcDbVertex
100
AcDb2dVertex
 10
9.734024957799999
 20
11.65077966329999
 30
0.0
  0
VERTEX
  5
1EC
330
1DA
100
AcDbEntity
  8
0
100
AcDbVertex
100
AcDb2dVertex
 10
9.761302045199999
 20
11.6200172525
 30
0.0
  0
VERTEX
  5
1ED
330
1DA
100
AcDbEntity
  8
0
100
AcDbVertex
100
AcDb2dVertex
 10
9.7825654944
 20
11.5853172545
 30
0.0
  0
VERTEX
  5
1EE
330
1DA
100
AcDbEntity
  8
0
100
AcDbVertex
100
AcDb2dVertex
 10
9.7966689873
 20
11.5485503551
 30
0.0
  0
VERTEX
  5
1EF
330
1DA
100
AcDbEntity
  8
0
100
AcDbVertex
100
AcDb2dVertex
 10
9.802852201
 20
11.51169866739998
 30
0.0
  0
VERTEX
  5
1F0
330
1DA
100
AcDbEntity
  8
0
100
AcDbVertex
100
AcDb2dVertex
 10
9.8007817969
 20
11.4767488755
 30
0.0
  0
VERTEX
  5
1F1
330
1DA
100
AcDbEntity
  8
0
100
AcDbVertex
100
AcDb2dVertex
 10
9.7905693909
 20
11.4455851317
 30
0.0
  0
VERTEX
  5
1F2
330
1DA
100
AcDbEntity
  8
0
100
AcDbVertex
100
AcDb2dVertex
 10
9.772765536599999
 20
11.4198874814
 30
0.0
  0
VERTEX
  5
1F3
330
1DA
100
AcDbEntity
  8
0
100
AcDbVertex
100
AcDb2dVertex
 10
9.748330044199999
 20
11.4010412917
 30
0.0
  0
VERTEX
  5
1F4
330
1DA
100
AcDbEntity
  8
0
100
AcDbVertex
100
AcDb2dVertex
 10
9.718580237599999
 20
11.39006256549998
 30
0.0
  0
VERTEX
  5
1F5
330
1DA
100
AcDbEntity
  8
0
100
AcDbVertex
100
AcDb2dVertex
 10
9.685119936499999
 20
11.3875431688
 30
0.0
  0
VERTEX
  5
1F6
330
1DA
100
AcDbEntity
  8
0
100
AcDbVertex
100
AcDb2dVertex
 10
9.6497529944
 20
11.39361892289999
 30
0.0
  0
SEQEND
  5
1F7
330
1DA
100
AcDbEntity
  8
0
  0
POLYLINE
  5
1F8
330
A
100
AcDbEntity
  8
0
  6
Continuous
 62
     7
100
AcDb2dPolyline
 66
     1
 10
0.0
 20
0.0
 30
0.0
 70
   128
 40
0.0023622047
 41
0.0023622047
  0
VERTEX
  5
1F9
330
1F8
100
AcDbEntity
  8
0
100
AcDbVertex
100
AcDb2dVertex
 10
16.0006059555
 20
9.560285589600001
 30
0.0
  0
VERTEX
  5
1FA
330
1F8
100
AcDbEntity
  8
0
100
AcDbVertex
100
AcDb2dVertex
 10
15.9652390133
 20
9.574628948999999
 30
0.0
  0
VERTEX
  5
1FB
330
1F8
100
AcDbEntity
  8
0
100
AcDbVertex
100
AcDb2dVertex
 10
15.93177871219999
 20
9.5964666596
 30
0.0
  0
VERTEX
  5
1FC
330
1F8
100
AcDbEntity
  8
0
100
AcDbVertex
100
AcDb2dVertex
 10
15.9020289056
 20
9.6246214446
 30
0.0
  0
VERTEX
  5
1FD
330
1F8
100
AcDbEntity
  8
0
100
AcDbVertex
100
AcDb2dVertex
 10
15.87759341319999
 20
9.657575472399999
 30
0.0
  0
VERTEX
  5
1FE
330
1F8
100
AcDbEntity
  8
0
100
AcDbVertex
100
AcDb2dVertex
 10
15.8597895589
 20
9.693552182799999
 30
0.0
  0
VERTEX
  5
1FF
330
1F8
100
AcDbEntity
  8
0
100
AcDbVertex
100
AcDb2dVertex
 10
15.8495771529
 20
9.730612062
 30
0.0
  0
VERTEX
  5
200
330
1F8
100
AcDbEntity
  8
0
100
AcDbVertex
100
AcDb2dVertex
 10
15.8475067488
 20
9.7667572022
 30
0.0
  0
VERTEX
  5
201
330
1F8
100
AcDbEntity
  8
0
100
AcDbVertex
100
AcDb2dVertex
 10
15.8536899625
 20
9.8000390098
 30
0.0
  0
VERTEX
  5
202
330
1F8
100
AcDbEntity
  8
0
100
AcDbVertex
100
AcDb2dVertex
 10
15.8677934555
 20
9.8286632537
 30
0.0
  0
VERTEX
  5
203
330
1F8
100
AcDbEntity
  8
0
100
AcDbVertex
100
AcDb2dVertex
 10
15.8890569046
 20
9.8510867937
 30
0.0
  0
VERTEX
  5
204
330
1F8
100
AcDbEntity
  8
0
100
AcDbVertex
100
AcDb2dVertex
 10
15.916333992
 20
9.866100770800001
 30
0.0
  0
VERTEX
  5
205
330
1F8
100
AcDbEntity
  8
0
100
AcDbVertex
100
AcDb2dVertex
 10
15.94815420279999
 20
9.8728957776
 30
0.0
  0
VERTEX
  5
206
330
1F8
100
AcDbEntity
  8
0
100
AcDbVertex
100
AcDb2dVertex
 10
15.98280210109999
 20
9.8711054937
 30
0.0
  0
VERTEX
  5
207
330
1F8
100
AcDbEntity
  8
0
100
AcDbVertex
100
AcDb2dVertex
 10
16.0184098098
 20
9.860826433599999
 30
0.0
  0
VERTEX
  5
208
330
1F8
100
AcDbEntity
  8
0
100
AcDbVertex
100
AcDb2dVertex
 10
16.0530577081
 20
9.8426127441
 30
0.0
  0
VERTEX
  5
209
330
1F8
100
AcDbEntity
  8
0
100
AcDbVertex
100
AcDb2dVertex
 10
16.0848779189
 20
9.817446329999999
 30
0.0
  0
VERTEX
  5
20A
330
1F8
100
AcDbEntity
  8
0
100
AcDbVertex
100
AcDb2dVertex
 10
16.1121550063
 20
9.786683919199999
 30
0.0
  0
VERTEX
  5
20B
330
1F8
100
AcDbEntity
  8
0
100
AcDbVertex
100
AcDb2dVertex
 10
16.13341845549999
 20
9.7519839211
 30
0.0
  0
VERTEX
  5
20C
330
1F8
100
AcDbEntity
  8
0
100
AcDbVertex
100
AcDb2dVertex
 10
16.14752194839999
 20
9.715217021699999
 30
0.0
  0
VERTEX
  5
20D
330
1F8
100
AcDbEntity
  8
0
100
AcDbVertex
100
AcDb2dVertex
 10
16.1537051621
 20
9.6783653341
 30
0.0
  0
VERTEX
  5
20E
330
1F8
100
AcDbEntity
  8
0
100
AcDbVertex
100
AcDb2dVertex
 10
16.151634758
 20
9.643415542199999
 30
0.0
  0
VERTEX
  5
20F
330
1F8
100
AcDbEntity
  8
0
100
AcDbVertex
100
AcDb2dVertex
 10
16.141422352
 20
9.6122517983
 30
0.0
  0
VERTEX
  5
210
330
1F8
100
AcDbEntity
  8
0
100
AcDbVertex
100
AcDb2dVertex
 10
16.1236184977
 20
9.586554148099999
 30
0.0
  0
VERTEX
  5
211
330
1F8
100
AcDbEntity
  8
0
100
AcDbVertex
100
AcDb2dVertex
 10
16.09918300529999
 20
9.567707958299999
 30
0.0
  0
VERTEX
  5
212
330
1F8
100
AcDbEntity
  8
0
100
AcDbVertex
100
AcDb2dVertex
 10
16.0694331987
 20
9.5567292322
 30
0.0
  0
VERTEX
  5
213
330
1F8
100
AcDbEntity
  8
0
100
AcDbVertex
100
AcDb2dVertex
 10
16.0359728976
 20
9.5542098354
 30
0.0
  0
VERTEX
  5
214
330
1F8
100
AcDbEntity
  8
0
100
AcDbVertex
100
AcDb2dVertex
 10
16.0006059555
 20
9.560285589600001
 30
0.0
  0
SEQEND
  5
215
330
1F8
100
AcDbEntity
  8
0
  0
POLYLINE
  5
216
330
A
100
AcDbEntity
  8
0
  6
Continuous
 62
     7
100
AcDb2dPolyline
 66
     1
 10
0.0
 20
0.0
 30
0.0
 70
   128
 40
0.0023622047
 41
0.0023622047
  0
VERTEX
  5
217
330
216
100
AcDbEntity
  8
0
100
AcDbVertex
100
AcDb2dVertex
 10
19.176032436
 20
8.950336253399997
 30
0.0
  0
VERTEX
  5
218
330
216
100
AcDbEntity
  8
0
100
AcDbVertex
100
AcDb2dVertex
 10
19.2113993781
 20
8.935992893899998
 30
0.0
  0
VERTEX
  5
219
330
216
100
AcDbEntity
  8
0
100
AcDbVertex
100
AcDb2dVertex
 10
19.2448596792
 20
8.9141551834
 30
0.0
  0
VERTEX
  5
21A
330
216
100
AcDbEntity
  8
0
100
AcDbVertex
100
AcDb2dVertex
 10
19.27460948589998
 20
8.8860003983
 30
0.0
  0
VERTEX
  5
21B
330
216
100
AcDbEntity
  8
0
100
AcDbVertex
100
AcDb2dVertex
 10
19.29904497819998
 20
8.853046370499997
 30
0.0
  0
VERTEX
  5
21C
330
216
100
AcDbEntity
  8
0
100
AcDbVertex
100
AcDb2dVertex
 10
19.3168488326
 20
8.817069660199997
 30
0.0
  0
VERTEX
  5
21D
330
216
100
AcDbEntity
  8
0
100
AcDbVertex
100
AcDb2dVertex
 10
19.3270612385
 20
8.780009781
 30
0.0
  0
VERTEX
  5
21E
330
216
100
AcDbEntity
  8
0
100
AcDbVertex
100
AcDb2dVertex
 10
19.32913164269998
 20
8.7438646407
 30
0.0
  0
VERTEX
  5
21F
330
216
100
AcDbEntity
  8
0
100
AcDbVertex
100
AcDb2dVertex
 10
19.3229484289
 20
8.7105828331
 30
0.0
  0
VERTEX
  5
220
330
216
100
AcDbEntity
  8
0
100
AcDbVertex
100
AcDb2dVertex
 10
19.30884493599998
 20
8.681958589199997
 30
0.0
  0
VERTEX
  5
221
330
216
100
AcDbEntity
  8
0
100
AcDbVertex
100
AcDb2dVertex
 10
19.2875814868
 20
8.659535049299996
 30
0.0
  0
VERTEX
  5
222
330
216
100
AcDbEntity
  8
0
100
AcDbVertex
100
AcDb2dVertex
 10
19.26030439939999
 20
8.644521072199999
 30
0.0
  0
VERTEX
  5
223
330
216
100
AcDbEntity
  8
0
100
AcDbVertex
100
AcDb2dVertex
 10
19.22848418869999
 20
8.637726065299997
 30
0.0
  0
VERTEX
  5
224
330
216
100
AcDbEntity
  8
0
100
AcDbVertex
100
AcDb2dVertex
 10
19.1938362904
 20
8.639516349299999
 30
0.0
  0
VERTEX
  5
225
330
216
100
AcDbEntity
  8
0
100
AcDbVertex
100
AcDb2dVertex
 10
19.1582285816
 20
8.649795409400001
 30
0.0
  0
VERTEX
  5
226
330
216
100
AcDbEntity
  8
0
100
AcDbVertex
100
AcDb2dVertex
 10
19.12358068329998
 20
8.6680090988
 30
0.0
  0
VERTEX
  5
227
330
216
100
AcDbEntity
  8
0
100
AcDbVertex
100
AcDb2dVertex
 10
19.0917604726
 20
8.693175512899999
 30
0.0
  0
VERTEX
  5
228
330
216
100
AcDbEntity
  8
0
100
AcDbVertex
100
AcDb2dVertex
 10
19.06448338519998
 20
8.723937923799999
 30
0.0
  0
VERTEX
  5
229
330
216
100
AcDbEntity
  8
0
100
AcDbVertex
100
AcDb2dVertex
 10
19.04321993599998
 20
8.7586379218
 30
0.0
  0
VERTEX
  5
22A
330
216
100
AcDbEntity
  8
0
100
AcDbVertex
100
AcDb2dVertex
 10
19.02911644309998
 20
8.7954048212
 30
0.0
  0
VERTEX
  5
22B
330
216
100
AcDbEntity
  8
0
100
AcDbVertex
100
AcDb2dVertex
 10
19.0229332293
 20
8.8322565089
 30
0.0
  0
VERTEX
  5
22C
330
216
100
AcDbEntity
  8
0
100
AcDbVertex
100
AcDb2dVertex
 10
19.02500363349998
 20
8.867206300800001
 30
0.0
  0
VERTEX
  5
22D
330
216
100
AcDbEntity
  8
0
100
AcDbVertex
100
AcDb2dVertex
 10
19.0352160394
 20
8.8983700446
 30
0.0
  0
VERTEX
  5
22E
330
216
100
AcDbEntity
  8
0
100
AcDbVertex
100
AcDb2dVertex
 10
19.0530198938
 20
8.924067694899997
 30
0.0
  0
VERTEX
  5
22F
330
216
100
AcDbEntity
  8
0
100
AcDbVertex
100
AcDb2dVertex
 10
19.07745538609998
 20
8.942913884600001
 30
0.0
  0
VERTEX
  5
230
330
216
100
AcDbEntity
  8
0
100
AcDbVertex
100
AcDb2dVertex
 10
19.10720519279998
 20
8.9538926108
 30
0.0
  0
VERTEX
  5
231
330
216
100
AcDbEntity
  8
0
100
AcDbVertex
100
AcDb2dVertex
 10
19.1406654939
 20
8.9564120075
 30
0.0
  0
VERTEX
  5
232
330
216
100
AcDbEntity
  8
0
100
AcDbVertex
100
AcDb2dVertex
 10
19.176032436
 20
8.950336253399997
 30
0.0
  0
SEQEND
  5
233
330
216
100
AcDbEntity
  8
0
  0
POLYLINE
  5
234
330
A
100
AcDbEntity
  8
0
  6
Continuous
 62
     7
100
AcDb2dPolyline
 66
     1
 10
0.0
 20
0.0
 30
0.0
 70
   128
 40
0.0023622047
 41
0.0023622047
  0
VERTEX
  5
235
330
234
100
AcDbEntity
  8
0
100
AcDbVertex
100
AcDb2dVertex
 10
25.5268853971
 20
7.1170029201
 30
0.0
  0
VERTEX
  5
236
330
234
100
AcDbEntity
  8
0
100
AcDbVertex
100
AcDb2dVertex
 10
25.5622523392
 20
7.102659560599999
 30
0.0
  0
VERTEX
  5
237
330
234
100
AcDbEntity
  8
0
100
AcDbVertex
100
AcDb2dVertex
 10
25.5957126403
 20
7.08082185
 30
0.0
  0
VERTEX
  5
238
330
234
100
AcDbEntity
  8
0
100
AcDbVertex
100
AcDb2dVertex
 10
25.6254624469
 20
7.052667064999998
 30
0.0
  0
VERTEX
  5
239
330
234
100
AcDbEntity
  8
0
100
AcDbVertex
100
AcDb2dVertex
 10
25.64989793929999
 20
7.0197130372
 30
0.0
  0
VERTEX
  5
23A
330
234
100
AcDbEntity
  8
0
100
AcDbVertex
100
AcDb2dVertex
 10
25.66770179369999
 20
6.983736326799999
 30
0.0
  0
VERTEX
  5
23B
330
234
100
AcDbEntity
  8
0
100
AcDbVertex
100
AcDb2dVertex
 10
25.6779141996
 20
6.946676447699998
 30
0.0
  0
VERTEX
  5
23C
330
234
100
AcDbEntity
  8
0
100
AcDbVertex
100
AcDb2dVertex
 10
25.6799846037
 20
6.9105313074
 30
0.0
  0
VERTEX
  5
23D
330
234
100
AcDbEntity
  8
0
100
AcDbVertex
100
AcDb2dVertex
 10
25.67380139
 20
6.8772494998
 30
0.0
  0
VERTEX
  5
23E
330
234
100
AcDbEntity
  8
0
100
AcDbVertex
100
AcDb2dVertex
 10
25.6596978971
 20
6.8486252559
 30
0.0
  0
VERTEX
  5
23F
330
234
100
AcDbEntity
  8
0
100
AcDbVertex
100
AcDb2dVertex
 10
25.6384344479
 20
6.826201715899999
 30
0.0
  0
VERTEX
  5
240
330
234
100
AcDbEntity
  8
0
100
AcDbVertex
100
AcDb2dVertex
 10
25.6111573605
 20
6.8111877388
 30
0.0
  0
VERTEX
  5
241
330
234
100
AcDbEntity
  8
0
100
AcDbVertex
100
AcDb2dVertex
 10
25.5793371498
 20
6.804392732
 30
0.0
  0
VERTEX
  5
242
330
234
100
AcDbEntity
  8
0
100
AcDbVertex
100
AcDb2dVertex
 10
25.5446892514
 20
6.8061830159
 30
0.0
  0
VERTEX
  5
243
330
234
100
AcDbEntity
  8
0
100
AcDbVertex
100
AcDb2dVertex
 10
25.5090815427
 20
6.816462076
 30
0.0
  0
VERTEX
  5
244
330
234
100
AcDbEntity
  8
0
100
AcDbVertex
100
AcDb2dVertex
 10
25.4744336444
 20
6.834675765499999
 30
0.0
  0
VERTEX
  5
245
330
234
100
AcDbEntity
  8
0
100
AcDbVertex
100
AcDb2dVertex
 10
25.4426134337
 20
6.8598421796
 30
0.0
  0
VERTEX
  5
246
330
234
100
AcDbEntity
  8
0
100
AcDbVertex
100
AcDb2dVertex
 10
25.4153363463
 20
6.890604590399999
 30
0.0
  0
VERTEX
  5
247
330
234
100
AcDbEntity
  8
0
100
AcDbVertex
100
AcDb2dVertex
 10
25.3940728971
 20
6.9253045885
 30
0.0
  0
VERTEX
  5
248
330
234
100
AcDbEntity
  8
0
100
AcDbVertex
100
AcDb2dVertex
 10
25.3799694041
 20
6.962071487899999
 30
0.0
  0
VERTEX
  5
249
330
234
100
AcDbEntity
  8
0
100
AcDbVertex
100
AcDb2dVertex
 10
25.3737861904
 20
6.998923175499999
 30
0.0
  0
VERTEX
  5
24A
330
234
100
AcDbEntity
  8
0
100
AcDbVertex
100
AcDb2dVertex
 10
25.3758565946
 20
7.033872967499998
 30
0.0
  0
VERTEX
  5
24B
330
234
100
AcDbEntity
  8
0
100
AcDbVertex
100
AcDb2dVertex
 10
25.3860690005
 20
7.0650367113
 30
0.0
  0
VERTEX
  5
24C
330
234
100
AcDbEntity
  8
0
100
AcDbVertex
100
AcDb2dVertex
 10
25.4038728549
 20
7.0907343616
 30
0.0
  0
VERTEX
  5
24D
330
234
100
AcDbEntity
  8
0
100
AcDbVertex
100
AcDb2dVertex
 10
25.4283083472
 20
7.109580551299998
 30
0.0
  0
VERTEX
  5
24E
330
234
100
AcDbEntity
  8
0
100
AcDbVertex
100
AcDb2dVertex
 10
25.4580581538
 20
7.120559277499999
 30
0.0
  0
VERTEX
  5
24F
330
234
100
AcDbEntity
  8
0
100
AcDbVertex
100
AcDb2dVertex
 10
25.491518455
 20
7.123078674199999
 30
0.0
  0
VERTEX
  5
250
330
234
100
AcDbEntity
  8
0
100
AcDbVertex
100
AcDb2dVertex
 10
25.5268853971
 20
7.1170029201
 30
0.0
  0
SEQEND
  5
251
330
234
100
AcDbEntity
  8
0
  0
LINE
  5
252
330
A
100
AcDbEntity
  8
0
  6
Continuous
 62
     7
370
    15
100
AcDbLine
 10
7.917702186799999
 20
11.5351721979
 30
0.0
 11
8.296443963399999
 21
12.80366965859998
 31
0.0
  0
LINE
  5
253
330
A
100
AcDbEntity
  8
0
  6
Continuous
 62
     7
370
    15
100
AcDbLine
 10
8.296443963399999
 20
12.80366965859998
 30
0.0
 11
15.278918119
 21
12.8087289341
 31
0.0
  0
LINE
  5
254
330
A
100
AcDbEntity
  8
0
  6
Continuous
 62
     7
370
    15
100
AcDbLine
 10
15.278918119
 20
12.8087289341
 30
0.0
 11
19.89772027249999
 21
11.4753956008
 31
0.0
  0
LINE
  5
255
330
A
100
AcDbEntity
  8
0
  6
Continuous
 62
     7
370
    15
100
AcDbLine
 10
19.89772027249999
 20
11.4753956008
 30
0.0
 11
26.8801944281
 21
7.4390029919
 31
0.0
  0
LINE
  5
256
330
A
100
AcDbEntity
  8
0
  6
Continuous
 62
     7
370
    15
100
AcDbLine
 10
26.8801944281
 20
7.4390029919
 30
0.0
 11
27.25893620469999
 21
5.9518388646
 31
0.0
  0
LINE
  5
257
330
A
100
AcDbEntity
  8
0
  6
Continuous
 62
     7
370
    15
100
AcDbLine
 10
27.25893620469999
 20
5.9518388646
 30
0.0
 11
27.25893620469999
 21
5.453281283699999
 31
0.0
  0
LINE
  5
258
330
A
100
AcDbEntity
  8
0
  6
Continuous
 62
     7
370
    15
100
AcDbLine
 10
7.917702186799999
 20
11.0366146171
 30
0.0
 11
27.25893620469999
 21
5.453281283699999
 31
0.0
  0
LINE
  5
259
330
A
100
AcDbEntity
  8
0
  6
Continuous
 62
     7
370
    15
100
AcDbLine
 10
7.917702186799999
 20
11.0366146171
 30
0.0
 11
7.917702186799999
 21
11.5351721979
 31
0.0
  0
POLYLINE
  5
25A
330
A
100
AcDbEntity
  8
0
  6
Continuous
 62
     7
100
AcDb2dPolyline
 66
     1
 10
0.0
 20
0.0
 30
0.0
 70
   128
 40
0.0023622047
 41
0.0023622047
  0
VERTEX
  5
25B
330
25A
100
AcDbEntity
  8
0
100
AcDbVertex
100
AcDb2dVertex
 10
22.3514589165
 20
8.0336695867
 30
0.0
  0
VERTEX
  5
25C
330
25A
100
AcDbEntity
  8
0
100
AcDbVertex
100
AcDb2dVertex
 10
22.38682585869999
 20
8.0193262273
 30
0.0
  0
VERTEX
  5
25D
330
25A
100
AcDbEntity
  8
0
100
AcDbVertex
100
AcDb2dVertex
 10
22.4202861598
 20
7.997488516699999
 30
0.0
  0
VERTEX
  5
25E
330
25A
100
AcDbEntity
  8
0
100
AcDbVertex
100
AcDb2dVertex
 10
22.45003596639999
 20
7.969333731699999
 30
0.0
  0
VERTEX
  5
25F
330
25A
100
AcDbEntity
  8
0
100
AcDbVertex
100
AcDb2dVertex
 10
22.4744714588
 20
7.9363797039
 30
0.0
  0
VERTEX
  5
260
330
25A
100
AcDbEntity
  8
0
100
AcDbVertex
100
AcDb2dVertex
 10
22.49227531309999
 20
7.9004029935
 30
0.0
  0
VERTEX
  5
261
330
25A
100
AcDbEntity
  8
0
100
AcDbVertex
100
AcDb2dVertex
 10
22.50248771909999
 20
7.863343114299999
 30
0.0
  0
VERTEX
  5
262
330
25A
100
AcDbEntity
  8
0
100
AcDbVertex
100
AcDb2dVertex
 10
22.5045581232
 20
7.827197973999998
 30
0.0
  0
VERTEX
  5
263
330
25A
100
AcDbEntity
  8
0
100
AcDbVertex
100
AcDb2dVertex
 10
22.49837490949999
 20
7.793916166499998
 30
0.0
  0
VERTEX
  5
264
330
25A
100
AcDbEntity
  8
0
100
AcDbVertex
100
AcDb2dVertex
 10
22.4842714165
 20
7.7652919225
 30
0.0
  0
VERTEX
  5
265
330
25A
100
AcDbEntity
  8
0
100
AcDbVertex
100
AcDb2dVertex
 10
22.46300796739999
 20
7.7428683826
 30
0.0
  0
VERTEX
  5
266
330
25A
100
AcDbEntity
  8
0
100
AcDbVertex
100
AcDb2dVertex
 10
22.43573088
 20
7.727854405499999
 30
0.0
  0
VERTEX
  5
267
330
25A
100
AcDbEntity
  8
0
100
AcDbVertex
100
AcDb2dVertex
 10
22.4039106692
 20
7.7210593986
 30
0.0
  0
VERTEX
  5
268
330
25A
100
AcDbEntity
  8
0
100
AcDbVertex
100
AcDb2dVertex
 10
22.3692627709
 20
7.722849682599998
 30
0.0
  0
VERTEX
  5
269
330
25A
100
AcDbEntity
  8
0
100
AcDbVertex
100
AcDb2dVertex
 10
22.33365506219998
 20
7.733128742699999
 30
0.0
  0
VERTEX
  5
26A
330
25A
100
AcDbEntity
  8
0
100
AcDbVertex
100
AcDb2dVertex
 10
22.29900716389999
 20
7.7513424322
 30
0.0
  0
VERTEX
  5
26B
330
25A
100
AcDbEntity
  8
0
100
AcDbVertex
100
AcDb2dVertex
 10
22.26718695309999
 20
7.776508846299998
 30
0.0
  0
VERTEX
  5
26C
330
25A
100
AcDbEntity
  8
0
100
AcDbVertex
100
AcDb2dVertex
 10
22.2399098657
 20
7.8072712571
 30
0.0
  0
VERTEX
  5
26D
330
25A
100
AcDbEntity
  8
0
100
AcDbVertex
100
AcDb2dVertex
 10
22.2186464165
 20
7.841971255199998
 30
0.0
  0
VERTEX
  5
26E
330
25A
100
AcDbEntity
  8
0
100
AcDbVertex
100
AcDb2dVertex
 10
22.2045429236
 20
7.8787381545
 30
0.0
  0
VERTEX
  5
26F
330
25A
100
AcDbEntity
  8
0
100
AcDbVertex
100
AcDb2dVertex
 10
22.19835970989998
 20
7.9155898422
 30
0.0
  0
VERTEX
  5
270
330
25A
100
AcDbEntity
  8
0
100
AcDbVertex
100
AcDb2dVertex
 10
22.200430114
 20
7.9505396341
 30
0.0
  0
VERTEX
  5
271
330
25A
100
AcDbEntity
  8
0
100
AcDbVertex
100
AcDb2dVertex
 10
22.21064252
 20
7.981703377999999
 30
0.0
  0
VERTEX
  5
272
330
25A
100
AcDbEntity
  8
0
100
AcDbVertex
100
AcDb2dVertex
 10
22.2284463743
 20
8.0074010282
 30
0.0
  0
VERTEX
  5
273
330
25A
100
AcDbEntity
  8
0
100
AcDbVertex
100
AcDb2dVertex
 10
22.2528818667
 20
8.026247217899999
 30
0.0
  0
VERTEX
  5
274
330
25A
100
AcDbEntity
  8
0
100
AcDbVertex
100
AcDb2dVertex
 10
22.2826316733
 20
8.037225944099999
 30
0.0
  0
VERTEX
  5
275
330
25A
100
AcDbEntity
  8
0
100
AcDbVertex
100
AcDb2dVertex
 10
22.3160919744
 20
8.039745340799999
 30
0.0
  0
VERTEX
  5
276
330
25A
100
AcDbEntity
  8
0
100
AcDbVertex
100
AcDb2dVertex
 10
22.3514589165
 20
8.0336695867
 30
0.0
  0
SEQEND
  5
277
330
25A
100
AcDbEntity
  8
0
  0
POLYLINE
  5
278
330
A
100
AcDbEntity
  8
0
  6
Continuous
 62
     7
100
AcDb2dPolyline
 66
     1
 10
0.0
 20
0.0
 30
0.0
 70
   128
 40
0.0023622047
 41
0.0023622047
  0
VERTEX
  5
279
330
278
100
AcDbEntity
  8
0
100
AcDbVertex
100
AcDb2dVertex
 10
17.58831919569998
 20
11.42037443089999
 30
0.0
  0
VERTEX
  5
27A
330
278
100
AcDbEntity
  8
0
100
AcDbVertex
100
AcDb2dVertex
 10
17.64728108439999
 20
11.3993204961
 30
0.0
  0
VERTEX
  5
27B
330
278
100
AcDbEntity
  8
0
100
AcDbVertex
100
AcDb2dVertex
 10
17.70514462459998
 20
11.3705925489
 30
0.0
  0
VERTEX
  5
27C
330
278
100
AcDbEntity
  8
0
100
AcDbVertex
100
AcDb2dVertex
 10
17.76083192809998
 20
11.3347257367
 30
0.0
  0
VERTEX
  5
27D
330
278
100
AcDbEntity
  8
0
100
AcDbVertex
100
AcDb2dVertex
 10
17.8133056458
 20
11.2923881902
 30
0.0
  0
VERTEX
  5
27E
330
278
100
AcDbEntity
  8
0
100
AcDbVertex
100
AcDb2dVertex
 10
17.8615882916
 20
11.24436857789999
 30
0.0
  0
VERTEX
  5
27F
330
278
100
AcDbEntity
  8
0
100
AcDbVertex
100
AcDb2dVertex
 10
17.9047804513
 20
11.1915614142
 30
0.0
  0
VERTEX
  5
280
330
278
100
AcDbEntity
  8
0
100
AcDbVertex
100
AcDb2dVertex
 10
17.9420775365
 20
11.1349503968
 30
0.0
  0
VERTEX
  5
281
330
278
100
AcDbEntity
  8
0
100
AcDbVertex
100
AcDb2dVertex
 10
17.97278477309999
 20
11.0755900818
 30
0.0
  0
VERTEX
  5
282
330
278
100
AcDbEntity
  8
0
100
AcDbVertex
100
AcDb2dVertex
 10
17.9963301435
 20
11.01458623949999
 30
0.0
  0
VERTEX
  5
283
330
278
100
AcDbEntity
  8
0
100
AcDbVertex
100
AcDb2dVertex
 10
18.0122750419
 20
10.95307525599998
 30
0.0
  0
VERTEX
  5
284
330
278
100
AcDbEntity
  8
0
100
AcDbVertex
100
AcDb2dVertex
 10
18.0203224451
 20
10.8922029647
 30
0.0
  0
VERTEX
  5
285
330
278
100
AcDbEntity
  8
0
100
AcDbVertex
100
AcDb2dVertex
 10
18.0203224451
 20
10.83310330109998
 30
0.0
  0
VERTEX
  5
286
330
278
100
AcDbEntity
  8
0
100
AcDbVertex
100
AcDb2dVertex
 10
18.0122750419
 20
10.77687718019999
 30
0.0
  0
VERTEX
  5
287
330
278
100
AcDbEntity
  8
0
100
AcDbVertex
100
AcDb2dVertex
 10
17.9963301435
 20
10.7245719881
 30
0.0
  0
VERTEX
  5
288
330
278
100
AcDbEntity
  8
0
100
AcDbVertex
100
AcDb2dVertex
 10
17.97278477309999
 20
10.67716207169999
 30
0.0
  0
VERTEX
  5
289
330
278
100
AcDbEntity
  8
0
100
AcDbVertex
100
AcDb2dVertex
 10
17.9420775365
 20
10.63553058799999
 30
0.0
  0
VERTEX
  5
28A
330
278
100
AcDbEntity
  8
0
100
AcDbVertex
100
AcDb2dVertex
 10
17.9047804513
 20
10.60045305279998
 30
0.0
  0
VERTEX
  5
28B
330
278
100
AcDbEntity
  8
0
100
AcDbVertex
100
AcDb2dVertex
 10
17.8615882916
 20
10.57258289409998
 30
0.0
  0
VERTEX
  5
28C
330
278
100
AcDbEntity
  8
0
100
AcDbVertex
100
AcDb2dVertex
 10
17.8133056458
 20
10.5524392804
 30
0.0
  0
VERTEX
  5
28D
330
278
100
AcDbEntity
  8
0
100
AcDbVertex
100
AcDb2dVertex
 10
17.76083192809998
 20
10.5403974489
 30
0.0
  0
VERTEX
  5
28E
330
278
100
AcDbEntity
  8
0
100
AcDbVertex
100
AcDb2dVertex
 10
17.70514462459998
 20
10.5366817164
 30
0.0
  0
VERTEX
  5
28F
330
278
100
AcDbEntity
  8
0
100
AcDbVertex
100
AcDb2dVertex
 10
17.64728108439999
 20
10.5413612997
 30
0.0
  0
VERTEX
  5
290
330
278
100
AcDbEntity
  8
0
100
AcDbVertex
100
AcDb2dVertex
 10
17.58831919569998
 20
10.5543490271
 30
0.0
  0
VERTEX
  5
291
330
278
100
AcDbEntity
  8
0
100
AcDbVertex
100
AcDb2dVertex
 10
17.52935730709999
 20
10.575402962
 30
0.0
  0
VERTEX
  5
292
330
278
100
AcDbEntity
  8
0
100
AcDbVertex
100
AcDb2dVertex
 10
17.4714937669
 20
10.6041309091
 30
0.0
  0
VERTEX
  5
293
330
278
100
AcDbEntity
  8
0
100
AcDbVertex
100
AcDb2dVertex
 10
17.4158064634
 20
10.6399977214
 30
0.0
  0
VERTEX
  5
294
330
278
100
AcDbEntity
  8
0
100
AcDbVertex
100
AcDb2dVertex
 10
17.36333274569998
 20
10.6823352679
 30
0.0
  0
VERTEX
  5
295
330
278
100
AcDbEntity
  8
0
100
AcDbVertex
100
AcDb2dVertex
 10
17.3150500998
 20
10.7303548802
 30
0.0
  0
VERTEX
  5
296
330
278
100
AcDbEntity
  8
0
100
AcDbVertex
100
AcDb2dVertex
 10
17.2718579402
 20
10.7831620438
 30
0.0
  0
VERTEX
  5
297
330
278
100
AcDbEntity
  8
0
100
AcDbVertex
100
AcDb2dVertex
 10
17.234560855
 20
10.8397730613
 30
0.0
  0
VERTEX
  5
298
330
278
100
AcDbEntity
  8
0
100
AcDbVertex
100
AcDb2dVertex
 10
17.2038536183
 20
10.8991333763
 30
0.0
  0
VERTEX
  5
299
330
278
100
AcDbEntity
  8
0
100
AcDbVertex
100
AcDb2dVertex
 10
17.180308248
 20
10.96013721859999
 30
0.0
  0
VERTEX
  5
29A
330
278
100
AcDbEntity
  8
0
100
AcDbVertex
100
AcDb2dVertex
 10
17.1643633495
 20
11.0216482021
 30
0.0
  0
VERTEX
  5
29B
330
278
100
AcDbEntity
  8
0
100
AcDbVertex
100
AcDb2dVertex
 10
17.1563159464
 20
11.08252049339998
 30
0.0
  0
VERTEX
  5
29C
330
278
100
AcDbEntity
  8
0
100
AcDbVertex
100
AcDb2dVertex
 10
17.1563159464
 20
11.141620157
 30
0.0
  0
VERTEX
  5
29D
330
278
100
AcDbEntity
  8
0
100
AcDbVertex
100
AcDb2dVertex
 10
17.1643633495
 20
11.1978462779
 30
0.0
  0
VERTEX
  5
29E
330
278
100
AcDbEntity
  8
0
100
AcDbVertex
100
AcDb2dVertex
 10
17.180308248
 20
11.25015147
 30
0.0
  0
VERTEX
  5
29F
330
278
100
AcDbEntity
  8
0
100
AcDbVertex
100
AcDb2dVertex
 10
17.2038536183
 20
11.2975613864
 30
0.0
  0
VERTEX
  5
2A0
330
278
100
AcDbEntity
  8
0
100
AcDbVertex
100
AcDb2dVertex
 10
17.234560855
 20
11.3391928701
 30
0.0
  0
VERTEX
  5
2A1
330
278
100
AcDbEntity
  8
0
100
AcDbVertex
100
AcDb2dVertex
 10
17.2718579402
 20
11.37427040529999
 30
0.0
  0
VERTEX
  5
2A2
330
278
100
AcDbEntity
  8
0
100
AcDbVertex
100
AcDb2dVertex
 10
17.3150500998
 20
11.402140564
 30
0.0
  0
VERTEX
  5
2A3
330
278
100
AcDbEntity
  8
0
100
AcDbVertex
100
AcDb2dVertex
 10
17.36333274569998
 20
11.42228417769999
 30
0.0
  0
VERTEX
  5
2A4
330
278
100
AcDbEntity
  8
0
100
AcDbVertex
100
AcDb2dVertex
 10
17.4158064634
 20
11.4343260091
 30
0.0
  0
VERTEX
  5
2A5
330
278
100
AcDbEntity
  8
0
100
AcDbVertex
100
AcDb2dVertex
 10
17.4714937669
 20
11.4380417417
 30
0.0
  0
VERTEX
  5
2A6
330
278
100
AcDbEntity
  8
0
100
AcDbVertex
100
AcDb2dVertex
 10
17.52935730709999
 20
11.4333621584
 30
0.0
  0
VERTEX
  5
2A7
330
278
100
AcDbEntity
  8
0
100
AcDbVertex
100
AcDb2dVertex
 10
17.58831919569998
 20
11.42037443089999
 30
0.0
  0
SEQEND
  5
2A8
330
278
100
AcDbEntity
  8
0
  0
POLYLINE
  5
2A9
330
A
100
AcDbEntity
  8
0
  6
Continuous
 62
     7
100
AcDb2dPolyline
 66
     1
 10
0.0
 20
0.0
 30
0.0
 70
   128
 40
0.0023622047
 41
0.0023622047
  0
VERTEX
  5
2AA
330
2A9
100
AcDbEntity
  8
0
100
AcDbVertex
100
AcDb2dVertex
 10
12.8251794749
 20
10.4769522562
 30
0.0
  0
VERTEX
  5
2AB
330
2A9
100
AcDbEntity
  8
0
100
AcDbVertex
100
AcDb2dVertex
 10
12.7898125328
 20
10.4912956157
 30
0.0
  0
VERTEX
  5
2AC
330
2A9
100
AcDbEntity
  8
0
100
AcDbVertex
100
AcDb2dVertex
 10
12.7563522317
 20
10.5131333262
 30
0.0
  0
VERTEX
  5
2AD
330
2A9
100
AcDbEntity
  8
0
100
AcDbVertex
100
AcDb2dVertex
 10
12.72660242499999
 20
10.5412881113
 30
0.0
  0
VERTEX
  5
2AE
330
2A9
100
AcDbEntity
  8
0
100
AcDbVertex
100
AcDb2dVertex
 10
12.7021669327
 20
10.57424213909998
 30
0.0
  0
VERTEX
  5
2AF
330
2A9
100
AcDbEntity
  8
0
100
AcDbVertex
100
AcDb2dVertex
 10
12.6843630783
 20
10.6102188495
 30
0.0
  0
VERTEX
  5
2B0
330
2A9
100
AcDbEntity
  8
0
100
AcDbVertex
100
AcDb2dVertex
 10
12.67415067239999
 20
10.6472787286
 30
0.0
  0
VERTEX
  5
2B1
330
2A9
100
AcDbEntity
  8
0
100
AcDbVertex
100
AcDb2dVertex
 10
12.6720802682
 20
10.6834238689
 30
0.0
  0
VERTEX
  5
2B2
330
2A9
100
AcDbEntity
  8
0
100
AcDbVertex
100
AcDb2dVertex
 10
12.678263482
 20
10.7167056765
 30
0.0
  0
VERTEX
  5
2B3
330
2A9
100
AcDbEntity
  8
0
100
AcDbVertex
100
AcDb2dVertex
 10
12.6923669749
 20
10.74532992039999
 30
0.0
  0
VERTEX
  5
2B4
330
2A9
100
AcDbEntity
  8
0
100
AcDbVertex
100
AcDb2dVertex
 10
12.7136304241
 20
10.7677534604
 30
0.0
  0
VERTEX
  5
2B5
330
2A9
100
AcDbEntity
  8
0
100
AcDbVertex
100
AcDb2dVertex
 10
12.7409075115
 20
10.7827674374
 30
0.0
  0
VERTEX
  5
2B6
330
2A9
100
AcDbEntity
  8
0
100
AcDbVertex
100
AcDb2dVertex
 10
12.7727277222
 20
10.7895624443
 30
0.0
  0
VERTEX
  5
2B7
330
2A9
100
AcDbEntity
  8
0
100
AcDbVertex
100
AcDb2dVertex
 10
12.8073756206
 20
10.78777216029999
 30
0.0
  0
VERTEX
  5
2B8
330
2A9
100
AcDbEntity
  8
0
100
AcDbVertex
100
AcDb2dVertex
 10
12.8429833293
 20
10.77749310019999
 30
0.0
  0
VERTEX
  5
2B9
330
2A9
100
AcDbEntity
  8
0
100
AcDbVertex
100
AcDb2dVertex
 10
12.8776312276
 20
10.7592794108
 30
0.0
  0
VERTEX
  5
2BA
330
2A9
100
AcDbEntity
  8
0
100
AcDbVertex
100
AcDb2dVertex
 10
12.9094514383
 20
10.7341129967
 30
0.0
  0
VERTEX
  5
2BB
330
2A9
100
AcDbEntity
  8
0
100
AcDbVertex
100
AcDb2dVertex
 10
12.9367285257
 20
10.7033505858
 30
0.0
  0
VERTEX
  5
2BC
330
2A9
100
AcDbEntity
  8
0
100
AcDbVertex
100
AcDb2dVertex
 10
12.9579919749
 20
10.6686505878
 30
0.0
  0
VERTEX
  5
2BD
330
2A9
100
AcDbEntity
  8
0
100
AcDbVertex
100
AcDb2dVertex
 10
12.9720954678
 20
10.6318836884
 30
0.0
  0
VERTEX
  5
2BE
330
2A9
100
AcDbEntity
  8
0
100
AcDbVertex
100
AcDb2dVertex
 10
12.9782786816
 20
10.59503200069998
 30
0.0
  0
VERTEX
  5
2BF
330
2A9
100
AcDbEntity
  8
0
100
AcDbVertex
100
AcDb2dVertex
 10
12.9762082774
 20
10.5600822088
 30
0.0
  0
VERTEX
  5
2C0
330
2A9
100
AcDbEntity
  8
0
100
AcDbVertex
100
AcDb2dVertex
 10
12.9659958715
 20
10.528918465
 30
0.0
  0
VERTEX
  5
2C1
330
2A9
100
AcDbEntity
  8
0
100
AcDbVertex
100
AcDb2dVertex
 10
12.9481920171
 20
10.5032208147
 30
0.0
  0
VERTEX
  5
2C2
330
2A9
100
AcDbEntity
  8
0
100
AcDbVertex
100
AcDb2dVertex
 10
12.9237565248
 20
10.48437462499999
 30
0.0
  0
VERTEX
  5
2C3
330
2A9
100
AcDbEntity
  8
0
100
AcDbVertex
100
AcDb2dVertex
 10
12.8940067182
 20
10.47339589879999
 30
0.0
  0
VERTEX
  5
2C4
330
2A9
100
AcDbEntity
  8
0
100
AcDbVertex
100
AcDb2dVertex
 10
12.860546417
 20
10.4708765021
 30
0.0
  0
VERTEX
  5
2C5
330
2A9
100
AcDbEntity
  8
0
100
AcDbVertex
100
AcDb2dVertex
 10
12.8251794749
 20
10.4769522562
 30
0.0
  0
SEQEND
  5
2C6
330
2A9
100
AcDbEntity
  8
0
  0
LINE
  5
2C7
330
A
100
AcDbEntity
  8
0
  6
Continuous
 62
     7
370
    15
100
AcDbLine
 10
20.2310536058
 20
11.76407073529998
 30
0.0
 11
19.89772027249999
 21
11.4753956008
 31
0.0
  0
LINE
  5
2C8
330
A
100
AcDbEntity
  8
0
  6
Continuous
 62
     7
370
    15
100
AcDbLine
 10
20.2310536058
 20
11.76407073529998
 30
0.0
 11
27.21352776139998
 21
7.727678126499998
 31
0.0
  0
LINE
  5
2C9
330
A
100
AcDbEntity
  8
0
  6
Continuous
 62
     7
370
    15
100
AcDbLine
 10
27.21352776139998
 20
7.727678126499998
 30
0.0
 11
26.8801944281
 21
7.4390029919
 31
0.0
  0
LINE
  5
2CA
330
A
100
AcDbEntity
  8
0
  6
Continuous
 62
     7
370
    15
100
AcDbLine
 10
27.592269538
 20
6.240513999199999
 30
0.0
 11
27.25893620469999
 21
5.9518388646
 31
0.0
  0
LINE
  5
2CB
330
A
100
AcDbEntity
  8
0
  6
Continuous
 62
     7
370
    15
100
AcDbLine
 10
27.21352776139998
 20
7.727678126499998
 30
0.0
 11
27.592269538
 21
6.240513999199999
 31
0.0
  0
LINE
  5
2CC
330
A
100
AcDbEntity
  8
0
  6
Continuous
 62
     7
370
    15
100
AcDbLine
 10
27.5089362047
 20
5.5254500674
 30
0.0
 11
27.592269538
 21
5.7419564183
 31
0.0
  0
LINE
  5
2CD
330
A
100
AcDbEntity
  8
0
  6
Continuous
 62
     7
370
    15
100
AcDbLine
 10
27.5089362047
 20
5.5254500674
 30
0.0
 11
27.342269538
 21
5.381112500099998
 31
0.0
  0
LINE
  5
2CE
330
A
100
AcDbEntity
  8
0
  6
Continuous
 62
     7
370
    15
100
AcDbLine
 10
27.25893620469999
 20
5.453281283699999
 30
0.0
 11
27.342269538
 21
5.381112500099998
 31
0.0
  0
LINE
  5
2CF
330
A
100
AcDbEntity
  8
0
  6
Continuous
 62
     7
370
    15
100
AcDbLine
 10
27.592269538
 20
6.240513999199999
 30
0.0
 11
27.592269538
 21
5.7419564183
 31
0.0
  0
LINE
  5
2D0
330
A
100
AcDbEntity
  8
0
  6
Continuous
 62
     7
370
    15
100
AcDbLine
 10
27.342269538
 20
5.381112500099998
 30
0.0
 11
8.0010355201
 21
10.9644458334
 31
0.0
  0
LINE
  5
2D1
330
A
100
AcDbEntity
  8
0
  6
Continuous
 62
     7
370
    15
100
AcDbLine
 10
8.0010355201
 20
10.9644458334
 30
0.0
 11
7.917702186799999
 21
11.0366146171
 31
0.0
  0
LINE
  5
2D2
330
A
100
AcDbEntity
  8
0
  6
Continuous
 62
     7
370
    15
100
AcDbLine
 10
15.6122514523
 20
13.0974040687
 30
0.0
 11
15.278918119
 21
12.8087289341
 31
0.0
  0
LINE
  5
2D3
330
A
100
AcDbEntity
  8
0
  6
Continuous
 62
     7
370
    15
100
AcDbLine
 10
15.6122514523
 20
13.0974040687
 30
0.0
 11
20.2310536058
 21
11.76407073529998
 31
0.0
  0
POLYLINE
  5
2D4
330
A
100
AcDbEntity
  8
0
  6
Continuous
 62
     7
100
AcDb2dPolyline
 66
     1
 10
0.0
 20
0.0
 30
0.0
 70
   128
 40
0.0023622047
 41
0.0023622047
  0
VERTEX
  5
2D5
330
2D4
100
AcDbEntity
  8
0
100
AcDbVertex
100
AcDb2dVertex
 10
18.0197608992
 20
10.8259634188
 30
0.0
  0
VERTEX
  5
2D6
330
2D4
100
AcDbEntity
  8
0
100
AcDbVertex
100
AcDb2dVertex
 10
17.9806144177
 20
10.8300364343
 30
0.0
  0
VERTEX
  5
2D7
330
2D4
100
AcDbEntity
  8
0
100
AcDbVertex
100
AcDb2dVertex
 10
17.9216525291
 20
10.8430241617
 30
0.0
  0
VERTEX
  5
2D8
330
2D4
100
AcDbEntity
  8
0
100
AcDbVertex
100
AcDb2dVertex
 10
17.8626906404
 20
10.8640780966
 30
0.0
  0
VERTEX
  5
2D9
330
2D4
100
AcDbEntity
  8
0
100
AcDbVertex
100
AcDb2dVertex
 10
17.8048271002
 20
10.89280604369998
 30
0.0
  0
VERTEX
  5
2DA
330
2D4
100
AcDbEntity
  8
0
100
AcDbVertex
100
AcDb2dVertex
 10
17.74913979669999
 20
10.92867285599999
 30
0.0
  0
VERTEX
  5
2DB
330
2D4
100
AcDbEntity
  8
0
100
AcDbVertex
100
AcDb2dVertex
 10
17.696666079
 20
10.97101040249999
 30
0.0
  0
VERTEX
  5
2DC
330
2D4
100
AcDbEntity
  8
0
100
AcDbVertex
100
AcDb2dVertex
 10
17.6483834332
 20
11.01903001479999
 30
0.0
  0
VERTEX
  5
2DD
330
2D4
100
AcDbEntity
  8
0
100
AcDbVertex
100
AcDb2dVertex
 10
17.60519127349998
 20
11.07183717839999
 30
0.0
  0
VERTEX
  5
2DE
330
2D4
100
AcDbEntity
  8
0
100
AcDbVertex
100
AcDb2dVertex
 10
17.56789418829998
 20
11.1284481959
 30
0.0
  0
VERTEX
  5
2DF
330
2D4
100
AcDbEntity
  8
0
100
AcDbVertex
100
AcDb2dVertex
 10
17.5371869517
 20
11.18780851089999
 30
0.0
  0
VERTEX
  5
2E0
330
2D4
100
AcDbEntity
  8
0
100
AcDbVertex
100
AcDb2dVertex
 10
17.5136415813
 20
11.24881235319999
 30
0.0
  0
VERTEX
  5
2E1
330
2D4
100
AcDbEntity
  8
0
100
AcDbVertex
100
AcDb2dVertex
 10
17.49769668289999
 20
11.3103233367
 30
0.0
  0
VERTEX
  5
2E2
330
2D4
100
AcDbEntity
  8
0
100
AcDbVertex
100
AcDb2dVertex
 10
17.4896492797
 20
11.37119562799999
 30
0.0
  0
VERTEX
  5
2E3
330
2D4
100
AcDbEntity
  8
0
100
AcDbVertex
100
AcDb2dVertex
 10
17.4896492797
 20
11.4302952916
 30
0.0
  0
VERTEX
  5
2E4
330
2D4
100
AcDbEntity
  8
0
100
AcDbVertex
100
AcDb2dVertex
 10
17.49021082559999
 20
11.4374351739
 30
0.0
  0
SEQEND
  5
2E5
330
2D4
100
AcDbEntity
  8
0
  0
LINE
  5
2E6
330
A
100
AcDbEntity
  8
0
  6
Continuous
 62
     7
370
    15
100
AcDbLine
 10
8.6297772967
 20
13.09234479319999
 30
0.0
 11
8.296443963399999
 21
12.80366965859998
 31
0.0
  0
LINE
  5
2E7
330
A
100
AcDbEntity
  8
0
  6
Continuous
 62
     7
370
    15
100
AcDbLine
 10
8.6297772967
 20
13.09234479319999
 30
0.0
 11
15.6122514523
 21
13.0974040687
 31
0.0
  0
ENDSEC
  0
SECTION
  2
OBJECTS
  0
DICTIONARY
  5
19
330
0
100
AcDbDictionary
281
     1
  3
ACAD_GROUP
350
1A
  3
ACAD_LAYOUT
350
1E
  3
ACAD_MLINESTYLE
350
1B
  3
ACAD_PLOTSETTINGS
350
22
  3
ACAD_PLOTSTYLENAME
350
1F
  3
ACAD_WIPEOUT_VARS
350
23
  0
DICTIONARY
  5
1A
102
{ACAD_REACTORS
330
19
102
}
330
19
100
AcDbDictionary
281
     1
  0
DICTIONARY
  5
1E
102
{ACAD_REACTORS
330
19
102
}
330
19
100
AcDbDictionary
281
     1
  3
Layout1
350
21
  3
Model
350
20
  0
DICTIONARY
  5
1B
102
{ACAD_REACTORS
330
19
102
}
330
19
100
AcDbDictionary
281
     1
  3
Standard
350
1C
  0
DICTIONARY
  5
22
102
{ACAD_REACTORS
330
19
102
}
330
19
100
AcDbDictionary
281
     1
  0
ACDBDICTIONARYWDFLT
  5
1F
102
{ACAD_REACTORS
330
19
102
}
330
19
100
AcDbDictionary
281
     1
  3
Normal
350
1D
100
AcDbDictionaryWithDefault
340
1D
  0
WIPEOUTVARIABLES
  5
23
330
19
100
AcDbWipeoutVariables
 70
     1
  0
LAYOUT
  5
21
102
{ACAD_REACTORS
330
1E
102
}
330
1E
100
AcDbPlotSettings
  1

  2

  4

  6

 40
0.0
 41
0.0
 42
0.0
 43
0.0
 44
0.0
 45
0.0
 46
0.0
 47
0.0
 48
0.0
 49
0.0
140
0.0
141
0.0
142
1.0
143
1.0
 70
     0
 72
     0
 73
     0
 74
     0
  7

 75
     0
147
1.0
148
0.0
149
0.0
100
AcDbLayout
  1
Layout1
 70
     1
 71
     1
 10
0.0
 20
0.0
 11
12.0
 21
9.0
 12
0.0
 22
0.0
 32
0.0
 14
1.000000000000000E+20
 24
1.000000000000000E+20
 34
1.000000000000000E+20
 15
-1.000000000000000E+20
 25
-1.000000000000000E+20
 35
-1.000000000000000E+20
146
0.0
 13
0.0
 23
0.0
 33
0.0
 16
1.0
 26
0.0
 36
0.0
 17
0.0
 27
1.0
 37
0.0
 76
     0
330
B
  0
LAYOUT
  5
20
102
{ACAD_REACTORS
330
1E
102
}
330
1E
100
AcDbPlotSettings
  1

  2

  4

  6

 40
0.0
 41
0.0
 42
0.0
 43
0.0
 44
0.0
 45
0.0
 46
0.0
 47
0.0
 48
0.0
 49
0.0
140
0.0
141
0.0
142
1.0
143
1.0
 70
  1024
 72
     0
 73
     0
 74
     0
  7

 75
     0
147
1.0
148
0.0
149
0.0
100
AcDbLayout
  1
Model
 70
     0
 71
     0
 10
0.0
 20
0.0
 11
0.0
 21
0.0
 12
0.0
 22
0.0
 32
0.0
 14
0.0
 24
0.0
 34
0.0
 15
0.0
 25
0.0
 35
0.0
146
0.0
 13
0.0
 23
0.0
 33
0.0
 16
0.0
 26
0.0
 36
0.0
 17
0.0
 27
0.0
 37
0.0
 76
     0
330
A
  0
MLINESTYLE
  5
1C
102
{ACAD_REACTORS
330
1B
102
}
330
1B
100
AcDbMlineStyle
  2
STANDARD
 70
     0
  3

 62
     0
 51
90.0
 52
90.0
 71
     2
 49
0.5
 62
   256
  6
BYLAYER
 49
-0.5
 62
   256
  6
BYLAYER
  0
ACDBPLACEHOLDER
  5
1D
102
{ACAD_REACTORS
330
1F
102
}
330
1F
  0
ENDSEC
  0
EOF
