  0
SECTION
  2
HEADER
  9
$ACADVER
  1
AC1015
  9
$ACADMAINTVER
 70
         6
  9
$DWGCODEPAGE
  3
ANSI_1252
  9
$INSBASE
 10
0.0
 20
0.0
 30
0.0
  9
$EXTMIN
 10
0.0
 20
0.0
 30
0.0
  9
$EXTMAX
 10
102.0
 20
66.0
 30
0.0
  9
$LIMMIN
 10
0.0
 20
0.0
  9
$LIMMAX
 10
0.0
 20
0.0
  9
$ORTHOMODE
 70
         0
  9
$REGENMODE
 70
         1
  9
$FILLMODE
 70
         1
  9
$QTEXTMODE
 70
         0
  9
$MIRRTEXT
 70
         1
  9
$LTSCALE
 40
1.0
  9
$ATTMODE
 70
         1
  9
$TEXTSIZE
 40
0.6
  9
$TRACEWID
 40
0.05
  9
$TEXTSTYLE
  7
Standard
  9
$CLAYER
  8
0
  9
$CELTYPE
  6
Continuous
  9
$CECOLOR
 62
       256
  9
$CELTSCALE
 40
1.0
  9
$DISPSILH
 70
         0
  9
$DIMSCALE
 40
1.0
  9
$DIMASZ
 40
0.0
  9
$DIMEXO
 40
0.0
  9
$DIMDLI
 40
0.38
  9
$DIMRND
 40
0.0
  9
$DIMDLE
 40
0.0
  9
$DIMEXE
 40
0.18
  9
$DIMTP
 40
0.0
  9
$DIMTM
 40
0.0
  9
$DIMTXT
 40
0.6
  9
$DIMCEN
 40
0.09
  9
$DIMTSZ
 40
0.0
  9
$DIMTOL
 70
         0
  9
$DIMLIM
 70
         0
  9
$DIMTIH
 70
         1
  9
$DIMTOH
 70
         1
  9
$DIMSE1
 70
         0
  9
$DIMSE2
 70
         0
  9
$DIMTAD
 70
         1
  9
$DIMZIN
 70
         0
  9
$DIMBLK
  1

  9
$DIMASO
 70
         1
  9
$DIMSHO
 70
         1
  9
$DIMPOST
  1

  9
$DIMAPOST
  1

  9
$DIMALT
 70
         0
  9
$DIMALTD
 70
         2
  9
$DIMALTF
 40
25.4
  9
$DIMLFAC
 40
1.0
  9
$DIMTOFL
 70
         0
  9
$DIMTVP
 40
0.0
  9
$DIMTIX
 70
         0
  9
$DIMSOXD
 70
         0
  9
$DIMSAH
 70
         0
  9
$DIMBLK1
  1

  9
$DIMBLK2
  1

  9
$DIMSTYLE
  2
Standard
  9
$DIMCLRD
 70
         0
  9
$DIMCLRE
 70
         0
  9
$DIMCLRT
 70
         0
  9
$DIMTFAC
 40
1.0
  9
$DIMGAP
 40
0.0
  9
$DIMJUST
 70
         0
  9
$DIMSD1
 70
         0
  9
$DIMSD2
 70
         0
  9
$DIMTOLJ
 70
         1
  9
$DIMTZIN
 70
         0
  9
$DIMALTZ
 70
         0
  9
$DIMALTTZ
 70
         0
  9
$DIMUPT
 70
         0
  9
$DIMDEC
 70
         4
  9
$DIMTDEC
 70
         4
  9
$DIMALTU
 70
         2
  9
$DIMALTTD
 70
         2
  9
$DIMTXSTY
  7
Standard
  9
$DIMAUNIT
 70
         0
  9
$DIMADEC
 70
         0
  9
$DIMALTRND
 40
0.0
  9
$DIMAZIN
 70
         0
  9
$DIMDSEP
 70
         0
  9
$DIMATFIT
 70
         3
  9
$DIMFRAC
 70
         0
  9
$DIMLDRBLK
  1

  9
$DIMLUNIT
 70
         2
  9
$DIMLWD
 70
         0
  9
$DIMLWE
 70
         0
  9
$DIMTMOVE
 70
         0
  9
$LUNITS
 70
         2
  9
$LUPREC
 70
         3
  9
$SKETCHINC
 40
0.1
  9
$FILLETRAD
 40
0.0
  9
$AUNITS
 70
         0
  9
$AUPREC
 70
         2
  9
$MENU
  1
acad
  9
$ELEVATION
 40
0.0
  9
$PELEVATION
 40
0.0
  9
$THICKNESS
 40
0.0
  9
$LIMCHECK
 70
         0
  9
$CHAMFERA
 40
0.0
  9
$CHAMFERB
 40
0.0
  9
$CHAMFERC
 40
0.0
  9
$CHAMFERD
 40
0.0
  9
$SKPOLY
 70
         0
  9
$TDCREATE
 40
0.000000000
  9
$TDUCREATE
 40
0.000000000
  9
$TDUPDATE
 40
0.000000000
  9
$TDUUPDATE
 40
0.000000000
  9
$TDINDWG
 40
0.0000000000
  9
$TDUSRTIMER
 40
0.0000000000
  9
$USRTIMER
 70
         1
  9
$ANGBASE
 50
0.0
  9
$ANGDIR
 70
         0
  9
$PDMODE
 70
         0
  9
$PDSIZE
 40
-1.0
  9
$PLINEWID
 40
0.0
  9
$SPLFRAME
 70
         0
  9
$SPLINETYPE
 70
         6
  9
$SPLINESEGS
 70
         8
  9
$HANDSEED
  5
209
  9
$SURFTAB1
 70
         6
  9
$SURFTAB2
 70
         6
  9
$SURFTYPE
 70
         6
  9
$SURFU
 70
         6
  9
$SURFV
 70
         6
  9
$UCSBASE
  2

  9
$UCSNAME
  2

  9
$UCSORG
 10
0.0
 20
0.0
 30
0.0
  9
$UCSXDIR
 10
1.0
 20
0.0
 30
0.0
  9
$UCSYDIR
 10
0.0
 20
1.0
 30
0.0
  9
$UCSORTHOREF
  2

  9
$UCSORTHOVIEW
 70
         0
  9
$UCSORGTOP
 10
0.0
 20
0.0
 30
0.0
  9
$UCSORGBOTTOM
 10
0.0
 20
0.0
 30
0.0
  9
$UCSORGLEFT
 10
0.0
 20
0.0
 30
0.0
  9
$UCSORGRIGHT
 10
0.0
 20
0.0
 30
0.0
  9
$UCSORGFRONT
 10
0.0
 20
0.0
 30
0.0
  9
$UCSORGBACK
 10
0.0
 20
0.0
 30
0.0
  9
$PUCSBASE
  2

  9
$PUCSNAME
  2

  9
$PUCSORG
 10
0.0
 20
0.0
 30
0.0
  9
$PUCSXDIR
 10
1.0
 20
0.0
 30
0.0
  9
$PUCSYDIR
 10
0.0
 20
1.0
 30
0.0
  9
$PUCSORTHOREF
  2

  9
$PUCSORTHOVIEW
 70
         0
  9
$PUCSORGTOP
 10
0.0
 20
0.0
 30
0.0
  9
$PUCSORGBOTTOM
 10
0.0
 20
0.0
 30
0.0
  9
$PUCSORGLEFT
 10
0.0
 20
0.0
 30
0.0
  9
$PUCSORGRIGHT
 10
0.0
 20
0.0
 30
0.0
  9
$PUCSORGFRONT
 10
0.0
 20
0.0
 30
0.0
  9
$PUCSORGBACK
 10
0.0
 20
0.0
 30
0.0
  9
$USERI1
 70
         0
  9
$USERI2
 70
         0
  9
$USERI3
 70
         0
  9
$USERI4
 70
         0
  9
$USERI5
 70
         0
  9
$USERR1
 40
0.0
  9
$USERR2
 40
0.0
  9
$USERR3
 40
0.0
  9
$USERR4
 40
0.0
  9
$USERR5
 40
0.0
  9
$WORLDVIEW
 70
         1
  9
$SHADEDGE
 70
         3
  9
$SHADEDIF
 70
        70
  9
$TILEMODE
 70
         1
  9
$MAXACTVP
 70
        16
  9
$PINSBASE
 10
0.0
 20
0.0
 30
0.0
  9
$PLIMCHECK
 70
         0
  9
$PEXTMIN
 10
1.0000000000E+20
 20
1.0000000000E+20
 30
1.0000000000E+20
  9
$PEXTMAX
 10
-1.0000000000E+20
 20
-1.0000000000E+20
 30
-1.0000000000E+20
  9
$PLIMMIN
 10
0.0
 20
0.0
  9
$PLIMMAX
 10
12.0
 20
9.0
  9
$UNITMODE
 70
         0
  9
$VISRETAIN
 70
         0
  9
$PLINEGEN
 70
         1
  9
$PSLTSCALE
 70
         1
  9
$TREEDEPTH
 70
      3020
  9
$CMLSTYLE
  2
Standard
  9
$CMLJUST
 70
         0
  9
$CMLSCALE
 40
1.0
  9
$PROXYGRAPHICS
 70
         0
  9
$MEASUREMENT
 70
         0
  9
$CELWEIGHT
370
         0
  9
$ENDCAPS
280
         0
  9
$JOINSTYLE
280
         0
  9
$LWDISPLAY
290
         1
  9
$INSUNITS
 70
         0
  9
$HYPERLINKBASE
  1

  9
$STYLESHEET
  1

  9
$XEDIT
290
         1
  9
$CEPSNTYPE
380
         0
  9
$PSTYLEMODE
290
         1
  9
$FINGERPRINTGUID
  2

  9
$VERSIONGUID
  2

  9
$EXTNAMES
290
         1
  9
$PSVPSCALE
 40
0.0
  0
ENDSEC
  0
SECTION
  2
CLASSES
  0
CLASS
  1
LWPOLYLINE
  2
AcDbPolyline
  3
AutoCAD 2000
 90
        0
280
         0
281
         1
  0
CLASS
  1
IMAGE
  2
AcDbRasterImage
  3
ISM
 90
      127
280
         0
281
         1
  0
CLASS
  1
OLE2FRAME
  2
AcDbOle2Frame
  3
AutoCAD 2000
 90
        0
280
         0
281
         1
  0
CLASS
  1
HATCH
  2
AcDbHatch
  3
AutoCAD 2000
 90
        0
280
         0
281
         1
  0
CLASS
  1
DICTIONARYVAR
  2
AcDbDictionaryVar
  3
AutoCAD 2000
 90
        0
280
         0
281
         0
  0
CLASS
  1
RASTERVARIABLES
  2
AcDbRasterVariables
  3
ISM
 90
        0
280
         0
281
         0
  0
CLASS
  1
IMAGEDEF
  2
AcDbRasterImageDef
  3
ISM
 90
        0
280
         0
281
         0
  0
CLASS
  1
IMAGEDEF_REACTOR
  2
AcDbRasterImageDefReactor
  3
ISM
 90
        1
280
         0
281
         0
  0
CLASS
  1
IDBUFFER
  2
AcDbIdBuffer
  3
AutoCAD 2000
 90
        0
280
         0
281
         0
  0
CLASS
  1
SPATIAL_FILTER
  2
AcDbSpatialFilter
  3
AutoCAD 2000
 90
        0
280
         0
281
         0
  0
CLASS
  1
XRECORD
  2
AcDbXrecord
  3
AutoCAD 2000
 90
        0
280
         0
281
         0
  0
CLASS
  1
SORTENTSTABLE
  2
AcDbSortentsTable
  3
AutoCAD 2000
 90
        0
280
         0
281
         0
  0
CLASS
  1
LAYER_INDEX
  2
AcDbLayerIndex
  3
AutoCAD 2000
 90
        0
280
         0
281
         0
  0
CLASS
  1
SPATIAL_INDEX
  2
AcDbSpatialIndex
  3
AutoCAD 2000
 90
        0
280
         0
281
         0
  0
CLASS
  1
OBJECT_PTR
  2
CAseDLPNTableRecord
  3
"ASE-LPNTableRecord"
 90
        1
280
         0
281
         0
  0
CLASS
  1
LAYOUT
  2
AcDbLayout
  3
AutoCAD 2000
 90
        0
280
         0
281
         0
  0
CLASS
  1
PLOTSETTINGS
  2
AcDbPlotSettings
  3
AutoCAD 2000
 90
        0
280
         0
281
         0
  0
CLASS
  1
ACDBDICTIONARYWDFLT
  2
AcDbDictionaryWithDefault
  3
AutoCAD 2000
 90
        0
280
         0
281
         0
  0
CLASS
  1
ACDBPLACEHOLDER
  2
AcDbPlaceHolder
  3
AutoCAD 2000
 90
        0
280
         0
281
         0
  0
CLASS
  1
VBA_PROJECT
  2
AcDbVbaProject
  3
acadvba
 90
        0
280
         0
281
         0
  0
CLASS
  1
WIPEOUT
  2
AcDbWipeout
  3
WipeOut|AutoCAD Express Tool|expresstools@autodesk.com
 90
      127
280
         0
281
         1
  0
CLASS
  1
WIPEOUTVARIABLES
  2
AcDbWipeoutVariables
  3
WipeOut|AutoCAD Express Tool|expresstools@autodesk.com
 90
        0
280
         0
281
         0
  0
CLASS
  1
RTEXT
  2
RText
  3
RText|AutoCAD Express Tool|expresstools@autodesk.com
 90
        0
280
         0
281
         1
  0
CLASS
  1
ARCALIGNEDTEXT
  2
AcDbArcAlignedText
  3
ATEXT|AutoCAD Express Tool|expresstools@autodesk.com
 90
        0
280
         0
281
         1
  0
ENDSEC
  0
SECTION
  2
TABLES
  0
TABLE
  2
VPORT
  5
7
100
AcDbSymbolTable
 70
         1
  0
VPORT
  5
15
100
AcDbSymbolTableRecord
100
AcDbViewportTableRecord
  2
*ACTIVE
 70
         0
 10
0.0
 20
0.0
 11
1.0
 21
1.0
 12
51.0
 22
33.0
 13
0.0
 23
0.0
 14
1.0
 24
1.0
 15
0.0
 25
0.0
 16
0.0
 26
0.0
 36
1.0
 17
0.0
 27
0.0
 37
0.0
 40
66.0
 41
0.6470588235
 42
50.0
 43
0.0
 44
0.0
 50
0.0
 51
0.0
 71
         0
 72
      2000
 73
         1
 74
         1
 75
         0
 76
         0
 77
         0
 78
         0
281
         0
 65
         0
110
0.0
120
0.0
130
0.0
111
1.0
121
0.0
131
0.0
112
0.0
122
1.0
132
0.0
345
0
346
0
 79
         0
146
0.0
  0
ENDTAB
  0
TABLE
  2
LTYPE
  5
4
100
AcDbSymbolTable
 70
         8
  0
LTYPE
  5
11
100
AcDbSymbolTableRecord
100
AcDbLinetypeTableRecord
  2
ByBlock
 70
        64
  3

 72
        65
 73
         0
 40
0.0
  0
LTYPE
  5
12
100
AcDbSymbolTableRecord
100
AcDbLinetypeTableRecord
  2
ByLayer
 70
        64
  3

 72
        65
 73
         0
 40
0.0
  0
LTYPE
  5
13
100
AcDbSymbolTableRecord
100
AcDbLinetypeTableRecord
  2
Continuous
 70
        64
  3
Solid line
 72
        65
 73
         0
 40
0.0
  0
LTYPE
  5
24
100
AcDbSymbolTableRecord
100
AcDbLinetypeTableRecord
  2
HIDDEN
 70
        64
  3
Hidden __ __ __ __ __ __ __ __ __ __ __ __ __ __
 72
        65
 73
         2
 40
0.075
 49
0.05
 74
         0
 49
-0.025
 74
         0
  0
LTYPE
  5
25
100
AcDbSymbolTableRecord
100
AcDbLinetypeTableRecord
  2
PHANTOM
 70
        64
  3
Phantom ______  __  __  ______  __  __  ______
 72
        65
 73
         6
 40
0.5
 49
0.25
 74
         0
 49
-0.05
 74
         0
 49
0.05
 74
         0
 49
-0.05
 74
         0
 49
0.05
 74
         0
 49
-0.05
 74
         0
  0
LTYPE
  5
26
100
AcDbSymbolTableRecord
100
AcDbLinetypeTableRecord
  2
CENTER
 70
        64
  3
Center ____ _ ____ _ ____ _ ____ _ ____ _ ____
 72
        65
 73
         4
 40
0.4
 49
0.25
 74
         0
 49
-0.05
 74
         0
 49
0.05
 74
         0
 49
-0.05
 74
         0
  0
LTYPE
  5
27
100
AcDbSymbolTableRecord
100
AcDbLinetypeTableRecord
  2
CENTERX2
 70
        64
  3
Center (2x) ________  __  ________  __  _____
 72
        65
 73
         4
 40
0.8
 49
0.5
 74
         0
 49
-0.1
 74
         0
 49
0.1
 74
         0
 49
-0.1
 74
         0
  0
LTYPE
  5
28
100
AcDbSymbolTableRecord
100
AcDbLinetypeTableRecord
  2
DOT2
 70
        64
  3
Dot (.5x) ........................................
 72
        65
 73
         2
 40
0.025
 49
0.0
 74
         0
 49
-0.025
 74
         0
  0
ENDTAB
  0
TABLE
  2
LAYER
  5
2
100
AcDbSymbolTable
 70
         1
  0
LAYER
  5
14
100
AcDbSymbolTableRecord
100
AcDbLayerTableRecord
  2
0
 70
         0
 62
         7
  6
Continuous
290
         1
370
        -3
390
1D
  0
ENDTAB
  0
TABLE
  2
STYLE
  5
3
100
AcDbSymbolTable
 70
         2
  0
STYLE
  5
17
100
AcDbSymbolTableRecord
100
AcDbTextStyleTableRecord
  2
Standard
 70
         0
 40
0.0
 41
1.0
 50
0.0
 71
         0
 42
0.0
  3
txt
  4

  0
STYLE
  5
75
100
AcDbSymbolTableRecord
100
AcDbTextStyleTableRecord
  2
SLDTEXTSTYLE0
 70
         0
 40
0.0
 41
0.75
 50
0.0
 71
         0
 42
0.0
  3
txt
  4

  0
ENDTAB
  0
TABLE
  2
VIEW
  5
5
100
AcDbSymbolTable
 70
         0
  0
ENDTAB
  0
TABLE
  2
UCS
  5
6
100
AcDbSymbolTable
 70
         0
  0
ENDTAB
  0
TABLE
  2
APPID
  5
8
100
AcDbSymbolTable
 70
         1
  0
APPID
  5
16
100
AcDbSymbolTableRecord
100
AcDbRegAppTableRecord
  2
ACAD
 70
         0
  0
ENDTAB
  0
TABLE
  2
DIMSTYLE
  5
9
100
AcDbSymbolTable
 70
         4
100
AcDbDimStyleTable
 71
         0
  0
DIMSTYLE
105
18
100
AcDbSymbolTableRecord
100
AcDbDimStyleTableRecord
  2
Standard
 70
         0
  3

  4

 40
1.0
 41
0.18
 42
0.0625
 43
0.38
 44
0.18
 45
0.0
 46
0.0
 47
0.0
 48
0.0
 71
         0
 72
         0
 73
         1
 74
         1
 75
         0
 76
         0
 77
         0
 78
         0
 79
         0
140
0.18
141
0.09
142
0.0
143
25.4
144
1.0
145
0.0
146
1.0
147
0.09
148
0.0
170
         0
171
         2
172
         0
173
         0
174
         0
175
         0
176
         0
177
         0
178
         0
179
         0
271
         4
272
         4
273
         2
274
         2
275
         0
276
         0
277
         2
278
        46
279
         0
280
         0
281
         0
282
         0
283
         1
284
         0
285
         0
286
         0
288
         0
289
         3
340
17
341
0
342
0
343
0
344
0
371
        -2
372
        -2
  0
DIMSTYLE
105
130
100
AcDbSymbolTableRecord
100
AcDbDimStyleTableRecord
  2
SLDDIMSTYLE0
 70
         0
  3

  4

 40
1.0
 41
1.125
 42
0.0625
 43
0.38
 44
0.72
 45
0.0
 46
0.0
 47
0.0
 48
0.0
 71
         0
 72
         0
 73
         1
 74
         1
 75
         0
 76
         0
 77
         0
 78
        12
 79
         0
140
0.6
141
0.09
142
0.0
143
25.4
144
1.0
145
0.0
146
1.0
147
0.15
148
0.0
170
         0
171
         2
172
         0
173
         1
174
         0
175
         0
176
         7
177
         7
178
         7
179
         0
271
         3
272
         4
273
         2
274
         2
275
         0
276
         0
277
         2
278
        46
279
         0
280
         0
281
         0
282
         0
283
         1
284
        12
285
         0
286
         0
288
         0
289
         3
340
17
341
0
342
0
343
0
344
0
371
        -2
372
        -2
  0
DIMSTYLE
105
150
100
AcDbSymbolTableRecord
100
AcDbDimStyleTableRecord
  2
SLDDIMSTYLE1
 70
         0
  3

  4

 40
1.0
 41
1.125
 42
0.0625
 43
0.38
 44
0.72
 45
0.0
 46
0.0
 47
0.0
 48
0.0
 71
         0
 72
         0
 73
         1
 74
         1
 75
         0
 76
         0
 77
         0
 78
        12
 79
         0
140
0.6
141
0.09
142
0.0
143
25.4
144
1.0
145
0.0
146
1.0
147
0.15
148
0.0
170
         0
171
         2
172
         0
173
         1
174
         0
175
         0
176
         7
177
         7
178
         7
179
         0
271
         0
272
         4
273
         2
274
         2
275
         0
276
         0
277
         2
278
        46
279
         0
280
         0
281
         0
282
         0
283
         1
284
        12
285
         0
286
         0
288
         0
289
         3
340
17
341
0
342
0
343
0
344
0
371
        -2
372
        -2
  0
DIMSTYLE
105
17C
100
AcDbSymbolTableRecord
100
AcDbDimStyleTableRecord
  2
SLDDIMSTYLE2
 70
         0
  3

  4

 40
1.0
 41
1.125
 42
0.0625
 43
0.38
 44
0.72
 45
0.0
 46
0.0
 47
0.0
 48
0.0
 71
         0
 72
         0
 73
         1
 74
         1
 75
         0
 76
         0
 77
         0
 78
        12
 79
         0
140
0.6
141
0.09
142
0.0
143
25.4
144
1.0
145
0.0
146
1.0
147
0.15
148
0.0
170
         0
171
         2
172
         0
173
         1
174
         0
175
         0
176
         7
177
         7
178
         7
179
         0
271
         3
272
         4
273
         2
274
         2
275
         0
276
         0
277
         2
278
        46
279
         0
280
         0
281
         0
282
         0
283
         1
284
        12
285
         0
286
         0
288
         0
289
         3
340
17
341
0
342
0
343
0
344
0
371
        -2
372
        -2
  0
ENDTAB
  0
TABLE
  2
BLOCK_RECORD
  5
1
100
AcDbSymbolTable
 70
        17
  0
BLOCK_RECORD
  5
A
100
AcDbSymbolTableRecord
100
AcDbBlockTableRecord
  2
*MODEL_SPACE
340
20
  0
BLOCK_RECORD
  5
B
100
AcDbSymbolTableRecord
100
AcDbBlockTableRecord
  2
*PAPER_SPACE
340
21
  0
BLOCK_RECORD
  5
A8
100
AcDbSymbolTableRecord
100
AcDbBlockTableRecord
  2
NOTE50
340
0
102
{BLKREFS
331
AE
102
}
  0
BLOCK_RECORD
  5
124
100
AcDbSymbolTableRecord
100
AcDbBlockTableRecord
  2
*D1
340
0
  0
BLOCK_RECORD
  5
135
100
AcDbSymbolTableRecord
100
AcDbBlockTableRecord
  2
*D2
340
0
  0
BLOCK_RECORD
  5
145
100
AcDbSymbolTableRecord
100
AcDbBlockTableRecord
  2
*D3
340
0
  0
BLOCK_RECORD
  5
157
100
AcDbSymbolTableRecord
100
AcDbBlockTableRecord
  2
*D4
340
0
  0
BLOCK_RECORD
  5
168
100
AcDbSymbolTableRecord
100
AcDbBlockTableRecord
  2
*D5
340
0
  0
BLOCK_RECORD
  5
175
100
AcDbSymbolTableRecord
100
AcDbBlockTableRecord
  2
*D6
340
0
  0
BLOCK_RECORD
  5
181
100
AcDbSymbolTableRecord
100
AcDbBlockTableRecord
  2
*D7
340
0
  0
BLOCK_RECORD
  5
18F
100
AcDbSymbolTableRecord
100
AcDbBlockTableRecord
  2
*D8
340
0
  0
BLOCK_RECORD
  5
19C
100
AcDbSymbolTableRecord
100
AcDbBlockTableRecord
  2
*D9
340
0
  0
BLOCK_RECORD
  5
1AA
100
AcDbSymbolTableRecord
100
AcDbBlockTableRecord
  2
*D10
340
0
  0
BLOCK_RECORD
  5
1B7
100
AcDbSymbolTableRecord
100
AcDbBlockTableRecord
  2
SW_CENTERMARK0
340
0
102
{BLKREFS
331
1BE
102
}
  0
BLOCK_RECORD
  5
1BF
100
AcDbSymbolTableRecord
100
AcDbBlockTableRecord
  2
SW_CENTERMARK1
340
0
102
{BLKREFS
331
1C6
102
}
  0
BLOCK_RECORD
  5
1CD
100
AcDbSymbolTableRecord
100
AcDbBlockTableRecord
  2
*D13
340
0
  0
BLOCK_RECORD
  5
1DC
100
AcDbSymbolTableRecord
100
AcDbBlockTableRecord
  2
*D14
340
0
  0
BLOCK_RECORD
  5
1EB
100
AcDbSymbolTableRecord
100
AcDbBlockTableRecord
  2
*D15
340
0
  0
BLOCK_RECORD
  5
1FB
100
AcDbSymbolTableRecord
100
AcDbBlockTableRecord
  2
*D16
340
0
  0
ENDTAB
  0
ENDSEC
  0
SECTION
  2
BLOCKS
  0
BLOCK
  5
D
100
AcDbEntity
  8
0
390
0
100
AcDbBlockBegin
  2
*MODEL_SPACE
 70
         0
 10
0.0
 20
0.0
 30
0.0
  3
*MODEL_SPACE
  1

  0
ENDBLK
  5
E
100
AcDbEntity
  8
0
390
0
100
AcDbBlockEnd
  0
BLOCK
  5
F
100
AcDbEntity
 67
         1
  8
0
390
0
100
AcDbBlockBegin
  2
*PAPER_SPACE
 70
         0
 10
0.0
 20
0.0
 30
0.0
  3
*PAPER_SPACE
  1

  0
ENDBLK
  5
10
100
AcDbEntity
 67
         1
  8
0
390
0
100
AcDbBlockEnd
  0
BLOCK
  5
A9
100
AcDbEntity
  8
0
390
0
 62
         0
100
AcDbBlockBegin
  2
NOTE50
 70
         0
 10
0.0
 20
0.0
 30
0.0
  3
NOTE50
  1

  0
MTEXT
  5
AA
100
AcDbEntity
  8
0
390
0
 62
         7
100
AcDbMText
 10
0.0
 20
0.0
 30
0.0
 40
0.54
 41
0.0
 71
         1
 72
         1
  1
BREAK SHARP EDGES 0.010 RAD %%p 0.003
  7
SLDTEXTSTYLE0
 73
         1
 44
1.0
  0
MTEXT
  5
AB
100
AcDbEntity
  8
0
390
0
 62
         7
100
AcDbMText
 10
0.0
 20
-0.81
 30
0.0
 40
0.54
 41
0.0
 71
         1
 72
         1
  1
MACHINED SURF FINISH  
  7
SLDTEXTSTYLE0
 73
         1
 44
1.0
  0
MTEXT
  5
AC
100
AcDbEntity
  8
0
390
0
 62
         7
100
AcDbMText
 10
8.316
 20
-0.81
 30
0.0
 40
0.54
 41
0.0
 71
         1
 72
         1
  1
< 125 MICROINCH
  7
SLDTEXTSTYLE0
 73
         1
 44
1.0
  0
ENDBLK
  5
AD
100
AcDbEntity
  8
0
390
0
100
AcDbBlockEnd
  0
BLOCK
  5
125
100
AcDbEntity
  8
0
390
0
 62
         7
100
AcDbBlockBegin
  2
*D1
 70
         1
 10
0.0
 20
0.0
 30
0.0
  3
*D1
  1

  0
MTEXT
  5
126
100
AcDbEntity
  8
0
390
0
 62
         7
100
AcDbMText
 10
67.7298452911
 20
28.8965695886
 30
0.0
 40
0.6
 41
0.0
 71
         7
 72
         1
  1
5 3/4"
  7
SLDTEXTSTYLE0
 73
         1
 44
1.0
  0
MTEXT
  5
127
100
AcDbEntity
  8
0
390
0
 62
         7
100
AcDbMText
 10
67.7568209515
 20
27.7570371358
 30
0.0
 40
0.6
 41
0.0
 71
         7
 72
         1
  1
INSIDE
  7
SLDTEXTSTYLE0
 73
         1
 44
1.0
  0
LINE
  5
128
100
AcDbEntity
  8
0
390
0
 62
         7
100
AcDbLine
 10
71.7579172991
 20
31.4715695886
 30
0.0
 11
68.2401673666
 21
31.4715695886
 31
0.0
  0
LINE
  5
129
100
AcDbEntity
  8
0
390
0
 62
         7
100
AcDbLine
 10
71.7579172991
 20
25.7215695886
 30
0.0
 11
68.2401673666
 21
25.7215695886
 31
0.0
  0
LINE
  5
12A
100
AcDbEntity
  8
0
390
0
 62
         7
100
AcDbLine
 10
68.9601673666
 20
31.4715695886
 30
0.0
 11
68.9601673666
 21
29.7361020415
 31
0.0
  0
LINE
  5
12B
100
AcDbEntity
  8
0
390
0
 62
         7
100
AcDbLine
 10
68.9601673666
 20
25.7215695886
 30
0.0
 11
68.9601673666
 21
27.4570371358
 31
0.0
  0
ARC
  5
12C
100
AcDbEntity
  8
0
390
0
 62
         7
100
AcDbCircle
 10
68.494377744
 20
29.1663358151
 30
0.0
 40
1.2740360135
100
AcDbArc
 50
153.4349488229
 51
206.5650511771
  0
ARC
  5
12D
100
AcDbEntity
  8
0
390
0
 62
         7
100
AcDbCircle
 10
69.4259569893
 20
29.1663358151
 30
0.0
 40
1.2740360135
100
AcDbArc
 50
333.4349488229
 51
26.5650511771
  0
SOLID
  5
12E
100
AcDbEntity
  8
0
390
0
 62
         7
100
AcDbTrace
 10
68.9601673666
 20
31.4715695886
 30
0.0
 11
68.7726673666
 21
30.3465695886
 31
0.0
 12
69.1476673666
 22
30.3465695886
 32
0.0
 13
69.1476673666
 23
30.3465695886
 33
0.0
  0
SOLID
  5
12F
100
AcDbEntity
  8
0
390
0
 62
         7
100
AcDbTrace
 10
68.9601673666
 20
25.7215695886
 30
0.0
 11
69.1476673666
 21
26.8465695886
 31
0.0
 12
68.7726673666
 22
26.8465695886
 32
0.0
 13
68.7726673666
 23
26.8465695886
 33
0.0
  0
POINT
  5
131
100
AcDbEntity
  8
0
390
0
 62
         7
100
AcDbPoint
 10
71.9979172991
 20
31.4715695886
 30
0.0
  0
POINT
  5
132
100
AcDbEntity
  8
0
390
0
 62
         7
100
AcDbPoint
 10
71.9979172991
 20
25.7215695886
 30
0.0
  0
ENDBLK
  5
133
100
AcDbEntity
  8
0
390
0
 62
         7
100
AcDbBlockEnd
  0
BLOCK
  5
136
100
AcDbEntity
  8
0
390
0
 62
         7
100
AcDbBlockBegin
  2
*D2
 70
         1
 10
0.0
 20
0.0
 30
0.0
  3
*D2
  1

  0
MTEXT
  5
137
100
AcDbEntity
  8
0
390
0
 62
         7
100
AcDbMText
 10
77.2700963557
 20
23.1164875761
 30
0.0
 40
0.6
 41
0.0
 71
         7
 72
         1
  1
12"
  7
SLDTEXTSTYLE0
 73
         1
 44
1.0
  0
MTEXT
  5
138
100
AcDbEntity
  8
0
390
0
 62
         7
100
AcDbMText
 10
76.607070884
 20
21.9769551233
 30
0.0
 40
0.6
 41
0.0
 71
         7
 72
         1
  1
INSIDE
  7
SLDTEXTSTYLE0
 73
         1
 44
1.0
  0
LINE
  5
139
100
AcDbEntity
  8
0
390
0
 62
         7
100
AcDbLine
 10
71.9979172991
 20
25.4815695886
 30
0.0
 11
71.9979172991
 21
22.0964875761
 31
0.0
  0
LINE
  5
13A
100
AcDbEntity
  8
0
390
0
 62
         7
100
AcDbLine
 10
83.9979172991
 20
25.4815695886
 30
0.0
 11
83.9979172991
 21
22.0964875761
 31
0.0
  0
LINE
  5
13B
100
AcDbEntity
  8
0
390
0
 62
         7
100
AcDbLine
 10
71.9979172991
 20
22.8164875761
 30
0.0
 11
76.138320884
 21
22.8164875761
 31
0.0
  0
LINE
  5
13C
100
AcDbEntity
  8
0
390
0
 62
         7
100
AcDbLine
 10
83.9979172991
 20
22.8164875761
 30
0.0
 11
79.8575137142
 21
22.8164875761
 31
0.0
  0
ARC
  5
13D
100
AcDbEntity
  8
0
390
0
 62
         7
100
AcDbCircle
 10
77.6528533368
 20
23.3862538025
 30
0.0
 40
1.2740360135
100
AcDbArc
 50
153.4349488229
 51
206.5650511771
  0
ARC
  5
13E
100
AcDbEntity
  8
0
390
0
 62
         7
100
AcDbCircle
 10
78.3429812613
 20
23.3862538025
 30
0.0
 40
1.2740360135
100
AcDbArc
 50
333.4349488229
 51
26.5650511771
  0
SOLID
  5
13F
100
AcDbEntity
  8
0
390
0
 62
         7
100
AcDbTrace
 10
71.9979172991
 20
22.8164875761
 30
0.0
 11
73.1229172991
 21
22.6289875761
 31
0.0
 12
73.1229172991
 22
23.0039875761
 32
0.0
 13
73.1229172991
 23
23.0039875761
 33
0.0
  0
SOLID
  5
140
100
AcDbEntity
  8
0
390
0
 62
         7
100
AcDbTrace
 10
83.9979172991
 20
22.8164875761
 30
0.0
 11
82.8729172991
 21
23.0039875761
 31
0.0
 12
82.8729172991
 22
22.6289875761
 32
0.0
 13
82.8729172991
 23
22.6289875761
 33
0.0
  0
POINT
  5
141
100
AcDbEntity
  8
0
390
0
 62
         7
100
AcDbPoint
 10
71.9979172991
 20
25.7215695886
 30
0.0
  0
POINT
  5
142
100
AcDbEntity
  8
0
390
0
 62
         7
100
AcDbPoint
 10
83.9979172991
 20
25.7215695886
 30
0.0
  0
ENDBLK
  5
143
100
AcDbEntity
  8
0
390
0
 62
         7
100
AcDbBlockEnd
  0
BLOCK
  5
146
100
AcDbEntity
  8
0
390
0
 62
         7
100
AcDbBlockBegin
  2
*D3
 70
         1
 10
0.0
 20
0.0
 30
0.0
  3
*D3
  1

  0
MTEXT
  5
147
100
AcDbEntity
  8
0
390
0
 62
         7
100
AcDbMText
 10
92.2733035139
 20
27.9968347534
 30
0.0
 40
0.6
 41
0.0
 71
         7
 72
         1
  1
32%%d
  7
SLDTEXTSTYLE0
 73
         1
 44
1.0
  0
LINE
  5
148
100
AcDbEntity
  8
0
390
0
 62
         7
100
AcDbLine
 10
84.2379172991
 20
25.7215695886
 30
0.0
 11
93.9511773689
 21
25.7215695886
 31
0.0
  0
LINE
  5
149
100
AcDbEntity
  8
0
390
0
 62
         7
100
AcDbLine
 10
86.7455931306
 20
27.4385080048
 30
0.0
 11
92.4387605518
 21
30.9959938416
 31
0.0
  0
ARC
  5
14A
100
AcDbEntity
  8
0
390
0
 62
         7
100
AcDbCircle
 10
93.0378359668
 20
28.2666009799
 30
0.0
 40
1.2740360135
100
AcDbArc
 50
153.4349488229
 51
206.5650511771
  0
ARC
  5
14B
100
AcDbEntity
  8
0
390
0
 62
         7
100
AcDbCircle
 10
92.7091570988
 20
28.2666009799
 30
0.0
 40
1.2740360135
100
AcDbArc
 50
333.4349488229
 51
26.5650511771
  0
ARC
  5
14C
100
AcDbEntity
  8
0
390
0
 62
         7
100
AcDbCircle
 10
83.9979172991
 20
25.7215695886
 30
0.0
 40
9.2332600698
100
AcDbArc
 50
342.7889908859
 51
0.0
  0
ARC
  5
14D
100
AcDbEntity
  8
0
390
0
 62
         7
100
AcDbCircle
 10
83.9979172991
 20
25.7215695886
 30
0.0
 40
9.2332600698
100
AcDbArc
 50
32.0
 51
49.2110091141
  0
SOLID
  5
14E
100
AcDbEntity
  8
0
390
0
 62
         7
100
AcDbTrace
 10
93.2311773689
 20
25.7215695886
 30
0.0
 11
92.975863534
 21
24.6099958863
 31
0.0
 12
93.3501746718
 22
24.5872764643
 32
0.0
 13
93.3501746718
 23
24.5872764643
 33
0.0
  0
SOLID
  5
14F
100
AcDbEntity
  8
0
390
0
 62
         7
100
AcDbTrace
 10
91.8281659226
 20
30.6144519713
 30
0.0
 11
91.3279975809
 21
31.6394460591
 31
0.0
 12
91.0226031925
 22
31.4218242138
 32
0.0
 13
91.0226031925
 23
31.4218242138
 33
0.0
  0
POINT
  5
151
100
AcDbEntity
  8
0
390
0
 62
         7
100
AcDbPoint
 10
71.9979172991
 20
25.7215695886
 30
0.0
  0
POINT
  5
152
100
AcDbEntity
  8
0
390
0
 62
         7
100
AcDbPoint
 10
83.9979172991
 20
25.7215695886
 30
0.0
  0
POINT
  5
153
100
AcDbEntity
  8
0
390
0
 62
         7
100
AcDbPoint
 10
86.5420615875
 20
27.3113273813
 30
0.0
  0
POINT
  5
154
100
AcDbEntity
  8
0
390
0
 62
         7
100
AcDbPoint
 10
83.9979172991
 20
25.7215695886
 30
0.0
  0
ENDBLK
  5
155
100
AcDbEntity
  8
0
390
0
100
AcDbBlockEnd
  0
BLOCK
  5
158
100
AcDbEntity
  8
0
390
0
 62
         7
100
AcDbBlockBegin
  2
*D4
 70
         1
 10
0.0
 20
0.0
 30
0.0
  3
*D4
  1

  0
MTEXT
  5
159
100
AcDbEntity
  8
0
390
0
 62
         7
100
AcDbMText
 10
88.7868525222
 20
22.2993339475
 30
0.0
 40
0.6
 41
0.0
 71
         7
 72
         1
  1
3"
  7
SLDTEXTSTYLE0
 73
         1
 44
1.0
  0
MTEXT
  5
15A
100
AcDbEntity
  8
0
390
0
 62
         7
100
AcDbMText
 10
87.9736561071
 20
21.1598014946
 30
0.0
 40
0.6
 41
0.0
 71
         7
 72
         1
  1
INSIDE
  7
SLDTEXTSTYLE0
 73
         1
 44
1.0
  0
LINE
  5
15B
100
AcDbEntity
  8
0
390
0
 62
         7
100
AcDbLine
 10
84.1250979225
 20
25.5180380456
 30
0.0
 11
85.9096486761
 21
22.6621598557
 31
0.0
  0
LINE
  5
15C
100
AcDbEntity
  8
0
390
0
 62
         7
100
AcDbLine
 10
86.6692422109
 20
27.1077958383
 30
0.0
 11
88.4537929646
 21
24.2519176484
 31
0.0
  0
LINE
  5
15D
100
AcDbEntity
  8
0
390
0
 62
         7
100
AcDbLine
 10
85.5281068059
 20
23.2727544849
 30
0.0
 11
86.8001789501
 21
24.0676333813
 31
0.0
  0
LINE
  5
15E
100
AcDbEntity
  8
0
390
0
 62
         7
100
AcDbLine
 10
88.0722510943
 20
24.8625122776
 30
0.0
 11
86.8001789501
 21
24.0676333813
 31
0.0
  0
LINE
  5
15F
100
AcDbEntity
  8
0
390
0
 62
         7
100
AcDbLine
 10
86.8001789501
 20
24.0676333813
 30
0.0
 11
87.5049061071
 21
21.9993339475
 31
0.0
  0
ARC
  5
160
100
AcDbEntity
  8
0
390
0
 62
         7
100
AcDbCircle
 10
89.01943856
 20
22.5691001739
 30
0.0
 40
1.2740360135
100
AcDbArc
 50
153.4349488229
 51
206.5650511771
  0
ARC
  5
161
100
AcDbEntity
  8
0
390
0
 62
         7
100
AcDbCircle
 10
89.7095664845
 20
22.5691001739
 30
0.0
 40
1.2740360135
100
AcDbArc
 50
333.4349488229
 51
26.5650511771
  0
SOLID
  5
162
100
AcDbEntity
  8
0
390
0
 62
         7
100
AcDbTrace
 10
85.5281068059
 20
23.2727544849
 30
0.0
 11
86.5815207761
 21
23.7099046392
 31
0.0
 12
86.382801052
 22
24.0279226752
 32
0.0
 13
86.382801052
 23
24.0279226752
 33
0.0
  0
SOLID
  5
163
100
AcDbEntity
  8
0
390
0
 62
         7
100
AcDbTrace
 10
88.0722510943
 20
24.8625122776
 30
0.0
 11
87.0188371241
 21
24.4253621234
 31
0.0
 12
87.2175568482
 22
24.1073440873
 32
0.0
 13
87.2175568482
 23
24.1073440873
 33
0.0
  0
POINT
  5
164
100
AcDbEntity
  8
0
390
0
 62
         7
100
AcDbPoint
 10
83.9979172991
 20
25.7215695886
 30
0.0
  0
POINT
  5
165
100
AcDbEntity
  8
0
390
0
 62
         7
100
AcDbPoint
 10
86.5420615875
 20
27.3113273813
 30
0.0
  0
ENDBLK
  5
166
100
AcDbEntity
  8
0
390
0
 62
         7
100
AcDbBlockEnd
  0
BLOCK
  5
169
100
AcDbEntity
  8
0
390
0
 62
         7
100
AcDbBlockBegin
  2
*D5
 70
         1
 10
0.0
 20
0.0
 30
0.0
  3
*D5
  1

  0
MTEXT
  5
16A
100
AcDbEntity
  8
0
390
0
 62
         7
100
AcDbMText
 10
87.4154833409
 20
31.8953422791
 30
0.0
 40
0.6
 41
0.0
 71
         7
 72
         1
  1
1/4"
  7
SLDTEXTSTYLE0
 73
         1
 44
1.0
  0
LINE
  5
16B
100
AcDbEntity
  8
0
390
0
 62
         7
100
AcDbLine
 10
85.4735209864
 20
26.6436291084
 30
0.0
 11
90.5232638324
 21
29.7990586479
 31
0.0
  0
LINE
  5
16C
100
AcDbEntity
  8
0
390
0
 62
         7
100
AcDbLine
 10
85.6060008024
 20
26.4316170844
 30
0.0
 11
90.6557436484
 21
29.5870466239
 31
0.0
  0
LINE
  5
16D
100
AcDbEntity
  8
0
390
0
 62
         7
100
AcDbLine
 10
89.9126692032
 20
29.4175167777
 30
0.0
 11
88.5518127935
 21
31.5953422791
 31
0.0
  0
LINE
  5
16E
100
AcDbEntity
  8
0
390
0
 62
         7
100
AcDbLine
 10
90.0451490192
 20
29.2055047536
 30
0.0
 11
91.6349068119
 21
26.6613604652
 31
0.0
  0
SOLID
  5
16F
100
AcDbEntity
  8
0
390
0
 62
         7
100
AcDbTrace
 10
89.9126692032
 20
29.4175167777
 30
0.0
 11
89.4755190489
 21
30.4709307479
 31
0.0
 12
89.1575010129
 22
30.2722110238
 32
0.0
 13
89.1575010129
 23
30.2722110238
 33
0.0
  0
SOLID
  5
170
100
AcDbEntity
  8
0
390
0
 62
         7
100
AcDbTrace
 10
90.0451490192
 20
29.2055047536
 30
0.0
 11
90.4822991734
 21
28.1520907834
 31
0.0
 12
90.8003172095
 22
28.3508105075
 32
0.0
 13
90.8003172095
 23
28.3508105075
 33
0.0
  0
POINT
  5
171
100
AcDbEntity
  8
0
390
0
 62
         7
100
AcDbPoint
 10
85.2699894433
 20
26.516448485
 30
0.0
  0
POINT
  5
172
100
AcDbEntity
  8
0
390
0
 62
         7
100
AcDbPoint
 10
85.4024692594
 20
26.304436461
 30
0.0
  0
ENDBLK
  5
173
100
AcDbEntity
  8
0
390
0
 62
         7
100
AcDbBlockEnd
  0
BLOCK
  5
176
100
AcDbEntity
  8
0
390
0
 62
         7
100
AcDbBlockBegin
  2
*D6
 70
         1
 10
0.0
 20
0.0
 30
0.0
  3
*D6
  1

  0
MTEXT
  5
177
100
AcDbEntity
  8
0
390
0
 62
         7
100
AcDbMText
 10
76.1658559338
 20
28.1978517165
 30
0.0
 40
0.6
 41
0.0
 71
         7
 72
         1
  1
R
  7
SLDTEXTSTYLE0
 73
         1
 44
1.0
  0
MTEXT
  5
178
100
AcDbEntity
  8
0
390
0
 62
         7
100
AcDbMText
 10
76.6458140471
 20
28.1978517165
 30
0.0
 40
0.6
 41
0.0
 71
         7
 72
         1
  1
1/16"
  7
SLDTEXTSTYLE0
 73
         1
 44
1.0
  0
LINE
  5
179
100
AcDbEntity
  8
0
390
0
 62
         7
100
AcDbLine
 10
72.1011856313
 20
25.8330201966
 30
0.0
 11
74.2908559338
 21
28.4676179429
 31
0.0
  0
LINE
  5
17A
100
AcDbEntity
  8
0
390
0
 62
         7
100
AcDbLine
 10
74.2908559338
 20
28.4676179429
 30
0.0
 11
75.7908559338
 21
28.4676179429
 31
0.0
  0
SOLID
  5
17B
100
AcDbEntity
  8
0
390
0
 62
         7
100
AcDbTrace
 10
72.1011856313
 20
25.8330201966
 30
0.0
 11
72.9644612316
 21
26.5783633982
 31
0.0
 12
72.6760647554
 22
26.8180558522
 32
0.0
 13
72.6760647554
 23
26.8180558522
 33
0.0
  0
POINT
  5
17D
100
AcDbEntity
  8
0
390
0
 62
         7
100
AcDbPoint
 10
72.1011856313
 20
25.8330201966
 30
0.0
  0
POINT
  5
17E
100
AcDbEntity
  8
0
390
0
 62
         7
100
AcDbPoint
 10
72.0609172991
 20
25.7845695886
 30
0.0
  0
ENDBLK
  5
17F
100
AcDbEntity
  8
0
390
0
100
AcDbBlockEnd
  0
BLOCK
  5
182
100
AcDbEntity
  8
0
390
0
 62
         1
100
AcDbBlockBegin
  2
*D7
 70
         1
 10
0.0
 20
0.0
 30
0.0
  3
*D7
  1

  0
MTEXT
  5
183
100
AcDbEntity
  8
0
390
0
 62
         7
100
AcDbMText
 10
75.5595933887
 20
32.9460573157
 30
0.0
 40
0.6
 41
0.0
 71
         7
 72
         1
  1
90%%d
  7
SLDTEXTSTYLE0
 73
         1
 44
1.0
  0
LINE
  5
184
100
AcDbEntity
  8
0
390
0
 62
         7
100
AcDbLine
 10
71.9979172991
 20
31.7115695886
 30
0.0
 11
71.9979172991
 21
35.0139086391
 31
0.0
  0
ARC
  5
185
100
AcDbEntity
  8
0
390
0
 62
         7
100
AcDbCircle
 10
71.9979172991
 20
25.7215695886
 30
0.0
 40
8.5723390504
100
AcDbArc
 50
360.0
 51
53.8787298077
  0
ARC
  5
186
100
AcDbEntity
  8
0
390
0
 62
         7
100
AcDbCircle
 10
71.9979172991
 20
25.7215695886
 30
0.0
 40
8.5723390504
100
AcDbArc
 50
68.1770699703
 51
90.0
  0
SOLID
  5
187
100
AcDbEntity
  8
0
390
0
 62
         7
100
AcDbTrace
 10
80.5702563495
 20
25.7215695886
 30
0.0
 11
80.6840086596
 21
26.8564007047
 31
0.0
 12
80.3098065512
 22
26.8319511233
 32
0.0
 13
80.3098065512
 23
26.8319511233
 33
0.0
  0
SOLID
  5
188
100
AcDbEntity
  8
0
390
0
 62
         7
100
AcDbTrace
 10
71.9979172991
 20
34.2939086391
 30
0.0
 11
73.1082988337
 21
34.0334588408
 31
0.0
 12
73.1327484151
 22
34.4076609492
 32
0.0
 13
73.1327484151
 23
34.4076609492
 33
0.0
  0
POINT
  5
189
100
AcDbEntity
  8
0
390
0
 62
         7
100
AcDbPoint
 10
83.9798523398
 20
25.7215695886
 30
0.0
  0
POINT
  5
18A
100
AcDbEntity
  8
0
390
0
 62
         7
100
AcDbPoint
 10
72.0609172991
 20
25.7215695886
 30
0.0
  0
POINT
  5
18B
100
AcDbEntity
  8
0
390
0
 62
         7
100
AcDbPoint
 10
71.9979172991
 20
31.4715695886
 30
0.0
  0
POINT
  5
18C
100
AcDbEntity
  8
0
390
0
 62
         7
100
AcDbPoint
 10
71.9979172991
 20
25.7845695886
 30
0.0
  0
ENDBLK
  5
18D
100
AcDbEntity
  8
0
390
0
100
AcDbBlockEnd
  0
BLOCK
  5
190
100
AcDbEntity
  8
0
390
0
 62
         1
100
AcDbBlockBegin
  2
*D8
 70
         1
 10
0.0
 20
0.0
 30
0.0
  3
*D8
  1

  0
MTEXT
  5
191
100
AcDbEntity
  8
0
390
0
100
AcDbMText
 10
77.3444103867
 20
38.3017671498
 30
0.0
 40
0.6
 41
0.0
 71
         7
 72
         1
  1
14 25/32"
  7
SLDTEXTSTYLE0
 73
         1
 44
1.0
  0
LINE
  5
192
100
AcDbEntity
  8
0
390
0
100
AcDbLine
 10
71.7479172991
 20
31.7115695886
 30
0.0
 11
71.7479172991
 21
39.2915333762
 31
0.0
  0
LINE
  5
193
100
AcDbEntity
  8
0
390
0
100
AcDbLine
 10
86.5420615875
 20
27.5513273813
 30
0.0
 11
86.5420615875
 21
39.2915333762
 31
0.0
  0
LINE
  5
194
100
AcDbEntity
  8
0
390
0
100
AcDbLine
 10
71.7479172991
 20
38.5715333762
 30
0.0
 11
76.9694103867
 21
38.5715333762
 31
0.0
  0
LINE
  5
195
100
AcDbEntity
  8
0
390
0
100
AcDbLine
 10
86.5420615875
 20
38.5715333762
 30
0.0
 11
81.3205684999
 21
38.5715333762
 31
0.0
  0
SOLID
  5
196
100
AcDbEntity
  8
0
390
0
100
AcDbTrace
 10
71.7479172991
 20
38.5715333762
 30
0.0
 11
72.8729172991
 21
38.3840333762
 31
0.0
 12
72.8729172991
 22
38.7590333762
 32
0.0
 13
72.8729172991
 23
38.7590333762
 33
0.0
  0
SOLID
  5
197
100
AcDbEntity
  8
0
390
0
100
AcDbTrace
 10
86.5420615875
 20
38.5715333762
 30
0.0
 11
85.4170615875
 21
38.7590333762
 31
0.0
 12
85.4170615875
 22
38.3840333762
 32
0.0
 13
85.4170615875
 23
38.3840333762
 33
0.0
  0
POINT
  5
198
100
AcDbEntity
  8
0
390
0
100
AcDbPoint
 10
71.7479172991
 20
31.4715695886
 30
0.0
  0
POINT
  5
199
100
AcDbEntity
  8
0
390
0
100
AcDbPoint
 10
86.5420615875
 20
27.3113273813
 30
0.0
  0
ENDBLK
  5
19A
100
AcDbEntity
  8
0
390
0
 62
         1
100
AcDbBlockEnd
  0
BLOCK
  5
19D
100
AcDbEntity
  8
0
390
0
 62
         1
100
AcDbBlockBegin
  2
*D9
 70
         1
 10
0.0
 20
0.0
 30
0.0
  3
*D9
  1

  0
MTEXT
  5
19E
100
AcDbEntity
  8
0
390
0
100
AcDbMText
 10
78.7439406657
 20
35.0567745772
 30
0.0
 40
0.6
 41
0.0
 71
         7
 72
         1
  1
4 5/32"
  7
SLDTEXTSTYLE0
 73
         1
 44
1.0
  0
LINE
  5
19F
100
AcDbEntity
  8
0
390
0
100
AcDbLine
 10
72.2379172991
 20
31.4715695886
 30
0.0
 11
83.4696708544
 21
31.4715695886
 31
0.0
  0
LINE
  5
1A0
100
AcDbEntity
  8
0
390
0
100
AcDbLine
 10
86.3020615875
 20
27.3113273813
 30
0.0
 11
82.0296708544
 21
27.3113273813
 31
0.0
  0
LINE
  5
1A1
100
AcDbEntity
  8
0
390
0
100
AcDbLine
 10
81.9996708544
 20
35.3265408036
 30
0.0
 11
82.7496708544
 21
35.3265408036
 31
0.0
  0
LINE
  5
1A2
100
AcDbEntity
  8
0
390
0
100
AcDbLine
 10
82.7496708544
 20
35.3265408036
 30
0.0
 11
82.7496708544
 21
31.4715695886
 31
0.0
  0
LINE
  5
1A3
100
AcDbEntity
  8
0
390
0
100
AcDbLine
 10
82.7496708544
 20
31.4715695886
 30
0.0
 11
82.7496708544
 21
27.3113273813
 31
0.0
  0
SOLID
  5
1A4
100
AcDbEntity
  8
0
390
0
100
AcDbTrace
 10
82.7496708544
 20
31.4715695886
 30
0.0
 11
82.5621708544
 21
30.3465695886
 31
0.0
 12
82.9371708544
 22
30.3465695886
 32
0.0
 13
82.9371708544
 23
30.3465695886
 33
0.0
  0
SOLID
  5
1A5
100
AcDbEntity
  8
0
390
0
100
AcDbTrace
 10
82.7496708544
 20
27.3113273813
 30
0.0
 11
82.9371708544
 21
28.4363273813
 31
0.0
 12
82.5621708544
 22
28.4363273813
 32
0.0
 13
82.5621708544
 23
28.4363273813
 33
0.0
  0
POINT
  5
1A6
100
AcDbEntity
  8
0
390
0
100
AcDbPoint
 10
71.9979172991
 20
31.4715695886
 30
0.0
  0
POINT
  5
1A7
100
AcDbEntity
  8
0
390
0
100
AcDbPoint
 10
86.5420615875
 20
27.3113273813
 30
0.0
  0
ENDBLK
  5
1A8
100
AcDbEntity
  8
0
390
0
 62
         1
100
AcDbBlockEnd
  0
BLOCK
  5
1AB
100
AcDbEntity
  8
0
390
0
 62
         1
100
AcDbBlockBegin
  2
*D10
 70
         1
 10
0.0
 20
0.0
 30
0.0
  3
*D10
  1

  0
MTEXT
  5
1AC
100
AcDbEntity
  8
0
390
0
100
AcDbMText
 10
65.2795742808
 20
28.2018033622
 30
0.0
 40
0.6
 41
0.0
 71
         7
 72
         1
  1
6"
  7
SLDTEXTSTYLE0
 73
         1
 44
1.0
  0
LINE
  5
1AD
100
AcDbEntity
  8
0
390
0
100
AcDbLine
 10
71.5079172991
 20
31.4715695886
 30
0.0
 11
64.9497242808
 21
31.4715695886
 31
0.0
  0
LINE
  5
1AE
100
AcDbEntity
  8
0
390
0
100
AcDbLine
 10
71.8209172991
 20
25.4715695886
 30
0.0
 11
64.9497242808
 21
25.4715695886
 31
0.0
  0
LINE
  5
1AF
100
AcDbEntity
  8
0
390
0
100
AcDbLine
 10
65.6697242808
 20
31.4715695886
 30
0.0
 11
65.6697242808
 21
29.0413358151
 31
0.0
  0
LINE
  5
1B0
100
AcDbEntity
  8
0
390
0
100
AcDbLine
 10
65.6697242808
 20
25.4715695886
 30
0.0
 11
65.6697242808
 21
27.9018033622
 31
0.0
  0
SOLID
  5
1B1
100
AcDbEntity
  8
0
390
0
100
AcDbTrace
 10
65.6697242808
 20
31.4715695886
 30
0.0
 11
65.4822242808
 21
30.3465695886
 31
0.0
 12
65.8572242808
 22
30.3465695886
 32
0.0
 13
65.8572242808
 23
30.3465695886
 33
0.0
  0
SOLID
  5
1B2
100
AcDbEntity
  8
0
390
0
100
AcDbTrace
 10
65.6697242808
 20
25.4715695886
 30
0.0
 11
65.8572242808
 21
26.5965695886
 31
0.0
 12
65.4822242808
 22
26.5965695886
 32
0.0
 13
65.4822242808
 23
26.5965695886
 33
0.0
  0
POINT
  5
1B3
100
AcDbEntity
  8
0
390
0
100
AcDbPoint
 10
71.7479172991
 20
31.4715695886
 30
0.0
  0
POINT
  5
1B4
100
AcDbEntity
  8
0
390
0
100
AcDbPoint
 10
72.0609172991
 20
25.4715695886
 30
0.0
  0
ENDBLK
  5
1B5
100
AcDbEntity
  8
0
390
0
 62
         1
100
AcDbBlockEnd
  0
BLOCK
  5
1B8
100
AcDbEntity
  8
0
390
0
 62
         0
100
AcDbBlockBegin
  2
SW_CENTERMARK0
 70
         0
 10
0.0
 20
0.0
 30
0.0
  3
SW_CENTERMARK0
  1

  0
LINE
  5
1B9
100
AcDbEntity
  8
0
370
         0
390
0
  6
Continuous
 62
         7
100
AcDbLine
 10
83.9798523398
 20
25.7845695886
 30
0.0
 11
83.9798523398
 21
25.8845695886
 31
0.0
  0
LINE
  5
1BA
100
AcDbEntity
  8
0
370
         0
390
0
  6
Continuous
 62
         7
100
AcDbLine
 10
83.9798523398
 20
25.7845695886
 30
0.0
 11
83.8798523398
 21
25.7845695886
 31
0.0
  0
LINE
  5
1BB
100
AcDbEntity
  8
0
370
         0
390
0
  6
Continuous
 62
         7
100
AcDbLine
 10
83.9798523398
 20
25.7845695886
 30
0.0
 11
83.9798523398
 21
25.6845695886
 31
0.0
  0
LINE
  5
1BC
100
AcDbEntity
  8
0
370
         0
390
0
  6
Continuous
 62
         7
100
AcDbLine
 10
83.9798523398
 20
25.7845695886
 30
0.0
 11
84.0798523398
 21
25.7845695886
 31
0.0
  0
ENDBLK
  5
1BD
100
AcDbEntity
  8
0
390
0
100
AcDbBlockEnd
  0
BLOCK
  5
1C0
100
AcDbEntity
  8
0
390
0
 62
         0
100
AcDbBlockBegin
  2
SW_CENTERMARK1
 70
         0
 10
0.0
 20
0.0
 30
0.0
  3
SW_CENTERMARK1
  1

  0
LINE
  5
1C1
100
AcDbEntity
  8
0
370
         0
390
0
  6
Continuous
 62
         7
100
AcDbLine
 10
72.0609172991
 20
25.7845695886
 30
0.0
 11
72.0609172991
 21
25.8845695886
 31
0.0
  0
LINE
  5
1C2
100
AcDbEntity
  8
0
370
         0
390
0
  6
Continuous
 62
         7
100
AcDbLine
 10
72.0609172991
 20
25.7845695886
 30
0.0
 11
71.9609172991
 21
25.7845695886
 31
0.0
  0
LINE
  5
1C3
100
AcDbEntity
  8
0
370
         0
390
0
  6
Continuous
 62
         7
100
AcDbLine
 10
72.0609172991
 20
25.7845695886
 30
0.0
 11
72.0609172991
 21
25.6845695886
 31
0.0
  0
LINE
  5
1C4
100
AcDbEntity
  8
0
370
         0
390
0
  6
Continuous
 62
         7
100
AcDbLine
 10
72.0609172991
 20
25.7845695886
 30
0.0
 11
72.1609172991
 21
25.7845695886
 31
0.0
  0
ENDBLK
  5
1C5
100
AcDbEntity
  8
0
390
0
100
AcDbBlockEnd
  0
BLOCK
  5
1CE
100
AcDbEntity
  8
0
390
0
 62
         1
100
AcDbBlockBegin
  2
*D13
 70
         1
 10
0.0
 20
0.0
 30
0.0
  3
*D13
  1

  0
MTEXT
  5
1CF
100
AcDbEntity
  8
0
390
0
100
AcDbMText
 10
12.3253409557
 20
45.0365674211
 30
0.0
 40
0.6
 41
0.0
 71
         7
 72
         1
  1
20.988
  7
SLDTEXTSTYLE0
 73
         1
 44
1.0
  0
LINE
  5
1D0
100
AcDbEntity
  8
0
390
0
100
AcDbLine
 10
19.2434778511
 20
55.8004230468
 30
0.0
 11
12.7453641633
 21
55.8004230468
 31
0.0
  0
LINE
  5
1D1
100
AcDbEntity
  8
0
390
0
100
AcDbLine
 10
19.2434778511
 20
34.8122442482
 30
0.0
 11
12.7453641633
 21
34.8122442482
 31
0.0
  0
LINE
  5
1D2
100
AcDbEntity
  8
0
390
0
100
AcDbLine
 10
13.4653641633
 20
55.8004230468
 30
0.0
 11
13.4653641633
 21
45.8760998739
 31
0.0
  0
LINE
  5
1D3
100
AcDbEntity
  8
0
390
0
100
AcDbLine
 10
13.4653641633
 20
34.8122442482
 30
0.0
 11
13.4653641633
 21
44.7365674211
 31
0.0
  0
ARC
  5
1D4
100
AcDbEntity
  8
0
390
0
100
AcDbCircle
 10
13.0898734086
 20
45.3063336475
 30
0.0
 40
1.2740360135
100
AcDbArc
 50
153.4349488229
 51
206.5650511771
  0
ARC
  5
1D5
100
AcDbEntity
  8
0
390
0
100
AcDbCircle
 10
13.840854918
 20
45.3063336475
 30
0.0
 40
1.2740360135
100
AcDbArc
 50
333.4349488229
 51
26.5650511771
  0
SOLID
  5
1D6
100
AcDbEntity
  8
0
390
0
100
AcDbTrace
 10
13.4653641633
 20
55.8004230468
 30
0.0
 11
13.2778641633
 21
54.6754230468
 31
0.0
 12
13.6528641633
 22
54.6754230468
 32
0.0
 13
13.6528641633
 23
54.6754230468
 33
0.0
  0
SOLID
  5
1D7
100
AcDbEntity
  8
0
390
0
100
AcDbTrace
 10
13.4653641633
 20
34.8122442482
 30
0.0
 11
13.6528641633
 21
35.9372442482
 31
0.0
 12
13.2778641633
 22
35.9372442482
 32
0.0
 13
13.2778641633
 23
35.9372442482
 33
0.0
  0
POINT
  5
1D8
100
AcDbEntity
  8
0
390
0
100
AcDbPoint
 10
19.4834778511
 20
55.8004230468
 30
0.0
  0
POINT
  5
1D9
100
AcDbEntity
  8
0
390
0
100
AcDbPoint
 10
19.4834778511
 20
34.8122442482
 30
0.0
  0
ENDBLK
  5
1DA
100
AcDbEntity
  8
0
390
0
 62
         1
100
AcDbBlockEnd
  0
BLOCK
  5
1DD
100
AcDbEntity
  8
0
390
0
 62
         1
100
AcDbBlockBegin
  2
*D14
 70
         1
 10
0.0
 20
0.0
 30
0.0
  3
*D14
  1

  0
MTEXT
  5
1DE
100
AcDbEntity
  8
0
390
0
100
AcDbMText
 10
15.7695508153
 20
52.613329393
 30
0.0
 40
0.6
 41
0.0
 71
         7
 72
         1
  1
5.835
  7
SLDTEXTSTYLE0
 73
         1
 44
1.0
  0
LINE
  5
1DF
100
AcDbEntity
  8
0
390
0
100
AcDbLine
 10
19.2434778511
 20
55.8004230468
 30
0.0
 11
15.979531004
 21
55.8004230468
 31
0.0
  0
LINE
  5
1E0
100
AcDbEntity
  8
0
390
0
100
AcDbLine
 10
19.2434778511
 20
49.9657681921
 30
0.0
 11
15.979531004
 21
49.9657681921
 31
0.0
  0
LINE
  5
1E1
100
AcDbEntity
  8
0
390
0
100
AcDbLine
 10
16.699531004
 20
55.8004230468
 30
0.0
 11
16.699531004
 21
53.4528618459
 31
0.0
  0
LINE
  5
1E2
100
AcDbEntity
  8
0
390
0
100
AcDbLine
 10
16.699531004
 20
49.9657681921
 30
0.0
 11
16.699531004
 21
52.313329393
 31
0.0
  0
ARC
  5
1E3
100
AcDbEntity
  8
0
390
0
100
AcDbCircle
 10
16.5340832681
 20
52.8830956195
 30
0.0
 40
1.2740360135
100
AcDbArc
 50
153.4349488229
 51
206.5650511771
  0
ARC
  5
1E4
100
AcDbEntity
  8
0
390
0
100
AcDbCircle
 10
16.8649787398
 20
52.8830956195
 30
0.0
 40
1.2740360135
100
AcDbArc
 50
333.4349488229
 51
26.5650511771
  0
SOLID
  5
1E5
100
AcDbEntity
  8
0
390
0
100
AcDbTrace
 10
16.699531004
 20
55.8004230468
 30
0.0
 11
16.512031004
 21
54.6754230468
 31
0.0
 12
16.887031004
 22
54.6754230468
 32
0.0
 13
16.887031004
 23
54.6754230468
 33
0.0
  0
SOLID
  5
1E6
100
AcDbEntity
  8
0
390
0
100
AcDbTrace
 10
16.699531004
 20
49.9657681921
 30
0.0
 11
16.887031004
 21
51.0907681921
 31
0.0
 12
16.512031004
 22
51.0907681921
 32
0.0
 13
16.512031004
 23
51.0907681921
 33
0.0
  0
POINT
  5
1E7
100
AcDbEntity
  8
0
390
0
100
AcDbPoint
 10
19.4834778511
 20
55.8004230468
 30
0.0
  0
POINT
  5
1E8
100
AcDbEntity
  8
0
390
0
100
AcDbPoint
 10
19.4834778511
 20
49.9657681921
 30
0.0
  0
ENDBLK
  5
1E9
100
AcDbEntity
  8
0
390
0
 62
         1
100
AcDbBlockEnd
  0
BLOCK
  5
1EC
100
AcDbEntity
  8
0
390
0
 62
         1
100
AcDbBlockBegin
  2
*D15
 70
         1
 10
0.0
 20
0.0
 30
0.0
  3
*D15
  1

  0
MTEXT
  5
1ED
100
AcDbEntity
  8
0
390
0
100
AcDbMText
 10
13.5445150444
 20
31.6377923417
 30
0.0
 40
0.6
 41
0.0
 71
         7
 72
         1
  1
3.034
  7
SLDTEXTSTYLE0
 73
         1
 44
1.0
  0
LINE
  5
1EE
100
AcDbEntity
  8
0
390
0
100
AcDbLine
 10
19.2434778511
 20
34.8122442482
 30
0.0
 11
16.2443474973
 21
34.8122442482
 31
0.0
  0
LINE
  5
1EF
100
AcDbEntity
  8
0
390
0
100
AcDbLine
 10
19.2434778511
 20
37.8466787928
 30
0.0
 11
16.2443474973
 21
37.8466787928
 31
0.0
  0
LINE
  5
1F0
100
AcDbEntity
  8
0
390
0
100
AcDbLine
 10
16.2143474973
 20
31.9075585681
 30
0.0
 11
16.9643474973
 21
31.9075585681
 31
0.0
  0
LINE
  5
1F1
100
AcDbEntity
  8
0
390
0
100
AcDbLine
 10
16.9643474973
 20
31.9075585681
 30
0.0
 11
16.9643474973
 21
34.8122442482
 31
0.0
  0
LINE
  5
1F2
100
AcDbEntity
  8
0
390
0
100
AcDbLine
 10
16.9643474973
 20
34.8122442482
 30
0.0
 11
16.9643474973
 21
37.8466787928
 31
0.0
  0
ARC
  5
1F3
100
AcDbEntity
  8
0
390
0
100
AcDbCircle
 10
14.3090474973
 20
31.9075585681
 30
0.0
 40
1.2740360135
100
AcDbArc
 50
153.4349488229
 51
206.5650511771
  0
ARC
  5
1F4
100
AcDbEntity
  8
0
390
0
100
AcDbCircle
 10
14.6998150444
 20
31.9075585681
 30
0.0
 40
1.2740360135
100
AcDbArc
 50
333.4349488229
 51
26.5650511771
  0
SOLID
  5
1F5
100
AcDbEntity
  8
0
390
0
100
AcDbTrace
 10
16.9643474973
 20
34.8122442482
 30
0.0
 11
17.1518474973
 21
35.9372442482
 31
0.0
 12
16.7768474973
 22
35.9372442482
 32
0.0
 13
16.7768474973
 23
35.9372442482
 33
0.0
  0
SOLID
  5
1F6
100
AcDbEntity
  8
0
390
0
100
AcDbTrace
 10
16.9643474973
 20
37.8466787928
 30
0.0
 11
16.7768474973
 21
36.7216787928
 31
0.0
 12
17.1518474973
 22
36.7216787928
 32
0.0
 13
17.1518474973
 23
36.7216787928
 33
0.0
  0
POINT
  5
1F7
100
AcDbEntity
  8
0
390
0
100
AcDbPoint
 10
19.4834778511
 20
34.8122442482
 30
0.0
  0
POINT
  5
1F8
100
AcDbEntity
  8
0
390
0
100
AcDbPoint
 10
19.4834778511
 20
37.8466787928
 30
0.0
  0
ENDBLK
  5
1F9
100
AcDbEntity
  8
0
390
0
 62
         1
100
AcDbBlockEnd
  0
BLOCK
  5
1FC
100
AcDbEntity
  8
0
390
0
 62
         1
100
AcDbBlockBegin
  2
*D16
 70
         1
 10
0.0
 20
0.0
 30
0.0
  3
*D16
  1

  0
MTEXT
  5
1FD
100
AcDbEntity
  8
0
390
0
100
AcDbMText
 10
41.3533487945
 20
59.7329552194
 30
0.0
 40
0.6
 41
0.0
 71
         7
 72
         1
  1
45"
  7
SLDTEXTSTYLE0
 73
         1
 44
1.0
  0
LINE
  5
1FE
100
AcDbEntity
  8
0
390
0
100
AcDbLine
 10
19.4834778511
 20
56.0404230468
 30
0.0
 11
19.4834778511
 21
60.7227214459
 31
0.0
  0
LINE
  5
1FF
100
AcDbEntity
  8
0
390
0
100
AcDbLine
 10
64.4834778511
 20
56.0404230468
 30
0.0
 11
64.4834778511
 21
60.7227214459
 31
0.0
  0
LINE
  5
200
100
AcDbEntity
  8
0
390
0
100
AcDbLine
 10
19.4834778511
 20
60.0027214459
 30
0.0
 11
40.9783487945
 21
60.0027214459
 31
0.0
  0
LINE
  5
201
100
AcDbEntity
  8
0
390
0
100
AcDbLine
 10
64.4834778511
 20
60.0027214459
 30
0.0
 11
42.9886069077
 21
60.0027214459
 31
0.0
  0
SOLID
  5
202
100
AcDbEntity
  8
0
390
0
100
AcDbTrace
 10
19.4834778511
 20
60.0027214459
 30
0.0
 11
20.6084778511
 21
59.8152214459
 31
0.0
 12
20.6084778511
 22
60.1902214459
 32
0.0
 13
20.6084778511
 23
60.1902214459
 33
0.0
  0
SOLID
  5
203
100
AcDbEntity
  8
0
390
0
100
AcDbTrace
 10
64.4834778511
 20
60.0027214459
 30
0.0
 11
63.3584778511
 21
60.1902214459
 31
0.0
 12
63.3584778511
 22
59.8152214459
 32
0.0
 13
63.3584778511
 23
59.8152214459
 33
0.0
  0
POINT
  5
204
100
AcDbEntity
  8
0
390
0
100
AcDbPoint
 10
19.4834778511
 20
55.8004230468
 30
0.0
  0
POINT
  5
205
100
AcDbEntity
  8
0
390
0
100
AcDbPoint
 10
64.4834778511
 20
55.8004230468
 30
0.0
  0
ENDBLK
  5
206
100
AcDbEntity
  8
0
390
0
 62
         1
100
AcDbBlockEnd
  0
ENDSEC
  0
SECTION
  2
ENTITIES
  0
LINE
  5
2A
100
AcDbEntity
  8
0
370
         0
390
0
  6
Continuous
 62
         7
100
AcDbLine
 10
20.25
 20
63.75
 30
0.0
 11
9.0
 21
63.75
 31
0.0
  0
LINE
  5
2B
100
AcDbEntity
  8
0
370
         0
390
0
  6
Continuous
 62
         7
100
AcDbLine
 10
31.5
 20
63.75
 30
0.0
 11
20.25
 21
63.75
 31
0.0
  0
LINE
  5
2C
100
AcDbEntity
  8
0
370
         0
390
0
  6
Continuous
 62
         7
100
AcDbLine
 10
99.0
 20
2.25
 30
0.0
 11
87.75
 21
2.25
 31
0.0
  0
LINE
  5
2D
100
AcDbEntity
  8
0
370
         0
390
0
  6
Continuous
 62
         7
100
AcDbLine
 10
99.0
 20
2.25
 30
0.0
 11
99.0
 21
17.625
 31
0.0
  0
LINE
  5
2E
100
AcDbEntity
  8
0
370
         0
390
0
  6
Continuous
 62
         7
100
AcDbLine
 10
99.0
 20
48.375
 30
0.0
 11
99.75
 21
48.375
 31
0.0
  0
LINE
  5
2F
100
AcDbEntity
  8
0
370
         0
390
0
  6
Continuous
 62
         7
100
AcDbLine
 10
99.0
 20
33.0
 30
0.0
 11
99.75
 21
33.0
 31
0.0
  0
LINE
  5
30
100
AcDbEntity
  8
0
370
         0
390
0
  6
Continuous
 62
         7
100
AcDbLine
 10
42.75
 20
63.75
 30
0.0
 11
31.5
 21
63.75
 31
0.0
  0
LINE
  5
31
100
AcDbEntity
  8
0
370
         0
390
0
  6
Continuous
 62
         7
100
AcDbLine
 10
54.0
 20
63.75
 30
0.0
 11
42.75
 21
63.75
 31
0.0
  0
LINE
  5
32
100
AcDbEntity
  8
0
370
         0
390
0
  6
Continuous
 62
         7
100
AcDbLine
 10
65.25
 20
63.75
 30
0.0
 11
54.0
 21
63.75
 31
0.0
  0
LINE
  5
33
100
AcDbEntity
  8
0
370
         0
390
0
  6
Continuous
 62
         7
100
AcDbLine
 10
76.5
 20
63.75
 30
0.0
 11
65.25
 21
63.75
 31
0.0
  0
LINE
  5
34
100
AcDbEntity
  8
0
370
         0
390
0
  6
Continuous
 62
         7
100
AcDbLine
 10
87.75
 20
63.75
 30
0.0
 11
76.5
 21
63.75
 31
0.0
  0
LINE
  5
35
100
AcDbEntity
  8
0
370
         0
390
0
  6
Continuous
 62
         7
100
AcDbLine
 10
99.0
 20
17.625
 30
0.0
 11
99.75
 21
17.625
 31
0.0
  0
LINE
  5
36
100
AcDbEntity
  8
0
370
         0
390
0
  6
Continuous
 62
         7
100
AcDbLine
 10
99.0
 20
63.75
 30
0.0
 11
87.75
 21
63.75
 31
0.0
  0
LINE
  5
37
100
AcDbEntity
  8
0
370
         0
390
0
  6
Continuous
 62
         7
100
AcDbLine
 10
87.75
 20
63.75
 30
0.0
 11
87.75
 21
64.5
 31
0.0
  0
LINE
  5
38
100
AcDbEntity
  8
0
370
         0
390
0
  6
Continuous
 62
         7
100
AcDbLine
 10
76.5
 20
63.75
 30
0.0
 11
76.5
 21
64.5
 31
0.0
  0
LINE
  5
39
100
AcDbEntity
  8
0
370
         0
390
0
  6
Continuous
 62
         7
100
AcDbLine
 10
65.25
 20
63.75
 30
0.0
 11
65.25
 21
64.5
 31
0.0
  0
LINE
  5
3A
100
AcDbEntity
  8
0
370
         0
390
0
  6
Continuous
 62
         7
100
AcDbLine
 10
54.0
 20
63.75
 30
0.0
 11
54.0
 21
64.5
 31
0.0
  0
LINE
  5
3B
100
AcDbEntity
  8
0
370
         0
390
0
  6
Continuous
 62
         7
100
AcDbLine
 10
42.75
 20
63.75
 30
0.0
 11
42.75
 21
64.5
 31
0.0
  0
LINE
  5
3C
100
AcDbEntity
  8
0
370
         0
390
0
  6
Continuous
 62
         7
100
AcDbLine
 10
31.5
 20
63.75
 30
0.0
 11
31.5
 21
64.5
 31
0.0
  0
LINE
  5
3D
100
AcDbEntity
  8
0
370
         0
390
0
  6
Continuous
 62
         7
100
AcDbLine
 10
20.25
 20
63.75
 30
0.0
 11
20.25
 21
64.5
 31
0.0
  0
LINE
  5
3E
100
AcDbEntity
  8
0
370
         0
390
0
  6
Continuous
 62
         7
100
AcDbLine
 10
52.5
 20
10.14
 30
0.0
 11
52.5
 21
2.256
 31
0.0
  0
LINE
  5
3F
100
AcDbEntity
  8
0
370
         0
390
0
  6
Continuous
 62
         7
100
AcDbLine
 10
66.0
 20
14.25
 30
0.0
 11
99.0
 21
14.25
 31
0.0
  0
LINE
  5
40
100
AcDbEntity
  8
0
370
         0
390
0
  6
Continuous
 62
         7
100
AcDbLine
 10
66.0
 20
14.25
 30
0.0
 11
66.0
 21
2.25
 31
0.0
  0
LINE
  5
41
100
AcDbEntity
  8
0
370
         0
390
0
  6
Continuous
 62
         7
100
AcDbLine
 10
81.0
 20
14.25
 30
0.0
 11
81.0
 21
2.25
 31
0.0
  0
LINE
  5
42
100
AcDbEntity
  8
0
370
         0
390
0
  6
Continuous
 62
         7
100
AcDbLine
 10
81.0
 20
3.378
 30
0.0
 11
99.0
 21
3.378
 31
0.0
  0
LINE
  5
43
100
AcDbEntity
  8
0
370
         0
390
0
  6
Continuous
 62
         7
100
AcDbLine
 10
81.0
 20
5.628
 30
0.0
 11
99.0
 21
5.628
 31
0.0
  0
LINE
  5
44
100
AcDbEntity
  8
0
370
         0
390
0
  6
Continuous
 62
         7
100
AcDbLine
 10
81.0
 20
10.128
 30
0.0
 11
99.0
 21
10.128
 31
0.0
  0
LINE
  5
45
100
AcDbEntity
  8
0
370
         0
390
0
  6
Continuous
 62
         7
100
AcDbLine
 10
83.25
 20
5.628
 30
0.0
 11
83.25
 21
2.25
 31
0.0
  0
LINE
  5
46
100
AcDbEntity
  8
0
370
         0
390
0
  6
Continuous
 62
         7
100
AcDbLine
 10
52.5
 20
4.506
 30
0.0
 11
81.0
 21
4.506
 31
0.0
  0
LINE
  5
47
100
AcDbEntity
  8
0
370
         0
390
0
  6
Continuous
 62
         7
100
AcDbLine
 10
96.75
 20
5.628
 30
0.0
 11
96.75
 21
2.25
 31
0.0
  0
LINE
  5
48
100
AcDbEntity
  8
0
370
         0
390
0
  6
Continuous
 62
         7
100
AcDbLine
 10
81.0
 20
12.0
 30
0.0
 11
66.0
 21
12.0
 31
0.0
  0
LINE
  5
49
100
AcDbEntity
  8
0
370
         0
390
0
  6
Continuous
 62
         7
100
AcDbLine
 10
66.0
 20
7.122
 30
0.0
 11
81.0
 21
7.122
 31
0.0
  0
LINE
  5
4A
100
AcDbEntity
  8
0
370
         0
390
0
  6
Continuous
 62
         7
100
AcDbLine
 10
66.0
 20
3.378
 30
0.0
 11
81.0
 21
3.378
 31
0.0
  0
LINE
  5
4B
100
AcDbEntity
  8
0
370
         0
390
0
  6
Continuous
 62
         7
100
AcDbLine
 10
52.5
 20
7.884
 30
0.0
 11
66.0
 21
7.884
 31
0.0
  0
LINE
  5
4C
100
AcDbEntity
  8
0
370
         0
390
0
  6
Continuous
 62
         7
100
AcDbLine
 10
99.0
 20
17.625
 30
0.0
 11
99.0
 21
33.0
 31
0.0
  0
LINE
  5
4D
100
AcDbEntity
  8
0
370
         0
390
0
  6
Continuous
 62
         7
100
AcDbLine
 10
99.0
 20
33.0
 30
0.0
 11
99.0
 21
48.375
 31
0.0
  0
LINE
  5
4E
100
AcDbEntity
  8
0
370
         0
390
0
  6
Continuous
 62
         7
100
AcDbLine
 10
99.0
 20
48.375
 30
0.0
 11
99.0
 21
63.75
 31
0.0
  0
LINE
  5
4F
100
AcDbEntity
  8
0
370
         0
390
0
  6
Continuous
 62
         7
100
AcDbLine
 10
87.75
 20
2.25
 30
0.0
 11
76.5
 21
2.25
 31
0.0
  0
LINE
  5
50
100
AcDbEntity
  8
0
370
         0
390
0
  6
Continuous
 62
         7
100
AcDbLine
 10
76.5
 20
2.25
 30
0.0
 11
65.25
 21
2.25
 31
0.0
  0
LINE
  5
51
100
AcDbEntity
  8
0
370
         0
390
0
  6
Continuous
 62
         7
100
AcDbLine
 10
52.5
 20
9.012
 30
0.0
 11
66.0
 21
9.012
 31
0.0
  0
LINE
  5
52
100
AcDbEntity
  8
0
370
         0
390
0
  6
Continuous
 62
         7
100
AcDbLine
 10
52.5
 20
5.625
 30
0.0
 11
30.0
 21
5.625
 31
0.0
  0
LINE
  5
53
100
AcDbEntity
  8
0
370
         0
390
0
  6
Continuous
 62
         7
100
AcDbLine
 10
66.0
 20
10.14
 30
0.0
 11
52.5
 21
10.14
 31
0.0
  0
LINE
  5
54
100
AcDbEntity
  8
0
370
         0
390
0
  6
Continuous
 62
         7
100
AcDbLine
 10
61.5
 20
10.14
 30
0.0
 11
61.5
 21
6.756
 31
0.0
  0
LINE
  5
55
100
AcDbEntity
  8
0
370
         0
390
0
  6
Continuous
 62
         7
100
AcDbLine
 10
66.0
 20
10.872
 30
0.0
 11
81.0
 21
10.872
 31
0.0
  0
LINE
  5
56
100
AcDbEntity
  8
0
370
         0
390
0
  6
Continuous
 62
         7
100
AcDbLine
 10
52.5
 20
6.756
 30
0.0
 11
66.0
 21
6.756
 31
0.0
  0
LINE
  5
57
100
AcDbEntity
  8
0
370
         0
390
0
  6
Continuous
 62
         7
100
AcDbLine
 10
73.5
 20
12.0
 30
0.0
 11
73.5
 21
7.122
 31
0.0
  0
LINE
  5
58
100
AcDbEntity
  8
0
370
         0
390
0
  6
Continuous
 62
         7
100
AcDbLine
 10
65.25
 20
2.25
 30
0.0
 11
54.0
 21
2.25
 31
0.0
  0
LINE
  5
59
100
AcDbEntity
  8
0
370
         0
390
0
  6
Continuous
 62
         7
100
AcDbLine
 10
54.0
 20
2.25
 30
0.0
 11
42.75
 21
2.25
 31
0.0
  0
LINE
  5
5A
100
AcDbEntity
  8
0
370
         0
390
0
  6
Continuous
 62
         7
100
AcDbLine
 10
42.75
 20
2.25
 30
0.0
 11
31.5
 21
2.25
 31
0.0
  0
LINE
  5
5B
100
AcDbEntity
  8
0
370
         0
390
0
  6
Continuous
 62
         7
100
AcDbLine
 10
31.5
 20
2.25
 30
0.0
 11
20.25
 21
2.25
 31
0.0
  0
LINE
  5
5C
100
AcDbEntity
  8
0
370
         0
390
0
  6
Continuous
 62
         7
100
AcDbLine
 10
77.25
 20
12.0
 30
0.0
 11
77.25
 21
7.122
 31
0.0
  0
LINE
  5
5D
100
AcDbEntity
  8
0
370
         0
390
0
  6
Continuous
 62
         7
100
AcDbLine
 10
20.25
 20
2.25
 30
0.0
 11
9.0
 21
2.25
 31
0.0
  0
LINE
  5
5E
100
AcDbEntity
  8
0
370
         0
390
0
  6
Continuous
 62
         7
100
AcDbLine
 10
4.5
 20
63.75
 30
0.0
 11
4.5
 21
2.25
 31
0.0
  0
LINE
  5
5F
100
AcDbEntity
  8
0
370
         0
390
0
  6
Continuous
 62
         7
100
AcDbLine
 10
9.0
 20
17.625
 30
0.0
 11
9.0
 21
33.0
 31
0.0
  0
LINE
  5
60
100
AcDbEntity
  8
0
370
         0
390
0
  6
Continuous
 62
         7
100
AcDbLine
 10
9.0
 20
33.0
 30
0.0
 11
9.0
 21
48.375
 31
0.0
  0
LINE
  5
61
100
AcDbEntity
  8
0
370
         0
390
0
  6
Continuous
 62
         7
100
AcDbLine
 10
9.0
 20
48.375
 30
0.0
 11
9.0
 21
63.75
 31
0.0
  0
LINE
  5
62
100
AcDbEntity
  8
0
370
         0
390
0
  6
Continuous
 62
         7
100
AcDbLine
 10
9.0
 20
48.375
 30
0.0
 11
8.25
 21
48.375
 31
0.0
  0
LINE
  5
63
100
AcDbEntity
  8
0
370
         0
390
0
  6
Continuous
 62
         7
100
AcDbLine
 10
87.75
 20
2.25
 30
0.0
 11
87.75
 21
1.5
 31
0.0
  0
LINE
  5
64
100
AcDbEntity
  8
0
370
         0
390
0
  6
Continuous
 62
         7
100
AcDbLine
 10
76.5
 20
2.25
 30
0.0
 11
76.5
 21
1.5
 31
0.0
  0
LINE
  5
65
100
AcDbEntity
  8
0
370
         0
390
0
  6
Continuous
 62
         7
100
AcDbLine
 10
65.25
 20
2.25
 30
0.0
 11
65.25
 21
1.5
 31
0.0
  0
LINE
  5
66
100
AcDbEntity
  8
0
370
         0
390
0
  6
CENTERX2
 62
         7
100
AcDbLine
 10
54.0
 20
2.25
 30
0.0
 11
54.0
 21
1.5
 31
0.0
  0
LINE
  5
67
100
AcDbEntity
  8
0
370
         0
390
0
  6
Continuous
 62
         7
100
AcDbLine
 10
42.75
 20
2.25
 30
0.0
 11
42.75
 21
1.5
 31
0.0
  0
LINE
  5
68
100
AcDbEntity
  8
0
370
         0
390
0
  6
Continuous
 62
         7
100
AcDbLine
 10
31.5
 20
2.25
 30
0.0
 11
31.5
 21
1.5
 31
0.0
  0
LINE
  5
69
100
AcDbEntity
  8
0
370
         0
390
0
  6
Continuous
 62
         7
100
AcDbLine
 10
20.25
 20
2.25
 30
0.0
 11
20.25
 21
1.5
 31
0.0
  0
LINE
  5
6A
100
AcDbEntity
  8
0
370
         0
390
0
  6
Continuous
 62
         7
100
AcDbLine
 10
9.0
 20
33.0
 30
0.0
 11
8.25
 21
33.0
 31
0.0
  0
LINE
  5
6B
100
AcDbEntity
  8
0
370
         0
390
0
  6
Continuous
 62
         7
100
AcDbLine
 10
9.0
 20
17.625
 30
0.0
 11
8.25
 21
17.625
 31
0.0
  0
LINE
  5
6C
100
AcDbEntity
  8
0
370
         0
390
0
  6
Continuous
 62
         7
100
AcDbLine
 10
9.0
 20
2.25
 30
0.0
 11
9.0
 21
17.625
 31
0.0
  0
LINE
  5
6D
100
AcDbEntity
  8
0
370
         0
390
0
  6
Continuous
 62
         7
100
AcDbLine
 10
30.0
 20
5.625
 30
0.0
 11
30.0
 21
2.25
 31
0.0
  0
LINE
  5
6E
100
AcDbEntity
  8
0
370
         0
390
0
  6
Continuous
 62
         7
100
AcDbLine
 10
99.0
 20
62.622
 30
0.0
 11
75.0
 21
62.622
 31
0.0
  0
LINE
  5
6F
100
AcDbEntity
  8
0
370
         0
390
0
  6
Continuous
 62
         7
100
AcDbLine
 10
99.0
 20
61.494
 30
0.0
 11
75.0
 21
61.494
 31
0.0
  0
LINE
  5
70
100
AcDbEntity
  8
0
370
         0
390
0
  6
Continuous
 62
         7
100
AcDbLine
 10
99.0
 20
60.366
 30
0.0
 11
75.0
 21
60.366
 31
0.0
  0
LINE
  5
71
100
AcDbEntity
  8
0
370
         0
390
0
  6
Continuous
 62
         7
100
AcDbLine
 10
75.0
 20
63.75
 30
0.0
 11
75.0
 21
60.366
 31
0.0
  0
LINE
  5
72
100
AcDbEntity
  8
0
370
         0
390
0
  6
Continuous
 62
         7
100
AcDbLine
 10
77.25
 20
62.622
 30
0.0
 11
77.25
 21
60.366
 31
0.0
  0
LINE
  5
73
100
AcDbEntity
  8
0
370
         0
390
0
  6
Continuous
 62
         7
100
AcDbLine
 10
94.5
 20
62.622
 30
0.0
 11
94.5
 21
60.366
 31
0.0
  0
LINE
  5
74
100
AcDbEntity
  8
0
370
         0
390
0
  6
Continuous
 62
         7
100
AcDbLine
 10
90.75
 20
62.622
 30
0.0
 11
90.75
 21
60.366
 31
0.0
  0
MTEXT
  5
76
100
AcDbEntity
  8
0
390
0
 62
         1
100
AcDbMText
 10
4.6854597054
 20
0.4680509283
 30
0.0
 40
0.6
 41
0.0
 71
         1
 72
         1
  1
STEEL, A-36, 1/4" THICK
  7
SLDTEXTSTYLE0
 73
         1
 44
1.0
  0
MTEXT
  5
77
100
AcDbEntity
  8
0
390
0
 62
         1
100
AcDbMText
 10
5.8066776626
 20
0.3503885442
 30
0.0
 40
0.6
 41
0.0
 71
         1
 72
         1
  1
66.8 lbs
  7
SLDTEXTSTYLE0
 73
         1
 44
1.0
  0
MTEXT
  5
78
100
AcDbEntity
  8
0
390
0
 62
         1
100
AcDbMText
 10
7.1178680948
 20
1.5040507973
 30
0.0
 40
1.0
 41
0.0
 71
         2
 72
         1
  1
2 REQUIRED\PPER ASSEM
  7
SLDTEXTSTYLE0
 73
         1
 44
1.0
  0
MTEXT
  5
79
100
AcDbEntity
  8
0
390
0
 62
         7
100
AcDbMText
 10
100.2803704772
 20
54.5319767552
 30
0.0
 40
0.5625
 41
0.0
 71
         1
 72
         1
  1
D
  7
SLDTEXTSTYLE0
 73
         1
 44
1.0
  0
MTEXT
  5
7A
100
AcDbEntity
  8
0
390
0
 62
         7
100
AcDbMText
 10
100.1706350981
 20
39.2772688485
 30
0.0
 40
0.5625
 41
0.0
 71
         1
 72
         1
  1
C
  7
SLDTEXTSTYLE0
 73
         1
 44
1.0
  0
MTEXT
  5
7B
100
AcDbEntity
  8
0
390
0
 62
         7
100
AcDbMText
 10
100.2367248009
 20
25.312890958
 30
0.0
 40
0.5625
 41
0.0
 71
         1
 72
         1
  1
B
  7
SLDTEXTSTYLE0
 73
         1
 44
1.0
  0
MTEXT
  5
7C
100
AcDbEntity
  8
0
390
0
 62
         7
100
AcDbMText
 10
100.2333099606
 20
10.2826092497
 30
0.0
 40
0.5625
 41
0.0
 71
         1
 72
         1
  1
A
  7
SLDTEXTSTYLE0
 73
         1
 44
1.0
  0
MTEXT
  5
7D
100
AcDbEntity
  8
0
390
0
 62
         7
100
AcDbMText
 10
5.786115592
 20
10.1604862113
 30
0.0
 40
0.5625
 41
0.0
 71
         1
 72
         1
  1
A
  7
SLDTEXTSTYLE0
 73
         1
 44
1.0
  0
MTEXT
  5
7E
100
AcDbEntity
  8
0
390
0
 62
         7
100
AcDbMText
 10
5.7669570385
 20
25.6667716838
 30
0.0
 40
0.5625
 41
0.0
 71
         1
 72
         1
  1
B
  7
SLDTEXTSTYLE0
 73
         1
 44
1.0
  0
MTEXT
  5
7F
100
AcDbEntity
  8
0
390
0
 62
         7
100
AcDbMText
 10
5.6929674326
 20
41.2454400395
 30
0.0
 40
0.5625
 41
0.0
 71
         1
 72
         1
  1
C
  7
SLDTEXTSTYLE0
 73
         1
 44
1.0
  0
MTEXT
  5
80
100
AcDbEntity
  8
0
390
0
 62
         7
100
AcDbMText
 10
5.6732937728
 20
55.8388103014
 30
0.0
 40
0.5625
 41
0.0
 71
         1
 72
         1
  1
D
  7
SLDTEXTSTYLE0
 73
         1
 44
1.0
  0
MTEXT
  5
81
100
AcDbEntity
  8
0
390
0
 62
         7
100
AcDbMText
 10
97.1148348692
 20
3.1180713538
 30
0.0
 40
0.54
 41
0.0
 71
         1
 72
         1
  1
REV.
  7
SLDTEXTSTYLE0
 73
         1
 44
1.0
  0
MTEXT
  5
82
100
AcDbEntity
  8
0
390
0
 62
         7
100
AcDbMText
 10
74.0944620711
 20
10.5521458468
 30
0.0
 40
0.54
 41
0.0
 71
         1
 72
         1
  1
%%p\P%%p\P%%p\P%%p
  7
SLDTEXTSTYLE0
 73
         1
 44
1.0
  0
MTEXT
  5
83
100
AcDbEntity
  8
0
390
0
 62
         7
100
AcDbMText
 10
52.871649149
 20
6.5849075998
 30
0.0
 40
0.54
 41
0.0
 71
         1
 72
         1
  1
MATERIAL
  7
SLDTEXTSTYLE0
 73
         1
 44
1.0
  0
MTEXT
  5
84
100
AcDbEntity
  8
0
390
0
 62
         7
100
AcDbMText
 10
52.8579204388
 20
4.3900428412
 30
0.0
 40
0.54
 41
0.0
 71
         1
 72
         1
  1
FINISH
  7
SLDTEXTSTYLE0
 73
         1
 44
1.0
  0
MTEXT
  5
85
100
AcDbEntity
  8
0
390
0
 62
         7
100
AcDbMText
 10
94.80259802
 20
1.9306102858
 30
0.0
 40
0.5625
 41
0.0
 71
         1
 72
         1
  1
1
  7
SLDTEXTSTYLE0
 73
         1
 44
1.0
  0
MTEXT
  5
86
100
AcDbEntity
  8
0
390
0
 62
         7
100
AcDbMText
 10
81.5663175241
 20
1.9890647688
 30
0.0
 40
0.5625
 41
0.0
 71
         1
 72
         1
  1
2
  7
SLDTEXTSTYLE0
 73
         1
 44
1.0
  0
MTEXT
  5
87
100
AcDbEntity
  8
0
390
0
 62
         7
100
AcDbMText
 10
69.2176300855
 20
2.0085495965
 30
0.0
 40
0.5625
 41
0.0
 71
         1
 72
         1
  1
3
  7
SLDTEXTSTYLE0
 73
         1
 44
1.0
  0
MTEXT
  5
88
100
AcDbEntity
  8
0
390
0
 62
         7
100
AcDbMText
 10
58.0900654844
 20
2.0204692641
 30
0.0
 40
0.5625
 41
0.0
 71
         1
 72
         1
  1
4
  7
SLDTEXTSTYLE0
 73
         1
 44
1.0
  0
MTEXT
  5
89
100
AcDbEntity
  8
0
390
0
 62
         7
100
AcDbMText
 10
46.3875880111
 20
2.0399540917
 30
0.0
 40
0.5625
 41
0.0
 71
         1
 72
         1
  1
5
  7
SLDTEXTSTYLE0
 73
         1
 44
1.0
  0
MTEXT
  5
8A
100
AcDbEntity
  8
0
390
0
 62
         7
100
AcDbMText
 10
35.4612929916
 20
1.9425299534
 30
0.0
 40
0.5625
 41
0.0
 71
         1
 72
         1
  1
6
  7
SLDTEXTSTYLE0
 73
         1
 44
1.0
  0
MTEXT
  5
8B
100
AcDbEntity
  8
0
390
0
 62
         7
100
AcDbMText
 10
23.5813852718
 20
2.0280344241
 30
0.0
 40
0.5625
 41
0.0
 71
         1
 72
         1
  1
7
  7
SLDTEXTSTYLE0
 73
         1
 44
1.0
  0
MTEXT
  5
8C
100
AcDbEntity
  8
0
390
0
 62
         7
100
AcDbMText
 10
12.8889081843
 20
2.0399540917
 30
0.0
 40
0.5625
 41
0.0
 71
         1
 72
         1
  1
8
  7
SLDTEXTSTYLE0
 73
         1
 44
1.0
  0
MTEXT
  5
8D
100
AcDbEntity
  8
0
390
0
 62
         7
100
AcDbMText
 10
12.7036737184
 20
64.8521377279
 30
0.0
 40
0.5625
 41
0.0
 71
         1
 72
         1
  1
8
  7
SLDTEXTSTYLE0
 73
         1
 44
1.0
  0
MTEXT
  5
8E
100
AcDbEntity
  8
0
390
0
 62
         7
100
AcDbMText
 10
24.4227419866
 20
64.7184140625
 30
0.0
 40
0.5625
 41
0.0
 71
         1
 72
         1
  1
7
  7
SLDTEXTSTYLE0
 73
         1
 44
1.0
  0
MTEXT
  5
8F
100
AcDbEntity
  8
0
390
0
 62
         7
100
AcDbMText
 10
35.7102884383
 20
64.6792122396
 30
0.0
 40
0.5625
 41
0.0
 71
         1
 72
         1
  1
6
  7
SLDTEXTSTYLE0
 73
         1
 44
1.0
  0
MTEXT
  5
90
100
AcDbEntity
  8
0
390
0
 62
         7
100
AcDbMText
 10
47.4371650854
 20
64.6080653971
 30
0.0
 40
0.5625
 41
0.0
 71
         1
 72
         1
  1
5
  7
SLDTEXTSTYLE0
 73
         1
 44
1.0
  0
MTEXT
  5
91
100
AcDbEntity
  8
0
390
0
 62
         7
100
AcDbMText
 10
59.0928948901
 20
64.7809908854
 30
0.0
 40
0.5625
 41
0.0
 71
         1
 72
         1
  1
4
  7
SLDTEXTSTYLE0
 73
         1
 44
1.0
  0
MTEXT
  5
92
100
AcDbEntity
  8
0
390
0
 62
         7
100
AcDbMText
 10
70.8078134447
 20
64.6568798633
 30
0.0
 40
0.5625
 41
0.0
 71
         1
 72
         1
  1
3
  7
SLDTEXTSTYLE0
 73
         1
 44
1.0
  0
MTEXT
  5
93
100
AcDbEntity
  8
0
390
0
 62
         7
100
AcDbMText
 10
82.0262879107
 20
64.7301015625
 30
0.0
 40
0.5625
 41
0.0
 71
         1
 72
         1
  1
2
  7
SLDTEXTSTYLE0
 73
         1
 44
1.0
  0
MTEXT
  5
94
100
AcDbEntity
  8
0
390
0
 62
         7
100
AcDbMText
 10
94.0013866022
 20
64.6303977734
 30
0.0
 40
0.5625
 41
0.0
 71
         1
 72
         1
  1
1
  7
SLDTEXTSTYLE0
 73
         1
 44
1.0
  0
MTEXT
  5
95
100
AcDbEntity
  8
0
390
0
 62
         7
100
AcDbMText
 10
81.9326040698
 20
13.8043043159
 30
0.0
 40
1.0
 41
0.0
 71
         1
 72
         1
  1
RADIO  ASTRONOMY  LAB
  7
SLDTEXTSTYLE0
 73
         1
 44
1.0
  0
MTEXT
  5
96
100
AcDbEntity
  8
0
390
0
 62
         7
100
AcDbMText
 10
90.1365472528
 20
12.1172946542
 30
0.0
 40
0.6
 41
0.0
 71
         2
 72
         1
  1
University of California - Berkeley\PTel: 510-642-5040    Fax: 510-642-3411
  7
SLDTEXTSTYLE0
 73
         1
 44
1.0
  0
MTEXT
  5
97
100
AcDbEntity
  8
0
390
0
 62
         7
100
AcDbMText
 10
56.3039096438
 20
9.8265563169
 30
0.0
 40
0.54
 41
0.0
 71
         1
 72
         1
  1
NAME
  7
SLDTEXTSTYLE0
 73
         1
 44
1.0
  0
MTEXT
  5
98
100
AcDbEntity
  8
0
390
0
 62
         7
100
AcDbMText
 10
62.9516353413
 20
9.799970562
 30
0.0
 40
0.54
 41
0.0
 71
         1
 72
         1
  1
DATE
  7
SLDTEXTSTYLE0
 73
         1
 44
1.0
  0
MTEXT
  5
99
100
AcDbEntity
  8
0
390
0
 62
         7
100
AcDbMText
 10
81.4759825944
 20
3.1449171792
 30
0.0
 40
0.54
 41
0.0
 71
         1
 72
         1
  1
SIZE
  7
SLDTEXTSTYLE0
 73
         1
 44
1.0
  0
MTEXT
  5
9A
100
AcDbEntity
  8
0
390
0
 62
         7
100
AcDbMText
 10
81.8069992835
 20
5.0647918035
 30
0.0
 40
1.125
 41
0.0
 71
         1
 72
         1
  1
B
  7
SLDTEXTSTYLE0
 73
         1
 44
1.0
  0
MTEXT
  5
9B
100
AcDbEntity
  8
0
390
0
 62
         7
100
AcDbMText
 10
66.4752771067
 20
3.0771970241
 30
0.0
 40
0.54
 41
0.0
 71
         1
 72
         1
  1
SCALE:
  7
SLDTEXTSTYLE0
 73
         1
 44
1.0
  0
MTEXT
  5
9C
100
AcDbEntity
  8
0
390
0
 62
         7
100
AcDbMText
 10
83.5463434683
 20
3.1200016872
 30
0.0
 40
0.54
 41
0.0
 71
         1
 72
         1
  1
DWG NUM:      SHEET             OF
  7
SLDTEXTSTYLE0
 73
         1
 44
1.0
  0
MTEXT
  5
9D
100
AcDbEntity
  8
0
390
0
 62
         7
100
AcDbMText
 10
95.9926888765
 20
62.3118161116
 30
0.0
 40
0.54
 41
0.0
 71
         1
 72
         1
  1
DATE
  7
SLDTEXTSTYLE0
 73
         1
 44
1.0
  0
MTEXT
  5
9E
100
AcDbEntity
  8
0
390
0
 62
         7
100
AcDbMText
 10
91.8149314756
 20
62.3092473621
 30
0.0
 40
0.54
 41
0.0
 71
         1
 72
         1
  1
NAME
  7
SLDTEXTSTYLE0
 73
         1
 44
1.0
  0
MTEXT
  5
9F
100
AcDbEntity
  8
0
390
0
 62
         7
100
AcDbMText
 10
84.1984431045
 20
63.4317880241
 30
0.0
 40
0.54
 41
0.0
 71
         1
 72
         1
  1
REVISIONS
  7
SLDTEXTSTYLE0
 73
         1
 44
1.0
  0
MTEXT
  5
A0
100
AcDbEntity
  8
0
390
0
 62
         7
100
AcDbMText
 10
75.4931915213
 20
62.300599449
 30
0.0
 40
0.54
 41
0.0
 71
         1
 72
         1
  1
REV
  7
SLDTEXTSTYLE0
 73
         1
 44
1.0
  0
MTEXT
  5
A1
100
AcDbEntity
  8
0
390
0
 62
         7
100
AcDbMText
 10
77.7747341495
 20
62.2973440515
 30
0.0
 40
0.54
 41
0.0
 71
         1
 72
         1
  1
DESCRIPTION
  7
SLDTEXTSTYLE0
 73
         1
 44
1.0
  0
MTEXT
  5
A2
100
AcDbEntity
  8
0
390
0
 62
         7
100
AcDbMText
 10
66.4441180665
 20
4.190674889
 30
0.0
 40
0.54
 41
0.0
 71
         1
 72
         1
  1
WEIGHT:
  7
SLDTEXTSTYLE0
 73
         1
 44
1.0
  0
MTEXT
  5
A3
100
AcDbEntity
  8
0
390
0
 62
         7
100
AcDbMText
 10
52.8645847057
 20
8.6852667788
 30
0.0
 40
0.54
 41
0.0
 71
         1
 72
         1
  1
DRAWN
  7
SLDTEXTSTYLE0
 73
         1
 44
1.0
  0
MTEXT
  5
A4
100
AcDbEntity
  8
0
390
0
 62
         7
100
AcDbMText
 10
52.863220204
 20
7.5679825432
 30
0.0
 40
0.54
 41
0.0
 71
         1
 72
         1
  1
CHECKED
  7
SLDTEXTSTYLE0
 73
         1
 44
1.0
  0
MTEXT
  5
A5
100
AcDbEntity
  8
0
390
0
 62
         7
100
AcDbMText
 10
72.9916757546
 20
10.5235230582
 30
0.0
 40
0.54
 41
0.0
 71
         3
 72
         1
  1
WHOLE & FRACTION\PDECIMAL   X.X\PDECIMAL   X.XX\PDECIMAL   X.XXX
  7
SLDTEXTSTYLE0
 73
         1
 44
1.0
  0
MTEXT
  5
A6
100
AcDbEntity
  8
0
390
0
 62
         7
100
AcDbMText
 10
75.5237854217
 20
11.7884161564
 30
0.0
 40
0.54
 41
0.0
 71
         2
 72
         1
  1
LINEAR
  7
SLDTEXTSTYLE0
 73
         1
 44
1.0
  0
MTEXT
  5
A7
100
AcDbEntity
  8
0
390
0
 62
         7
100
AcDbMText
 10
79.0068273082
 20
11.8245225938
 30
0.0
 40
0.54
 41
0.0
 71
         2
 72
         1
  1
ANGLE
  7
SLDTEXTSTYLE0
 73
         1
 44
1.0
  0
INSERT
  5
AE
100
AcDbEntity
  8
0
390
0
100
AcDbBlockReference
  2
NOTE50
 10
67.0019801145
 20
6.5642685156
 30
0.0
  0
MTEXT
  5
AF
100
AcDbEntity
  8
0
390
0
 62
         7
100
AcDbMText
 10
73.4925209285
 20
13.8534170794
 30
0.0
 40
0.54
 41
0.0
 71
         2
 72
         1
  1
UNLESS OTHERWISE SPECIFIED\PDIMENSIONS ARE INCHES & DEGREES
  7
SLDTEXTSTYLE0
 73
         1
 44
1.0
  0
MTEXT
  5
B0
100
AcDbEntity
  8
0
390
0
 62
         7
100
AcDbMText
 10
67.207800654
 20
11.7502107179
 30
0.0
 40
0.54
 41
0.0
 71
         1
 72
         1
  1
TOLERANCES:
  7
SLDTEXTSTYLE0
 73
         1
 44
1.0
  0
MTEXT
  5
B1
100
AcDbEntity
  8
0
390
0
 62
         7
100
AcDbMText
 10
77.7327711075
 20
10.5468730066
 30
0.0
 40
0.54
 41
0.0
 71
         1
 72
         1
  1
%%p\P%%p\P%%p\P%%p
  7
SLDTEXTSTYLE0
 73
         1
 44
1.0
  0
MTEXT
  5
B2
100
AcDbEntity
  8
0
390
0
 62
         7
100
AcDbMText
 10
87.9804017612
 20
62.3173586117
 30
0.0
 40
0.54
 41
0.0
 71
         1
 72
         1
  1
ZONE
  7
SLDTEXTSTYLE0
 73
         1
 44
1.0
  0
MTEXT
  5
B3
100
AcDbEntity
  8
0
390
0
 62
         7
100
AcDbMText
 10
30.5713060916
 20
5.1874000031
 30
0.0
 40
0.48
 41
0.0
 71
         1
 72
         1
  1
THIS DRAWING IS THE PROPERTY OF AND CONTAINS CONFIDENTIAL\PINFORMATION PROPRIETARY TO THE UNIVERSITY OF CALIFORNIA AND\PSHALL BE USED ONLY FOR THE PURPOSE FOR WHICH IT WAS PROVIDED\PAND SHALL NOT BE REPRODUCED OR DISCLOSED TO OTHERS.
  7
SLDTEXTSTYLE0
 73
         1
 44
1.0
  0
MTEXT
  5
B4
100
AcDbEntity
  8
0
390
0
 62
         7
100
AcDbMText
 10
75.8337516775
 20
61.2293950566
 30
0.0
 40
0.54
 41
0.0
 71
         1
 72
         1
  1
A
  7
SLDTEXTSTYLE0
 73
         1
 44
1.0
  0
MTEXT
  5
B5
100
AcDbEntity
  8
0
390
0
 62
         7
100
AcDbMText
 10
77.8679754835
 20
61.2279090502
 30
0.0
 40
0.54
 41
0.0
 71
         1
 72
         1
  1
RELEASED
  7
SLDTEXTSTYLE0
 73
         1
 44
1.0
  0
MTEXT
  5
B6
100
AcDbEntity
  8
0
390
0
 62
         7
100
AcDbMText
 10
56.2150450389
 20
8.7607613359
 30
0.0
 40
0.625
 41
0.0
 71
         1
 72
         1
  1
M. C. FLEMING
  7
SLDTEXTSTYLE0
 73
         1
 44
1.0
  0
MTEXT
  5
B7
100
AcDbEntity
  8
0
390
0
 62
         7
100
AcDbMText
 10
97.5126263281
 20
4.9624226868
 30
0.0
 40
1.125
 41
0.0
 71
         1
 72
         1
  1
A
  7
SLDTEXTSTYLE0
 73
         1
 44
1.0
  0
MTEXT
  5
B8
100
AcDbEntity
  8
0
390
0
 62
         7
100
AcDbMText
 10
61.9328416618
 20
8.750425057
 30
0.0
 40
0.625
 41
0.0
 71
         1
 72
         1
  1
2004-12-22
  7
SLDTEXTSTYLE0
 73
         1
 44
1.0
  0
MTEXT
  5
B9
100
AcDbEntity
  8
0
390
0
 62
         7
100
AcDbMText
 10
75.0744654795
 20
10.5589603435
 30
0.0
 40
0.54
 41
0.0
 71
         1
 72
         1
  1
1/16\P0.1\P0.01\P0.005
  7
SLDTEXTSTYLE0
 73
         1
 44
1.0
  0
MTEXT
  5
BA
100
AcDbEntity
  8
0
390
0
 62
         7
100
AcDbMText
 10
78.6149053168
 20
10.5472506135
 30
0.0
 40
0.54
 41
0.0
 71
         1
 72
         1
  1
1%%d\P0.1%%d\P0.01%%d\P0.001%%d
  7
SLDTEXTSTYLE0
 73
         1
 44
1.0
  0
MTEXT
  5
BB
100
AcDbEntity
  8
0
390
0
 62
         7
100
AcDbMText
 10
84.4902180661
 20
5.0709720676
 30
0.0
 40
1.125
 41
0.0
 71
         1
 72
         1
  1
24-09-103   1 of 1
  7
SLDTEXTSTYLE0
 73
         1
 44
1.0
  0
MTEXT
  5
BC
100
AcDbEntity
  8
0
390
0
 62
         7
100
AcDbMText
 10
91.7758694967
 20
61.2305169048
 30
0.0
 40
0.625
 41
0.0
 71
         1
 72
         1
  1
M.C.F.
  7
SLDTEXTSTYLE0
 73
         1
 44
1.0
  0
MTEXT
  5
BD
100
AcDbEntity
  8
0
390
0
 62
         7
100
AcDbMText
 10
95.0518440586
 20
61.2249143788
 30
0.0
 40
0.625
 41
0.0
 71
         1
 72
         1
  1
2004-12-22
  7
SLDTEXTSTYLE0
 73
         1
 44
1.0
  0
MTEXT
  5
BE
100
AcDbEntity
  8
0
390
0
 62
         7
100
AcDbMText
 10
89.632076409
 20
9.1955179403
 30
0.0
 40
1.125
 41
0.0
 71
         2
 72
         1
  1
CARMA 6m Base,\PLeg Adaptor, Stiffener
  7
SLDTEXTSTYLE0
 73
         1
 44
1.0
  0
LINE
  5
BF
100
AcDbEntity
  8
0
370
        15
390
0
  6
Continuous
 62
         7
100
AcDbLine
 10
15.7864963419
 20
28.1967790258
 30
0.0
 11
15.7864963419
 21
6.1501771049
 31
0.0
  0
LINE
  5
C0
100
AcDbEntity
  8
0
370
        15
390
0
  6
Continuous
 62
         7
100
AcDbLine
 10
15.8831424023
 20
28.1019916193
 30
0.0
 11
15.8831424023
 21
6.0553896984
 31
0.0
  0
LINE
  5
C1
100
AcDbEntity
  8
0
370
        15
390
0
  6
Continuous
 62
         7
100
AcDbLine
 10
15.8831424023
 20
28.1019916193
 30
0.0
 11
22.1356098966
 21
26.098161629
 31
0.0
  0
LINE
  5
C2
100
AcDbEntity
  8
0
370
        15
390
0
  6
Continuous
 62
         7
100
AcDbLine
 10
22.1356098966
 20
26.098161629
 30
0.0
 11
22.1356098966
 21
4.0515597081
 31
0.0
  0
LINE
  5
C3
100
AcDbEntity
  8
0
370
        15
390
0
  6
Continuous
 62
         7
100
AcDbLine
 10
15.8831424023
 20
6.0553896984
 30
0.0
 11
22.1356098966
 21
4.0515597081
 31
0.0
  0
LINE
  5
C4
100
AcDbEntity
  8
0
370
        15
390
0
  6
Continuous
 62
         7
100
AcDbLine
 10
22.1356098966
 20
26.098161629
 30
0.0
 11
22.2084165576
 21
26.1738704201
 31
0.0
  0
LINE
  5
C5
100
AcDbEntity
  8
0
370
        15
390
0
  6
Continuous
 62
         7
100
AcDbLine
 10
15.9559490633
 20
28.1777004104
 30
0.0
 11
15.8831424023
 21
28.1019916193
 31
0.0
  0
LINE
  5
C6
100
AcDbEntity
  8
0
370
        15
390
0
  6
Continuous
 62
         7
100
AcDbLine
 10
15.9559490633
 20
28.1777004104
 30
0.0
 11
22.2084165576
 21
26.1738704201
 31
0.0
  0
LINE
  5
C7
100
AcDbEntity
  8
0
370
        15
390
0
  6
Continuous
 62
         7
100
AcDbLine
 10
24.0154871094
 20
26.224542359
 30
0.0
 11
24.0232401828
 21
26.1380649491
 31
0.0
  0
LINE
  5
C8
100
AcDbEntity
  8
0
370
        15
390
0
  6
Continuous
 62
         7
100
AcDbLine
 10
22.2364706841
 20
26.0846793182
 30
0.0
 11
24.0232401828
 21
26.1380649491
 31
0.0
  0
LINE
  5
C9
100
AcDbEntity
  8
0
370
        15
390
0
  6
Continuous
 62
         7
100
AcDbLine
 10
22.2287176107
 20
26.1711567282
 30
0.0
 11
22.2364706841
 21
26.0846793182
 31
0.0
  0
LINE
  5
CA
100
AcDbEntity
  8
0
370
        15
390
0
  6
Continuous
 62
         7
100
AcDbLine
 10
22.2287176107
 20
26.1711567282
 30
0.0
 11
24.0154871094
 21
26.224542359
 31
0.0
  0
LINE
  5
CB
100
AcDbEntity
  8
0
370
        15
390
0
  6
Continuous
 62
         7
100
AcDbLine
 10
22.2364706841
 20
26.0846793182
 30
0.0
 11
22.2364706841
 21
4.0380773973
 31
0.0
  0
LINE
  5
CC
100
AcDbEntity
  8
0
370
        15
390
0
  6
Continuous
 62
         7
100
AcDbLine
 10
24.0232401828
 20
26.1380649491
 30
0.0
 11
24.0232401828
 21
4.0914630281
 31
0.0
  0
LINE
  5
CD
100
AcDbEntity
  8
0
370
        15
390
0
  6
Continuous
 62
         7
100
AcDbLine
 10
22.2364706841
 20
4.0380773973
 30
0.0
 11
24.0232401828
 21
4.0914630281
 31
0.0
  0
POLYLINE
  5
CE
100
AcDbEntity
  8
0
390
0
  6
Continuous
 62
         7
100
AcDb2dPolyline
 66
         1
 10
0.0
 20
0.0
 30
0.0
 70
       128
 40
0.0035433071
 41
0.0035433071
  0
VERTEX
  5
CF
100
AcDbEntity
  8
0
390
0
100
AcDbVertex
100
AcDb2dVertex
 10
22.1356098966
 20
26.098161629
 30
0.0
  0
VERTEX
  5
D0
100
AcDbEntity
  8
0
390
0
100
AcDbVertex
100
AcDb2dVertex
 10
22.147285565
 20
26.0947217977
 30
0.0
  0
VERTEX
  5
D1
100
AcDbEntity
  8
0
390
0
100
AcDbVertex
100
AcDb2dVertex
 10
22.1593484435
 20
26.0917605197
 30
0.0
  0
VERTEX
  5
D2
100
AcDbEntity
  8
0
390
0
100
AcDbVertex
100
AcDb2dVertex
 10
22.1717397631
 20
26.089292222
 30
0.0
  0
VERTEX
  5
D3
100
AcDbEntity
  8
0
390
0
100
AcDbVertex
100
AcDb2dVertex
 10
22.1843991544
 20
26.0873289298
 30
0.0
  0
VERTEX
  5
D4
100
AcDbEntity
  8
0
390
0
100
AcDbVertex
100
AcDb2dVertex
 10
22.1972649422
 20
26.0858802082
 30
0.0
  0
VERTEX
  5
D5
100
AcDbEntity
  8
0
390
0
100
AcDbVertex
100
AcDb2dVertex
 10
22.2102744457
 20
26.0849531151
 30
0.0
  0
VERTEX
  5
D6
100
AcDbEntity
  8
0
390
0
100
AcDbVertex
100
AcDb2dVertex
 10
22.2233642838
 20
26.0845521674
 30
0.0
  0
VERTEX
  5
D7
100
AcDbEntity
  8
0
390
0
100
AcDbVertex
100
AcDb2dVertex
 10
22.2364706841
 20
26.0846793182
 30
0.0
  0
SEQEND
  5
D8
100
AcDbEntity
  8
0
390
0
  0
POLYLINE
  5
D9
100
AcDbEntity
  8
0
390
0
  6
Continuous
 62
         7
100
AcDb2dPolyline
 66
         1
 10
0.0
 20
0.0
 30
0.0
 70
       128
 40
0.0035433071
 41
0.0035433071
  0
VERTEX
  5
DA
100
AcDbEntity
  8
0
390
0
100
AcDbVertex
100
AcDb2dVertex
 10
22.2084165576
 20
26.1738704201
 30
0.0
  0
VERTEX
  5
DB
100
AcDbEntity
  8
0
390
0
100
AcDbVertex
100
AcDb2dVertex
 10
22.2107666123
 20
26.1731780579
 30
0.0
  0
VERTEX
  5
DC
100
AcDbEntity
  8
0
390
0
100
AcDbVertex
100
AcDb2dVertex
 10
22.2131946038
 20
26.1725820179
 30
0.0
  0
VERTEX
  5
DD
100
AcDbEntity
  8
0
390
0
100
AcDbVertex
100
AcDb2dVertex
 10
22.2156887033
 20
26.172085204
 30
0.0
  0
VERTEX
  5
DE
100
AcDbEntity
  8
0
390
0
100
AcDbVertex
100
AcDb2dVertex
 10
22.2182367597
 20
26.1716900366
 30
0.0
  0
VERTEX
  5
DF
100
AcDbEntity
  8
0
390
0
100
AcDbVertex
100
AcDb2dVertex
 10
22.2208263592
 20
26.1713984409
 30
0.0
  0
VERTEX
  5
E0
100
AcDbEntity
  8
0
390
0
100
AcDbVertex
100
AcDb2dVertex
 10
22.2234448854
 20
26.1712118375
 30
0.0
  0
VERTEX
  5
E1
100
AcDbEntity
  8
0
390
0
100
AcDbVertex
100
AcDb2dVertex
 10
22.2260795813
 20
26.1711311355
 30
0.0
  0
VERTEX
  5
E2
100
AcDbEntity
  8
0
390
0
100
AcDbVertex
100
AcDb2dVertex
 10
22.2287176107
 20
26.1711567282
 30
0.0
  0
SEQEND
  5
E3
100
AcDbEntity
  8
0
390
0
  0
POLYLINE
  5
E4
100
AcDbEntity
  8
0
390
0
  6
Continuous
 62
         7
100
AcDb2dPolyline
 66
         1
 10
0.0
 20
0.0
 30
0.0
 70
       128
 40
0.0035433071
 41
0.0035433071
  0
VERTEX
  5
E5
100
AcDbEntity
  8
0
390
0
100
AcDbVertex
100
AcDb2dVertex
 10
22.1356098966
 20
4.0515597081
 30
0.0
  0
VERTEX
  5
E6
100
AcDbEntity
  8
0
390
0
100
AcDbVertex
100
AcDb2dVertex
 10
22.147285565
 20
4.0481198768
 30
0.0
  0
VERTEX
  5
E7
100
AcDbEntity
  8
0
390
0
100
AcDbVertex
100
AcDb2dVertex
 10
22.1593484435
 20
4.0451585988
 30
0.0
  0
VERTEX
  5
E8
100
AcDbEntity
  8
0
390
0
100
AcDbVertex
100
AcDb2dVertex
 10
22.1717397631
 20
4.0426903011
 30
0.0
  0
VERTEX
  5
E9
100
AcDbEntity
  8
0
390
0
100
AcDbVertex
100
AcDb2dVertex
 10
22.1843991544
 20
4.0407270089
 30
0.0
  0
VERTEX
  5
EA
100
AcDbEntity
  8
0
390
0
100
AcDbVertex
100
AcDb2dVertex
 10
22.1972649422
 20
4.0392782873
 30
0.0
  0
VERTEX
  5
EB
100
AcDbEntity
  8
0
390
0
100
AcDbVertex
100
AcDb2dVertex
 10
22.2102744457
 20
4.0383511942
 30
0.0
  0
VERTEX
  5
EC
100
AcDbEntity
  8
0
390
0
100
AcDbVertex
100
AcDb2dVertex
 10
22.2233642838
 20
4.0379502464
 30
0.0
  0
VERTEX
  5
ED
100
AcDbEntity
  8
0
390
0
100
AcDbVertex
100
AcDb2dVertex
 10
22.2364706841
 20
4.0380773973
 30
0.0
  0
SEQEND
  5
EE
100
AcDbEntity
  8
0
390
0
  0
POLYLINE
  5
EF
100
AcDbEntity
  8
0
390
0
  6
Continuous
 62
         7
100
AcDb2dPolyline
 66
         1
 10
0.0
 20
0.0
 30
0.0
 70
       128
 40
0.0035433071
 41
0.0035433071
  0
VERTEX
  5
F0
100
AcDbEntity
  8
0
390
0
100
AcDbVertex
100
AcDb2dVertex
 10
15.8101019471
 20
28.2494010751
 30
0.0
  0
VERTEX
  5
F1
100
AcDbEntity
  8
0
390
0
100
AcDbVertex
100
AcDb2dVertex
 10
15.7954736449
 20
28.2298978515
 30
0.0
  0
VERTEX
  5
F2
100
AcDbEntity
  8
0
390
0
100
AcDbVertex
100
AcDb2dVertex
 10
15.7877173987
 20
28.20912189
 30
0.0
  0
VERTEX
  5
F3
100
AcDbEntity
  8
0
390
0
100
AcDbVertex
100
AcDb2dVertex
 10
15.7871312766
 20
28.1878715992
 30
0.0
  0
VERTEX
  5
F4
100
AcDbEntity
  8
0
390
0
100
AcDbVertex
100
AcDb2dVertex
 10
15.793737803
 20
28.1669636158
 30
0.0
  0
VERTEX
  5
F5
100
AcDbEntity
  8
0
390
0
100
AcDbVertex
100
AcDb2dVertex
 10
15.8072830929
 20
28.1472014218
 30
0.0
  0
VERTEX
  5
F6
100
AcDbEntity
  8
0
390
0
100
AcDbVertex
100
AcDb2dVertex
 10
15.8272466082
 20
28.1293444674
 30
0.0
  0
VERTEX
  5
F7
100
AcDbEntity
  8
0
390
0
100
AcDbVertex
100
AcDb2dVertex
 10
15.8528611623
 20
28.1140789853
 30
0.0
  0
VERTEX
  5
F8
100
AcDbEntity
  8
0
390
0
100
AcDbVertex
100
AcDb2dVertex
 10
15.8831424023
 20
28.1019916193
 30
0.0
  0
SEQEND
  5
F9
100
AcDbEntity
  8
0
390
0
  0
POLYLINE
  5
FA
100
AcDbEntity
  8
0
390
0
  6
Continuous
 62
         7
100
AcDb2dPolyline
 66
         1
 10
0.0
 20
0.0
 30
0.0
 70
       128
 40
0.0035433071
 41
0.0035433071
  0
VERTEX
  5
FB
100
AcDbEntity
  8
0
390
0
100
AcDbVertex
100
AcDb2dVertex
 10
15.7864963419
 20
6.1501771049
 30
0.0
  0
VERTEX
  5
FC
100
AcDbEntity
  8
0
390
0
100
AcDbVertex
100
AcDb2dVertex
 10
15.7871312766
 20
6.1412696783
 30
0.0
  0
VERTEX
  5
FD
100
AcDbEntity
  8
0
390
0
100
AcDbVertex
100
AcDb2dVertex
 10
15.793737803
 20
6.1203616949
 30
0.0
  0
VERTEX
  5
FE
100
AcDbEntity
  8
0
390
0
100
AcDbVertex
100
AcDb2dVertex
 10
15.8072830929
 20
6.1005995009
 30
0.0
  0
VERTEX
  5
FF
100
AcDbEntity
  8
0
390
0
100
AcDbVertex
100
AcDb2dVertex
 10
15.8272466082
 20
6.0827425465
 30
0.0
  0
VERTEX
  5
100
100
AcDbEntity
  8
0
390
0
100
AcDbVertex
100
AcDb2dVertex
 10
15.8528611623
 20
6.0674770644
 30
0.0
  0
VERTEX
  5
101
100
AcDbEntity
  8
0
390
0
100
AcDbVertex
100
AcDb2dVertex
 10
15.8831424023
 20
6.0553896984
 30
0.0
  0
SEQEND
  5
102
100
AcDbEntity
  8
0
390
0
  0
LINE
  5
103
100
AcDbEntity
  8
0
370
        15
390
0
  6
Continuous
 62
         7
100
AcDbLine
 10
15.8101019471
 20
28.2494010751
 30
0.0
 11
15.9412476299
 21
28.2073706843
 31
0.0
  0
POLYLINE
  5
104
100
AcDbEntity
  8
0
390
0
  6
Continuous
 62
         7
100
AcDb2dPolyline
 66
         1
 10
0.0
 20
0.0
 30
0.0
 70
       128
 40
0.0035433071
 41
0.0035433071
  0
VERTEX
  5
105
100
AcDbEntity
  8
0
390
0
100
AcDbVertex
100
AcDb2dVertex
 10
15.9412476299
 20
28.2073706843
 30
0.0
  0
VERTEX
  5
106
100
AcDbEntity
  8
0
390
0
100
AcDbVertex
100
AcDb2dVertex
 10
15.9383032751
 20
28.2034451153
 30
0.0
  0
VERTEX
  5
107
100
AcDbEntity
  8
0
390
0
100
AcDbVertex
100
AcDb2dVertex
 10
15.9367421137
 20
28.1992633723
 30
0.0
  0
VERTEX
  5
108
100
AcDbEntity
  8
0
390
0
100
AcDbVertex
100
AcDb2dVertex
 10
15.9366241403
 20
28.1949861572
 30
0.0
  0
VERTEX
  5
109
100
AcDbEntity
  8
0
390
0
100
AcDbVertex
100
AcDb2dVertex
 10
15.9379538884
 20
28.190777841
 30
0.0
  0
VERTEX
  5
10A
100
AcDbEntity
  8
0
390
0
100
AcDbVertex
100
AcDb2dVertex
 10
15.9406802566
 20
28.1868001471
 30
0.0
  0
VERTEX
  5
10B
100
AcDbEntity
  8
0
390
0
100
AcDbVertex
100
AcDb2dVertex
 10
15.9446984722
 20
28.1832059358
 30
0.0
  0
VERTEX
  5
10C
100
AcDbEntity
  8
0
390
0
100
AcDbVertex
100
AcDb2dVertex
 10
15.9498541173
 20
28.1801333307
 30
0.0
  0
VERTEX
  5
10D
100
AcDbEntity
  8
0
390
0
100
AcDbVertex
100
AcDb2dVertex
 10
15.9559490633
 20
28.1777004104
 30
0.0
  0
SEQEND
  5
10E
100
AcDbEntity
  8
0
390
0
  0
LINE
  5
10F
100
AcDbEntity
  8
0
370
        15
390
0
  6
Continuous
 62
         7
100
AcDbLine
 10
15.9412476299
 20
28.2073706843
 30
0.0
 11
15.9412476299
 21
28.1861873673
 31
0.0
  0
LINE
  5
110
100
AcDbEntity
  8
0
370
        15
390
0
  6
Continuous
 62
         7
100
AcDbLine
 10
17.4663078731
 20
29.9716246561
 30
0.0
 11
17.5974535558
 21
29.9295942653
 31
0.0
  0
LINE
  5
111
100
AcDbEntity
  8
0
370
        15
390
0
  6
Continuous
 62
         7
100
AcDbLine
 10
17.5974535558
 20
29.9295942653
 30
0.0
 11
15.9412476299
 21
28.2073706843
 31
0.0
  0
LINE
  5
112
100
AcDbEntity
  8
0
370
        15
390
0
  6
Continuous
 62
         7
100
AcDbLine
 10
17.4663078731
 20
29.9716246561
 30
0.0
 11
15.8101019471
 21
28.2494010751
 31
0.0
  0
LINE
  5
113
100
AcDbEntity
  8
0
370
        15
390
0
  6
Continuous
 62
         7
100
AcDbLine
 10
17.5974535558
 20
29.9295942653
 30
0.0
 11
17.5974535558
 21
27.6516207572
 31
0.0
  0
LINE
  5
114
100
AcDbEntity
  8
0
370
        15
390
0
  6
Continuous
 62
         7
100
AcDbLine
 10
86.5420615875
 20
27.3113273813
 30
0.0
 11
86.6745414036
 21
27.0993153573
 31
0.0
  0
LINE
  5
115
100
AcDbEntity
  8
0
370
        15
390
0
  6
Continuous
 62
         7
100
AcDbLine
 10
84.1457170695
 20
25.5191305346
 30
0.0
 11
86.6745414036
 21
27.0993153573
 31
0.0
  0
LINE
  5
116
100
AcDbEntity
  8
0
370
        15
390
0
  6
Continuous
 62
         7
100
AcDbLine
 10
84.0132372534
 20
25.7311425586
 30
0.0
 11
84.1457170695
 21
25.5191305346
 31
0.0
  0
LINE
  5
117
100
AcDbEntity
  8
0
370
        15
390
0
  6
Continuous
 62
         7
100
AcDbLine
 10
84.0132372534
 20
25.7311425586
 30
0.0
 11
86.5420615875
 21
27.3113273813
 31
0.0
  0
LINE
  5
118
100
AcDbEntity
  8
0
370
        15
390
0
  6
Continuous
 62
         7
100
AcDbLine
 10
83.9798523398
 20
25.4715695886
 30
0.0
 11
83.9798523398
 21
25.7215695886
 31
0.0
  0
LINE
  5
119
100
AcDbEntity
  8
0
370
        15
390
0
  6
Continuous
 62
         7
100
AcDbLine
 10
72.0609172991
 20
25.7215695886
 30
0.0
 11
72.0609172991
 21
25.4715695886
 31
0.0
  0
LINE
  5
11A
100
AcDbEntity
  8
0
370
        15
390
0
  6
Continuous
 62
         7
100
AcDbLine
 10
72.0609172991
 20
25.7215695886
 30
0.0
 11
83.9798523398
 21
25.7215695886
 31
0.0
  0
LINE
  5
11B
100
AcDbEntity
  8
0
370
        15
390
0
  6
Continuous
 62
         7
100
AcDbLine
 10
72.0609172991
 20
25.4715695886
 30
0.0
 11
83.9798523398
 21
25.4715695886
 31
0.0
  0
ARC
  5
11C
100
AcDbEntity
  8
0
370
        15
390
0
  6
Continuous
 62
         7
100
AcDbCircle
 10
83.9798523398
 20
25.7845695886
 30
0.0
 40
0.313
100
AcDbArc
 50
270.0
 51
302.0
  0
ARC
  5
11D
100
AcDbEntity
  8
0
370
        15
390
0
  6
Continuous
 62
         7
100
AcDbCircle
 10
83.9798523398
 20
25.7845695886
 30
0.0
 40
0.063
100
AcDbArc
 50
270.0
 51
302.0
  0
LINE
  5
11E
100
AcDbEntity
  8
0
370
        15
390
0
  6
Continuous
 62
         7
100
AcDbLine
 10
71.7479172991
 20
31.4715695886
 30
0.0
 11
71.9979172991
 21
31.4715695886
 31
0.0
  0
LINE
  5
11F
100
AcDbEntity
  8
0
370
        15
390
0
  6
Continuous
 62
         7
100
AcDbLine
 10
71.9979172991
 20
31.4715695886
 30
0.0
 11
71.9979172991
 21
25.7845695886
 31
0.0
  0
LINE
  5
120
100
AcDbEntity
  8
0
370
        15
390
0
  6
Continuous
 62
         7
100
AcDbLine
 10
71.7479172991
 20
25.7845695886
 30
0.0
 11
71.9979172991
 21
25.7845695886
 31
0.0
  0
LINE
  5
121
100
AcDbEntity
  8
0
370
        15
390
0
  6
Continuous
 62
         7
100
AcDbLine
 10
71.7479172991
 20
31.4715695886
 30
0.0
 11
71.7479172991
 21
25.7845695886
 31
0.0
  0
ARC
  5
122
100
AcDbEntity
  8
0
370
        15
390
0
  6
Continuous
 62
         7
100
AcDbCircle
 10
72.0609172991
 20
25.7845695886
 30
0.0
 40
0.063
100
AcDbArc
 50
180.0
 51
270.0
  0
ARC
  5
123
100
AcDbEntity
  8
0
370
        15
390
0
  6
Continuous
 62
         7
100
AcDbCircle
 10
72.0609172991
 20
25.7845695886
 30
0.0
 40
0.313
100
AcDbArc
 50
180.0
 51
270.0
  0
DIMENSION
  5
134
100
AcDbEntity
  8
0
390
0
 62
         7
100
AcDbDimension
  2
*D1
 10
68.9601673666
 20
25.7215695886
 30
0.0
 11
68.9601673666
 21
28.5965695886
 31
0.0
 70
       160
 71
         5
 72
         1
 41
1.0
 42
0.0
  1
(<>\PINSIDE)
  3
SLDDIMSTYLE0
100
AcDbAlignedDimension
 13
71.9979172991
 23
31.4715695886
 33
0.0
 14
71.9979172991
 24
25.7215695886
 34
0.0
 50
90.0
100
AcDbRotatedDimension
  0
DIMENSION
  5
144
100
AcDbEntity
  8
0
390
0
 62
         7
100
AcDbDimension
  2
*D2
 10
83.9979172991
 20
22.8164875761
 30
0.0
 11
77.9979172991
 21
22.8164875761
 31
0.0
 70
       160
 71
         5
 72
         1
 41
1.0
 42
0.0
  1
(<>\PINSIDE)
  3
SLDDIMSTYLE0
100
AcDbAlignedDimension
 13
71.9979172991
 23
25.7215695886
 33
0.0
 14
83.9979172991
 24
25.7215695886
 34
0.0
 50
180.0
100
AcDbRotatedDimension
  0
DIMENSION
  5
156
100
AcDbEntity
  8
0
390
0
100
AcDbDimension
  2
*D3
 10
86.5420615875
 20
27.3113273813
 30
0.0
 11
91.8313430755
 21
30.6093637865
 31
0.0
 70
       162
 71
         5
 72
         1
 41
1.0
 42
0.0
  1
(<>)
  3
SLDDIMSTYLE1
100
AcDb2LineAngularDimension
 13
71.9979172991
 23
25.7215695886
 33
0.0
 14
83.9979172991
 24
25.7215695886
 34
0.0
 15
83.9979172991
 25
25.7215695886
 35
0.0
 16
92.4353581897
 26
29.4715939529
 36
0.0
  0
DIMENSION
  5
167
100
AcDbEntity
  8
0
390
0
 62
         7
100
AcDbDimension
  2
*D4
 10
88.0722510943
 20
24.8625122776
 30
0.0
 11
86.8001789501
 21
24.0676333813
 31
0.0
 70
       160
 71
         5
 72
         1
 41
1.0
 42
0.0
  1
(<>\PINSIDE)
  3
SLDDIMSTYLE0
100
AcDbAlignedDimension
 13
83.9979172991
 23
25.7215695886
 33
0.0
 14
86.5420615875
 24
27.3113273813
 34
0.0
 50
32.0
100
AcDbRotatedDimension
  0
DIMENSION
  5
174
100
AcDbEntity
  8
0
390
0
 62
         7
100
AcDbDimension
  2
*D5
 10
90.0451490192
 20
29.2055047536
 30
0.0
 11
88.1957833409
 21
32.1651085055
 31
0.0
 70
       160
 71
         5
 72
         1
 41
1.0
 42
0.0
 53
-58.0
  3
SLDDIMSTYLE0
100
AcDbAlignedDimension
 13
85.2699894433
 23
26.516448485
 33
0.0
 14
85.4024692594
 24
26.304436461
 34
0.0
 50
122.0
100
AcDbRotatedDimension
  0
DIMENSION
  5
180
100
AcDbEntity
  8
0
390
0
100
AcDbDimension
  2
*D6
 10
72.0609172991
 20
25.7845695886
 30
0.0
 11
77.3063698961
 21
28.4676179429
 31
0.0
 70
       164
 71
         5
 72
         1
 41
1.0
 42
0.0
  1
<>
  3
SLDDIMSTYLE2
100
AcDbRadialDimension
 15
72.1011856313
 25
25.8330201966
 35
0.0
 40
0.0
  0
DIMENSION
  5
18E
100
AcDbEntity
  8
0
390
0
100
AcDbDimension
  2
*D7
 10
71.9979172991
 20
31.4715695886
 30
0.0
 11
78.0594763722
 21
31.7831286618
 31
0.0
 70
       162
 71
         5
 72
         1
 41
1.0
 42
0.0
  3
SLDDIMSTYLE1
100
AcDb2LineAngularDimension
 13
83.9798523398
 23
25.7215695886
 33
0.0
 14
72.0609172991
 24
25.7215695886
 34
0.0
 15
71.9979172991
 25
25.7845695886
 35
0.0
 16
79.9177258935
 26
29.0020617199
 36
0.0
  0
DIMENSION
  5
19B
100
AcDbEntity
  8
0
390
0
100
AcDbDimension
  2
*D8
 10
86.5420615875
 20
38.5715333762
 30
0.0
 11
79.1449894433
 21
38.5715333762
 31
0.0
 70
       160
 71
         5
 72
         1
 41
1.0
 42
0.0
  3
SLDDIMSTYLE0
100
AcDbAlignedDimension
 13
71.7479172991
 23
31.4715695886
 33
0.0
 14
86.5420615875
 24
27.3113273813
 34
0.0
100
AcDbRotatedDimension
  0
DIMENSION
  5
1A9
100
AcDbEntity
  8
0
390
0
100
AcDbDimension
  2
*D9
 10
82.7496708544
 20
27.3113273813
 30
0.0
 11
82.7496708544
 21
35.3265408036
 31
0.0
 70
       160
 71
         5
 72
         1
 41
1.0
 42
0.0
  3
SLDDIMSTYLE0
100
AcDbAlignedDimension
 13
71.9979172991
 23
31.4715695886
 33
0.0
 14
86.5420615875
 24
27.3113273813
 34
0.0
 50
90.0
100
AcDbRotatedDimension
  0
DIMENSION
  5
1B6
100
AcDbEntity
  8
0
390
0
100
AcDbDimension
  2
*D10
 10
65.6697242808
 20
25.4715695886
 30
0.0
 11
65.6697242808
 21
28.4715695886
 31
0.0
 70
       160
 71
         5
 72
         1
 41
1.0
 42
0.0
  3
SLDDIMSTYLE0
100
AcDbAlignedDimension
 13
71.7479172991
 23
31.4715695886
 33
0.0
 14
72.0609172991
 24
25.4715695886
 34
0.0
 50
90.0
100
AcDbRotatedDimension
  0
INSERT
  5
1BE
100
AcDbEntity
  8
0
390
0
100
AcDbBlockReference
  2
SW_CENTERMARK0
 10
0.0
 20
0.0
 30
0.0
  0
INSERT
  5
1C6
100
AcDbEntity
  8
0
390
0
100
AcDbBlockReference
  2
SW_CENTERMARK1
 10
0.0
 20
0.0
 30
0.0
  0
LINE
  5
1C7
100
AcDbEntity
  8
0
390
0
  6
CENTERX2
 62
         7
100
AcDbLine
 10
19.4834778511
 20
49.9657681921
 30
0.0
 11
64.4834778511
 21
49.9657681921
 31
0.0
  0
LINE
  5
1C8
100
AcDbEntity
  8
0
390
0
  6
CENTERX2
 62
         7
100
AcDbLine
 10
19.4834778511
 20
37.8466787928
 30
0.0
 11
64.4834778511
 21
37.8466787928
 31
0.0
  0
LINE
  5
1C9
100
AcDbEntity
  8
0
370
        15
390
0
  6
Continuous
 62
         7
100
AcDbLine
 10
19.4834775883
 20
34.8122445531
 30
0.0
 11
64.4834778511
 21
34.8122445531
 31
0.0
  0
LINE
  5
1CA
100
AcDbEntity
  8
0
370
        15
390
0
  6
Continuous
 62
         7
100
AcDbLine
 10
19.4834775883
 20
55.8004228854
 30
0.0
 11
19.4834775883
 21
34.8122445531
 31
0.0
  0
LINE
  5
1CB
100
AcDbEntity
  8
0
370
        15
390
0
  6
Continuous
 62
         7
100
AcDbLine
 10
19.4834775883
 20
55.8004228854
 30
0.0
 11
64.4834778511
 21
55.8004228854
 31
0.0
  0
LINE
  5
1CC
100
AcDbEntity
  8
0
370
        15
390
0
  6
Continuous
 62
         7
100
AcDbLine
 10
64.4834778511
 20
55.8004228854
 30
0.0
 11
64.4834778511
 21
34.8122445531
 31
0.0
  0
DIMENSION
  5
1DB
100
AcDbEntity
  8
0
390
0
100
AcDbDimension
  2
*D13
 10
13.4653641633
 20
34.8122442482
 30
0.0
 11
13.4653641633
 21
45.3063336475
 31
0.0
 70
       160
 71
         5
 72
         1
 41
1.0
 42
0.0
  1
(<>)
  3
SLDDIMSTYLE0
100
AcDbAlignedDimension
 13
19.4834778511
 23
55.8004230468
 33
0.0
 14
19.4834778511
 24
34.8122442482
 34
0.0
 50
90.0
100
AcDbRotatedDimension
  0
DIMENSION
  5
1EA
100
AcDbEntity
  8
0
390
0
100
AcDbDimension
  2
*D14
 10
16.699531004
 20
49.9657681921
 30
0.0
 11
16.699531004
 21
52.8830956195
 31
0.0
 70
       160
 71
         5
 72
         1
 41
1.0
 42
0.0
  1
(<>)
  3
SLDDIMSTYLE0
100
AcDbAlignedDimension
 13
19.4834778511
 23
55.8004230468
 33
0.0
 14
19.4834778511
 24
49.9657681921
 34
0.0
 50
90.0
100
AcDbRotatedDimension
  0
DIMENSION
  5
1FA
100
AcDbEntity
  8
0
390
0
100
AcDbDimension
  2
*D15
 10
16.9643474973
 20
37.8466787928
 30
0.0
 11
16.9643474973
 21
31.9075585681
 31
0.0
 70
       160
 71
         5
 72
         1
 41
1.0
 42
0.0
  1
(<>)
  3
SLDDIMSTYLE0
100
AcDbAlignedDimension
 13
19.4834778511
 23
34.8122442482
 33
0.0
 14
19.4834778511
 24
37.8466787928
 34
0.0
 50
-90.0
100
AcDbRotatedDimension
  0
DIMENSION
  5
207
100
AcDbEntity
  8
0
390
0
100
AcDbDimension
  2
*D16
 10
64.4834778511
 20
60.0027214459
 30
0.0
 11
41.9834778511
 21
60.0027214459
 31
0.0
 70
       160
 71
         5
 72
         1
 41
1.0
 42
0.0
  3
SLDDIMSTYLE0
100
AcDbAlignedDimension
 13
19.4834778511
 23
55.8004230468
 33
0.0
 14
64.4834778511
 24
55.8004230468
 34
0.0
100
AcDbRotatedDimension
  0
MTEXT
  5
208
100
AcDbEntity
  8
0
390
0
 62
         1
100
AcDbMText
 10
38.1422264151
 20
31.9664765382
 30
0.0
 40
0.6
 41
0.0
 71
         1
 72
         1
  1
FLATTENED VIEW
  7
SLDTEXTSTYLE0
 73
         1
 44
1.0
  0
ENDSEC
  0
SECTION
  2
OBJECTS
  0
DICTIONARY
  5
19
100
AcDbDictionary
280
         0
281
         1
  3
ACAD_GROUP
350
1A
  3
ACAD_MLINESTYLE
350
1B
  3
ACAD_LAYOUT
350
1E
  3
ACAD_PLOTSETTINGS
350
22
  3
ACAD_PLOTSTYLENAME
350
1F
  3
ACAD_WIPEOUT_VARS
350
23
  0
DICTIONARY
  5
1A
102
{ACAD_REACTORS
330
19
102
}
100
AcDbDictionary
280
         0
281
         1
  0
DICTIONARY
  5
1B
102
{ACAD_REACTORS
330
19
102
}
100
AcDbDictionary
280
         0
281
         1
  3
Standard
350
1C
  0
MLINESTYLE
  5
1C
102
{ACAD_REACTORS
330
1B
102
}
100
AcDbMlineStyle
  2
Standard
 70
         0
  3

 62
         0
 51
90.0
 52
90.0
 71
         2
 49
0.5
 62
       256
  6
ByLayer
 49
-0.5
 62
       256
  6
ByLayer
  0
ACDBDICTIONARYWDFLT
  5
1F
102
{ACAD_REACTORS
330
19
102
}
100
AcDbDictionary
281
         1
  3
Normal
350
1D
100
AcDbDictionaryWithDefault
340
1D
  0
ACDBPLACEHOLDER
  5
1D
102
{ACAD_REACTORS
330
1F
102
}
  0
LAYOUT
  5
20
102
{ACAD_REACTORS
330
1E
102
}
100
AcDbPlotSettings
  1

  2

  4

  6

 40
0.0
 41
0.0
 42
0.0
 43
0.0
 44
0.0
 45
0.0
 46
0.0
 47
0.0
 48
0.0
 49
0.0
140
0.0
141
0.0
142
1.0
143
1.0
 70
      1024
 72
         0
 73
         0
 74
         0
  7

 75
         0
147
1.0
148
0.0
149
0.0
100
AcDbLayout
  1
Model
 70
         0
 71
         0
 10
0.0
 20
0.0
 11
0.0
 21
0.0
 12
0.0
 22
0.0
 32
0.0
 14
0.0
 24
0.0
 34
0.0
 15
0.0
 25
0.0
 35
0.0
146
0.0
 13
0.0
 23
0.0
 33
0.0
 16
0.0
 26
0.0
 36
0.0
 17
0.0
 27
0.0
 37
0.0
 76
         0
330
A
331
0
345
0
346
0
  0
LAYOUT
  5
21
102
{ACAD_REACTORS
330
1E
102
}
100
AcDbPlotSettings
  1

  2

  4

  6

 40
0.0
 41
0.0
 42
0.0
 43
0.0
 44
0.0
 45
0.0
 46
0.0
 47
0.0
 48
0.0
 49
0.0
140
0.0
141
0.0
142
1.0
143
1.0
 70
         0
 72
         0
 73
         0
 74
         0
  7

 75
         0
147
1.0
148
0.0
149
0.0
100
AcDbLayout
  1
Layout1
 70
         0
 71
         0
 10
0.0
 20
0.0
 11
0.0
 21
0.0
 12
0.0
 22
0.0
 32
0.0
 14
0.0
 24
0.0
 34
0.0
 15
0.0
 25
0.0
 35
0.0
146
0.0
 13
0.0
 23
0.0
 33
0.0
 16
0.0
 26
0.0
 36
0.0
 17
0.0
 27
0.0
 37
0.0
 76
         0
330
B
331
0
345
0
346
0
  0
DICTIONARY
  5
1E
102
{ACAD_REACTORS
330
19
102
}
100
AcDbDictionary
280
         0
281
         1
  3
Layout1
350
21
  3
Model
350
20
  0
DICTIONARY
  5
22
102
{ACAD_REACTORS
330
19
102
}
100
AcDbDictionary
280
         0
281
         1
  0
WIPEOUTVARIABLES
  5
23
100
AcDbWipeoutVariables
 70
         1
  0
ENDSEC
  0
EOF
