  0
SECTION
  2
HEADER
  9
$ACADVER
  1
AC1015
  9
$ACADMAINTVER
 70
         6
  9
$DWGCODEPAGE
  3
ANSI_1252
  9
$INSBASE
 10
0.0
 20
0.0
 30
0.0
  9
$EXTMIN
 10
0.0
 20
0.0
 30
0.0
  9
$EXTMAX
 10
68.0
 20
44.0
 30
0.0
  9
$LIMMIN
 10
0.0
 20
0.0
  9
$LIMMAX
 10
0.0
 20
0.0
  9
$ORTHOMODE
 70
         0
  9
$REGENMODE
 70
         1
  9
$FILLMODE
 70
         1
  9
$QTEXTMODE
 70
         0
  9
$MIRRTEXT
 70
         1
  9
$LTSCALE
 40
1.0
  9
$ATTMODE
 70
         1
  9
$TEXTSIZE
 40
0.4
  9
$TRACEWID
 40
0.05
  9
$TEXTSTYLE
  7
Standard
  9
$CLAYER
  8
0
  9
$CELTYPE
  6
Continuous
  9
$CECOLOR
 62
       256
  9
$CELTSCALE
 40
1.0
  9
$DISPSILH
 70
         0
  9
$DIMSCALE
 40
1.0
  9
$DIMASZ
 40
0.0
  9
$DIMEXO
 40
0.0
  9
$DIMDLI
 40
0.38
  9
$DIMRND
 40
0.0
  9
$DIMDLE
 40
0.0
  9
$DIMEXE
 40
0.18
  9
$DIMTP
 40
0.0
  9
$DIMTM
 40
0.0
  9
$DIMTXT
 40
0.4
  9
$DIMCEN
 40
0.09
  9
$DIMTSZ
 40
0.0
  9
$DIMTOL
 70
         0
  9
$DIMLIM
 70
         0
  9
$DIMTIH
 70
         1
  9
$DIMTOH
 70
         1
  9
$DIMSE1
 70
         0
  9
$DIMSE2
 70
         0
  9
$DIMTAD
 70
         0
  9
$DIMZIN
 70
         0
  9
$DIMBLK
  1

  9
$DIMASO
 70
         1
  9
$DIMSHO
 70
         1
  9
$DIMPOST
  1

  9
$DIMAPOST
  1

  9
$DIMALT
 70
         0
  9
$DIMALTD
 70
         2
  9
$DIMALTF
 40
25.4
  9
$DIMLFAC
 40
1.0
  9
$DIMTOFL
 70
         0
  9
$DIMTVP
 40
0.0
  9
$DIMTIX
 70
         0
  9
$DIMSOXD
 70
         0
  9
$DIMSAH
 70
         0
  9
$DIMBLK1
  1

  9
$DIMBLK2
  1

  9
$DIMSTYLE
  2
Standard
  9
$DIMCLRD
 70
         0
  9
$DIMCLRE
 70
         0
  9
$DIMCLRT
 70
         0
  9
$DIMTFAC
 40
1.0
  9
$DIMGAP
 40
0.0
  9
$DIMJUST
 70
         0
  9
$DIMSD1
 70
         0
  9
$DIMSD2
 70
         0
  9
$DIMTOLJ
 70
         1
  9
$DIMTZIN
 70
         0
  9
$DIMALTZ
 70
         0
  9
$DIMALTTZ
 70
         0
  9
$DIMUPT
 70
         0
  9
$DIMDEC
 70
         4
  9
$DIMTDEC
 70
         4
  9
$DIMALTU
 70
         2
  9
$DIMALTTD
 70
         2
  9
$DIMTXSTY
  7
Standard
  9
$DIMAUNIT
 70
         0
  9
$DIMADEC
 70
         0
  9
$DIMALTRND
 40
0.0
  9
$DIMAZIN
 70
         0
  9
$DIMDSEP
 70
         0
  9
$DIMATFIT
 70
         3
  9
$DIMFRAC
 70
         0
  9
$DIMLDRBLK
  1

  9
$DIMLUNIT
 70
         2
  9
$DIMLWD
 70
         0
  9
$DIMLWE
 70
         0
  9
$DIMTMOVE
 70
         0
  9
$LUNITS
 70
         2
  9
$LUPREC
 70
         3
  9
$SKETCHINC
 40
0.1
  9
$FILLETRAD
 40
0.0
  9
$AUNITS
 70
         0
  9
$AUPREC
 70
         0
  9
$MENU
  1
acad
  9
$ELEVATION
 40
0.0
  9
$PELEVATION
 40
0.0
  9
$THICKNESS
 40
0.0
  9
$LIMCHECK
 70
         0
  9
$CHAMFERA
 40
0.0
  9
$CHAMFERB
 40
0.0
  9
$CHAMFERC
 40
0.0
  9
$CHAMFERD
 40
0.0
  9
$SKPOLY
 70
         0
  9
$TDCREATE
 40
0.000000000
  9
$TDUCREATE
 40
0.000000000
  9
$TDUPDATE
 40
0.000000000
  9
$TDUUPDATE
 40
0.000000000
  9
$TDINDWG
 40
0.0000000000
  9
$TDUSRTIMER
 40
0.0000000000
  9
$USRTIMER
 70
         1
  9
$ANGBASE
 50
0.0
  9
$ANGDIR
 70
         0
  9
$PDMODE
 70
         0
  9
$PDSIZE
 40
-1.0
  9
$PLINEWID
 40
0.0
  9
$SPLFRAME
 70
         0
  9
$SPLINETYPE
 70
         6
  9
$SPLINESEGS
 70
         8
  9
$HANDSEED
  5
1B8
  9
$SURFTAB1
 70
         6
  9
$SURFTAB2
 70
         6
  9
$SURFTYPE
 70
         6
  9
$SURFU
 70
         6
  9
$SURFV
 70
         6
  9
$UCSBASE
  2

  9
$UCSNAME
  2

  9
$UCSORG
 10
0.0
 20
0.0
 30
0.0
  9
$UCSXDIR
 10
1.0
 20
0.0
 30
0.0
  9
$UCSYDIR
 10
0.0
 20
1.0
 30
0.0
  9
$UCSORTHOREF
  2

  9
$UCSORTHOVIEW
 70
         0
  9
$UCSORGTOP
 10
0.0
 20
0.0
 30
0.0
  9
$UCSORGBOTTOM
 10
0.0
 20
0.0
 30
0.0
  9
$UCSORGLEFT
 10
0.0
 20
0.0
 30
0.0
  9
$UCSORGRIGHT
 10
0.0
 20
0.0
 30
0.0
  9
$UCSORGFRONT
 10
0.0
 20
0.0
 30
0.0
  9
$UCSORGBACK
 10
0.0
 20
0.0
 30
0.0
  9
$PUCSBASE
  2

  9
$PUCSNAME
  2

  9
$PUCSORG
 10
0.0
 20
0.0
 30
0.0
  9
$PUCSXDIR
 10
1.0
 20
0.0
 30
0.0
  9
$PUCSYDIR
 10
0.0
 20
1.0
 30
0.0
  9
$PUCSORTHOREF
  2

  9
$PUCSORTHOVIEW
 70
         0
  9
$PUCSORGTOP
 10
0.0
 20
0.0
 30
0.0
  9
$PUCSORGBOTTOM
 10
0.0
 20
0.0
 30
0.0
  9
$PUCSORGLEFT
 10
0.0
 20
0.0
 30
0.0
  9
$PUCSORGRIGHT
 10
0.0
 20
0.0
 30
0.0
  9
$PUCSORGFRONT
 10
0.0
 20
0.0
 30
0.0
  9
$PUCSORGBACK
 10
0.0
 20
0.0
 30
0.0
  9
$USERI1
 70
         0
  9
$USERI2
 70
         0
  9
$USERI3
 70
         0
  9
$USERI4
 70
         0
  9
$USERI5
 70
         0
  9
$USERR1
 40
0.0
  9
$USERR2
 40
0.0
  9
$USERR3
 40
0.0
  9
$USERR4
 40
0.0
  9
$USERR5
 40
0.0
  9
$WORLDVIEW
 70
         1
  9
$SHADEDGE
 70
         3
  9
$SHADEDIF
 70
        70
  9
$TILEMODE
 70
         1
  9
$MAXACTVP
 70
        16
  9
$PINSBASE
 10
0.0
 20
0.0
 30
0.0
  9
$PLIMCHECK
 70
         0
  9
$PEXTMIN
 10
1.0000000000E+20
 20
1.0000000000E+20
 30
1.0000000000E+20
  9
$PEXTMAX
 10
-1.0000000000E+20
 20
-1.0000000000E+20
 30
-1.0000000000E+20
  9
$PLIMMIN
 10
0.0
 20
0.0
  9
$PLIMMAX
 10
12.0
 20
9.0
  9
$UNITMODE
 70
         0
  9
$VISRETAIN
 70
         0
  9
$PLINEGEN
 70
         1
  9
$PSLTSCALE
 70
         1
  9
$TREEDEPTH
 70
      3020
  9
$CMLSTYLE
  2
Standard
  9
$CMLJUST
 70
         0
  9
$CMLSCALE
 40
1.0
  9
$PROXYGRAPHICS
 70
         0
  9
$MEASUREMENT
 70
         0
  9
$CELWEIGHT
370
         0
  9
$ENDCAPS
280
         0
  9
$JOINSTYLE
280
         0
  9
$LWDISPLAY
290
         1
  9
$INSUNITS
 70
         0
  9
$HYPERLINKBASE
  1

  9
$STYLESHEET
  1

  9
$XEDIT
290
         1
  9
$CEPSNTYPE
380
         0
  9
$PSTYLEMODE
290
         1
  9
$FINGERPRINTGUID
  2

  9
$VERSIONGUID
  2

  9
$EXTNAMES
290
         1
  9
$PSVPSCALE
 40
0.0
  0
ENDSEC
  0
SECTION
  2
CLASSES
  0
CLASS
  1
LWPOLYLINE
  2
AcDbPolyline
  3
AutoCAD 2000
 90
        0
280
         0
281
         1
  0
CLASS
  1
IMAGE
  2
AcDbRasterImage
  3
ISM
 90
      127
280
         0
281
         1
  0
CLASS
  1
OLE2FRAME
  2
AcDbOle2Frame
  3
AutoCAD 2000
 90
        0
280
         0
281
         1
  0
CLASS
  1
HATCH
  2
AcDbHatch
  3
AutoCAD 2000
 90
        0
280
         0
281
         1
  0
CLASS
  1
DICTIONARYVAR
  2
AcDbDictionaryVar
  3
AutoCAD 2000
 90
        0
280
         0
281
         0
  0
CLASS
  1
RASTERVARIABLES
  2
AcDbRasterVariables
  3
ISM
 90
        0
280
         0
281
         0
  0
CLASS
  1
IMAGEDEF
  2
AcDbRasterImageDef
  3
ISM
 90
        0
280
         0
281
         0
  0
CLASS
  1
IMAGEDEF_REACTOR
  2
AcDbRasterImageDefReactor
  3
ISM
 90
        1
280
         0
281
         0
  0
CLASS
  1
IDBUFFER
  2
AcDbIdBuffer
  3
AutoCAD 2000
 90
        0
280
         0
281
         0
  0
CLASS
  1
SPATIAL_FILTER
  2
AcDbSpatialFilter
  3
AutoCAD 2000
 90
        0
280
         0
281
         0
  0
CLASS
  1
XRECORD
  2
AcDbXrecord
  3
AutoCAD 2000
 90
        0
280
         0
281
         0
  0
CLASS
  1
SORTENTSTABLE
  2
AcDbSortentsTable
  3
AutoCAD 2000
 90
        0
280
         0
281
         0
  0
CLASS
  1
LAYER_INDEX
  2
AcDbLayerIndex
  3
AutoCAD 2000
 90
        0
280
         0
281
         0
  0
CLASS
  1
SPATIAL_INDEX
  2
AcDbSpatialIndex
  3
AutoCAD 2000
 90
        0
280
         0
281
         0
  0
CLASS
  1
OBJECT_PTR
  2
CAseDLPNTableRecord
  3
"ASE-LPNTableRecord"
 90
        1
280
         0
281
         0
  0
CLASS
  1
LAYOUT
  2
AcDbLayout
  3
AutoCAD 2000
 90
        0
280
         0
281
         0
  0
CLASS
  1
PLOTSETTINGS
  2
AcDbPlotSettings
  3
AutoCAD 2000
 90
        0
280
         0
281
         0
  0
CLASS
  1
ACDBDICTIONARYWDFLT
  2
AcDbDictionaryWithDefault
  3
AutoCAD 2000
 90
        0
280
         0
281
         0
  0
CLASS
  1
ACDBPLACEHOLDER
  2
AcDbPlaceHolder
  3
AutoCAD 2000
 90
        0
280
         0
281
         0
  0
CLASS
  1
VBA_PROJECT
  2
AcDbVbaProject
  3
acadvba
 90
        0
280
         0
281
         0
  0
CLASS
  1
WIPEOUT
  2
AcDbWipeout
  3
WipeOut|AutoCAD Express Tool|expresstools@autodesk.com
 90
      127
280
         0
281
         1
  0
CLASS
  1
WIPEOUTVARIABLES
  2
AcDbWipeoutVariables
  3
WipeOut|AutoCAD Express Tool|expresstools@autodesk.com
 90
        0
280
         0
281
         0
  0
CLASS
  1
RTEXT
  2
RText
  3
RText|AutoCAD Express Tool|expresstools@autodesk.com
 90
        0
280
         0
281
         1
  0
CLASS
  1
ARCALIGNEDTEXT
  2
AcDbArcAlignedText
  3
ATEXT|AutoCAD Express Tool|expresstools@autodesk.com
 90
        0
280
         0
281
         1
  0
ENDSEC
  0
SECTION
  2
TABLES
  0
TABLE
  2
VPORT
  5
7
100
AcDbSymbolTable
 70
         1
  0
VPORT
  5
15
100
AcDbSymbolTableRecord
100
AcDbViewportTableRecord
  2
*ACTIVE
 70
         0
 10
0.0
 20
0.0
 11
1.0
 21
1.0
 12
34.0
 22
22.0
 13
0.0
 23
0.0
 14
1.0
 24
1.0
 15
0.0
 25
0.0
 16
0.0
 26
0.0
 36
1.0
 17
0.0
 27
0.0
 37
0.0
 40
44.0
 41
0.6470588235
 42
50.0
 43
0.0
 44
0.0
 50
0.0
 51
0.0
 71
         0
 72
      2000
 73
         1
 74
         1
 75
         0
 76
         0
 77
         0
 78
         0
281
         0
 65
         0
110
0.0
120
0.0
130
0.0
111
1.0
121
0.0
131
0.0
112
0.0
122
1.0
132
0.0
345
0
346
0
 79
         0
146
0.0
  0
ENDTAB
  0
TABLE
  2
LTYPE
  5
4
100
AcDbSymbolTable
 70
         8
  0
LTYPE
  5
11
100
AcDbSymbolTableRecord
100
AcDbLinetypeTableRecord
  2
ByBlock
 70
        64
  3

 72
        65
 73
         0
 40
0.0
  0
LTYPE
  5
12
100
AcDbSymbolTableRecord
100
AcDbLinetypeTableRecord
  2
ByLayer
 70
        64
  3

 72
        65
 73
         0
 40
0.0
  0
LTYPE
  5
13
100
AcDbSymbolTableRecord
100
AcDbLinetypeTableRecord
  2
Continuous
 70
        64
  3
Solid line
 72
        65
 73
         0
 40
0.0
  0
LTYPE
  5
24
100
AcDbSymbolTableRecord
100
AcDbLinetypeTableRecord
  2
HIDDEN
 70
        64
  3
Hidden __ __ __ __ __ __ __ __ __ __ __ __ __ __
 72
        65
 73
         2
 40
0.075
 49
0.05
 74
         0
 49
-0.025
 74
         0
  0
LTYPE
  5
25
100
AcDbSymbolTableRecord
100
AcDbLinetypeTableRecord
  2
PHANTOM
 70
        64
  3
Phantom ______  __  __  ______  __  __  ______
 72
        65
 73
         6
 40
0.5
 49
0.25
 74
         0
 49
-0.05
 74
         0
 49
0.05
 74
         0
 49
-0.05
 74
         0
 49
0.05
 74
         0
 49
-0.05
 74
         0
  0
LTYPE
  5
26
100
AcDbSymbolTableRecord
100
AcDbLinetypeTableRecord
  2
CENTER
 70
        64
  3
Center ____ _ ____ _ ____ _ ____ _ ____ _ ____
 72
        65
 73
         4
 40
0.4
 49
0.25
 74
         0
 49
-0.05
 74
         0
 49
0.05
 74
         0
 49
-0.05
 74
         0
  0
LTYPE
  5
27
100
AcDbSymbolTableRecord
100
AcDbLinetypeTableRecord
  2
CENTERX2
 70
        64
  3
Center (2x) ________  __  ________  __  _____
 72
        65
 73
         4
 40
0.8
 49
0.5
 74
         0
 49
-0.1
 74
         0
 49
0.1
 74
         0
 49
-0.1
 74
         0
  0
LTYPE
  5
28
100
AcDbSymbolTableRecord
100
AcDbLinetypeTableRecord
  2
DOT2
 70
        64
  3
Dot (.5x) ........................................
 72
        65
 73
         2
 40
0.025
 49
0.0
 74
         0
 49
-0.025
 74
         0
  0
ENDTAB
  0
TABLE
  2
LAYER
  5
2
100
AcDbSymbolTable
 70
         1
  0
LAYER
  5
14
100
AcDbSymbolTableRecord
100
AcDbLayerTableRecord
  2
0
 70
         0
 62
         7
  6
Continuous
290
         1
370
        -3
390
1D
  0
ENDTAB
  0
TABLE
  2
STYLE
  5
3
100
AcDbSymbolTable
 70
         2
  0
STYLE
  5
17
100
AcDbSymbolTableRecord
100
AcDbTextStyleTableRecord
  2
Standard
 70
         0
 40
0.0
 41
1.0
 50
0.0
 71
         0
 42
0.0
  3
txt
  4

  0
STYLE
  5
75
100
AcDbSymbolTableRecord
100
AcDbTextStyleTableRecord
  2
SLDTEXTSTYLE0
 70
         0
 40
0.0
 41
0.75
 50
0.0
 71
         0
 42
0.0
  3
txt
  4

  0
ENDTAB
  0
TABLE
  2
VIEW
  5
5
100
AcDbSymbolTable
 70
         0
  0
ENDTAB
  0
TABLE
  2
UCS
  5
6
100
AcDbSymbolTable
 70
         0
  0
ENDTAB
  0
TABLE
  2
APPID
  5
8
100
AcDbSymbolTable
 70
         1
  0
APPID
  5
16
100
AcDbSymbolTableRecord
100
AcDbRegAppTableRecord
  2
ACAD
 70
         0
  0
ENDTAB
  0
TABLE
  2
DIMSTYLE
  5
9
100
AcDbSymbolTable
 70
         4
100
AcDbDimStyleTable
 71
         0
  0
DIMSTYLE
105
18
100
AcDbSymbolTableRecord
100
AcDbDimStyleTableRecord
  2
Standard
 70
         0
  3

  4

 40
1.0
 41
0.18
 42
0.0625
 43
0.38
 44
0.18
 45
0.0
 46
0.0
 47
0.0
 48
0.0
 71
         0
 72
         0
 73
         1
 74
         1
 75
         0
 76
         0
 77
         0
 78
         0
 79
         0
140
0.18
141
0.09
142
0.0
143
25.4
144
1.0
145
0.0
146
1.0
147
0.09
148
0.0
170
         0
171
         2
172
         0
173
         0
174
         0
175
         0
176
         0
177
         0
178
         0
179
         0
271
         4
272
         4
273
         2
274
         2
275
         0
276
         0
277
         2
278
        46
279
         0
280
         0
281
         0
282
         0
283
         1
284
         0
285
         0
286
         0
288
         0
289
         3
340
17
341
0
342
0
343
0
344
0
371
        -2
372
        -2
  0
DIMSTYLE
105
CF
100
AcDbSymbolTableRecord
100
AcDbDimStyleTableRecord
  2
SLDDIMSTYLE0
 70
         0
  3

  4

 40
1.0
 41
0.75
 42
0.0625
 43
0.38
 44
0.48
 45
0.0
 46
0.0
 47
0.0
 48
0.0
 71
         0
 72
         0
 73
         1
 74
         1
 75
         0
 76
         0
 77
         0
 78
        12
 79
         0
140
0.4
141
0.09
142
0.0
143
25.4
144
1.0
145
0.0
146
1.0
147
0.1
148
0.0
170
         0
171
         2
172
         0
173
         1
174
         0
175
         0
176
         7
177
         7
178
         7
179
         0
271
         3
272
         4
273
         2
274
         2
275
         0
276
         0
277
         2
278
        46
279
         0
280
         0
281
         0
282
         0
283
         1
284
        12
285
         0
286
         0
288
         0
289
         3
340
17
341
0
342
0
343
0
344
0
371
        -2
372
        -2
  0
DIMSTYLE
105
114
100
AcDbSymbolTableRecord
100
AcDbDimStyleTableRecord
  2
SLDDIMSTYLE1
 70
         0
  3

  4

 40
1.0
 41
0.75
 42
0.0625
 43
0.38
 44
0.48
 45
0.0
 46
0.0
 47
0.0
 48
0.0
 71
         0
 72
         0
 73
         1
 74
         1
 75
         0
 76
         0
 77
         0
 78
        12
 79
         0
140
0.4
141
0.09
142
0.0
143
25.4
144
1.0
145
0.0
146
1.0
147
0.1
148
0.0
170
         0
171
         2
172
         0
173
         1
174
         0
175
         0
176
         1
177
         1
178
         1
179
         0
271
         0
272
         4
273
         2
274
         2
275
         0
276
         0
277
         2
278
        46
279
         0
280
         0
281
         0
282
         0
283
         1
284
        12
285
         0
286
         0
288
         0
289
         3
340
17
341
0
342
0
343
0
344
0
371
        -2
372
        -2
  0
DIMSTYLE
105
15B
100
AcDbSymbolTableRecord
100
AcDbDimStyleTableRecord
  2
SLDDIMSTYLE2
 70
         0
  3

  4

 40
1.0
 41
0.75
 42
0.0625
 43
0.38
 44
0.48
 45
0.0
 46
0.0
 47
0.0
 48
0.0
 71
         0
 72
         0
 73
         1
 74
         1
 75
         0
 76
         0
 77
         0
 78
        12
 79
         0
140
0.4
141
0.09
142
0.0
143
25.4
144
1.0
145
0.0
146
1.0
147
0.1
148
0.0
170
         0
171
         2
172
         1
173
         1
174
         0
175
         0
176
         1
177
         1
178
         1
179
         0
271
         3
272
         4
273
         2
274
         2
275
         0
276
         0
277
         2
278
        46
279
         0
280
         0
281
         0
282
         0
283
         1
284
        12
285
         0
286
         0
288
         0
289
         3
340
17
341
0
342
0
343
0
344
0
371
        -2
372
        -2
  0
ENDTAB
  0
TABLE
  2
BLOCK_RECORD
  5
1
100
AcDbSymbolTable
 70
        13
  0
BLOCK_RECORD
  5
A
100
AcDbSymbolTableRecord
100
AcDbBlockTableRecord
  2
*MODEL_SPACE
340
20
  0
BLOCK_RECORD
  5
B
100
AcDbSymbolTableRecord
100
AcDbBlockTableRecord
  2
*PAPER_SPACE
340
21
  0
BLOCK_RECORD
  5
A8
100
AcDbSymbolTableRecord
100
AcDbBlockTableRecord
  2
NOTE50
340
0
102
{BLKREFS
331
AE
102
}
  0
BLOCK_RECORD
  5
C6
100
AcDbSymbolTableRecord
100
AcDbBlockTableRecord
  2
*D1
340
0
  0
BLOCK_RECORD
  5
D4
100
AcDbSymbolTableRecord
100
AcDbBlockTableRecord
  2
*D2
340
0
  0
BLOCK_RECORD
  5
E1
100
AcDbSymbolTableRecord
100
AcDbBlockTableRecord
  2
*D3
340
0
  0
BLOCK_RECORD
  5
EE
100
AcDbSymbolTableRecord
100
AcDbBlockTableRecord
  2
*D4
340
0
  0
BLOCK_RECORD
  5
FC
100
AcDbSymbolTableRecord
100
AcDbBlockTableRecord
  2
*D5
340
0
  0
BLOCK_RECORD
  5
109
100
AcDbSymbolTableRecord
100
AcDbBlockTableRecord
  2
*D6
340
0
  0
BLOCK_RECORD
  5
11B
100
AcDbSymbolTableRecord
100
AcDbBlockTableRecord
  2
*D7
340
0
  0
BLOCK_RECORD
  5
12B
100
AcDbSymbolTableRecord
100
AcDbBlockTableRecord
  2
*D8
340
0
  0
BLOCK_RECORD
  5
138
100
AcDbSymbolTableRecord
100
AcDbBlockTableRecord
  2
*D9
340
0
  0
BLOCK_RECORD
  5
145
100
AcDbSymbolTableRecord
100
AcDbBlockTableRecord
  2
*D10
340
0
  0
BLOCK_RECORD
  5
152
100
AcDbSymbolTableRecord
100
AcDbBlockTableRecord
  2
*D11
340
0
  0
BLOCK_RECORD
  5
167
100
AcDbSymbolTableRecord
100
AcDbBlockTableRecord
  2
*D12
340
0
  0
ENDTAB
  0
ENDSEC
  0
SECTION
  2
BLOCKS
  0
BLOCK
  5
D
100
AcDbEntity
  8
0
390
0
100
AcDbBlockBegin
  2
*MODEL_SPACE
 70
         0
 10
0.0
 20
0.0
 30
0.0
  3
*MODEL_SPACE
  1

  0
ENDBLK
  5
E
100
AcDbEntity
  8
0
390
0
100
AcDbBlockEnd
  0
BLOCK
  5
F
100
AcDbEntity
 67
         1
  8
0
390
0
100
AcDbBlockBegin
  2
*PAPER_SPACE
 70
         0
 10
0.0
 20
0.0
 30
0.0
  3
*PAPER_SPACE
  1

  0
ENDBLK
  5
10
100
AcDbEntity
 67
         1
  8
0
390
0
100
AcDbBlockEnd
  0
BLOCK
  5
A9
100
AcDbEntity
  8
0
390
0
 62
         0
100
AcDbBlockBegin
  2
NOTE50
 70
         0
 10
0.0
 20
0.0
 30
0.0
  3
NOTE50
  1

  0
MTEXT
  5
AA
100
AcDbEntity
  8
0
390
0
 62
         7
100
AcDbMText
 10
0.0
 20
0.0
 30
0.0
 40
0.36
 41
0.0
 71
         1
 72
         1
  1
BREAK SHARP EDGES 0.010 RAD %%p 0.003
  7
SLDTEXTSTYLE0
 73
         1
 44
1.0
  0
MTEXT
  5
AB
100
AcDbEntity
  8
0
390
0
 62
         7
100
AcDbMText
 10
0.0
 20
-0.54
 30
0.0
 40
0.36
 41
0.0
 71
         1
 72
         1
  1
MACHINED SURF FINISH  
  7
SLDTEXTSTYLE0
 73
         1
 44
1.0
  0
MTEXT
  5
AC
100
AcDbEntity
  8
0
390
0
 62
         7
100
AcDbMText
 10
5.544
 20
-0.54
 30
0.0
 40
0.36
 41
0.0
 71
         1
 72
         1
  1
< 125 MICROINCH
  7
SLDTEXTSTYLE0
 73
         1
 44
1.0
  0
ENDBLK
  5
AD
100
AcDbEntity
  8
0
390
0
100
AcDbBlockEnd
  0
BLOCK
  5
C7
100
AcDbEntity
  8
0
390
0
 62
         7
100
AcDbBlockBegin
  2
*D1
 70
         1
 10
0.0
 20
0.0
 30
0.0
  3
*D1
  1

  0
MTEXT
  5
C8
100
AcDbEntity
  8
0
390
0
 62
         7
100
AcDbMText
 10
30.6432226306
 20
16.884547932
 30
0.0
 40
0.4
 41
0.0
 71
         7
 72
         1
  1
33 3/8"
  7
SLDTEXTSTYLE0
 73
         1
 44
1.0
  0
LINE
  5
C9
100
AcDbEntity
  8
0
390
0
 62
         7
100
AcDbLine
 10
48.2710086683
 20
23.4873663185
 30
0.0
 11
48.2710086683
 21
16.5843920829
 31
0.0
  0
LINE
  5
CA
100
AcDbEntity
  8
0
390
0
 62
         7
100
AcDbLine
 10
14.8960086683
 20
23.4873663185
 30
0.0
 11
14.8960086683
 21
16.5843920829
 31
0.0
  0
LINE
  5
CB
100
AcDbEntity
  8
0
390
0
 62
         7
100
AcDbLine
 10
48.2710086683
 20
17.0643920829
 30
0.0
 11
32.773794706
 21
17.0643920829
 31
0.0
  0
LINE
  5
CC
100
AcDbEntity
  8
0
390
0
 62
         7
100
AcDbLine
 10
14.8960086683
 20
17.0643920829
 30
0.0
 11
30.3932226306
 21
17.0643920829
 31
0.0
  0
SOLID
  5
CD
100
AcDbEntity
  8
0
390
0
 62
         7
100
AcDbTrace
 10
48.2710086683
 20
17.0643920829
 30
0.0
 11
47.5210086683
 21
17.1893920829
 31
0.0
 12
47.5210086683
 22
16.9393920829
 32
0.0
 13
47.5210086683
 23
16.9393920829
 33
0.0
  0
SOLID
  5
CE
100
AcDbEntity
  8
0
390
0
 62
         7
100
AcDbTrace
 10
14.8960086683
 20
17.0643920829
 30
0.0
 11
15.6460086683
 21
16.9393920829
 31
0.0
 12
15.6460086683
 22
17.1893920829
 32
0.0
 13
15.6460086683
 23
17.1893920829
 33
0.0
  0
POINT
  5
D0
100
AcDbEntity
  8
0
390
0
 62
         7
100
AcDbPoint
 10
48.2710086683
 20
23.6473663185
 30
0.0
  0
POINT
  5
D1
100
AcDbEntity
  8
0
390
0
 62
         7
100
AcDbPoint
 10
14.8960086683
 20
23.6473663185
 30
0.0
  0
ENDBLK
  5
D2
100
AcDbEntity
  8
0
390
0
 62
         7
100
AcDbBlockEnd
  0
BLOCK
  5
D5
100
AcDbEntity
  8
0
390
0
 62
         7
100
AcDbBlockBegin
  2
*D2
 70
         1
 10
0.0
 20
0.0
 30
0.0
  3
*D2
  1

  0
MTEXT
  5
D6
100
AcDbEntity
  8
0
390
0
 62
         7
100
AcDbMText
 10
8.109511956
 20
26.3425221675
 30
0.0
 40
0.4
 41
0.0
 71
         7
 72
         1
  1
5 3/4"
  7
SLDTEXTSTYLE0
 73
         1
 44
1.0
  0
LINE
  5
D7
100
AcDbEntity
  8
0
390
0
 62
         7
100
AcDbLine
 10
14.7360086683
 20
23.6473663185
 30
0.0
 11
8.449726673
 21
23.6473663185
 31
0.0
  0
LINE
  5
D8
100
AcDbEntity
  8
0
390
0
 62
         7
100
AcDbLine
 10
28.6735086683
 20
29.3973663185
 30
0.0
 11
8.449726673
 21
29.3973663185
 31
0.0
  0
LINE
  5
D9
100
AcDbEntity
  8
0
390
0
 62
         7
100
AcDbLine
 10
8.929726673
 20
23.6473663185
 30
0.0
 11
8.929726673
 21
26.1425221675
 31
0.0
  0
LINE
  5
DA
100
AcDbEntity
  8
0
390
0
 62
         7
100
AcDbLine
 10
8.929726673
 20
29.3973663185
 30
0.0
 11
8.929726673
 21
26.9022104694
 31
0.0
  0
SOLID
  5
DB
100
AcDbEntity
  8
0
390
0
 62
         7
100
AcDbTrace
 10
8.929726673
 20
23.6473663185
 30
0.0
 11
9.054726673
 21
24.3973663185
 31
0.0
 12
8.804726673
 22
24.3973663185
 32
0.0
 13
8.804726673
 23
24.3973663185
 33
0.0
  0
SOLID
  5
DC
100
AcDbEntity
  8
0
390
0
 62
         7
100
AcDbTrace
 10
8.929726673
 20
29.3973663185
 30
0.0
 11
8.804726673
 21
28.6473663185
 31
0.0
 12
9.054726673
 22
28.6473663185
 32
0.0
 13
9.054726673
 23
28.6473663185
 33
0.0
  0
POINT
  5
DD
100
AcDbEntity
  8
0
390
0
 62
         7
100
AcDbPoint
 10
14.8960086683
 20
23.6473663185
 30
0.0
  0
POINT
  5
DE
100
AcDbEntity
  8
0
390
0
 62
         7
100
AcDbPoint
 10
28.8335086683
 20
29.3973663185
 30
0.0
  0
ENDBLK
  5
DF
100
AcDbEntity
  8
0
390
0
 62
         7
100
AcDbBlockEnd
  0
BLOCK
  5
E2
100
AcDbEntity
  8
0
390
0
 62
         7
100
AcDbBlockBegin
  2
*D3
 70
         1
 10
0.0
 20
0.0
 30
0.0
  3
*D3
  1

  0
MTEXT
  5
E3
100
AcDbEntity
  8
0
390
0
 62
         7
100
AcDbMText
 10
30.8231660268
 20
32.2351383565
 30
0.0
 40
0.4
 41
0.0
 71
         7
 72
         1
  1
5 1/2"
  7
SLDTEXTSTYLE0
 73
         1
 44
1.0
  0
LINE
  5
E4
100
AcDbEntity
  8
0
390
0
 62
         7
100
AcDbLine
 10
34.3335086683
 20
29.5573663185
 30
0.0
 11
34.3335086683
 21
32.8949825074
 31
0.0
  0
LINE
  5
E5
100
AcDbEntity
  8
0
390
0
 62
         7
100
AcDbLine
 10
28.8335086683
 20
29.5573663185
 30
0.0
 11
28.8335086683
 21
32.8949825074
 31
0.0
  0
LINE
  5
E6
100
AcDbEntity
  8
0
390
0
 62
         7
100
AcDbLine
 10
34.3335086683
 20
32.4149825074
 30
0.0
 11
32.5938513098
 21
32.4149825074
 31
0.0
  0
LINE
  5
E7
100
AcDbEntity
  8
0
390
0
 62
         7
100
AcDbLine
 10
28.8335086683
 20
32.4149825074
 30
0.0
 11
30.5731660268
 21
32.4149825074
 31
0.0
  0
SOLID
  5
E8
100
AcDbEntity
  8
0
390
0
 62
         7
100
AcDbTrace
 10
34.3335086683
 20
32.4149825074
 30
0.0
 11
33.5835086683
 21
32.5399825074
 31
0.0
 12
33.5835086683
 22
32.2899825074
 32
0.0
 13
33.5835086683
 23
32.2899825074
 33
0.0
  0
SOLID
  5
E9
100
AcDbEntity
  8
0
390
0
 62
         7
100
AcDbTrace
 10
28.8335086683
 20
32.4149825074
 30
0.0
 11
29.5835086683
 21
32.2899825074
 31
0.0
 12
29.5835086683
 22
32.5399825074
 32
0.0
 13
29.5835086683
 23
32.5399825074
 33
0.0
  0
POINT
  5
EA
100
AcDbEntity
  8
0
390
0
 62
         7
100
AcDbPoint
 10
34.3335086683
 20
29.3973663185
 30
0.0
  0
POINT
  5
EB
100
AcDbEntity
  8
0
390
0
 62
         7
100
AcDbPoint
 10
28.8335086683
 20
29.3973663185
 30
0.0
  0
ENDBLK
  5
EC
100
AcDbEntity
  8
0
390
0
 62
         7
100
AcDbBlockEnd
  0
BLOCK
  5
EF
100
AcDbEntity
  8
0
390
0
 62
         7
100
AcDbBlockBegin
  2
*D4
 70
         1
 10
0.0
 20
0.0
 30
0.0
  3
*D4
  1

  0
MTEXT
  5
F0
100
AcDbEntity
  8
0
390
0
 62
         7
100
AcDbMText
 10
51.3690631198
 20
27.2438744853
 30
0.0
 40
0.4
 41
0.0
 71
         7
 72
         1
  1
2 3/8"
  7
SLDTEXTSTYLE0
 73
         1
 44
1.0
  0
LINE
  5
F1
100
AcDbEntity
  8
0
390
0
 62
         7
100
AcDbLine
 10
46.3026482518
 20
26.0111500331
 30
0.0
 11
51.0990631198
 21
26.0111500331
 31
0.0
  0
LINE
  5
F2
100
AcDbEntity
  8
0
390
0
 62
         7
100
AcDbLine
 10
48.4310086683
 20
23.6473663185
 30
0.0
 11
51.0990631198
 21
23.6473663185
 31
0.0
  0
LINE
  5
F3
100
AcDbEntity
  8
0
390
0
 62
         7
100
AcDbLine
 10
51.1190631198
 20
27.4237186363
 30
0.0
 11
50.6190631198
 21
27.4237186363
 31
0.0
  0
LINE
  5
F4
100
AcDbEntity
  8
0
390
0
 62
         7
100
AcDbLine
 10
50.6190631198
 20
27.4237186363
 30
0.0
 11
50.6190631198
 21
26.0111500331
 31
0.0
  0
LINE
  5
F5
100
AcDbEntity
  8
0
390
0
 62
         7
100
AcDbLine
 10
50.6190631198
 20
26.0111500331
 30
0.0
 11
50.6190631198
 21
23.6473663185
 31
0.0
  0
SOLID
  5
F6
100
AcDbEntity
  8
0
390
0
 62
         7
100
AcDbTrace
 10
50.6190631198
 20
26.0111500331
 30
0.0
 11
50.4940631198
 21
25.2611500331
 31
0.0
 12
50.7440631198
 22
25.2611500331
 32
0.0
 13
50.7440631198
 23
25.2611500331
 33
0.0
  0
SOLID
  5
F7
100
AcDbEntity
  8
0
390
0
 62
         7
100
AcDbTrace
 10
50.6190631198
 20
23.6473663185
 30
0.0
 11
50.7440631198
 21
24.3973663185
 31
0.0
 12
50.4940631198
 22
24.3973663185
 32
0.0
 13
50.4940631198
 23
24.3973663185
 33
0.0
  0
POINT
  5
F8
100
AcDbEntity
  8
0
390
0
 62
         7
100
AcDbPoint
 10
46.1426482518
 20
26.0111500331
 30
0.0
  0
POINT
  5
F9
100
AcDbEntity
  8
0
390
0
 62
         7
100
AcDbPoint
 10
48.2710086683
 20
23.6473663185
 30
0.0
  0
ENDBLK
  5
FA
100
AcDbEntity
  8
0
390
0
 62
         7
100
AcDbBlockEnd
  0
BLOCK
  5
FD
100
AcDbEntity
  8
0
390
0
 62
         7
100
AcDbBlockBegin
  2
*D5
 70
         1
 10
0.0
 20
0.0
 30
0.0
  3
*D5
  1

  0
MTEXT
  5
FE
100
AcDbEntity
  8
0
390
0
 62
         7
100
AcDbMText
 10
39.1773939317
 20
32.1962811202
 30
0.0
 40
0.4
 41
0.0
 71
         7
 72
         1
  1
11 13/16"
  7
SLDTEXTSTYLE0
 73
         1
 44
1.0
  0
LINE
  5
FF
100
AcDbEntity
  8
0
390
0
 62
         7
100
AcDbLine
 10
34.3335086683
 20
29.5573663185
 30
0.0
 11
34.3335086683
 21
32.8561252711
 31
0.0
  0
LINE
  5
100
100
AcDbEntity
  8
0
390
0
 62
         7
100
AcDbLine
 10
46.1426482518
 20
26.1711500331
 30
0.0
 11
46.1426482518
 21
32.8561252711
 31
0.0
  0
LINE
  5
101
100
AcDbEntity
  8
0
390
0
 62
         7
100
AcDbLine
 10
34.3335086683
 20
32.3761252711
 30
0.0
 11
38.9273939317
 21
32.3761252711
 31
0.0
  0
LINE
  5
102
100
AcDbEntity
  8
0
390
0
 62
         7
100
AcDbLine
 10
46.1426482518
 20
32.3761252711
 30
0.0
 11
41.5487629884
 21
32.3761252711
 31
0.0
  0
SOLID
  5
103
100
AcDbEntity
  8
0
390
0
 62
         7
100
AcDbTrace
 10
34.3335086683
 20
32.3761252711
 30
0.0
 11
35.0835086683
 21
32.2511252711
 31
0.0
 12
35.0835086683
 22
32.5011252711
 32
0.0
 13
35.0835086683
 23
32.5011252711
 33
0.0
  0
SOLID
  5
104
100
AcDbEntity
  8
0
390
0
 62
         7
100
AcDbTrace
 10
46.1426482518
 20
32.3761252711
 30
0.0
 11
45.3926482518
 21
32.5011252711
 31
0.0
 12
45.3926482518
 22
32.2511252711
 32
0.0
 13
45.3926482518
 23
32.2511252711
 33
0.0
  0
POINT
  5
105
100
AcDbEntity
  8
0
390
0
 62
         7
100
AcDbPoint
 10
34.3335086683
 20
29.3973663185
 30
0.0
  0
POINT
  5
106
100
AcDbEntity
  8
0
390
0
 62
         7
100
AcDbPoint
 10
46.1426482518
 20
26.0111500331
 30
0.0
  0
ENDBLK
  5
107
100
AcDbEntity
  8
0
390
0
 62
         7
100
AcDbBlockEnd
  0
BLOCK
  5
10A
100
AcDbEntity
  8
0
390
0
 62
         1
100
AcDbBlockBegin
  2
*D6
 70
         1
 10
0.0
 20
0.0
 30
0.0
  3
*D6
  1

  0
MTEXT
  5
10B
100
AcDbEntity
  8
0
390
0
 62
         7
100
AcDbMText
 10
12.0899269576
 20
26.2649503358
 30
0.0
 40
0.4
 41
0.0
 71
         7
 72
         1
  1
32%%d
  7
SLDTEXTSTYLE0
 73
         1
 44
1.0
  0
LINE
  5
10C
100
AcDbEntity
  8
0
390
0
 62
         7
100
AcDbLine
 10
16.8705672135
 20
25.9670480562
 30
0.0
 11
12.1844142345
 21
24.6233153125
 31
0.0
  0
LINE
  5
10D
100
AcDbEntity
  8
0
390
0
 62
         7
100
AcDbLine
 10
14.7889477713
 20
23.5284631464
 30
0.0
 11
13.6552949426
 21
22.2694141273
 31
0.0
  0
ARC
  5
10E
100
AcDbEntity
  8
0
390
0
 62
         7
100
AcDbCircle
 10
12.5996152595
 20
26.4447944867
 30
0.0
 40
0.8493573424
100
AcDbArc
 50
153.4349488229
 51
206.5650511771
  0
ARC
  5
10F
100
AcDbEntity
  8
0
390
0
 62
         7
100
AcDbCircle
 10
12.3804960142
 20
26.4447944867
 30
0.0
 40
0.8493573424
100
AcDbArc
 50
333.4349488229
 51
26.5650511771
  0
ARC
  5
110
100
AcDbEntity
  8
0
390
0
 62
         7
100
AcDbCircle
 10
17.0243690848
 20
26.0111500331
 30
0.0
 40
4.5550023004
100
AcDbArc
 50
196.0
 51
228.0
  0
ARC
  5
111
100
AcDbEntity
  8
0
390
0
 62
         7
100
AcDbCircle
 10
17.0243690848
 20
26.0111500331
 30
0.0
 40
4.5550023004
100
AcDbArc
 50
179.3232490893
 51
196.0
  0
SOLID
  5
112
100
AcDbEntity
  8
0
390
0
 62
         7
100
AcDbTrace
 10
12.6458198486
 20
24.7556212433
 30
0.0
 11
12.7936706668
 21
24.009789402
 31
0.0
 12
13.0275701387
 22
24.0980562534
 32
0.0
 13
13.0275701387
 23
24.0980562534
 33
0.0
  0
SOLID
  5
113
100
AcDbEntity
  8
0
390
0
 62
         7
100
AcDbTrace
 10
13.9764776336
 20
22.6261236436
 30
0.0
 11
13.5528104481
 21
23.2574960502
 31
0.0
 12
13.3709419478
 22
23.0859622384
 32
0.0
 13
13.3709419478
 23
23.0859622384
 33
0.0
  0
POINT
  5
115
100
AcDbEntity
  8
0
390
0
 62
         7
100
AcDbPoint
 10
14.8960086683
 20
23.6473663185
 30
0.0
  0
POINT
  5
116
100
AcDbEntity
  8
0
390
0
 62
         7
100
AcDbPoint
 10
17.0243690848
 20
26.0111500331
 30
0.0
  0
POINT
  5
117
100
AcDbEntity
  8
0
390
0
 62
         7
100
AcDbPoint
 10
28.8335086683
 20
29.3973663185
 30
0.0
  0
POINT
  5
118
100
AcDbEntity
  8
0
390
0
 62
         7
100
AcDbPoint
 10
17.0243690848
 20
26.0111500331
 30
0.0
  0
ENDBLK
  5
119
100
AcDbEntity
  8
0
390
0
100
AcDbBlockEnd
  0
BLOCK
  5
11C
100
AcDbEntity
  8
0
390
0
 62
         1
100
AcDbBlockBegin
  2
*D7
 70
         1
 10
0.0
 20
0.0
 30
0.0
  3
*D7
  1

  0
MTEXT
  5
11D
100
AcDbEntity
  8
0
390
0
 62
         7
100
AcDbMText
 10
17.0025322528
 20
27.6054116377
 30
0.0
 40
0.4
 41
0.0
 71
         7
 72
         1
  1
16%%d
  7
SLDTEXTSTYLE0
 73
         1
 44
1.0
  0
LINE
  5
11E
100
AcDbEntity
  8
0
390
0
 62
         7
100
AcDbLine
 10
28.6735086683
 20
29.3973663185
 30
0.0
 11
16.7700164652
 21
29.3973663185
 31
0.0
  0
ARC
  5
11F
100
AcDbEntity
  8
0
390
0
 62
         7
100
AcDbCircle
 10
17.5122205547
 20
27.7852557886
 30
0.0
 40
0.8493573424
100
AcDbArc
 50
153.4349488229
 51
206.5650511771
  0
ARC
  5
120
100
AcDbEntity
  8
0
390
0
 62
         7
100
AcDbCircle
 10
17.2132718754
 20
27.7852557886
 30
0.0
 40
0.8493573424
100
AcDbArc
 50
333.4349488229
 51
26.5650511771
  0
ARC
  5
121
100
AcDbEntity
  8
0
390
0
 62
         7
100
AcDbCircle
 10
28.8335086683
 20
29.3973663185
 30
0.0
 40
11.5834922031
100
AcDbArc
 50
180.0
 51
186.106752111
  0
ARC
  5
122
100
AcDbEntity
  8
0
390
0
 62
         7
100
AcDbCircle
 10
28.8335086683
 20
29.3973663185
 30
0.0
 40
11.5834922031
100
AcDbArc
 50
189.9020852095
 51
196.0
  0
SOLID
  5
123
100
AcDbEntity
  8
0
390
0
 62
         7
100
AcDbTrace
 10
17.2500164652
 20
29.3973663185
 30
0.0
 11
17.1493239554
 21
28.6437178471
 31
0.0
 12
17.3991933251
 22
28.6517985721
 32
0.0
 13
17.3991933251
 23
28.6517985721
 33
0.0
  0
SOLID
  5
124
100
AcDbEntity
  8
0
390
0
 62
         7
100
AcDbTrace
 10
17.6987413083
 20
26.2045231565
 30
0.0
 11
17.6366329874
 21
26.962327588
 31
0.0
 12
17.3942157837
 22
26.9012219471
 32
0.0
 13
17.3942157837
 23
26.9012219471
 33
0.0
  0
POINT
  5
125
100
AcDbEntity
  8
0
390
0
 62
         7
100
AcDbPoint
 10
34.3335086683
 20
29.3973663185
 30
0.0
  0
POINT
  5
126
100
AcDbEntity
  8
0
390
0
 62
         7
100
AcDbPoint
 10
28.8335086683
 20
29.3973663185
 30
0.0
  0
POINT
  5
127
100
AcDbEntity
  8
0
390
0
 62
         7
100
AcDbPoint
 10
17.0243690848
 20
26.0111500331
 30
0.0
  0
POINT
  5
128
100
AcDbEntity
  8
0
390
0
 62
         7
100
AcDbPoint
 10
28.8335086683
 20
29.3973663185
 30
0.0
  0
ENDBLK
  5
129
100
AcDbEntity
  8
0
390
0
100
AcDbBlockEnd
  0
BLOCK
  5
12C
100
AcDbEntity
  8
0
390
0
 62
         1
100
AcDbBlockBegin
  2
*D8
 70
         1
 10
0.0
 20
0.0
 30
0.0
  3
*D8
  1

  0
MTEXT
  5
12D
100
AcDbEntity
  8
0
390
0
100
AcDbMText
 10
50.0762309578
 20
32.2076870842
 30
0.0
 40
0.4
 41
0.0
 71
         7
 72
         1
  1
2 1/8"
  7
SLDTEXTSTYLE0
 73
         1
 44
1.0
  0
LINE
  5
12E
100
AcDbEntity
  8
0
390
0
100
AcDbLine
 10
46.1426482518
 20
26.1711500331
 30
0.0
 11
46.1426482518
 21
32.8675312352
 31
0.0
  0
LINE
  5
12F
100
AcDbEntity
  8
0
390
0
100
AcDbLine
 10
48.2710086683
 20
23.8073663185
 30
0.0
 11
48.2710086683
 21
32.8675312352
 31
0.0
  0
LINE
  5
130
100
AcDbEntity
  8
0
390
0
100
AcDbLine
 10
46.1426482518
 20
32.3875312352
 30
0.0
 11
48.2710086683
 21
32.3875312352
 31
0.0
  0
LINE
  5
131
100
AcDbEntity
  8
0
390
0
100
AcDbLine
 10
48.2710086683
 20
32.3875312352
 30
0.0
 11
49.8262309578
 21
32.3875312352
 31
0.0
  0
SOLID
  5
132
100
AcDbEntity
  8
0
390
0
100
AcDbTrace
 10
46.1426482518
 20
32.3875312352
 30
0.0
 11
46.8926482518
 21
32.2625312352
 31
0.0
 12
46.8926482518
 22
32.5125312352
 32
0.0
 13
46.8926482518
 23
32.5125312352
 33
0.0
  0
SOLID
  5
133
100
AcDbEntity
  8
0
390
0
100
AcDbTrace
 10
48.2710086683
 20
32.3875312352
 30
0.0
 11
47.5210086683
 21
32.5125312352
 31
0.0
 12
47.5210086683
 22
32.2625312352
 32
0.0
 13
47.5210086683
 23
32.2625312352
 33
0.0
  0
POINT
  5
134
100
AcDbEntity
  8
0
390
0
100
AcDbPoint
 10
46.1426482518
 20
26.0111500331
 30
0.0
  0
POINT
  5
135
100
AcDbEntity
  8
0
390
0
100
AcDbPoint
 10
48.2710086683
 20
23.6473663185
 30
0.0
  0
ENDBLK
  5
136
100
AcDbEntity
  8
0
390
0
 62
         1
100
AcDbBlockEnd
  0
BLOCK
  5
139
100
AcDbEntity
  8
0
390
0
 62
         1
100
AcDbBlockBegin
  2
*D9
 70
         1
 10
0.0
 20
0.0
 30
0.0
  3
*D9
  1

  0
MTEXT
  5
13A
100
AcDbEntity
  8
0
390
0
100
AcDbMText
 10
40.3962145404
 20
28.4085950836
 30
0.0
 40
0.4
 41
0.0
 71
         7
 72
         1
  1
2 3/4"
  7
SLDTEXTSTYLE0
 73
         1
 44
1.0
  0
LINE
  5
13B
100
AcDbEntity
  8
0
390
0
100
AcDbLine
 10
31.7435086683
 20
26.6473663185
 30
0.0
 11
41.6964292573
 21
26.6473663185
 31
0.0
  0
LINE
  5
13C
100
AcDbEntity
  8
0
390
0
100
AcDbLine
 10
34.4935086683
 20
29.3973663185
 30
0.0
 11
41.6964292573
 21
29.3973663185
 31
0.0
  0
LINE
  5
13D
100
AcDbEntity
  8
0
390
0
100
AcDbLine
 10
41.2164292573
 20
26.6473663185
 30
0.0
 11
41.2164292573
 21
24.6473663185
 31
0.0
  0
LINE
  5
13E
100
AcDbEntity
  8
0
390
0
100
AcDbLine
 10
41.2164292573
 20
29.3973663185
 30
0.0
 11
41.2164292573
 21
31.3973663185
 31
0.0
  0
SOLID
  5
13F
100
AcDbEntity
  8
0
390
0
100
AcDbTrace
 10
41.2164292573
 20
26.6473663185
 30
0.0
 11
41.0914292573
 21
25.8973663185
 31
0.0
 12
41.3414292573
 22
25.8973663185
 32
0.0
 13
41.3414292573
 23
25.8973663185
 33
0.0
  0
SOLID
  5
140
100
AcDbEntity
  8
0
390
0
100
AcDbTrace
 10
41.2164292573
 20
29.3973663185
 30
0.0
 11
41.3414292573
 21
30.1473663185
 31
0.0
 12
41.0914292573
 22
30.1473663185
 32
0.0
 13
41.0914292573
 23
30.1473663185
 33
0.0
  0
POINT
  5
141
100
AcDbEntity
  8
0
390
0
100
AcDbPoint
 10
31.5835086683
 20
26.6473663185
 30
0.0
  0
POINT
  5
142
100
AcDbEntity
  8
0
390
0
100
AcDbPoint
 10
34.3335086683
 20
29.3973663185
 30
0.0
  0
ENDBLK
  5
143
100
AcDbEntity
  8
0
390
0
 62
         1
100
AcDbBlockEnd
  0
BLOCK
  5
146
100
AcDbEntity
  8
0
390
0
 62
         1
100
AcDbBlockBegin
  2
*D10
 70
         1
 10
0.0
 20
0.0
 30
0.0
  3
*D10
  1

  0
MTEXT
  5
147
100
AcDbEntity
  8
0
390
0
100
AcDbMText
 10
38.8479947282
 20
20.2329380528
 30
0.0
 40
0.4
 41
0.0
 71
         7
 72
         1
  1
16 11/16"
  7
SLDTEXTSTYLE0
 73
         1
 44
1.0
  0
LINE
  5
148
100
AcDbEntity
  8
0
390
0
100
AcDbLine
 10
48.2710086683
 20
23.4873663185
 30
0.0
 11
48.2710086683
 21
19.9327822037
 31
0.0
  0
LINE
  5
149
100
AcDbEntity
  8
0
390
0
100
AcDbLine
 10
31.5835086683
 20
26.4873663185
 30
0.0
 11
31.5835086683
 21
19.9327822037
 31
0.0
  0
LINE
  5
14A
100
AcDbEntity
  8
0
390
0
100
AcDbLine
 10
48.2710086683
 20
20.4127822037
 30
0.0
 11
41.2193637848
 21
20.4127822037
 31
0.0
  0
LINE
  5
14B
100
AcDbEntity
  8
0
390
0
100
AcDbLine
 10
31.5835086683
 20
20.4127822037
 30
0.0
 11
38.5979947282
 21
20.4127822037
 31
0.0
  0
SOLID
  5
14C
100
AcDbEntity
  8
0
390
0
100
AcDbTrace
 10
48.2710086683
 20
20.4127822037
 30
0.0
 11
47.5210086683
 21
20.5377822037
 31
0.0
 12
47.5210086683
 22
20.2877822037
 32
0.0
 13
47.5210086683
 23
20.2877822037
 33
0.0
  0
SOLID
  5
14D
100
AcDbEntity
  8
0
390
0
100
AcDbTrace
 10
31.5835086683
 20
20.4127822037
 30
0.0
 11
32.3335086683
 21
20.2877822037
 31
0.0
 12
32.3335086683
 22
20.5377822037
 32
0.0
 13
32.3335086683
 23
20.5377822037
 33
0.0
  0
POINT
  5
14E
100
AcDbEntity
  8
0
390
0
100
AcDbPoint
 10
48.2710086683
 20
23.6473663185
 30
0.0
  0
POINT
  5
14F
100
AcDbEntity
  8
0
390
0
100
AcDbPoint
 10
31.5835086683
 20
26.6473663185
 30
0.0
  0
ENDBLK
  5
150
100
AcDbEntity
  8
0
390
0
 62
         1
100
AcDbBlockEnd
  0
BLOCK
  5
153
100
AcDbEntity
  8
0
390
0
 62
         1
100
AcDbBlockBegin
  2
*D11
 70
         1
 10
0.0
 20
0.0
 30
0.0
  3
*D11
  1

  0
MTEXT
  5
154
100
AcDbEntity
  8
0
390
0
 62
         7
100
AcDbMText
 10
21.6302358323
 20
20.1762086159
 30
0.0
 40
0.4
 41
0.0
 71
         7
 72
         1
  1
%%c
  7
SLDTEXTSTYLE0
 73
         1
 44
1.0
  0
MTEXT
  5
155
100
AcDbEntity
  8
0
390
0
 62
         7
100
AcDbMText
 10
22.3133663983
 20
20.1762086159
 30
0.0
 40
0.4
 41
0.0
 71
         7
 72
         1
  1
11/16"
  7
SLDTEXTSTYLE0
 73
         1
 44
1.0
  0
MTEXT
  5
156
100
AcDbEntity
  8
0
390
0
 62
         7
100
AcDbMText
 10
23.7143075304
 20
20.1762086159
 30
0.0
 40
0.4
 41
0.0
 71
         7
 72
         1
  1
 DRILL THRU
  7
SLDTEXTSTYLE0
 73
         1
 44
1.0
  0
MTEXT
  5
157
100
AcDbEntity
  8
0
390
0
 62
         7
100
AcDbMText
 10
21.7748554549
 20
19.416520314
 30
0.0
 40
0.4
 41
0.0
 71
         7
 72
         1
  1
DEBURR BOTH SIDES
  7
SLDTEXTSTYLE0
 73
         1
 44
1.0
  0
LINE
  5
158
100
AcDbEntity
  8
0
390
0
 62
         7
100
AcDbLine
 10
31.4222908133
 20
26.343483441
 30
0.0
 11
28.0442841341
 21
19.9762086159
 31
0.0
  0
LINE
  5
159
100
AcDbEntity
  8
0
390
0
 62
         7
100
AcDbLine
 10
28.0442841341
 20
19.9762086159
 30
0.0
 11
27.0442841341
 21
19.9762086159
 31
0.0
  0
SOLID
  5
15A
100
AcDbEntity
  8
0
390
0
 62
         7
100
AcDbTrace
 10
31.4222908133
 20
26.343483441
 30
0.0
 11
30.9603758395
 21
25.7395301671
 31
0.0
 12
31.181220954
 22
25.6223660283
 32
0.0
 13
31.181220954
 23
25.6223660283
 33
0.0
  0
POINT
  5
15C
100
AcDbEntity
  8
0
390
0
 62
         7
100
AcDbPoint
 10
31.4222908133
 20
26.343483441
 30
0.0
  0
POINT
  5
15D
100
AcDbEntity
  8
0
390
0
 62
         7
100
AcDbPoint
 10
31.7447265234
 20
26.9512491959
 30
0.0
  0
ENDBLK
  5
15E
100
AcDbEntity
  8
0
390
0
100
AcDbBlockEnd
  0
BLOCK
  5
168
100
AcDbEntity
  8
0
390
0
 62
         1
100
AcDbBlockBegin
  2
*D12
 70
         1
 10
0.0
 20
0.0
 30
0.0
  3
*D12
  1

  0
MTEXT
  5
169
100
AcDbEntity
  8
0
390
0
100
AcDbMText
 10
60.1914373469
 20
30.6213545909
 30
0.0
 40
0.4
 41
0.0
 71
         7
 72
         1
  1
1/4"
  7
SLDTEXTSTYLE0
 73
         1
 44
1.0
  0
LINE
  5
16A
100
AcDbEntity
  8
0
390
0
100
AcDbLine
 10
56.9841046183
 20
29.5573663185
 30
0.0
 11
56.9841046183
 21
31.2811987418
 31
0.0
  0
LINE
  5
16B
100
AcDbEntity
  8
0
390
0
100
AcDbLine
 10
57.2341046183
 20
29.5573663185
 30
0.0
 11
57.2341046183
 21
31.2811987418
 31
0.0
  0
LINE
  5
16C
100
AcDbEntity
  8
0
390
0
100
AcDbLine
 10
56.9841046183
 20
30.8011987418
 30
0.0
 11
54.9841046183
 21
30.8011987418
 31
0.0
  0
LINE
  5
16D
100
AcDbEntity
  8
0
390
0
100
AcDbLine
 10
57.2341046183
 20
30.8011987418
 30
0.0
 11
59.9414373469
 21
30.8011987418
 31
0.0
  0
SOLID
  5
16E
100
AcDbEntity
  8
0
390
0
100
AcDbTrace
 10
56.9841046183
 20
30.8011987418
 30
0.0
 11
56.2341046183
 21
30.9261987418
 31
0.0
 12
56.2341046183
 22
30.6761987418
 32
0.0
 13
56.2341046183
 23
30.6761987418
 33
0.0
  0
SOLID
  5
16F
100
AcDbEntity
  8
0
390
0
100
AcDbTrace
 10
57.2341046183
 20
30.8011987418
 30
0.0
 11
57.9841046183
 21
30.6761987418
 31
0.0
 12
57.9841046183
 22
30.9261987418
 32
0.0
 13
57.9841046183
 23
30.9261987418
 33
0.0
  0
POINT
  5
170
100
AcDbEntity
  8
0
390
0
100
AcDbPoint
 10
56.9841046183
 20
29.3973663185
 30
0.0
  0
POINT
  5
171
100
AcDbEntity
  8
0
390
0
100
AcDbPoint
 10
57.2341046183
 20
29.3973663185
 30
0.0
  0
ENDBLK
  5
172
100
AcDbEntity
  8
0
390
0
 62
         1
100
AcDbBlockEnd
  0
ENDSEC
  0
SECTION
  2
ENTITIES
  0
LINE
  5
2A
100
AcDbEntity
  8
0
370
         0
390
0
  6
Continuous
 62
         7
100
AcDbLine
 10
13.5
 20
42.5
 30
0.0
 11
6.0
 21
42.5
 31
0.0
  0
LINE
  5
2B
100
AcDbEntity
  8
0
370
         0
390
0
  6
Continuous
 62
         7
100
AcDbLine
 10
21.0
 20
42.5
 30
0.0
 11
13.5
 21
42.5
 31
0.0
  0
LINE
  5
2C
100
AcDbEntity
  8
0
370
         0
390
0
  6
Continuous
 62
         7
100
AcDbLine
 10
66.0
 20
1.5
 30
0.0
 11
58.5
 21
1.5
 31
0.0
  0
LINE
  5
2D
100
AcDbEntity
  8
0
370
         0
390
0
  6
Continuous
 62
         7
100
AcDbLine
 10
66.0
 20
1.5
 30
0.0
 11
66.0
 21
11.75
 31
0.0
  0
LINE
  5
2E
100
AcDbEntity
  8
0
370
         0
390
0
  6
Continuous
 62
         7
100
AcDbLine
 10
66.0
 20
32.25
 30
0.0
 11
66.5
 21
32.25
 31
0.0
  0
LINE
  5
2F
100
AcDbEntity
  8
0
370
         0
390
0
  6
Continuous
 62
         7
100
AcDbLine
 10
66.0
 20
22.0
 30
0.0
 11
66.5
 21
22.0
 31
0.0
  0
LINE
  5
30
100
AcDbEntity
  8
0
370
         0
390
0
  6
Continuous
 62
         7
100
AcDbLine
 10
28.5
 20
42.5
 30
0.0
 11
21.0
 21
42.5
 31
0.0
  0
LINE
  5
31
100
AcDbEntity
  8
0
370
         0
390
0
  6
Continuous
 62
         7
100
AcDbLine
 10
36.0
 20
42.5
 30
0.0
 11
28.5
 21
42.5
 31
0.0
  0
LINE
  5
32
100
AcDbEntity
  8
0
370
         0
390
0
  6
Continuous
 62
         7
100
AcDbLine
 10
43.5
 20
42.5
 30
0.0
 11
36.0
 21
42.5
 31
0.0
  0
LINE
  5
33
100
AcDbEntity
  8
0
370
         0
390
0
  6
Continuous
 62
         7
100
AcDbLine
 10
51.0
 20
42.5
 30
0.0
 11
43.5
 21
42.5
 31
0.0
  0
LINE
  5
34
100
AcDbEntity
  8
0
370
         0
390
0
  6
Continuous
 62
         7
100
AcDbLine
 10
58.5
 20
42.5
 30
0.0
 11
51.0
 21
42.5
 31
0.0
  0
LINE
  5
35
100
AcDbEntity
  8
0
370
         0
390
0
  6
Continuous
 62
         7
100
AcDbLine
 10
66.0
 20
11.75
 30
0.0
 11
66.5
 21
11.75
 31
0.0
  0
LINE
  5
36
100
AcDbEntity
  8
0
370
         0
390
0
  6
Continuous
 62
         7
100
AcDbLine
 10
66.0
 20
42.5
 30
0.0
 11
58.5
 21
42.5
 31
0.0
  0
LINE
  5
37
100
AcDbEntity
  8
0
370
         0
390
0
  6
Continuous
 62
         7
100
AcDbLine
 10
58.5
 20
42.5
 30
0.0
 11
58.5
 21
43.0
 31
0.0
  0
LINE
  5
38
100
AcDbEntity
  8
0
370
         0
390
0
  6
Continuous
 62
         7
100
AcDbLine
 10
51.0
 20
42.5
 30
0.0
 11
51.0
 21
43.0
 31
0.0
  0
LINE
  5
39
100
AcDbEntity
  8
0
370
         0
390
0
  6
Continuous
 62
         7
100
AcDbLine
 10
43.5
 20
42.5
 30
0.0
 11
43.5
 21
43.0
 31
0.0
  0
LINE
  5
3A
100
AcDbEntity
  8
0
370
         0
390
0
  6
Continuous
 62
         7
100
AcDbLine
 10
36.0
 20
42.5
 30
0.0
 11
36.0
 21
43.0
 31
0.0
  0
LINE
  5
3B
100
AcDbEntity
  8
0
370
         0
390
0
  6
Continuous
 62
         7
100
AcDbLine
 10
28.5
 20
42.5
 30
0.0
 11
28.5
 21
43.0
 31
0.0
  0
LINE
  5
3C
100
AcDbEntity
  8
0
370
         0
390
0
  6
Continuous
 62
         7
100
AcDbLine
 10
21.0
 20
42.5
 30
0.0
 11
21.0
 21
43.0
 31
0.0
  0
LINE
  5
3D
100
AcDbEntity
  8
0
370
         0
390
0
  6
Continuous
 62
         7
100
AcDbLine
 10
13.5
 20
42.5
 30
0.0
 11
13.5
 21
43.0
 31
0.0
  0
LINE
  5
3E
100
AcDbEntity
  8
0
370
         0
390
0
  6
Continuous
 62
         7
100
AcDbLine
 10
35.0
 20
6.76
 30
0.0
 11
35.0
 21
1.504
 31
0.0
  0
LINE
  5
3F
100
AcDbEntity
  8
0
370
         0
390
0
  6
Continuous
 62
         7
100
AcDbLine
 10
44.0
 20
9.5
 30
0.0
 11
66.0
 21
9.5
 31
0.0
  0
LINE
  5
40
100
AcDbEntity
  8
0
370
         0
390
0
  6
Continuous
 62
         7
100
AcDbLine
 10
44.0
 20
9.5
 30
0.0
 11
44.0
 21
1.5
 31
0.0
  0
LINE
  5
41
100
AcDbEntity
  8
0
370
         0
390
0
  6
Continuous
 62
         7
100
AcDbLine
 10
54.0
 20
9.5
 30
0.0
 11
54.0
 21
1.5
 31
0.0
  0
LINE
  5
42
100
AcDbEntity
  8
0
370
         0
390
0
  6
Continuous
 62
         7
100
AcDbLine
 10
54.0
 20
2.252
 30
0.0
 11
66.0
 21
2.252
 31
0.0
  0
LINE
  5
43
100
AcDbEntity
  8
0
370
         0
390
0
  6
Continuous
 62
         7
100
AcDbLine
 10
54.0
 20
3.752
 30
0.0
 11
66.0
 21
3.752
 31
0.0
  0
LINE
  5
44
100
AcDbEntity
  8
0
370
         0
390
0
  6
Continuous
 62
         7
100
AcDbLine
 10
54.0
 20
6.752
 30
0.0
 11
66.0
 21
6.752
 31
0.0
  0
LINE
  5
45
100
AcDbEntity
  8
0
370
         0
390
0
  6
Continuous
 62
         7
100
AcDbLine
 10
55.5
 20
3.752
 30
0.0
 11
55.5
 21
1.5
 31
0.0
  0
LINE
  5
46
100
AcDbEntity
  8
0
370
         0
390
0
  6
Continuous
 62
         7
100
AcDbLine
 10
35.0
 20
3.004
 30
0.0
 11
54.0
 21
3.004
 31
0.0
  0
LINE
  5
47
100
AcDbEntity
  8
0
370
         0
390
0
  6
Continuous
 62
         7
100
AcDbLine
 10
64.5
 20
3.752
 30
0.0
 11
64.5
 21
1.5
 31
0.0
  0
LINE
  5
48
100
AcDbEntity
  8
0
370
         0
390
0
  6
Continuous
 62
         7
100
AcDbLine
 10
54.0
 20
8.0
 30
0.0
 11
44.0
 21
8.0
 31
0.0
  0
LINE
  5
49
100
AcDbEntity
  8
0
370
         0
390
0
  6
Continuous
 62
         7
100
AcDbLine
 10
44.0
 20
4.748
 30
0.0
 11
54.0
 21
4.748
 31
0.0
  0
LINE
  5
4A
100
AcDbEntity
  8
0
370
         0
390
0
  6
Continuous
 62
         7
100
AcDbLine
 10
44.0
 20
2.252
 30
0.0
 11
54.0
 21
2.252
 31
0.0
  0
LINE
  5
4B
100
AcDbEntity
  8
0
370
         0
390
0
  6
Continuous
 62
         7
100
AcDbLine
 10
35.0
 20
5.256
 30
0.0
 11
44.0
 21
5.256
 31
0.0
  0
LINE
  5
4C
100
AcDbEntity
  8
0
370
         0
390
0
  6
Continuous
 62
         7
100
AcDbLine
 10
66.0
 20
11.75
 30
0.0
 11
66.0
 21
22.0
 31
0.0
  0
LINE
  5
4D
100
AcDbEntity
  8
0
370
         0
390
0
  6
Continuous
 62
         7
100
AcDbLine
 10
66.0
 20
22.0
 30
0.0
 11
66.0
 21
32.25
 31
0.0
  0
LINE
  5
4E
100
AcDbEntity
  8
0
370
         0
390
0
  6
Continuous
 62
         7
100
AcDbLine
 10
66.0
 20
32.25
 30
0.0
 11
66.0
 21
42.5
 31
0.0
  0
LINE
  5
4F
100
AcDbEntity
  8
0
370
         0
390
0
  6
Continuous
 62
         7
100
AcDbLine
 10
58.5
 20
1.5
 30
0.0
 11
51.0
 21
1.5
 31
0.0
  0
LINE
  5
50
100
AcDbEntity
  8
0
370
         0
390
0
  6
Continuous
 62
         7
100
AcDbLine
 10
51.0
 20
1.5
 30
0.0
 11
43.5
 21
1.5
 31
0.0
  0
LINE
  5
51
100
AcDbEntity
  8
0
370
         0
390
0
  6
Continuous
 62
         7
100
AcDbLine
 10
35.0
 20
6.008
 30
0.0
 11
44.0
 21
6.008
 31
0.0
  0
LINE
  5
52
100
AcDbEntity
  8
0
370
         0
390
0
  6
Continuous
 62
         7
100
AcDbLine
 10
35.0
 20
3.75
 30
0.0
 11
20.0
 21
3.75
 31
0.0
  0
LINE
  5
53
100
AcDbEntity
  8
0
370
         0
390
0
  6
Continuous
 62
         7
100
AcDbLine
 10
44.0
 20
6.76
 30
0.0
 11
35.0
 21
6.76
 31
0.0
  0
LINE
  5
54
100
AcDbEntity
  8
0
370
         0
390
0
  6
Continuous
 62
         7
100
AcDbLine
 10
41.0
 20
6.76
 30
0.0
 11
41.0
 21
4.504
 31
0.0
  0
LINE
  5
55
100
AcDbEntity
  8
0
370
         0
390
0
  6
Continuous
 62
         7
100
AcDbLine
 10
44.0
 20
7.248
 30
0.0
 11
54.0
 21
7.248
 31
0.0
  0
LINE
  5
56
100
AcDbEntity
  8
0
370
         0
390
0
  6
Continuous
 62
         7
100
AcDbLine
 10
35.0
 20
4.504
 30
0.0
 11
44.0
 21
4.504
 31
0.0
  0
LINE
  5
57
100
AcDbEntity
  8
0
370
         0
390
0
  6
Continuous
 62
         7
100
AcDbLine
 10
49.0
 20
8.0
 30
0.0
 11
49.0
 21
4.748
 31
0.0
  0
LINE
  5
58
100
AcDbEntity
  8
0
370
         0
390
0
  6
Continuous
 62
         7
100
AcDbLine
 10
43.5
 20
1.5
 30
0.0
 11
36.0
 21
1.5
 31
0.0
  0
LINE
  5
59
100
AcDbEntity
  8
0
370
         0
390
0
  6
Continuous
 62
         7
100
AcDbLine
 10
36.0
 20
1.5
 30
0.0
 11
28.5
 21
1.5
 31
0.0
  0
LINE
  5
5A
100
AcDbEntity
  8
0
370
         0
390
0
  6
Continuous
 62
         7
100
AcDbLine
 10
28.5
 20
1.5
 30
0.0
 11
21.0
 21
1.5
 31
0.0
  0
LINE
  5
5B
100
AcDbEntity
  8
0
370
         0
390
0
  6
Continuous
 62
         7
100
AcDbLine
 10
21.0
 20
1.5
 30
0.0
 11
13.5
 21
1.5
 31
0.0
  0
LINE
  5
5C
100
AcDbEntity
  8
0
370
         0
390
0
  6
Continuous
 62
         7
100
AcDbLine
 10
51.5
 20
8.0
 30
0.0
 11
51.5
 21
4.748
 31
0.0
  0
LINE
  5
5D
100
AcDbEntity
  8
0
370
         0
390
0
  6
Continuous
 62
         7
100
AcDbLine
 10
13.5
 20
1.5
 30
0.0
 11
6.0
 21
1.5
 31
0.0
  0
LINE
  5
5E
100
AcDbEntity
  8
0
370
         0
390
0
  6
Continuous
 62
         7
100
AcDbLine
 10
3.0
 20
42.5
 30
0.0
 11
3.0
 21
1.5
 31
0.0
  0
LINE
  5
5F
100
AcDbEntity
  8
0
370
         0
390
0
  6
Continuous
 62
         7
100
AcDbLine
 10
6.0
 20
11.75
 30
0.0
 11
6.0
 21
22.0
 31
0.0
  0
LINE
  5
60
100
AcDbEntity
  8
0
370
         0
390
0
  6
Continuous
 62
         7
100
AcDbLine
 10
6.0
 20
22.0
 30
0.0
 11
6.0
 21
32.25
 31
0.0
  0
LINE
  5
61
100
AcDbEntity
  8
0
370
         0
390
0
  6
Continuous
 62
         7
100
AcDbLine
 10
6.0
 20
32.25
 30
0.0
 11
6.0
 21
42.5
 31
0.0
  0
LINE
  5
62
100
AcDbEntity
  8
0
370
         0
390
0
  6
Continuous
 62
         7
100
AcDbLine
 10
6.0
 20
32.25
 30
0.0
 11
5.5
 21
32.25
 31
0.0
  0
LINE
  5
63
100
AcDbEntity
  8
0
370
         0
390
0
  6
Continuous
 62
         7
100
AcDbLine
 10
58.5
 20
1.5
 30
0.0
 11
58.5
 21
1.0
 31
0.0
  0
LINE
  5
64
100
AcDbEntity
  8
0
370
         0
390
0
  6
Continuous
 62
         7
100
AcDbLine
 10
51.0
 20
1.5
 30
0.0
 11
51.0
 21
1.0
 31
0.0
  0
LINE
  5
65
100
AcDbEntity
  8
0
370
         0
390
0
  6
Continuous
 62
         7
100
AcDbLine
 10
43.5
 20
1.5
 30
0.0
 11
43.5
 21
1.0
 31
0.0
  0
LINE
  5
66
100
AcDbEntity
  8
0
370
         0
390
0
  6
CENTERX2
 62
         7
100
AcDbLine
 10
36.0
 20
1.5
 30
0.0
 11
36.0
 21
1.0
 31
0.0
  0
LINE
  5
67
100
AcDbEntity
  8
0
370
         0
390
0
  6
Continuous
 62
         7
100
AcDbLine
 10
28.5
 20
1.5
 30
0.0
 11
28.5
 21
1.0
 31
0.0
  0
LINE
  5
68
100
AcDbEntity
  8
0
370
         0
390
0
  6
Continuous
 62
         7
100
AcDbLine
 10
21.0
 20
1.5
 30
0.0
 11
21.0
 21
1.0
 31
0.0
  0
LINE
  5
69
100
AcDbEntity
  8
0
370
         0
390
0
  6
Continuous
 62
         7
100
AcDbLine
 10
13.5
 20
1.5
 30
0.0
 11
13.5
 21
1.0
 31
0.0
  0
LINE
  5
6A
100
AcDbEntity
  8
0
370
         0
390
0
  6
Continuous
 62
         7
100
AcDbLine
 10
6.0
 20
22.0
 30
0.0
 11
5.5
 21
22.0
 31
0.0
  0
LINE
  5
6B
100
AcDbEntity
  8
0
370
         0
390
0
  6
Continuous
 62
         7
100
AcDbLine
 10
6.0
 20
11.75
 30
0.0
 11
5.5
 21
11.75
 31
0.0
  0
LINE
  5
6C
100
AcDbEntity
  8
0
370
         0
390
0
  6
Continuous
 62
         7
100
AcDbLine
 10
6.0
 20
1.5
 30
0.0
 11
6.0
 21
11.75
 31
0.0
  0
LINE
  5
6D
100
AcDbEntity
  8
0
370
         0
390
0
  6
Continuous
 62
         7
100
AcDbLine
 10
20.0
 20
3.75
 30
0.0
 11
20.0
 21
1.5
 31
0.0
  0
LINE
  5
6E
100
AcDbEntity
  8
0
370
         0
390
0
  6
Continuous
 62
         7
100
AcDbLine
 10
66.0
 20
41.748
 30
0.0
 11
50.0
 21
41.748
 31
0.0
  0
LINE
  5
6F
100
AcDbEntity
  8
0
370
         0
390
0
  6
Continuous
 62
         7
100
AcDbLine
 10
66.0
 20
40.996
 30
0.0
 11
50.0
 21
40.996
 31
0.0
  0
LINE
  5
70
100
AcDbEntity
  8
0
370
         0
390
0
  6
Continuous
 62
         7
100
AcDbLine
 10
66.0
 20
40.244
 30
0.0
 11
50.0
 21
40.244
 31
0.0
  0
LINE
  5
71
100
AcDbEntity
  8
0
370
         0
390
0
  6
Continuous
 62
         7
100
AcDbLine
 10
50.0
 20
42.5
 30
0.0
 11
50.0
 21
40.244
 31
0.0
  0
LINE
  5
72
100
AcDbEntity
  8
0
370
         0
390
0
  6
Continuous
 62
         7
100
AcDbLine
 10
51.5
 20
41.748
 30
0.0
 11
51.5
 21
40.244
 31
0.0
  0
LINE
  5
73
100
AcDbEntity
  8
0
370
         0
390
0
  6
Continuous
 62
         7
100
AcDbLine
 10
63.0
 20
41.748
 30
0.0
 11
63.0
 21
40.244
 31
0.0
  0
LINE
  5
74
100
AcDbEntity
  8
0
370
         0
390
0
  6
Continuous
 62
         7
100
AcDbLine
 10
60.5
 20
41.748
 30
0.0
 11
60.5
 21
40.244
 31
0.0
  0
MTEXT
  5
76
100
AcDbEntity
  8
0
390
0
 62
         1
100
AcDbMText
 10
35.5841843938
 20
3.786885596
 30
0.0
 40
0.4
 41
0.0
 71
         1
 72
         1
  1
STEEL, A-36, 1/4" THICK BURNED
  7
SLDTEXTSTYLE0
 73
         1
 44
1.0
  0
MTEXT
  5
77
100
AcDbEntity
  8
0
390
0
 62
         1
100
AcDbMText
 10
46.4534213007
 20
2.8786050895
 30
0.0
 40
0.4
 41
0.0
 71
         1
 72
         1
  1
9.372 lbs
  7
SLDTEXTSTYLE0
 73
         1
 44
1.0
  0
MTEXT
  5
78
100
AcDbEntity
  8
0
390
0
 62
         1
100
AcDbMText
 10
57.1636226415
 20
12.6102264151
 30
0.0
 40
0.6666666667
 41
0.0
 71
         2
 72
         1
  1
1 REQUIRED\PPER ASSEM
  7
SLDTEXTSTYLE0
 73
         1
 44
1.0
  0
MTEXT
  5
79
100
AcDbEntity
  8
0
390
0
 62
         7
100
AcDbMText
 10
66.8535803182
 20
36.3546511702
 30
0.0
 40
0.375
 41
0.0
 71
         1
 72
         1
  1
D
  7
SLDTEXTSTYLE0
 73
         1
 44
1.0
  0
MTEXT
  5
7A
100
AcDbEntity
  8
0
390
0
 62
         7
100
AcDbMText
 10
66.7804233988
 20
26.184845899
 30
0.0
 40
0.375
 41
0.0
 71
         1
 72
         1
  1
C
  7
SLDTEXTSTYLE0
 73
         1
 44
1.0
  0
MTEXT
  5
7B
100
AcDbEntity
  8
0
390
0
 62
         7
100
AcDbMText
 10
66.8244832006
 20
16.8752606386
 30
0.0
 40
0.375
 41
0.0
 71
         1
 72
         1
  1
B
  7
SLDTEXTSTYLE0
 73
         1
 44
1.0
  0
MTEXT
  5
7C
100
AcDbEntity
  8
0
390
0
 62
         7
100
AcDbMText
 10
66.8222066404
 20
6.8550728331
 30
0.0
 40
0.375
 41
0.0
 71
         1
 72
         1
  1
A
  7
SLDTEXTSTYLE0
 73
         1
 44
1.0
  0
MTEXT
  5
7D
100
AcDbEntity
  8
0
390
0
 62
         7
100
AcDbMText
 10
3.8574103947
 20
6.7736574742
 30
0.0
 40
0.375
 41
0.0
 71
         1
 72
         1
  1
A
  7
SLDTEXTSTYLE0
 73
         1
 44
1.0
  0
MTEXT
  5
7E
100
AcDbEntity
  8
0
390
0
 62
         7
100
AcDbMText
 10
3.8446380257
 20
17.1111811225
 30
0.0
 40
0.375
 41
0.0
 71
         1
 72
         1
  1
B
  7
SLDTEXTSTYLE0
 73
         1
 44
1.0
  0
MTEXT
  5
7F
100
AcDbEntity
  8
0
390
0
 62
         7
100
AcDbMText
 10
3.7953116217
 20
27.4969600264
 30
0.0
 40
0.375
 41
0.0
 71
         1
 72
         1
  1
C
  7
SLDTEXTSTYLE0
 73
         1
 44
1.0
  0
MTEXT
  5
80
100
AcDbEntity
  8
0
390
0
 62
         7
100
AcDbMText
 10
3.7821958485
 20
37.2258735343
 30
0.0
 40
0.375
 41
0.0
 71
         1
 72
         1
  1
D
  7
SLDTEXTSTYLE0
 73
         1
 44
1.0
  0
MTEXT
  5
81
100
AcDbEntity
  8
0
390
0
 62
         7
100
AcDbMText
 10
64.7432232461
 20
2.0787142358
 30
0.0
 40
0.36
 41
0.0
 71
         1
 72
         1
  1
REV.
  7
SLDTEXTSTYLE0
 73
         1
 44
1.0
  0
MTEXT
  5
82
100
AcDbEntity
  8
0
390
0
 62
         7
100
AcDbMText
 10
49.3963080474
 20
7.0347638978
 30
0.0
 40
0.36
 41
0.0
 71
         1
 72
         1
  1
%%p\P%%p\P%%p\P%%p
  7
SLDTEXTSTYLE0
 73
         1
 44
1.0
  0
MTEXT
  5
83
100
AcDbEntity
  8
0
390
0
 62
         7
100
AcDbMText
 10
35.2477660994
 20
4.3899383999
 30
0.0
 40
0.36
 41
0.0
 71
         1
 72
         1
  1
MATERIAL
  7
SLDTEXTSTYLE0
 73
         1
 44
1.0
  0
MTEXT
  5
84
100
AcDbEntity
  8
0
390
0
 62
         7
100
AcDbMText
 10
35.2386136258
 20
2.9266952275
 30
0.0
 40
0.36
 41
0.0
 71
         1
 72
         1
  1
FINISH
  7
SLDTEXTSTYLE0
 73
         1
 44
1.0
  0
MTEXT
  5
85
100
AcDbEntity
  8
0
390
0
 62
         7
100
AcDbMText
 10
63.2017320133
 20
1.2870735239
 30
0.0
 40
0.375
 41
0.0
 71
         1
 72
         1
  1
1
  7
SLDTEXTSTYLE0
 73
         1
 44
1.0
  0
MTEXT
  5
86
100
AcDbEntity
  8
0
390
0
 62
         7
100
AcDbMText
 10
54.3775450161
 20
1.3260431792
 30
0.0
 40
0.375
 41
0.0
 71
         1
 72
         1
  1
2
  7
SLDTEXTSTYLE0
 73
         1
 44
1.0
  0
MTEXT
  5
87
100
AcDbEntity
  8
0
390
0
 62
         7
100
AcDbMText
 10
46.1450867237
 20
1.3390330643
 30
0.0
 40
0.375
 41
0.0
 71
         1
 72
         1
  1
3
  7
SLDTEXTSTYLE0
 73
         1
 44
1.0
  0
MTEXT
  5
88
100
AcDbEntity
  8
0
390
0
 62
         7
100
AcDbMText
 10
38.7267103229
 20
1.3469795094
 30
0.0
 40
0.375
 41
0.0
 71
         1
 72
         1
  1
4
  7
SLDTEXTSTYLE0
 73
         1
 44
1.0
  0
MTEXT
  5
89
100
AcDbEntity
  8
0
390
0
 62
         7
100
AcDbMText
 10
30.9250586741
 20
1.3599693945
 30
0.0
 40
0.375
 41
0.0
 71
         1
 72
         1
  1
5
  7
SLDTEXTSTYLE0
 73
         1
 44
1.0
  0
MTEXT
  5
8A
100
AcDbEntity
  8
0
390
0
 62
         7
100
AcDbMText
 10
23.6408619944
 20
1.2950199689
 30
0.0
 40
0.375
 41
0.0
 71
         1
 72
         1
  1
6
  7
SLDTEXTSTYLE0
 73
         1
 44
1.0
  0
MTEXT
  5
8B
100
AcDbEntity
  8
0
390
0
 62
         7
100
AcDbMText
 10
15.7209235146
 20
1.3520229494
 30
0.0
 40
0.375
 41
0.0
 71
         1
 72
         1
  1
7
  7
SLDTEXTSTYLE0
 73
         1
 44
1.0
  0
MTEXT
  5
8C
100
AcDbEntity
  8
0
390
0
 62
         7
100
AcDbMText
 10
8.5926054562
 20
1.3599693945
 30
0.0
 40
0.375
 41
0.0
 71
         1
 72
         1
  1
8
  7
SLDTEXTSTYLE0
 73
         1
 44
1.0
  0
MTEXT
  5
8D
100
AcDbEntity
  8
0
390
0
 62
         7
100
AcDbMText
 10
8.4691158123
 20
43.2347584853
 30
0.0
 40
0.375
 41
0.0
 71
         1
 72
         1
  1
8
  7
SLDTEXTSTYLE0
 73
         1
 44
1.0
  0
MTEXT
  5
8E
100
AcDbEntity
  8
0
390
0
 62
         7
100
AcDbMText
 10
16.281827991
 20
43.145609375
 30
0.0
 40
0.375
 41
0.0
 71
         1
 72
         1
  1
7
  7
SLDTEXTSTYLE0
 73
         1
 44
1.0
  0
MTEXT
  5
8F
100
AcDbEntity
  8
0
390
0
 62
         7
100
AcDbMText
 10
23.8068589589
 20
43.1194748264
 30
0.0
 40
0.375
 41
0.0
 71
         1
 72
         1
  1
6
  7
SLDTEXTSTYLE0
 73
         1
 44
1.0
  0
MTEXT
  5
90
100
AcDbEntity
  8
0
390
0
 62
         7
100
AcDbMText
 10
31.6247767236
 20
43.0720435981
 30
0.0
 40
0.375
 41
0.0
 71
         1
 72
         1
  1
5
  7
SLDTEXTSTYLE0
 73
         1
 44
1.0
  0
MTEXT
  5
91
100
AcDbEntity
  8
0
390
0
 62
         7
100
AcDbMText
 10
39.3952632601
 20
43.1873272569
 30
0.0
 40
0.375
 41
0.0
 71
         1
 72
         1
  1
4
  7
SLDTEXTSTYLE0
 73
         1
 44
1.0
  0
MTEXT
  5
92
100
AcDbEntity
  8
0
390
0
 62
         7
100
AcDbMText
 10
47.2052089631
 20
43.1045865755
 30
0.0
 40
0.375
 41
0.0
 71
         1
 72
         1
  1
3
  7
SLDTEXTSTYLE0
 73
         1
 44
1.0
  0
MTEXT
  5
93
100
AcDbEntity
  8
0
390
0
 62
         7
100
AcDbMText
 10
54.6841919405
 20
43.1534010417
 30
0.0
 40
0.375
 41
0.0
 71
         1
 72
         1
  1
2
  7
SLDTEXTSTYLE0
 73
         1
 44
1.0
  0
MTEXT
  5
94
100
AcDbEntity
  8
0
390
0
 62
         7
100
AcDbMText
 10
62.6675910681
 20
43.0869318489
 30
0.0
 40
0.375
 41
0.0
 71
         1
 72
         1
  1
1
  7
SLDTEXTSTYLE0
 73
         1
 44
1.0
  0
MTEXT
  5
95
100
AcDbEntity
  8
0
390
0
 62
         7
100
AcDbMText
 10
54.6217360465
 20
9.2028695439
 30
0.0
 40
0.6666666667
 41
0.0
 71
         1
 72
         1
  1
RADIO  ASTRONOMY  LAB
  7
SLDTEXTSTYLE0
 73
         1
 44
1.0
  0
MTEXT
  5
96
100
AcDbEntity
  8
0
390
0
 62
         7
100
AcDbMText
 10
60.0910315019
 20
8.0781964362
 30
0.0
 40
0.4
 41
0.0
 71
         2
 72
         1
  1
University of California - Berkeley\PTel: 510-642-5040    Fax: 510-642-3411
  7
SLDTEXTSTYLE0
 73
         1
 44
1.0
  0
MTEXT
  5
97
100
AcDbEntity
  8
0
390
0
 62
         7
100
AcDbMText
 10
37.5359397626
 20
6.5510375446
 30
0.0
 40
0.36
 41
0.0
 71
         1
 72
         1
  1
NAME
  7
SLDTEXTSTYLE0
 73
         1
 44
1.0
  0
MTEXT
  5
98
100
AcDbEntity
  8
0
390
0
 62
         7
100
AcDbMText
 10
41.9677568942
 20
6.533313708
 30
0.0
 40
0.36
 41
0.0
 71
         1
 72
         1
  1
DATE
  7
SLDTEXTSTYLE0
 73
         1
 44
1.0
  0
MTEXT
  5
99
100
AcDbEntity
  8
0
390
0
 62
         7
100
AcDbMText
 10
54.3173217296
 20
2.0966114528
 30
0.0
 40
0.36
 41
0.0
 71
         1
 72
         1
  1
SIZE
  7
SLDTEXTSTYLE0
 73
         1
 44
1.0
  0
MTEXT
  5
9A
100
AcDbEntity
  8
0
390
0
 62
         7
100
AcDbMText
 10
54.5379995223
 20
3.376527869
 30
0.0
 40
0.75
 41
0.0
 71
         1
 72
         1
  1
B
  7
SLDTEXTSTYLE0
 73
         1
 44
1.0
  0
MTEXT
  5
9B
100
AcDbEntity
  8
0
390
0
 62
         7
100
AcDbMText
 10
44.3168514045
 20
2.0514646827
 30
0.0
 40
0.36
 41
0.0
 71
         1
 72
         1
  1
SCALE:
  7
SLDTEXTSTYLE0
 73
         1
 44
1.0
  0
MTEXT
  5
9C
100
AcDbEntity
  8
0
390
0
 62
         7
100
AcDbMText
 10
55.6975623122
 20
2.0800011248
 30
0.0
 40
0.36
 41
0.0
 71
         1
 72
         1
  1
DWG NUM:      SHEET             OF
  7
SLDTEXTSTYLE0
 73
         1
 44
1.0
  0
MTEXT
  5
9D
100
AcDbEntity
  8
0
390
0
 62
         7
100
AcDbMText
 10
63.9951259177
 20
41.5412107411
 30
0.0
 40
0.36
 41
0.0
 71
         1
 72
         1
  1
DATE
  7
SLDTEXTSTYLE0
 73
         1
 44
1.0
  0
MTEXT
  5
9E
100
AcDbEntity
  8
0
390
0
 62
         7
100
AcDbMText
 10
61.2099543171
 20
41.5394982414
 30
0.0
 40
0.36
 41
0.0
 71
         1
 72
         1
  1
NAME
  7
SLDTEXTSTYLE0
 73
         1
 44
1.0
  0
MTEXT
  5
9F
100
AcDbEntity
  8
0
390
0
 62
         7
100
AcDbMText
 10
56.132295403
 20
42.2878586827
 30
0.0
 40
0.36
 41
0.0
 71
         1
 72
         1
  1
REVISIONS
  7
SLDTEXTSTYLE0
 73
         1
 44
1.0
  0
MTEXT
  5
A0
100
AcDbEntity
  8
0
390
0
 62
         7
100
AcDbMText
 10
50.3287943475
 20
41.533732966
 30
0.0
 40
0.36
 41
0.0
 71
         1
 72
         1
  1
REV
  7
SLDTEXTSTYLE0
 73
         1
 44
1.0
  0
MTEXT
  5
A1
100
AcDbEntity
  8
0
390
0
 62
         7
100
AcDbMText
 10
51.8498227663
 20
41.531562701
 30
0.0
 40
0.36
 41
0.0
 71
         1
 72
         1
  1
DESCRIPTION
  7
SLDTEXTSTYLE0
 73
         1
 44
1.0
  0
MTEXT
  5
A2
100
AcDbEntity
  8
0
390
0
 62
         7
100
AcDbMText
 10
44.296078711
 20
2.7937832593
 30
0.0
 40
0.36
 41
0.0
 71
         1
 72
         1
  1
WEIGHT:
  7
SLDTEXTSTYLE0
 73
         1
 44
1.0
  0
MTEXT
  5
A3
100
AcDbEntity
  8
0
390
0
 62
         7
100
AcDbMText
 10
35.2430564705
 20
5.7901778525
 30
0.0
 40
0.36
 41
0.0
 71
         1
 72
         1
  1
DRAWN
  7
SLDTEXTSTYLE0
 73
         1
 44
1.0
  0
MTEXT
  5
A4
100
AcDbEntity
  8
0
390
0
 62
         7
100
AcDbMText
 10
35.2421468027
 20
5.0453216955
 30
0.0
 40
0.36
 41
0.0
 71
         1
 72
         1
  1
CHECKED
  7
SLDTEXTSTYLE0
 73
         1
 44
1.0
  0
MTEXT
  5
A5
100
AcDbEntity
  8
0
390
0
 62
         7
100
AcDbMText
 10
48.6611171697
 20
7.0156820388
 30
0.0
 40
0.36
 41
0.0
 71
         3
 72
         1
  1
WHOLE & FRACTION\PDECIMAL   X.X\PDECIMAL   X.XX\PDECIMAL   X.XXX
  7
SLDTEXTSTYLE0
 73
         1
 44
1.0
  0
MTEXT
  5
A6
100
AcDbEntity
  8
0
390
0
 62
         7
100
AcDbMText
 10
50.3491902811
 20
7.8589441043
 30
0.0
 40
0.36
 41
0.0
 71
         2
 72
         1
  1
LINEAR
  7
SLDTEXTSTYLE0
 73
         1
 44
1.0
  0
MTEXT
  5
A7
100
AcDbEntity
  8
0
390
0
 62
         7
100
AcDbMText
 10
52.6712182055
 20
7.8830150626
 30
0.0
 40
0.36
 41
0.0
 71
         2
 72
         1
  1
ANGLE
  7
SLDTEXTSTYLE0
 73
         1
 44
1.0
  0
INSERT
  5
AE
100
AcDbEntity
  8
0
390
0
100
AcDbBlockReference
  2
NOTE50
 10
44.667986743
 20
4.3761790104
 30
0.0
  0
MTEXT
  5
AF
100
AcDbEntity
  8
0
390
0
 62
         7
100
AcDbMText
 10
48.9950139524
 20
9.2356113863
 30
0.0
 40
0.36
 41
0.0
 71
         2
 72
         1
  1
UNLESS OTHERWISE SPECIFIED\PDIMENSIONS ARE INCHES & DEGREES
  7
SLDTEXTSTYLE0
 73
         1
 44
1.0
  0
MTEXT
  5
B0
100
AcDbEntity
  8
0
390
0
 62
         7
100
AcDbMText
 10
44.805200436
 20
7.833473812
 30
0.0
 40
0.36
 41
0.0
 71
         1
 72
         1
  1
TOLERANCES:
  7
SLDTEXTSTYLE0
 73
         1
 44
1.0
  0
MTEXT
  5
B1
100
AcDbEntity
  8
0
390
0
 62
         7
100
AcDbMText
 10
51.821847405
 20
7.0312486711
 30
0.0
 40
0.36
 41
0.0
 71
         1
 72
         1
  1
%%p\P%%p\P%%p\P%%p
  7
SLDTEXTSTYLE0
 73
         1
 44
1.0
  0
MTEXT
  5
B2
100
AcDbEntity
  8
0
390
0
 62
         7
100
AcDbMText
 10
58.6536011741
 20
41.5449057412
 30
0.0
 40
0.36
 41
0.0
 71
         1
 72
         1
  1
ZONE
  7
SLDTEXTSTYLE0
 73
         1
 44
1.0
  0
MTEXT
  5
B3
100
AcDbEntity
  8
0
390
0
 62
         7
100
AcDbMText
 10
20.3808707277
 20
3.4582666687
 30
0.0
 40
0.32
 41
0.0
 71
         1
 72
         1
  1
THIS DRAWING IS THE PROPERTY OF AND CONTAINS CONFIDENTIAL\PINFORMATION PROPRIETARY TO THE UNIVERSITY OF CALIFORNIA AND\PSHALL BE USED ONLY FOR THE PURPOSE FOR WHICH IT WAS PROVIDED\PAND SHALL NOT BE REPRODUCED OR DISCLOSED TO OTHERS.
  7
SLDTEXTSTYLE0
 73
         1
 44
1.0
  0
MTEXT
  5
B4
100
AcDbEntity
  8
0
390
0
 62
         7
100
AcDbMText
 10
50.5558344517
 20
40.8195967044
 30
0.0
 40
0.36
 41
0.0
 71
         1
 72
         1
  1
A
  7
SLDTEXTSTYLE0
 73
         1
 44
1.0
  0
MTEXT
  5
B5
100
AcDbEntity
  8
0
390
0
 62
         7
100
AcDbMText
 10
51.9119836556
 20
40.8186060335
 30
0.0
 40
0.36
 41
0.0
 71
         1
 72
         1
  1
RELEASED
  7
SLDTEXTSTYLE0
 73
         1
 44
1.0
  0
MTEXT
  5
B6
100
AcDbEntity
  8
0
390
0
 62
         7
100
AcDbMText
 10
37.4766966926
 20
5.8405075573
 30
0.0
 40
0.4166666667
 41
0.0
 71
         1
 72
         1
  1
M. C. FLEMING
  7
SLDTEXTSTYLE0
 73
         1
 44
1.0
  0
MTEXT
  5
B7
100
AcDbEntity
  8
0
390
0
 62
         7
100
AcDbMText
 10
65.0084175521
 20
3.3082817912
 30
0.0
 40
0.75
 41
0.0
 71
         1
 72
         1
  1
A
  7
SLDTEXTSTYLE0
 73
         1
 44
1.0
  0
MTEXT
  5
B8
100
AcDbEntity
  8
0
390
0
 62
         7
100
AcDbMText
 10
41.2885611079
 20
5.8336167047
 30
0.0
 40
0.4166666667
 41
0.0
 71
         1
 72
         1
  1
2004-12-22
  7
SLDTEXTSTYLE0
 73
         1
 44
1.0
  0
MTEXT
  5
B9
100
AcDbEntity
  8
0
390
0
 62
         7
100
AcDbMText
 10
50.0656931375
 20
7.0393068956
 30
0.0
 40
0.36
 41
0.0
 71
         1
 72
         1
  1
1/16\P0.1\P0.01\P0.005
  7
SLDTEXTSTYLE0
 73
         1
 44
1.0
  0
MTEXT
  5
BA
100
AcDbEntity
  8
0
390
0
 62
         7
100
AcDbMText
 10
52.4099368779
 20
7.031500409
 30
0.0
 40
0.36
 41
0.0
 71
         1
 72
         1
  1
1%%d\P0.1%%d\P0.01%%d\P0.001%%d
  7
SLDTEXTSTYLE0
 73
         1
 44
1.0
  0
MTEXT
  5
BB
100
AcDbEntity
  8
0
390
0
 62
         7
100
AcDbMText
 10
56.3268120441
 20
3.3806480451
 30
0.0
 40
0.75
 41
0.0
 71
         1
 72
         1
  1
24-09-104   1 of 1
  7
SLDTEXTSTYLE0
 73
         1
 44
1.0
  0
MTEXT
  5
BC
100
AcDbEntity
  8
0
390
0
 62
         7
100
AcDbMText
 10
61.1839129978
 20
40.8203446032
 30
0.0
 40
0.4166666667
 41
0.0
 71
         1
 72
         1
  1
M.C.F.
  7
SLDTEXTSTYLE0
 73
         1
 44
1.0
  0
MTEXT
  5
BD
100
AcDbEntity
  8
0
390
0
 62
         7
100
AcDbMText
 10
63.3810271818
 20
40.8166095859
 30
0.0
 40
0.4166666667
 41
0.0
 71
         1
 72
         1
  1
2004-12-22
  7
SLDTEXTSTYLE0
 73
         1
 44
1.0
  0
MTEXT
  5
BE
100
AcDbEntity
  8
0
390
0
 62
         7
100
AcDbMText
 10
59.754717606
 20
6.1303452935
 30
0.0
 40
0.75
 41
0.0
 71
         2
 72
         1
  1
CARMA 6m Base,\PLeg Adaptor, Cap 
  7
SLDTEXTSTYLE0
 73
         1
 44
1.0
  0
CIRCLE
  5
BF
100
AcDbEntity
  8
0
370
        15
390
0
  6
Continuous
 62
         7
100
AcDbCircle
 10
31.5835086683
 20
26.6473663185
 30
0.0
 40
0.344
  0
LINE
  5
C0
100
AcDbEntity
  8
0
370
        15
390
0
  6
Continuous
 62
         7
100
AcDbLine
 10
48.2710086683
 20
23.6473663185
 30
0.0
 11
14.8960086683
 21
23.6473663185
 31
0.0
  0
LINE
  5
C1
100
AcDbEntity
  8
0
370
        15
390
0
  6
Continuous
 62
         7
100
AcDbLine
 10
17.0243690848
 20
26.0111500331
 30
0.0
 11
28.8335086683
 21
29.3973663185
 31
0.0
  0
LINE
  5
C2
100
AcDbEntity
  8
0
370
        15
390
0
  6
Continuous
 62
         7
100
AcDbLine
 10
28.8335086683
 20
29.3973663185
 30
0.0
 11
34.3335086683
 21
29.3973663185
 31
0.0
  0
LINE
  5
C3
100
AcDbEntity
  8
0
370
        15
390
0
  6
Continuous
 62
         7
100
AcDbLine
 10
34.3335086683
 20
29.3973663185
 30
0.0
 11
46.1426482518
 21
26.0111500331
 31
0.0
  0
LINE
  5
C4
100
AcDbEntity
  8
0
370
        15
390
0
  6
Continuous
 62
         7
100
AcDbLine
 10
46.1426482518
 20
26.0111500331
 30
0.0
 11
48.2710086683
 21
23.6473663185
 31
0.0
  0
LINE
  5
C5
100
AcDbEntity
  8
0
370
        15
390
0
  6
Continuous
 62
         7
100
AcDbLine
 10
14.8960086683
 20
23.6473663185
 30
0.0
 11
17.0243690848
 21
26.0111500331
 31
0.0
  0
DIMENSION
  5
D3
100
AcDbEntity
  8
0
390
0
 62
         7
100
AcDbDimension
  2
*D1
 10
14.8960086683
 20
17.0643920829
 30
0.0
 11
31.5835086683
 21
17.0643920829
 31
0.0
 70
       160
 71
         5
 72
         1
 41
1.0
 42
0.0
  3
SLDDIMSTYLE0
100
AcDbAlignedDimension
 13
48.2710086683
 23
23.6473663185
 33
0.0
 14
14.8960086683
 24
23.6473663185
 34
0.0
100
AcDbRotatedDimension
  0
DIMENSION
  5
E0
100
AcDbEntity
  8
0
390
0
 62
         7
100
AcDbDimension
  2
*D2
 10
8.929726673
 20
29.3973663185
 30
0.0
 11
8.929726673
 21
26.5223663185
 31
0.0
 70
       160
 71
         5
 72
         1
 41
1.0
 42
0.0
  3
SLDDIMSTYLE0
100
AcDbAlignedDimension
 13
14.8960086683
 23
23.6473663185
 33
0.0
 14
28.8335086683
 24
29.3973663185
 34
0.0
 50
90.0
100
AcDbRotatedDimension
  0
DIMENSION
  5
ED
100
AcDbEntity
  8
0
390
0
 62
         7
100
AcDbDimension
  2
*D3
 10
28.8335086683
 20
32.4149825074
 30
0.0
 11
31.5835086683
 21
32.4149825074
 31
0.0
 70
       160
 71
         5
 72
         1
 41
1.0
 42
0.0
  3
SLDDIMSTYLE0
100
AcDbAlignedDimension
 13
34.3335086683
 23
29.3973663185
 33
0.0
 14
28.8335086683
 24
29.3973663185
 34
0.0
100
AcDbRotatedDimension
  0
DIMENSION
  5
FB
100
AcDbEntity
  8
0
390
0
 62
         7
100
AcDbDimension
  2
*D4
 10
50.6190631198
 20
23.6473663185
 30
0.0
 11
50.6190631198
 21
27.4237186363
 31
0.0
 70
       160
 71
         5
 72
         1
 41
1.0
 42
0.0
  3
SLDDIMSTYLE0
100
AcDbAlignedDimension
 13
46.1426482518
 23
26.0111500331
 33
0.0
 14
48.2710086683
 24
23.6473663185
 34
0.0
 50
90.0
100
AcDbRotatedDimension
  0
DIMENSION
  5
108
100
AcDbEntity
  8
0
390
0
 62
         7
100
AcDbDimension
  2
*D5
 10
46.1426482518
 20
32.3761252711
 30
0.0
 11
40.2380784601
 21
32.3761252711
 31
0.0
 70
       160
 71
         5
 72
         1
 41
1.0
 42
0.0
  3
SLDDIMSTYLE0
100
AcDbAlignedDimension
 13
34.3335086683
 23
29.3973663185
 33
0.0
 14
46.1426482518
 24
26.0111500331
 34
0.0
100
AcDbRotatedDimension
  0
DIMENSION
  5
11A
100
AcDbEntity
  8
0
390
0
100
AcDbDimension
  2
*D6
 10
28.8335086683
 20
29.3973663185
 30
0.0
 11
13.161508056
 21
23.5973665655
 31
0.0
 70
       162
 71
         5
 72
         1
 41
1.0
 42
0.0
  1
(<>)
  3
SLDDIMSTYLE1
100
AcDb2LineAngularDimension
 13
14.8960086683
 23
23.6473663185
 33
0.0
 14
17.0243690848
 24
26.0111500331
 34
0.0
 15
17.0243690848
 25
26.0111500331
 35
0.0
 16
12.8631674238
 26
24.1584636883
 36
0.0
  0
DIMENSION
  5
12A
100
AcDbEntity
  8
0
390
0
100
AcDbDimension
  2
*D7
 10
17.0243690848
 20
26.0111500331
 30
0.0
 11
17.3627462151
 21
27.7852557886
 31
0.0
 70
       162
 71
         5
 72
         1
 41
1.0
 42
0.0
  1
(<>)
  3
SLDDIMSTYLE1
100
AcDb2LineAngularDimension
 13
34.3335086683
 23
29.3973663185
 33
0.0
 14
28.8335086683
 24
29.3973663185
 34
0.0
 15
28.8335086683
 25
29.3973663185
 35
0.0
 16
17.27823327
 26
28.5893427487
 36
0.0
  0
DIMENSION
  5
137
100
AcDbEntity
  8
0
390
0
100
AcDbDimension
  2
*D8
 10
48.2710086683
 20
32.3875312352
 30
0.0
 11
50.8365735993
 21
32.3875312352
 31
0.0
 70
       160
 71
         5
 72
         1
 41
1.0
 42
0.0
  3
SLDDIMSTYLE0
100
AcDbAlignedDimension
 13
46.1426482518
 23
26.0111500331
 33
0.0
 14
48.2710086683
 24
23.6473663185
 34
0.0
100
AcDbRotatedDimension
  0
DIMENSION
  5
144
100
AcDbEntity
  8
0
390
0
100
AcDbDimension
  2
*D9
 10
41.2164292573
 20
29.3973663185
 30
0.0
 11
41.2164292573
 21
28.5884392345
 31
0.0
 70
       160
 71
         5
 72
         1
 41
1.0
 42
0.0
  3
SLDDIMSTYLE0
100
AcDbAlignedDimension
 13
31.5835086683
 23
26.6473663185
 33
0.0
 14
34.3335086683
 24
29.3973663185
 34
0.0
 50
90.0
100
AcDbRotatedDimension
  0
DIMENSION
  5
151
100
AcDbEntity
  8
0
390
0
100
AcDbDimension
  2
*D10
 10
31.5835086683
 20
20.4127822037
 30
0.0
 11
39.9086792565
 21
20.4127822037
 31
0.0
 70
       160
 71
         5
 72
         1
 41
1.0
 42
0.0
  3
SLDDIMSTYLE0
100
AcDbAlignedDimension
 13
48.2710086683
 23
23.6473663185
 33
0.0
 14
31.5835086683
 24
26.6473663185
 34
0.0
100
AcDbRotatedDimension
  0
DIMENSION
  5
15F
100
AcDbEntity
  8
0
390
0
100
AcDbDimension
  2
*D11
 10
31.7447265234
 20
26.9512491959
 30
0.0
 11
24.2122599832
 21
19.9762086159
 31
0.0
 70
       163
 71
         5
 72
         1
 41
1.0
 42
0.0
  1
<> DRILL THRU\PDEBURR BOTH SIDES
  3
SLDDIMSTYLE2
100
AcDbDiametricDimension
 15
31.4222908133
 25
26.343483441
 35
0.0
 40
0.0
  0
LINE
  5
160
100
AcDbEntity
  8
0
370
        15
390
0
  6
Continuous
 62
         7
100
AcDbLine
 10
57.2341046183
 20
26.0111500331
 30
0.0
 11
56.9841046183
 21
26.0111500331
 31
0.0
  0
LINE
  5
161
100
AcDbEntity
  8
0
370
        15
390
0
  6
Continuous
 62
         7
100
AcDbLine
 10
57.2341046183
 20
23.6473663185
 30
0.0
 11
56.9841046183
 21
23.6473663185
 31
0.0
  0
LINE
  5
162
100
AcDbEntity
  8
0
370
        15
390
0
  6
Continuous
 62
         7
100
AcDbLine
 10
56.9841046183
 20
26.0111500331
 30
0.0
 11
56.9841046183
 21
23.6473663185
 31
0.0
  0
LINE
  5
163
100
AcDbEntity
  8
0
370
        15
390
0
  6
Continuous
 62
         7
100
AcDbLine
 10
57.2341046183
 20
26.0111500331
 30
0.0
 11
57.2341046183
 21
23.6473663185
 31
0.0
  0
LINE
  5
164
100
AcDbEntity
  8
0
370
        15
390
0
  6
Continuous
 62
         7
100
AcDbLine
 10
57.2341046183
 20
29.3973663185
 30
0.0
 11
56.9841046183
 21
29.3973663185
 31
0.0
  0
LINE
  5
165
100
AcDbEntity
  8
0
370
        15
390
0
  6
Continuous
 62
         7
100
AcDbLine
 10
56.9841046183
 20
29.3973663185
 30
0.0
 11
56.9841046183
 21
26.0111500331
 31
0.0
  0
LINE
  5
166
100
AcDbEntity
  8
0
370
        15
390
0
  6
Continuous
 62
         7
100
AcDbLine
 10
57.2341046183
 20
29.3973663185
 30
0.0
 11
57.2341046183
 21
26.0111500331
 31
0.0
  0
DIMENSION
  5
173
100
AcDbEntity
  8
0
390
0
100
AcDbDimension
  2
*D12
 10
57.2341046183
 20
30.8011987418
 30
0.0
 11
60.7116373469
 21
30.8011987418
 31
0.0
 70
       160
 71
         5
 72
         1
 41
1.0
 42
0.0
  3
SLDDIMSTYLE0
100
AcDbAlignedDimension
 13
56.9841046183
 23
29.3973663185
 33
0.0
 14
57.2341046183
 24
29.3973663185
 34
0.0
100
AcDbRotatedDimension
  0
POLYLINE
  5
174
100
AcDbEntity
  8
0
390
0
  6
Continuous
 62
         7
100
AcDb2dPolyline
 66
         1
 10
0.0
 20
0.0
 30
0.0
 70
       128
 40
0.0023622047
 41
0.0023622047
  0
VERTEX
  5
175
100
AcDbEntity
  8
0
390
0
100
AcDbVertex
100
AcDb2dVertex
 10
19.0861372919
 20
10.1735053255
 30
0.0
  0
VERTEX
  5
176
100
AcDbEntity
  8
0
390
0
100
AcDbVertex
100
AcDb2dVertex
 10
19.1261168875
 20
10.1578986829
 30
0.0
  0
VERTEX
  5
177
100
AcDbEntity
  8
0
390
0
100
AcDbVertex
100
AcDb2dVertex
 10
19.1644597138
 20
10.134799923
 30
0.0
  0
VERTEX
  5
178
100
AcDbEntity
  8
0
390
0
100
AcDbVertex
100
AcDb2dVertex
 10
19.1995960109
 20
10.1051547118
 30
0.0
  0
VERTEX
  5
179
100
AcDbEntity
  8
0
390
0
100
AcDbVertex
100
AcDb2dVertex
 10
19.2300872948
 20
10.0701767277
 30
0.0
  0
VERTEX
  5
17A
100
AcDbEntity
  8
0
390
0
100
AcDbVertex
100
AcDb2dVertex
 10
19.2546852486
 20
10.0312979736
 30
0.0
  0
VERTEX
  5
17B
100
AcDbEntity
  8
0
390
0
100
AcDbVertex
100
AcDb2dVertex
 10
19.2723828293
 20
9.9901101501
 30
0.0
  0
VERTEX
  5
17C
100
AcDbEntity
  8
0
390
0
100
AcDbVertex
100
AcDb2dVertex
 10
19.2824554957
 20
9.9482994916
 30
0.0
  0
VERTEX
  5
17D
100
AcDbEntity
  8
0
390
0
100
AcDbVertex
100
AcDb2dVertex
 10
19.2844908719
 20
9.9075777314
 30
0.0
  0
VERTEX
  5
17E
100
AcDbEntity
  8
0
390
0
100
AcDbVertex
100
AcDb2dVertex
 10
19.2784056292
 20
9.8696120232
 30
0.0
  0
VERTEX
  5
17F
100
AcDbEntity
  8
0
390
0
100
AcDbVertex
100
AcDb2dVertex
 10
19.2644488981
 20
9.8359566874
 30
0.0
  0
VERTEX
  5
180
100
AcDbEntity
  8
0
390
0
100
AcDbVertex
100
AcDb2dVertex
 10
19.243192069
 20
9.8079895775
 30
0.0
  0
VERTEX
  5
181
100
AcDbEntity
  8
0
390
0
100
AcDbVertex
100
AcDb2dVertex
 10
19.2155053988
 20
9.7868556702
 30
0.0
  0
VERTEX
  5
182
100
AcDbEntity
  8
0
390
0
100
AcDbVertex
100
AcDb2dVertex
 10
19.1825223831
 20
9.7734201903
 30
0.0
  0
VERTEX
  5
183
100
AcDbEntity
  8
0
390
0
100
AcDbVertex
100
AcDb2dVertex
 10
19.1455933505
 20
9.7682331878
 30
0.0
  0
VERTEX
  5
184
100
AcDbEntity
  8
0
390
0
100
AcDbVertex
100
AcDb2dVertex
 10
19.1062301798
 20
9.7715070191
 30
0.0
  0
VERTEX
  5
185
100
AcDbEntity
  8
0
390
0
100
AcDbVertex
100
AcDb2dVertex
 10
19.0660444039
 20
9.7831076534
 30
0.0
  0
VERTEX
  5
186
100
AcDbEntity
  8
0
390
0
100
AcDbVertex
100
AcDb2dVertex
 10
19.0266812333
 20
9.8025601592
 30
0.0
  0
VERTEX
  5
187
100
AcDbEntity
  8
0
390
0
100
AcDbVertex
100
AcDb2dVertex
 10
18.9897522006
 20
9.8290681487
 30
0.0
  0
VERTEX
  5
188
100
AcDbEntity
  8
0
390
0
100
AcDbVertex
100
AcDb2dVertex
 10
18.9567691849
 20
9.8615463816
 30
0.0
  0
VERTEX
  5
189
100
AcDbEntity
  8
0
390
0
100
AcDbVertex
100
AcDb2dVertex
 10
18.9290825148
 20
9.8986651953
 30
0.0
  0
VERTEX
  5
18A
100
AcDbEntity
  8
0
390
0
100
AcDbVertex
100
AcDb2dVertex
 10
18.9078256856
 20
9.9389049413
 30
0.0
  0
VERTEX
  5
18B
100
AcDbEntity
  8
0
390
0
100
AcDbVertex
100
AcDb2dVertex
 10
18.8938689546
 20
9.9806181995
 30
0.0
  0
VERTEX
  5
18C
100
AcDbEntity
  8
0
390
0
100
AcDbVertex
100
AcDb2dVertex
 10
18.8877837118
 20
10.0220972243
 30
0.0
  0
VERTEX
  5
18D
100
AcDbEntity
  8
0
390
0
100
AcDbVertex
100
AcDb2dVertex
 10
18.889819088
 20
10.0616438595
 30
0.0
  0
VERTEX
  5
18E
100
AcDbEntity
  8
0
390
0
100
AcDbVertex
100
AcDb2dVertex
 10
18.8998917545
 20
10.0976390612
 30
0.0
  0
VERTEX
  5
18F
100
AcDbEntity
  8
0
390
0
100
AcDbVertex
100
AcDb2dVertex
 10
18.9175893351
 20
10.1286091817
 30
0.0
  0
VERTEX
  5
190
100
AcDbEntity
  8
0
390
0
100
AcDbVertex
100
AcDb2dVertex
 10
18.9421872889
 20
10.1532863006
 30
0.0
  0
VERTEX
  5
191
100
AcDbEntity
  8
0
390
0
100
AcDbVertex
100
AcDb2dVertex
 10
18.9726785728
 20
10.1706601338
 30
0.0
  0
VERTEX
  5
192
100
AcDbEntity
  8
0
390
0
100
AcDbVertex
100
AcDb2dVertex
 10
19.0078148699
 20
10.1800193943
 30
0.0
  0
VERTEX
  5
193
100
AcDbEntity
  8
0
390
0
100
AcDbVertex
100
AcDb2dVertex
 10
19.0461576962
 20
10.1809809132
 30
0.0
  0
VERTEX
  5
194
100
AcDbEntity
  8
0
390
0
100
AcDbVertex
100
AcDb2dVertex
 10
19.0861372919
 20
10.1735053255
 30
0.0
  0
SEQEND
  5
195
100
AcDbEntity
  8
0
390
0
  0
LINE
  5
196
100
AcDbEntity
  8
0
370
        15
390
0
  6
Continuous
 62
         7
100
AcDbLine
 10
28.720669909
 20
5.4615960253
 30
0.0
 11
9.4516046748
 21
11.0240960253
 31
0.0
  0
LINE
  5
197
100
AcDbEntity
  8
0
370
        15
390
0
  6
Continuous
 62
         7
100
AcDbLine
 10
9.4516046748
 20
11.0240960253
 30
0.0
 11
10.6804141342
 21
12.0341004532
 31
0.0
  0
LINE
  5
198
100
AcDbEntity
  8
0
370
        15
390
0
  6
Continuous
 62
         7
100
AcDbLine
 10
10.6804141342
 20
12.0341004532
 30
0.0
 11
17.4984240516
 21
12.0209434065
 31
0.0
  0
LINE
  5
199
100
AcDbEntity
  8
0
370
        15
390
0
  6
Continuous
 62
         7
100
AcDbLine
 10
17.4984240516
 20
12.0209434065
 30
0.0
 11
20.6738505321
 21
11.1042767399
 31
0.0
  0
LINE
  5
19A
100
AcDbEntity
  8
0
370
        15
390
0
  6
Continuous
 62
         7
100
AcDbLine
 10
20.6738505321
 20
11.1042767399
 30
0.0
 11
27.4918604496
 21
7.1810539254
 31
0.0
  0
LINE
  5
19B
100
AcDbEntity
  8
0
370
        15
390
0
  6
Continuous
 62
         7
100
AcDbLine
 10
27.4918604496
 20
7.1810539254
 30
0.0
 11
28.720669909
 21
5.4615960253
 31
0.0
  0
LINE
  5
19C
100
AcDbEntity
  8
0
370
        15
390
0
  6
Continuous
 62
         7
100
AcDbLine
 10
20.7571838655
 20
11.1764455235
 30
0.0
 11
20.6738505321
 21
11.1042767399
 31
0.0
  0
LINE
  5
19D
100
AcDbEntity
  8
0
370
        15
390
0
  6
Continuous
 62
         7
100
AcDbLine
 10
27.5751937829
 20
7.253222709
 30
0.0
 11
27.4918604496
 21
7.1810539254
 31
0.0
  0
LINE
  5
19E
100
AcDbEntity
  8
0
370
        15
390
0
  6
Continuous
 62
         7
100
AcDbLine
 10
20.7571838655
 20
11.1764455235
 30
0.0
 11
27.5751937829
 21
7.253222709
 31
0.0
  0
LINE
  5
19F
100
AcDbEntity
  8
0
370
        15
390
0
  6
Continuous
 62
         7
100
AcDbLine
 10
28.8040032423
 20
5.533764809
 30
0.0
 11
28.720669909
 21
5.4615960253
 31
0.0
  0
LINE
  5
1A0
100
AcDbEntity
  8
0
370
        15
390
0
  6
Continuous
 62
         7
100
AcDbLine
 10
27.5751937829
 20
7.253222709
 30
0.0
 11
28.8040032423
 21
5.533764809
 31
0.0
  0
LINE
  5
1A1
100
AcDbEntity
  8
0
370
        15
390
0
  6
Continuous
 62
         7
100
AcDbLine
 10
17.5817573849
 20
12.0931121902
 30
0.0
 11
17.4984240516
 21
12.0209434065
 31
0.0
  0
LINE
  5
1A2
100
AcDbEntity
  8
0
370
        15
390
0
  6
Continuous
 62
         7
100
AcDbLine
 10
17.5817573849
 20
12.0931121902
 30
0.0
 11
20.7571838655
 21
11.1764455235
 31
0.0
  0
POLYLINE
  5
1A3
100
AcDbEntity
  8
0
390
0
  6
Continuous
 62
         7
100
AcDb2dPolyline
 66
         1
 10
0.0
 20
0.0
 30
0.0
 70
       128
 40
0.0023622047
 41
0.0023622047
  0
VERTEX
  5
1A4
100
AcDbEntity
  8
0
390
0
100
AcDbVertex
100
AcDb2dVertex
 10
19.2700199058
 20
9.8467643938
 30
0.0
  0
VERTEX
  5
1A5
100
AcDbEntity
  8
0
390
0
100
AcDbVertex
100
AcDb2dVertex
 10
19.2658557164
 20
9.8455889739
 30
0.0
  0
VERTEX
  5
1A6
100
AcDbEntity
  8
0
390
0
100
AcDbVertex
100
AcDb2dVertex
 10
19.2289266838
 20
9.8404019714
 30
0.0
  0
VERTEX
  5
1A7
100
AcDbEntity
  8
0
390
0
100
AcDbVertex
100
AcDb2dVertex
 10
19.1895635131
 20
9.8436758028
 30
0.0
  0
VERTEX
  5
1A8
100
AcDbEntity
  8
0
390
0
100
AcDbVertex
100
AcDb2dVertex
 10
19.1493777373
 20
9.855276437
 30
0.0
  0
VERTEX
  5
1A9
100
AcDbEntity
  8
0
390
0
100
AcDbVertex
100
AcDb2dVertex
 10
19.1100145666
 20
9.8747289428
 30
0.0
  0
VERTEX
  5
1AA
100
AcDbEntity
  8
0
390
0
100
AcDbVertex
100
AcDb2dVertex
 10
19.073085534
 20
9.9012369323
 30
0.0
  0
VERTEX
  5
1AB
100
AcDbEntity
  8
0
390
0
100
AcDbVertex
100
AcDb2dVertex
 10
19.0401025183
 20
9.9337151652
 30
0.0
  0
VERTEX
  5
1AC
100
AcDbEntity
  8
0
390
0
100
AcDbVertex
100
AcDb2dVertex
 10
19.0124158481
 20
9.970833979
 30
0.0
  0
VERTEX
  5
1AD
100
AcDbEntity
  8
0
390
0
100
AcDbVertex
100
AcDb2dVertex
 10
18.9911590189
 20
10.0110737249
 30
0.0
  0
VERTEX
  5
1AE
100
AcDbEntity
  8
0
390
0
100
AcDbVertex
100
AcDb2dVertex
 10
18.9772022879
 20
10.0527869831
 30
0.0
  0
VERTEX
  5
1AF
100
AcDbEntity
  8
0
390
0
100
AcDbVertex
100
AcDb2dVertex
 10
18.9711170452
 20
10.0942660079
 30
0.0
  0
VERTEX
  5
1B0
100
AcDbEntity
  8
0
390
0
100
AcDbVertex
100
AcDb2dVertex
 10
18.9731524213
 20
10.1338126431
 30
0.0
  0
VERTEX
  5
1B1
100
AcDbEntity
  8
0
390
0
100
AcDbVertex
100
AcDb2dVertex
 10
18.9832250878
 20
10.1698078449
 30
0.0
  0
VERTEX
  5
1B2
100
AcDbEntity
  8
0
390
0
100
AcDbVertex
100
AcDb2dVertex
 10
18.9855880112
 20
10.1751980556
 30
0.0
  0
SEQEND
  5
1B3
100
AcDbEntity
  8
0
390
0
  0
LINE
  5
1B4
100
AcDbEntity
  8
0
370
        15
390
0
  6
Continuous
 62
         7
100
AcDbLine
 10
10.7637474675
 20
12.1062692369
 30
0.0
 11
10.6804141342
 21
12.0341004532
 31
0.0
  0
LINE
  5
1B5
100
AcDbEntity
  8
0
370
        15
390
0
  6
Continuous
 62
         7
100
AcDbLine
 10
10.7637474675
 20
12.1062692369
 30
0.0
 11
17.5817573849
 21
12.0931121902
 31
0.0
  0
LINE
  5
1B6
100
AcDbEntity
  8
0
370
        15
390
0
  6
Continuous
 62
         7
100
AcDbLine
 10
9.5349380081
 20
11.096264809
 30
0.0
 11
9.4516046748
 21
11.0240960253
 31
0.0
  0
LINE
  5
1B7
100
AcDbEntity
  8
0
370
        15
390
0
  6
Continuous
 62
         7
100
AcDbLine
 10
9.5349380081
 20
11.096264809
 30
0.0
 11
10.7637474675
 21
12.1062692369
 31
0.0
  0
ENDSEC
  0
SECTION
  2
OBJECTS
  0
DICTIONARY
  5
19
100
AcDbDictionary
280
         0
281
         1
  3
ACAD_GROUP
350
1A
  3
ACAD_MLINESTYLE
350
1B
  3
ACAD_LAYOUT
350
1E
  3
ACAD_PLOTSETTINGS
350
22
  3
ACAD_PLOTSTYLENAME
350
1F
  3
ACAD_WIPEOUT_VARS
350
23
  0
DICTIONARY
  5
1A
102
{ACAD_REACTORS
330
19
102
}
100
AcDbDictionary
280
         0
281
         1
  0
DICTIONARY
  5
1B
102
{ACAD_REACTORS
330
19
102
}
100
AcDbDictionary
280
         0
281
         1
  3
Standard
350
1C
  0
MLINESTYLE
  5
1C
102
{ACAD_REACTORS
330
1B
102
}
100
AcDbMlineStyle
  2
Standard
 70
         0
  3

 62
         0
 51
90.0
 52
90.0
 71
         2
 49
0.5
 62
       256
  6
ByLayer
 49
-0.5
 62
       256
  6
ByLayer
  0
ACDBDICTIONARYWDFLT
  5
1F
102
{ACAD_REACTORS
330
19
102
}
100
AcDbDictionary
281
         1
  3
Normal
350
1D
100
AcDbDictionaryWithDefault
340
1D
  0
ACDBPLACEHOLDER
  5
1D
102
{ACAD_REACTORS
330
1F
102
}
  0
LAYOUT
  5
20
102
{ACAD_REACTORS
330
1E
102
}
100
AcDbPlotSettings
  1

  2

  4

  6

 40
0.0
 41
0.0
 42
0.0
 43
0.0
 44
0.0
 45
0.0
 46
0.0
 47
0.0
 48
0.0
 49
0.0
140
0.0
141
0.0
142
1.0
143
1.0
 70
      1024
 72
         0
 73
         0
 74
         0
  7

 75
         0
147
1.0
148
0.0
149
0.0
100
AcDbLayout
  1
Model
 70
         0
 71
         0
 10
0.0
 20
0.0
 11
0.0
 21
0.0
 12
0.0
 22
0.0
 32
0.0
 14
0.0
 24
0.0
 34
0.0
 15
0.0
 25
0.0
 35
0.0
146
0.0
 13
0.0
 23
0.0
 33
0.0
 16
0.0
 26
0.0
 36
0.0
 17
0.0
 27
0.0
 37
0.0
 76
         0
330
A
331
0
345
0
346
0
  0
LAYOUT
  5
21
102
{ACAD_REACTORS
330
1E
102
}
100
AcDbPlotSettings
  1

  2

  4

  6

 40
0.0
 41
0.0
 42
0.0
 43
0.0
 44
0.0
 45
0.0
 46
0.0
 47
0.0
 48
0.0
 49
0.0
140
0.0
141
0.0
142
1.0
143
1.0
 70
         0
 72
         0
 73
         0
 74
         0
  7

 75
         0
147
1.0
148
0.0
149
0.0
100
AcDbLayout
  1
Layout1
 70
         0
 71
         0
 10
0.0
 20
0.0
 11
0.0
 21
0.0
 12
0.0
 22
0.0
 32
0.0
 14
0.0
 24
0.0
 34
0.0
 15
0.0
 25
0.0
 35
0.0
146
0.0
 13
0.0
 23
0.0
 33
0.0
 16
0.0
 26
0.0
 36
0.0
 17
0.0
 27
0.0
 37
0.0
 76
         0
330
B
331
0
345
0
346
0
  0
DICTIONARY
  5
1E
102
{ACAD_REACTORS
330
19
102
}
100
AcDbDictionary
280
         0
281
         1
  3
Layout1
350
21
  3
Model
350
20
  0
DICTIONARY
  5
22
102
{ACAD_REACTORS
330
19
102
}
100
AcDbDictionary
280
         0
281
         1
  0
WIPEOUTVARIABLES
  5
23
100
AcDbWipeoutVariables
 70
         1
  0
ENDSEC
  0
EOF
