  0
SECTION
  2
HEADER
  9
$ACADVER
  1
AC1015
  9
$ACADMAINTVER
 70
         6
  9
$DWGCODEPAGE
  3
ANSI_1252
  9
$INSBASE
 10
0.0
 20
0.0
 30
0.0
  9
$EXTMIN
 10
0.0
 20
0.0
 30
0.0
  9
$EXTMAX
 10
374.0
 20
242.0
 30
0.0
  9
$LIMMIN
 10
0.0
 20
0.0
  9
$LIMMAX
 10
0.0
 20
0.0
  9
$ORTHOMODE
 70
         0
  9
$REGENMODE
 70
         1
  9
$FILLMODE
 70
         1
  9
$QTEXTMODE
 70
         0
  9
$MIRRTEXT
 70
         1
  9
$LTSCALE
 40
1.0
  9
$ATTMODE
 70
         1
  9
$TEXTSIZE
 40
2.2
  9
$TRACEWID
 40
0.05
  9
$TEXTSTYLE
  7
Standard
  9
$CLAYER
  8
0
  9
$CELTYPE
  6
Continuous
  9
$CECOLOR
 62
       256
  9
$CELTSCALE
 40
1.0
  9
$DISPSILH
 70
         0
  9
$DIMSCALE
 40
1.0
  9
$DIMASZ
 40
0.0
  9
$DIMEXO
 40
0.0
  9
$DIMDLI
 40
0.38
  9
$DIMRND
 40
0.0
  9
$DIMDLE
 40
0.0
  9
$DIMEXE
 40
0.18
  9
$DIMTP
 40
0.0
  9
$DIMTM
 40
0.0
  9
$DIMTXT
 40
2.2
  9
$DIMCEN
 40
0.09
  9
$DIMTSZ
 40
0.0
  9
$DIMTOL
 70
         0
  9
$DIMLIM
 70
         0
  9
$DIMTIH
 70
         1
  9
$DIMTOH
 70
         1
  9
$DIMSE1
 70
         0
  9
$DIMSE2
 70
         0
  9
$DIMTAD
 70
         0
  9
$DIMZIN
 70
         0
  9
$DIMBLK
  1

  9
$DIMASO
 70
         1
  9
$DIMSHO
 70
         1
  9
$DIMPOST
  1

  9
$DIMAPOST
  1

  9
$DIMALT
 70
         0
  9
$DIMALTD
 70
         2
  9
$DIMALTF
 40
25.4
  9
$DIMLFAC
 40
1.0
  9
$DIMTOFL
 70
         0
  9
$DIMTVP
 40
0.0
  9
$DIMTIX
 70
         0
  9
$DIMSOXD
 70
         0
  9
$DIMSAH
 70
         0
  9
$DIMBLK1
  1

  9
$DIMBLK2
  1

  9
$DIMSTYLE
  2
Standard
  9
$DIMCLRD
 70
         0
  9
$DIMCLRE
 70
         0
  9
$DIMCLRT
 70
         0
  9
$DIMTFAC
 40
1.0
  9
$DIMGAP
 40
0.0
  9
$DIMJUST
 70
         0
  9
$DIMSD1
 70
         0
  9
$DIMSD2
 70
         0
  9
$DIMTOLJ
 70
         1
  9
$DIMTZIN
 70
         0
  9
$DIMALTZ
 70
         0
  9
$DIMALTTZ
 70
         0
  9
$DIMUPT
 70
         0
  9
$DIMDEC
 70
         4
  9
$DIMTDEC
 70
         4
  9
$DIMALTU
 70
         2
  9
$DIMALTTD
 70
         2
  9
$DIMTXSTY
  7
Standard
  9
$DIMAUNIT
 70
         0
  9
$DIMADEC
 70
         0
  9
$DIMALTRND
 40
0.0
  9
$DIMAZIN
 70
         0
  9
$DIMDSEP
 70
         0
  9
$DIMATFIT
 70
         3
  9
$DIMFRAC
 70
         0
  9
$DIMLDRBLK
  1

  9
$DIMLUNIT
 70
         2
  9
$DIMLWD
 70
         0
  9
$DIMLWE
 70
         0
  9
$DIMTMOVE
 70
         0
  9
$LUNITS
 70
         2
  9
$LUPREC
 70
         3
  9
$SKETCHINC
 40
0.1
  9
$FILLETRAD
 40
0.0
  9
$AUNITS
 70
         0
  9
$AUPREC
 70
         0
  9
$MENU
  1
acad
  9
$ELEVATION
 40
0.0
  9
$PELEVATION
 40
0.0
  9
$THICKNESS
 40
0.0
  9
$LIMCHECK
 70
         0
  9
$CHAMFERA
 40
0.0
  9
$CHAMFERB
 40
0.0
  9
$CHAMFERC
 40
0.0
  9
$CHAMFERD
 40
0.0
  9
$SKPOLY
 70
         0
  9
$TDCREATE
 40
0.000000000
  9
$TDUCREATE
 40
0.000000000
  9
$TDUPDATE
 40
0.000000000
  9
$TDUUPDATE
 40
0.000000000
  9
$TDINDWG
 40
0.0000000000
  9
$TDUSRTIMER
 40
0.0000000000
  9
$USRTIMER
 70
         1
  9
$ANGBASE
 50
0.0
  9
$ANGDIR
 70
         0
  9
$PDMODE
 70
         0
  9
$PDSIZE
 40
-1.0
  9
$PLINEWID
 40
0.0
  9
$SPLFRAME
 70
         0
  9
$SPLINETYPE
 70
         6
  9
$SPLINESEGS
 70
         8
  9
$HANDSEED
  5
3BC
  9
$SURFTAB1
 70
         6
  9
$SURFTAB2
 70
         6
  9
$SURFTYPE
 70
         6
  9
$SURFU
 70
         6
  9
$SURFV
 70
         6
  9
$UCSBASE
  2

  9
$UCSNAME
  2

  9
$UCSORG
 10
0.0
 20
0.0
 30
0.0
  9
$UCSXDIR
 10
1.0
 20
0.0
 30
0.0
  9
$UCSYDIR
 10
0.0
 20
1.0
 30
0.0
  9
$UCSORTHOREF
  2

  9
$UCSORTHOVIEW
 70
         0
  9
$UCSORGTOP
 10
0.0
 20
0.0
 30
0.0
  9
$UCSORGBOTTOM
 10
0.0
 20
0.0
 30
0.0
  9
$UCSORGLEFT
 10
0.0
 20
0.0
 30
0.0
  9
$UCSORGRIGHT
 10
0.0
 20
0.0
 30
0.0
  9
$UCSORGFRONT
 10
0.0
 20
0.0
 30
0.0
  9
$UCSORGBACK
 10
0.0
 20
0.0
 30
0.0
  9
$PUCSBASE
  2

  9
$PUCSNAME
  2

  9
$PUCSORG
 10
0.0
 20
0.0
 30
0.0
  9
$PUCSXDIR
 10
1.0
 20
0.0
 30
0.0
  9
$PUCSYDIR
 10
0.0
 20
1.0
 30
0.0
  9
$PUCSORTHOREF
  2

  9
$PUCSORTHOVIEW
 70
         0
  9
$PUCSORGTOP
 10
0.0
 20
0.0
 30
0.0
  9
$PUCSORGBOTTOM
 10
0.0
 20
0.0
 30
0.0
  9
$PUCSORGLEFT
 10
0.0
 20
0.0
 30
0.0
  9
$PUCSORGRIGHT
 10
0.0
 20
0.0
 30
0.0
  9
$PUCSORGFRONT
 10
0.0
 20
0.0
 30
0.0
  9
$PUCSORGBACK
 10
0.0
 20
0.0
 30
0.0
  9
$USERI1
 70
         0
  9
$USERI2
 70
         0
  9
$USERI3
 70
         0
  9
$USERI4
 70
         0
  9
$USERI5
 70
         0
  9
$USERR1
 40
0.0
  9
$USERR2
 40
0.0
  9
$USERR3
 40
0.0
  9
$USERR4
 40
0.0
  9
$USERR5
 40
0.0
  9
$WORLDVIEW
 70
         1
  9
$SHADEDGE
 70
         3
  9
$SHADEDIF
 70
        70
  9
$TILEMODE
 70
         1
  9
$MAXACTVP
 70
        16
  9
$PINSBASE
 10
0.0
 20
0.0
 30
0.0
  9
$PLIMCHECK
 70
         0
  9
$PEXTMIN
 10
1.0000000000E+20
 20
1.0000000000E+20
 30
1.0000000000E+20
  9
$PEXTMAX
 10
-1.0000000000E+20
 20
-1.0000000000E+20
 30
-1.0000000000E+20
  9
$PLIMMIN
 10
0.0
 20
0.0
  9
$PLIMMAX
 10
12.0
 20
9.0
  9
$UNITMODE
 70
         0
  9
$VISRETAIN
 70
         0
  9
$PLINEGEN
 70
         1
  9
$PSLTSCALE
 70
         1
  9
$TREEDEPTH
 70
      3020
  9
$CMLSTYLE
  2
Standard
  9
$CMLJUST
 70
         0
  9
$CMLSCALE
 40
1.0
  9
$PROXYGRAPHICS
 70
         0
  9
$MEASUREMENT
 70
         0
  9
$CELWEIGHT
370
         0
  9
$ENDCAPS
280
         0
  9
$JOINSTYLE
280
         0
  9
$LWDISPLAY
290
         1
  9
$INSUNITS
 70
         0
  9
$HYPERLINKBASE
  1

  9
$STYLESHEET
  1

  9
$XEDIT
290
         1
  9
$CEPSNTYPE
380
         0
  9
$PSTYLEMODE
290
         1
  9
$FINGERPRINTGUID
  2

  9
$VERSIONGUID
  2

  9
$EXTNAMES
290
         1
  9
$PSVPSCALE
 40
0.0
  0
ENDSEC
  0
SECTION
  2
CLASSES
  0
CLASS
  1
LWPOLYLINE
  2
AcDbPolyline
  3
AutoCAD 2000
 90
        0
280
         0
281
         1
  0
CLASS
  1
IMAGE
  2
AcDbRasterImage
  3
ISM
 90
      127
280
         0
281
         1
  0
CLASS
  1
OLE2FRAME
  2
AcDbOle2Frame
  3
AutoCAD 2000
 90
        0
280
         0
281
         1
  0
CLASS
  1
HATCH
  2
AcDbHatch
  3
AutoCAD 2000
 90
        0
280
         0
281
         1
  0
CLASS
  1
DICTIONARYVAR
  2
AcDbDictionaryVar
  3
AutoCAD 2000
 90
        0
280
         0
281
         0
  0
CLASS
  1
RASTERVARIABLES
  2
AcDbRasterVariables
  3
ISM
 90
        0
280
         0
281
         0
  0
CLASS
  1
IMAGEDEF
  2
AcDbRasterImageDef
  3
ISM
 90
        0
280
         0
281
         0
  0
CLASS
  1
IMAGEDEF_REACTOR
  2
AcDbRasterImageDefReactor
  3
ISM
 90
        1
280
         0
281
         0
  0
CLASS
  1
IDBUFFER
  2
AcDbIdBuffer
  3
AutoCAD 2000
 90
        0
280
         0
281
         0
  0
CLASS
  1
SPATIAL_FILTER
  2
AcDbSpatialFilter
  3
AutoCAD 2000
 90
        0
280
         0
281
         0
  0
CLASS
  1
XRECORD
  2
AcDbXrecord
  3
AutoCAD 2000
 90
        0
280
         0
281
         0
  0
CLASS
  1
SORTENTSTABLE
  2
AcDbSortentsTable
  3
AutoCAD 2000
 90
        0
280
         0
281
         0
  0
CLASS
  1
LAYER_INDEX
  2
AcDbLayerIndex
  3
AutoCAD 2000
 90
        0
280
         0
281
         0
  0
CLASS
  1
SPATIAL_INDEX
  2
AcDbSpatialIndex
  3
AutoCAD 2000
 90
        0
280
         0
281
         0
  0
CLASS
  1
OBJECT_PTR
  2
CAseDLPNTableRecord
  3
"ASE-LPNTableRecord"
 90
        1
280
         0
281
         0
  0
CLASS
  1
LAYOUT
  2
AcDbLayout
  3
AutoCAD 2000
 90
        0
280
         0
281
         0
  0
CLASS
  1
PLOTSETTINGS
  2
AcDbPlotSettings
  3
AutoCAD 2000
 90
        0
280
         0
281
         0
  0
CLASS
  1
ACDBDICTIONARYWDFLT
  2
AcDbDictionaryWithDefault
  3
AutoCAD 2000
 90
        0
280
         0
281
         0
  0
CLASS
  1
ACDBPLACEHOLDER
  2
AcDbPlaceHolder
  3
AutoCAD 2000
 90
        0
280
         0
281
         0
  0
CLASS
  1
VBA_PROJECT
  2
AcDbVbaProject
  3
acadvba
 90
        0
280
         0
281
         0
  0
CLASS
  1
WIPEOUT
  2
AcDbWipeout
  3
WipeOut|AutoCAD Express Tool|expresstools@autodesk.com
 90
      127
280
         0
281
         1
  0
CLASS
  1
WIPEOUTVARIABLES
  2
AcDbWipeoutVariables
  3
WipeOut|AutoCAD Express Tool|expresstools@autodesk.com
 90
        0
280
         0
281
         0
  0
CLASS
  1
RTEXT
  2
RText
  3
RText|AutoCAD Express Tool|expresstools@autodesk.com
 90
        0
280
         0
281
         1
  0
CLASS
  1
ARCALIGNEDTEXT
  2
AcDbArcAlignedText
  3
ATEXT|AutoCAD Express Tool|expresstools@autodesk.com
 90
        0
280
         0
281
         1
  0
ENDSEC
  0
SECTION
  2
TABLES
  0
TABLE
  2
VPORT
  5
7
100
AcDbSymbolTable
 70
         1
  0
VPORT
  5
15
100
AcDbSymbolTableRecord
100
AcDbViewportTableRecord
  2
*ACTIVE
 70
         0
 10
0.0
 20
0.0
 11
1.0
 21
1.0
 12
187.0
 22
121.0
 13
0.0
 23
0.0
 14
1.0
 24
1.0
 15
0.0
 25
0.0
 16
0.0
 26
0.0
 36
1.0
 17
0.0
 27
0.0
 37
0.0
 40
242.0
 41
0.6470588235
 42
50.0
 43
0.0
 44
0.0
 50
0.0
 51
0.0
 71
         0
 72
      2000
 73
         1
 74
         1
 75
         0
 76
         0
 77
         0
 78
         0
281
         0
 65
         0
110
0.0
120
0.0
130
0.0
111
1.0
121
0.0
131
0.0
112
0.0
122
1.0
132
0.0
345
0
346
0
 79
         0
146
0.0
  0
ENDTAB
  0
TABLE
  2
LTYPE
  5
4
100
AcDbSymbolTable
 70
         8
  0
LTYPE
  5
11
100
AcDbSymbolTableRecord
100
AcDbLinetypeTableRecord
  2
ByBlock
 70
        64
  3

 72
        65
 73
         0
 40
0.0
  0
LTYPE
  5
12
100
AcDbSymbolTableRecord
100
AcDbLinetypeTableRecord
  2
ByLayer
 70
        64
  3

 72
        65
 73
         0
 40
0.0
  0
LTYPE
  5
13
100
AcDbSymbolTableRecord
100
AcDbLinetypeTableRecord
  2
Continuous
 70
        64
  3
Solid line
 72
        65
 73
         0
 40
0.0
  0
LTYPE
  5
24
100
AcDbSymbolTableRecord
100
AcDbLinetypeTableRecord
  2
HIDDEN
 70
        64
  3
Hidden __ __ __ __ __ __ __ __ __ __ __ __ __ __
 72
        65
 73
         2
 40
0.075
 49
0.05
 74
         0
 49
-0.025
 74
         0
  0
LTYPE
  5
25
100
AcDbSymbolTableRecord
100
AcDbLinetypeTableRecord
  2
PHANTOM
 70
        64
  3
Phantom ______  __  __  ______  __  __  ______
 72
        65
 73
         6
 40
0.5
 49
0.25
 74
         0
 49
-0.05
 74
         0
 49
0.05
 74
         0
 49
-0.05
 74
         0
 49
0.05
 74
         0
 49
-0.05
 74
         0
  0
LTYPE
  5
26
100
AcDbSymbolTableRecord
100
AcDbLinetypeTableRecord
  2
CENTER
 70
        64
  3
Center ____ _ ____ _ ____ _ ____ _ ____ _ ____
 72
        65
 73
         4
 40
0.4
 49
0.25
 74
         0
 49
-0.05
 74
         0
 49
0.05
 74
         0
 49
-0.05
 74
         0
  0
LTYPE
  5
27
100
AcDbSymbolTableRecord
100
AcDbLinetypeTableRecord
  2
CENTERX2
 70
        64
  3
Center (2x) ________  __  ________  __  _____
 72
        65
 73
         4
 40
0.8
 49
0.5
 74
         0
 49
-0.1
 74
         0
 49
0.1
 74
         0
 49
-0.1
 74
         0
  0
LTYPE
  5
28
100
AcDbSymbolTableRecord
100
AcDbLinetypeTableRecord
  2
DOT2
 70
        64
  3
Dot (.5x) ........................................
 72
        65
 73
         2
 40
0.025
 49
0.0
 74
         0
 49
-0.025
 74
         0
  0
ENDTAB
  0
TABLE
  2
LAYER
  5
2
100
AcDbSymbolTable
 70
         1
  0
LAYER
  5
14
100
AcDbSymbolTableRecord
100
AcDbLayerTableRecord
  2
0
 70
         0
 62
         7
  6
Continuous
290
         1
370
        -3
390
1D
  0
ENDTAB
  0
TABLE
  2
STYLE
  5
3
100
AcDbSymbolTable
 70
         2
  0
STYLE
  5
17
100
AcDbSymbolTableRecord
100
AcDbTextStyleTableRecord
  2
Standard
 70
         0
 40
0.0
 41
1.0
 50
0.0
 71
         0
 42
0.0
  3
txt
  4

  0
STYLE
  5
75
100
AcDbSymbolTableRecord
100
AcDbTextStyleTableRecord
  2
SLDTEXTSTYLE0
 70
         0
 40
0.0
 41
0.75
 50
0.0
 71
         0
 42
0.0
  3
txt
  4

  0
ENDTAB
  0
TABLE
  2
VIEW
  5
5
100
AcDbSymbolTable
 70
         0
  0
ENDTAB
  0
TABLE
  2
UCS
  5
6
100
AcDbSymbolTable
 70
         0
  0
ENDTAB
  0
TABLE
  2
APPID
  5
8
100
AcDbSymbolTable
 70
         1
  0
APPID
  5
16
100
AcDbSymbolTableRecord
100
AcDbRegAppTableRecord
  2
ACAD
 70
         0
  0
ENDTAB
  0
TABLE
  2
DIMSTYLE
  5
9
100
AcDbSymbolTable
 70
         6
100
AcDbDimStyleTable
 71
         0
  0
DIMSTYLE
105
18
100
AcDbSymbolTableRecord
100
AcDbDimStyleTableRecord
  2
Standard
 70
         0
  3

  4

 40
1.0
 41
0.18
 42
0.0625
 43
0.38
 44
0.18
 45
0.0
 46
0.0
 47
0.0
 48
0.0
 71
         0
 72
         0
 73
         1
 74
         1
 75
         0
 76
         0
 77
         0
 78
         0
 79
         0
140
0.18
141
0.09
142
0.0
143
25.4
144
1.0
145
0.0
146
1.0
147
0.09
148
0.0
170
         0
171
         2
172
         0
173
         0
174
         0
175
         0
176
         0
177
         0
178
         0
179
         0
271
         4
272
         4
273
         2
274
         2
275
         0
276
         0
277
         2
278
        46
279
         0
280
         0
281
         0
282
         0
283
         1
284
         0
285
         0
286
         0
288
         0
289
         3
340
17
341
0
342
0
343
0
344
0
371
        -2
372
        -2
  0
DIMSTYLE
105
E2
100
AcDbSymbolTableRecord
100
AcDbDimStyleTableRecord
  2
SLDDIMSTYLE0
 70
         0
  3

  4

 40
1.0
 41
4.125
 42
0.0625
 43
0.38
 44
2.64
 45
0.0
 46
0.0
 47
0.0
 48
0.0
 71
         0
 72
         0
 73
         1
 74
         1
 75
         0
 76
         0
 77
         0
 78
        12
 79
         0
140
2.2
141
0.09
142
0.0
143
25.4
144
1.0
145
0.0
146
1.0
147
0.55
148
0.0
170
         0
171
         2
172
         1
173
         1
174
         0
175
         0
176
         7
177
         7
178
         7
179
         0
271
         3
272
         4
273
         2
274
         2
275
         0
276
         0
277
         2
278
        46
279
         0
280
         0
281
         0
282
         0
283
         1
284
        12
285
         0
286
         0
288
         0
289
         3
340
17
341
0
342
0
343
0
344
0
371
        -2
372
        -2
  0
DIMSTYLE
105
F0
100
AcDbSymbolTableRecord
100
AcDbDimStyleTableRecord
  2
SLDDIMSTYLE1
 70
         0
  3

  4

 40
1.0
 41
4.125
 42
0.0625
 43
0.38
 44
2.64
 45
0.0
 46
0.0
 47
0.0
 48
0.0
 71
         0
 72
         0
 73
         1
 74
         1
 75
         0
 76
         0
 77
         0
 78
        12
 79
         0
140
2.2
141
0.09
142
0.0
143
25.4
144
1.0
145
0.0
146
1.0
147
0.55
148
0.0
170
         0
171
         2
172
         0
173
         1
174
         0
175
         0
176
         7
177
         7
178
         7
179
         0
271
         0
272
         4
273
         2
274
         2
275
         0
276
         0
277
         2
278
        46
279
         0
280
         0
281
         0
282
         0
283
         1
284
        12
285
         0
286
         0
288
         0
289
         3
340
17
341
0
342
0
343
0
344
0
371
        -2
372
        -2
  0
DIMSTYLE
105
100
100
AcDbSymbolTableRecord
100
AcDbDimStyleTableRecord
  2
SLDDIMSTYLE2
 70
         0
  3

  4

 40
1.0
 41
4.125
 42
0.0625
 43
0.38
 44
2.64
 45
0.0
 46
0.0
 47
0.0
 48
0.0
 71
         0
 72
         0
 73
         1
 74
         1
 75
         0
 76
         0
 77
         0
 78
        12
 79
         0
140
2.2
141
0.09
142
0.0
143
25.4
144
1.0
145
0.0
146
1.0
147
0.55
148
0.0
170
         0
171
         2
172
         0
173
         1
174
         0
175
         0
176
         7
177
         7
178
         7
179
         0
271
         3
272
         4
273
         2
274
         2
275
         0
276
         0
277
         2
278
        46
279
         0
280
         0
281
         0
282
         0
283
         1
284
        12
285
         0
286
         0
288
         0
289
         3
340
17
341
0
342
0
343
0
344
0
371
        -2
372
        -2
  0
DIMSTYLE
105
16B
100
AcDbSymbolTableRecord
100
AcDbDimStyleTableRecord
  2
SLDDIMSTYLE3
 70
         0
  3

  4

 40
1.0
 41
4.125
 42
0.0625
 43
0.38
 44
2.64
 45
0.0
 46
0.0
 47
0.0
 48
0.0
 71
         0
 72
         0
 73
         1
 74
         1
 75
         0
 76
         0
 77
         0
 78
        12
 79
         0
140
2.2
141
0.09
142
0.0
143
25.4
144
1.0
145
0.0
146
1.0
147
0.55
148
0.0
170
         0
171
         2
172
         0
173
         1
174
         0
175
         0
176
         1
177
         1
178
         1
179
         0
271
         3
272
         4
273
         2
274
         2
275
         0
276
         0
277
         2
278
        46
279
         0
280
         0
281
         0
282
         0
283
         1
284
        12
285
         0
286
         0
288
         0
289
         3
340
17
341
0
342
0
343
0
344
0
371
        -2
372
        -2
  0
DIMSTYLE
105
1AF
100
AcDbSymbolTableRecord
100
AcDbDimStyleTableRecord
  2
SLDDIMSTYLE4
 70
         0
  3

  4

 40
1.0
 41
4.125
 42
0.0625
 43
0.38
 44
2.64
 45
0.0
 46
0.0
 47
0.0
 48
0.0
 71
         0
 72
         0
 73
         1
 74
         1
 75
         0
 76
         0
 77
         0
 78
        12
 79
         0
140
2.2
141
0.09
142
0.0
143
25.4
144
1.0
145
0.0
146
1.0
147
0.55
148
0.0
170
         0
171
         2
172
         0
173
         1
174
         0
175
         0
176
         1
177
         1
178
         1
179
         0
271
         3
272
         4
273
         2
274
         2
275
         0
276
         0
277
         2
278
        46
279
         0
280
         0
281
         0
282
         0
283
         1
284
        12
285
         0
286
         0
288
         0
289
         3
340
17
341
0
342
0
343
0
344
0
371
        -2
372
        -2
  0
ENDTAB
  0
TABLE
  2
BLOCK_RECORD
  5
1
100
AcDbSymbolTable
 70
        17
  0
BLOCK_RECORD
  5
A
100
AcDbSymbolTableRecord
100
AcDbBlockTableRecord
  2
*MODEL_SPACE
340
20
  0
BLOCK_RECORD
  5
B
100
AcDbSymbolTableRecord
100
AcDbBlockTableRecord
  2
*PAPER_SPACE
340
21
  0
BLOCK_RECORD
  5
A9
100
AcDbSymbolTableRecord
100
AcDbBlockTableRecord
  2
NOTE51
340
0
102
{BLKREFS
331
AF
102
}
  0
BLOCK_RECORD
  5
DB
100
AcDbSymbolTableRecord
100
AcDbBlockTableRecord
  2
*D1
340
0
  0
BLOCK_RECORD
  5
E7
100
AcDbSymbolTableRecord
100
AcDbBlockTableRecord
  2
*D2
340
0
  0
BLOCK_RECORD
  5
F7
100
AcDbSymbolTableRecord
100
AcDbBlockTableRecord
  2
*D3
340
0
  0
BLOCK_RECORD
  5
105
100
AcDbSymbolTableRecord
100
AcDbBlockTableRecord
  2
*D4
340
0
  0
BLOCK_RECORD
  5
112
100
AcDbSymbolTableRecord
100
AcDbBlockTableRecord
  2
*D5
340
0
  0
BLOCK_RECORD
  5
11F
100
AcDbSymbolTableRecord
100
AcDbBlockTableRecord
  2
*D6
340
0
  0
BLOCK_RECORD
  5
12E
100
AcDbSymbolTableRecord
100
AcDbBlockTableRecord
  2
*D7
340
0
  0
BLOCK_RECORD
  5
13C
100
AcDbSymbolTableRecord
100
AcDbBlockTableRecord
  2
*D8
340
0
  0
BLOCK_RECORD
  5
14A
100
AcDbSymbolTableRecord
100
AcDbBlockTableRecord
  2
*D9
340
0
  0
BLOCK_RECORD
  5
156
100
AcDbSymbolTableRecord
100
AcDbBlockTableRecord
  2
*D10
340
0
  0
BLOCK_RECORD
  5
163
100
AcDbSymbolTableRecord
100
AcDbBlockTableRecord
  2
*D11
340
0
  0
BLOCK_RECORD
  5
170
100
AcDbSymbolTableRecord
100
AcDbBlockTableRecord
  2
*D12
340
0
  0
BLOCK_RECORD
  5
17F
100
AcDbSymbolTableRecord
100
AcDbBlockTableRecord
  2
*D13
340
0
  0
BLOCK_RECORD
  5
18C
100
AcDbSymbolTableRecord
100
AcDbBlockTableRecord
  2
*D14
340
0
  0
BLOCK_RECORD
  5
199
100
AcDbSymbolTableRecord
100
AcDbBlockTableRecord
  2
*D15
340
0
  0
BLOCK_RECORD
  5
1A7
100
AcDbSymbolTableRecord
100
AcDbBlockTableRecord
  2
*D16
340
0
  0
ENDTAB
  0
ENDSEC
  0
SECTION
  2
BLOCKS
  0
BLOCK
  5
D
100
AcDbEntity
  8
0
390
0
100
AcDbBlockBegin
  2
*MODEL_SPACE
 70
         0
 10
0.0
 20
0.0
 30
0.0
  3
*MODEL_SPACE
  1

  0
ENDBLK
  5
E
100
AcDbEntity
  8
0
390
0
100
AcDbBlockEnd
  0
BLOCK
  5
F
100
AcDbEntity
 67
         1
  8
0
390
0
100
AcDbBlockBegin
  2
*PAPER_SPACE
 70
         0
 10
0.0
 20
0.0
 30
0.0
  3
*PAPER_SPACE
  1

  0
ENDBLK
  5
10
100
AcDbEntity
 67
         1
  8
0
390
0
100
AcDbBlockEnd
  0
BLOCK
  5
AA
100
AcDbEntity
  8
0
390
0
 62
         0
100
AcDbBlockBegin
  2
NOTE51
 70
         0
 10
0.0
 20
0.0
 30
0.0
  3
NOTE51
  1

  0
MTEXT
  5
AB
100
AcDbEntity
  8
0
390
0
 62
         7
100
AcDbMText
 10
0.0
 20
0.0
 30
0.0
 40
1.98
 41
0.0
 71
         1
 72
         1
  1
BREAK SHARP EDGES 0.010 RAD %%p 0.003
  7
SLDTEXTSTYLE0
 73
         1
 44
1.0
  0
MTEXT
  5
AC
100
AcDbEntity
  8
0
390
0
 62
         7
100
AcDbMText
 10
0.0
 20
-2.97
 30
0.0
 40
1.98
 41
0.0
 71
         1
 72
         1
  1
MACHINED SURF FINISH  
  7
SLDTEXTSTYLE0
 73
         1
 44
1.0
  0
MTEXT
  5
AD
100
AcDbEntity
  8
0
390
0
 62
         7
100
AcDbMText
 10
30.492
 20
-2.97
 30
0.0
 40
1.98
 41
0.0
 71
         1
 72
         1
  1
< 125 MICROINCH
  7
SLDTEXTSTYLE0
 73
         1
 44
1.0
  0
ENDBLK
  5
AE
100
AcDbEntity
  8
0
390
0
100
AcDbBlockEnd
  0
BLOCK
  5
DC
100
AcDbEntity
  8
0
390
0
 62
         7
100
AcDbBlockBegin
  2
*D1
 70
         1
 10
0.0
 20
0.0
 30
0.0
  3
*D1
  1

  0
MTEXT
  5
DD
100
AcDbEntity
  8
0
390
0
 62
         7
100
AcDbMText
 10
132.4151057796
 20
214.1909590453
 30
0.0
 40
2.2
 41
0.0
 71
         7
 72
         1
  1
%%c
  7
SLDTEXTSTYLE0
 73
         1
 44
1.0
  0
MTEXT
  5
DE
100
AcDbEntity
  8
0
390
0
 62
         7
100
AcDbMText
 10
136.1723238928
 20
214.1909590453
 30
0.0
 40
2.2
 41
0.0
 71
         7
 72
         1
  1
60"
  7
SLDTEXTSTYLE0
 73
         1
 44
1.0
  0
LINE
  5
DF
100
AcDbEntity
  8
0
390
0
 62
         7
100
AcDbLine
 10
156.1906340001
 20
183.5336840889
 30
0.0
 11
147.4487393645
 21
215.1801018755
 31
0.0
  0
LINE
  5
E0
100
AcDbEntity
  8
0
390
0
 62
         7
100
AcDbLine
 10
147.4487393645
 20
215.1801018755
 30
0.0
 11
141.9487393645
 21
215.1801018755
 31
0.0
  0
SOLID
  5
E1
100
AcDbEntity
  8
0
390
0
 62
         7
100
AcDbTrace
 10
156.1906340001
 20
183.5336840889
 30
0.0
 11
155.7549748665
 21
187.6928285165
 31
0.0
 12
154.4296123026
 22
187.3267150446
 32
0.0
 13
154.4296123026
 23
187.3267150446
 33
0.0
  0
POINT
  5
E3
100
AcDbEntity
  8
0
390
0
 62
         7
100
AcDbPoint
 10
156.1906340001
 20
183.5336840889
 30
0.0
  0
POINT
  5
E4
100
AcDbEntity
  8
0
390
0
 62
         7
100
AcDbPoint
 10
172.1664945898
 20
125.6996813015
 30
0.0
  0
ENDBLK
  5
E5
100
AcDbEntity
  8
0
390
0
100
AcDbBlockEnd
  0
BLOCK
  5
E8
100
AcDbEntity
  8
0
390
0
 62
         7
100
AcDbBlockBegin
  2
*D2
 70
         1
 10
0.0
 20
0.0
 30
0.0
  3
*D2
  1

  0
MTEXT
  5
E9
100
AcDbEntity
  8
0
390
0
 62
         7
100
AcDbMText
 10
237.8846199535
 20
130.5319530917
 30
0.0
 40
2.2
 41
0.0
 71
         7
 72
         1
  1
45%%d
  7
SLDTEXTSTYLE0
 73
         1
 44
1.0
  0
MTEXT
  5
EA
100
AcDbEntity
  8
0
390
0
 62
         7
100
AcDbMText
 10
233.9385193875
 20
126.3536674313
 30
0.0
 40
2.2
 41
0.0
 71
         7
 72
         1
  1
4 PLACES
  7
SLDTEXTSTYLE0
 73
         1
 44
1.0
  0
LINE
  5
EB
100
AcDbEntity
  8
0
390
0
 62
         7
100
AcDbLine
 10
216.3008182624
 20
120.0319366627
 30
0.0
 11
236.2737283121
 21
140.0048467123
 31
0.0
  0
ARC
  5
EC
100
AcDbEntity
  8
0
390
0
 62
         7
100
AcDbCircle
 10
215.678564295
 20
119.4096826952
 30
0.0
 40
26.4859602722
100
AcDbArc
 50
45.0
 51
90.0
  0
ARC
  5
ED
100
AcDbEntity
  8
0
390
0
 62
         7
100
AcDbCircle
 10
215.678564295
 20
119.4096826952
 30
0.0
 40
26.4859602722
100
AcDbArc
 50
32.4222131831
 51
45.0
  0
SOLID
  5
EE
100
AcDbEntity
  8
0
390
0
 62
         7
100
AcDbTrace
 10
234.4069664097
 20
138.13808481
 30
0.0
 11
231.7209165526
 21
141.343302028
 31
0.0
 12
230.8265785282
 22
140.2988957382
 32
0.0
 13
230.8265785282
 23
140.2988957382
 33
0.0
  0
SOLID
  5
EF
100
AcDbEntity
  8
0
390
0
 62
         7
100
AcDbTrace
 10
215.678564295
 20
145.8956429675
 30
0.0
 11
219.7382049055
 21
144.8918504774
 31
0.0
 12
219.8443191936
 22
146.2627497289
 32
0.0
 13
219.8443191936
 23
146.2627497289
 33
0.0
  0
POINT
  5
F1
100
AcDbEntity
  8
0
390
0
 62
         7
100
AcDbPoint
 10
199.385564295
 20
103.1166826952
 30
0.0
  0
POINT
  5
F2
100
AcDbEntity
  8
0
390
0
 62
         7
100
AcDbPoint
 10
215.678564295
 20
119.4096826952
 30
0.0
  0
POINT
  5
F3
100
AcDbEntity
  8
0
390
0
 62
         7
100
AcDbPoint
 10
215.678564295
 20
189.8236826952
 30
0.0
  0
POINT
  5
F4
100
AcDbEntity
  8
0
390
0
 62
         7
100
AcDbPoint
 10
215.678564295
 20
119.4096826952
 30
0.0
  0
ENDBLK
  5
F5
100
AcDbEntity
  8
0
390
0
100
AcDbBlockEnd
  0
BLOCK
  5
F8
100
AcDbEntity
  8
0
390
0
 62
         7
100
AcDbBlockBegin
  2
*D3
 70
         1
 10
0.0
 20
0.0
 30
0.0
  3
*D3
  1

  0
MTEXT
  5
F9
100
AcDbEntity
  8
0
390
0
 62
         7
100
AcDbMText
 10
226.904404094
 20
84.9968785776
 30
0.0
 40
2.2
 41
0.0
 71
         7
 72
         1
  1
16 9/32"
  7
SLDTEXTSTYLE0
 73
         1
 44
1.0
  0
LINE
  5
FA
100
AcDbEntity
  8
0
390
0
 62
         7
100
AcDbLine
 10
199.385564295
 20
102.2366826952
 30
0.0
 11
199.385564295
 21
83.3460214078
 31
0.0
  0
LINE
  5
FB
100
AcDbEntity
  8
0
390
0
 62
         7
100
AcDbLine
 10
215.678564295
 20
118.5296826952
 30
0.0
 11
215.678564295
 21
83.3460214078
 31
0.0
  0
LINE
  5
FC
100
AcDbEntity
  8
0
390
0
 62
         7
100
AcDbLine
 10
199.385564295
 20
85.9860214078
 30
0.0
 11
215.678564295
 21
85.9860214078
 31
0.0
  0
LINE
  5
FD
100
AcDbEntity
  8
0
390
0
 62
         7
100
AcDbLine
 10
215.678564295
 20
85.9860214078
 30
0.0
 11
225.529404094
 21
85.9860214078
 31
0.0
  0
SOLID
  5
FE
100
AcDbEntity
  8
0
390
0
 62
         7
100
AcDbTrace
 10
199.385564295
 20
85.9860214078
 30
0.0
 11
203.510564295
 21
85.2985214078
 31
0.0
 12
203.510564295
 22
86.6735214078
 32
0.0
 13
203.510564295
 23
86.6735214078
 33
0.0
  0
SOLID
  5
FF
100
AcDbEntity
  8
0
390
0
 62
         7
100
AcDbTrace
 10
215.678564295
 20
85.9860214078
 30
0.0
 11
211.553564295
 21
86.6735214078
 31
0.0
 12
211.553564295
 22
85.2985214078
 32
0.0
 13
211.553564295
 23
85.2985214078
 33
0.0
  0
POINT
  5
101
100
AcDbEntity
  8
0
390
0
 62
         7
100
AcDbPoint
 10
199.385564295
 20
103.1166826952
 30
0.0
  0
POINT
  5
102
100
AcDbEntity
  8
0
390
0
 62
         7
100
AcDbPoint
 10
215.678564295
 20
119.4096826952
 30
0.0
  0
ENDBLK
  5
103
100
AcDbEntity
  8
0
390
0
 62
         7
100
AcDbBlockEnd
  0
BLOCK
  5
106
100
AcDbEntity
  8
0
390
0
 62
         7
100
AcDbBlockBegin
  2
*D4
 70
         1
 10
0.0
 20
0.0
 30
0.0
  3
*D4
  1

  0
MTEXT
  5
107
100
AcDbEntity
  8
0
390
0
 62
         7
100
AcDbMText
 10
185.1960529742
 20
66.4282891773
 30
0.0
 40
2.2
 41
0.0
 71
         7
 72
         1
  1
51 1/2"
  7
SLDTEXTSTYLE0
 73
         1
 44
1.0
  0
LINE
  5
108
100
AcDbEntity
  8
0
390
0
 62
         7
100
AcDbLine
 10
164.178564295
 20
153.7366826952
 30
0.0
 11
164.178564295
 21
64.7774320075
 31
0.0
  0
LINE
  5
109
100
AcDbEntity
  8
0
390
0
 62
         7
100
AcDbLine
 10
215.678564295
 20
118.5296826952
 30
0.0
 11
215.678564295
 21
64.7774320075
 31
0.0
  0
LINE
  5
10A
100
AcDbEntity
  8
0
390
0
 62
         7
100
AcDbLine
 10
164.178564295
 20
67.4174320075
 30
0.0
 11
183.8210529742
 21
67.4174320075
 31
0.0
  0
LINE
  5
10B
100
AcDbEntity
  8
0
390
0
 62
         7
100
AcDbLine
 10
215.678564295
 20
67.4174320075
 30
0.0
 11
196.0360756157
 21
67.4174320075
 31
0.0
  0
SOLID
  5
10C
100
AcDbEntity
  8
0
390
0
 62
         7
100
AcDbTrace
 10
164.178564295
 20
67.4174320075
 30
0.0
 11
168.303564295
 21
66.7299320075
 31
0.0
 12
168.303564295
 22
68.1049320075
 32
0.0
 13
168.303564295
 23
68.1049320075
 33
0.0
  0
SOLID
  5
10D
100
AcDbEntity
  8
0
390
0
 62
         7
100
AcDbTrace
 10
215.678564295
 20
67.4174320075
 30
0.0
 11
211.553564295
 21
68.1049320075
 31
0.0
 12
211.553564295
 22
66.7299320075
 32
0.0
 13
211.553564295
 23
66.7299320075
 33
0.0
  0
POINT
  5
10E
100
AcDbEntity
  8
0
390
0
 62
         7
100
AcDbPoint
 10
164.178564295
 20
154.6166826952
 30
0.0
  0
POINT
  5
10F
100
AcDbEntity
  8
0
390
0
 62
         7
100
AcDbPoint
 10
215.678564295
 20
119.4096826952
 30
0.0
  0
ENDBLK
  5
110
100
AcDbEntity
  8
0
390
0
 62
         7
100
AcDbBlockEnd
  0
BLOCK
  5
113
100
AcDbEntity
  8
0
390
0
 62
         7
100
AcDbBlockBegin
  2
*D5
 70
         1
 10
0.0
 20
0.0
 30
0.0
  3
*D5
  1

  0
MTEXT
  5
114
100
AcDbEntity
  8
0
390
0
 62
         7
100
AcDbMText
 10
161.4272297667
 20
57.5804476529
 30
0.0
 40
2.2
 41
0.0
 71
         7
 72
         1
  1
103"
  7
SLDTEXTSTYLE0
 73
         1
 44
1.0
  0
LINE
  5
115
100
AcDbEntity
  8
0
390
0
 62
         7
100
AcDbLine
 10
215.678564295
 20
118.5296826952
 30
0.0
 11
215.678564295
 21
55.9295904831
 31
0.0
  0
LINE
  5
116
100
AcDbEntity
  8
0
390
0
 62
         7
100
AcDbLine
 10
112.678564295
 20
118.5296826952
 30
0.0
 11
112.678564295
 21
55.9295904831
 31
0.0
  0
LINE
  5
117
100
AcDbEntity
  8
0
390
0
 62
         7
100
AcDbLine
 10
215.678564295
 20
58.5695904831
 30
0.0
 11
168.3048988233
 21
58.5695904831
 31
0.0
  0
LINE
  5
118
100
AcDbEntity
  8
0
390
0
 62
         7
100
AcDbLine
 10
112.678564295
 20
58.5695904831
 30
0.0
 11
160.0522297667
 21
58.5695904831
 31
0.0
  0
SOLID
  5
119
100
AcDbEntity
  8
0
390
0
 62
         7
100
AcDbTrace
 10
215.678564295
 20
58.5695904831
 30
0.0
 11
211.553564295
 21
59.2570904831
 31
0.0
 12
211.553564295
 22
57.8820904831
 32
0.0
 13
211.553564295
 23
57.8820904831
 33
0.0
  0
SOLID
  5
11A
100
AcDbEntity
  8
0
390
0
 62
         7
100
AcDbTrace
 10
112.678564295
 20
58.5695904831
 30
0.0
 11
116.803564295
 21
57.8820904831
 31
0.0
 12
116.803564295
 22
59.2570904831
 32
0.0
 13
116.803564295
 23
59.2570904831
 33
0.0
  0
POINT
  5
11B
100
AcDbEntity
  8
0
390
0
 62
         7
100
AcDbPoint
 10
215.678564295
 20
119.4096826952
 30
0.0
  0
POINT
  5
11C
100
AcDbEntity
  8
0
390
0
 62
         7
100
AcDbPoint
 10
112.678564295
 20
119.4096826952
 30
0.0
  0
ENDBLK
  5
11D
100
AcDbEntity
  8
0
390
0
 62
         7
100
AcDbBlockEnd
  0
BLOCK
  5
120
100
AcDbEntity
  8
0
390
0
 62
         7
100
AcDbBlockBegin
  2
*D6
 70
         1
 10
0.0
 20
0.0
 30
0.0
  3
*D6
  1

  0
MTEXT
  5
121
100
AcDbEntity
  8
0
390
0
 62
         7
100
AcDbMText
 10
244.3497465545
 20
95.6089890334
 30
0.0
 40
2.2
 41
0.0
 71
         7
 72
         1
  1
7 3/4"
  7
SLDTEXTSTYLE0
 73
         1
 44
1.0
  0
MTEXT
  5
122
100
AcDbEntity
  8
0
390
0
 62
         7
100
AcDbMText
 10
242.714119196
 20
91.430703373
 30
0.0
 40
2.2
 41
0.0
 71
         7
 72
         1
  1
2 PLACES
  7
SLDTEXTSTYLE0
 73
         1
 44
1.0
  0
LINE
  5
123
100
AcDbEntity
  8
0
390
0
 62
         7
100
AcDbLine
 10
196.621064295
 20
110.8666826952
 30
0.0
 11
240.885369196
 21
110.8666826952
 31
0.0
  0
LINE
  5
124
100
AcDbEntity
  8
0
390
0
 62
         7
100
AcDbLine
 10
188.058064295
 20
103.1166826952
 30
0.0
 11
240.885369196
 21
103.1166826952
 31
0.0
  0
LINE
  5
125
100
AcDbEntity
  8
0
390
0
 62
         7
100
AcDbLine
 10
240.995369196
 20
94.5089890334
 30
0.0
 11
238.245369196
 21
94.5089890334
 31
0.0
  0
LINE
  5
126
100
AcDbEntity
  8
0
390
0
 62
         7
100
AcDbLine
 10
238.245369196
 20
94.5089890334
 30
0.0
 11
238.245369196
 21
103.1166826952
 31
0.0
  0
LINE
  5
127
100
AcDbEntity
  8
0
390
0
 62
         7
100
AcDbLine
 10
238.245369196
 20
110.8666826952
 30
0.0
 11
238.245369196
 21
121.8666826952
 31
0.0
  0
SOLID
  5
128
100
AcDbEntity
  8
0
390
0
 62
         7
100
AcDbTrace
 10
238.245369196
 20
110.8666826952
 30
0.0
 11
238.932869196
 21
114.9916826952
 31
0.0
 12
237.557869196
 22
114.9916826952
 32
0.0
 13
237.557869196
 23
114.9916826952
 33
0.0
  0
SOLID
  5
129
100
AcDbEntity
  8
0
390
0
 62
         7
100
AcDbTrace
 10
238.245369196
 20
103.1166826952
 30
0.0
 11
237.557869196
 21
98.9916826952
 31
0.0
 12
238.932869196
 22
98.9916826952
 32
0.0
 13
238.932869196
 23
98.9916826952
 33
0.0
  0
POINT
  5
12A
100
AcDbEntity
  8
0
390
0
 62
         7
100
AcDbPoint
 10
195.741064295
 20
110.8666826952
 30
0.0
  0
POINT
  5
12B
100
AcDbEntity
  8
0
390
0
 62
         7
100
AcDbPoint
 10
187.178064295
 20
103.1166826952
 30
0.0
  0
ENDBLK
  5
12C
100
AcDbEntity
  8
0
390
0
 62
         7
100
AcDbBlockEnd
  0
BLOCK
  5
12F
100
AcDbEntity
  8
0
390
0
 62
         7
100
AcDbBlockBegin
  2
*D7
 70
         1
 10
0.0
 20
0.0
 30
0.0
  3
*D7
  1

  0
MTEXT
  5
130
100
AcDbEntity
  8
0
390
0
 62
         7
100
AcDbMText
 10
226.0248037312
 20
76.9757590383
 30
0.0
 40
2.2
 41
0.0
 71
         7
 72
         1
  1
9 1/16"
  7
SLDTEXTSTYLE0
 73
         1
 44
1.0
  0
MTEXT
  5
131
100
AcDbEntity
  8
0
390
0
 62
         7
100
AcDbMText
 10
224.61050675
 20
72.7974733779
 30
0.0
 40
2.2
 41
0.0
 71
         7
 72
         1
  1
2 PLACES
  7
SLDTEXTSTYLE0
 73
         1
 44
1.0
  0
LINE
  5
132
100
AcDbEntity
  8
0
390
0
 62
         7
100
AcDbLine
 10
187.178064295
 20
102.2366826952
 30
0.0
 11
187.178064295
 21
73.2357590383
 31
0.0
  0
LINE
  5
133
100
AcDbEntity
  8
0
390
0
 62
         7
100
AcDbLine
 10
196.241064295
 20
102.2366826952
 30
0.0
 11
196.241064295
 21
73.2357590383
 31
0.0
  0
LINE
  5
134
100
AcDbEntity
  8
0
390
0
 62
         7
100
AcDbLine
 10
187.178064295
 20
75.8757590383
 30
0.0
 11
176.178064295
 21
75.8757590383
 31
0.0
  0
LINE
  5
135
100
AcDbEntity
  8
0
390
0
 62
         7
100
AcDbLine
 10
196.241064295
 20
75.8757590383
 30
0.0
 11
222.89175675
 21
75.8757590383
 31
0.0
  0
SOLID
  5
136
100
AcDbEntity
  8
0
390
0
 62
         7
100
AcDbTrace
 10
187.178064295
 20
75.8757590383
 30
0.0
 11
183.053064295
 21
76.5632590383
 31
0.0
 12
183.053064295
 22
75.1882590383
 32
0.0
 13
183.053064295
 23
75.1882590383
 33
0.0
  0
SOLID
  5
137
100
AcDbEntity
  8
0
390
0
 62
         7
100
AcDbTrace
 10
196.241064295
 20
75.8757590383
 30
0.0
 11
200.366064295
 21
75.1882590383
 31
0.0
 12
200.366064295
 22
76.5632590383
 32
0.0
 13
200.366064295
 23
76.5632590383
 33
0.0
  0
POINT
  5
138
100
AcDbEntity
  8
0
390
0
 62
         7
100
AcDbPoint
 10
187.178064295
 20
103.1166826952
 30
0.0
  0
POINT
  5
139
100
AcDbEntity
  8
0
390
0
 62
         7
100
AcDbPoint
 10
196.241064295
 20
103.1166826952
 30
0.0
  0
ENDBLK
  5
13A
100
AcDbEntity
  8
0
390
0
 62
         7
100
AcDbBlockEnd
  0
BLOCK
  5
13D
100
AcDbEntity
  8
0
390
0
 62
         7
100
AcDbBlockBegin
  2
*D8
 70
         1
 10
0.0
 20
0.0
 30
0.0
  3
*D8
  1

  0
MTEXT
  5
13E
100
AcDbEntity
  8
0
390
0
 62
         7
100
AcDbMText
 10
86.5431464407
 20
180.5231082363
 30
0.0
 40
2.2
 41
0.0
 71
         7
 72
         1
  1
18 1/16"
  7
SLDTEXTSTYLE0
 73
         1
 44
1.0
  0
LINE
  5
13F
100
AcDbEntity
  8
0
390
0
 62
         7
100
AcDbLine
 10
111.798564295
 20
163.6796826952
 30
0.0
 11
98.5944226671
 21
163.6796826952
 31
0.0
  0
LINE
  5
140
100
AcDbEntity
  8
0
390
0
 62
         7
100
AcDbLine
 10
111.798564295
 20
145.6166826952
 30
0.0
 11
98.5944226671
 21
145.6166826952
 31
0.0
  0
LINE
  5
141
100
AcDbEntity
  8
0
390
0
 62
         7
100
AcDbLine
 10
98.4844226671
 20
181.5122510665
 30
0.0
 11
101.2344226671
 21
181.5122510665
 31
0.0
  0
LINE
  5
142
100
AcDbEntity
  8
0
390
0
 62
         7
100
AcDbLine
 10
101.2344226671
 20
181.5122510665
 30
0.0
 11
101.2344226671
 21
163.6796826952
 31
0.0
  0
LINE
  5
143
100
AcDbEntity
  8
0
390
0
 62
         7
100
AcDbLine
 10
101.2344226671
 20
163.6796826952
 30
0.0
 11
101.2344226671
 21
145.6166826952
 31
0.0
  0
SOLID
  5
144
100
AcDbEntity
  8
0
390
0
 62
         7
100
AcDbTrace
 10
101.2344226671
 20
163.6796826952
 30
0.0
 11
100.5469226671
 21
159.5546826952
 31
0.0
 12
101.9219226671
 22
159.5546826952
 32
0.0
 13
101.9219226671
 23
159.5546826952
 33
0.0
  0
SOLID
  5
145
100
AcDbEntity
  8
0
390
0
 62
         7
100
AcDbTrace
 10
101.2344226671
 20
145.6166826952
 30
0.0
 11
101.9219226671
 21
149.7416826952
 31
0.0
 12
100.5469226671
 22
149.7416826952
 32
0.0
 13
100.5469226671
 23
149.7416826952
 33
0.0
  0
POINT
  5
146
100
AcDbEntity
  8
0
390
0
 62
         7
100
AcDbPoint
 10
112.678564295
 20
163.6796826952
 30
0.0
  0
POINT
  5
147
100
AcDbEntity
  8
0
390
0
 62
         7
100
AcDbPoint
 10
112.678564295
 20
145.6166826952
 30
0.0
  0
ENDBLK
  5
148
100
AcDbEntity
  8
0
390
0
 62
         7
100
AcDbBlockEnd
  0
BLOCK
  5
14B
100
AcDbEntity
  8
0
390
0
 62
         7
100
AcDbBlockBegin
  2
*D9
 70
         1
 10
0.0
 20
0.0
 30
0.0
  3
*D9
  1

  0
MTEXT
  5
14C
100
AcDbEntity
  8
0
390
0
 62
         7
100
AcDbMText
 10
92.7561258893
 20
125.8631174015
 30
0.0
 40
2.2
 41
0.0
 71
         7
 72
         1
  1
4"
  7
SLDTEXTSTYLE0
 73
         1
 44
1.0
  0
LINE
  5
14D
100
AcDbEntity
  8
0
390
0
 62
         7
100
AcDbLine
 10
116.678564295
 20
145.7366826952
 30
0.0
 11
116.678564295
 21
124.2122602317
 31
0.0
  0
LINE
  5
14E
100
AcDbEntity
  8
0
390
0
 62
         7
100
AcDbLine
 10
116.678564295
 20
126.8522602317
 30
0.0
 11
127.678564295
 21
126.8522602317
 31
0.0
  0
LINE
  5
14F
100
AcDbEntity
  8
0
390
0
 62
         7
100
AcDbLine
 10
112.678564295
 20
126.8522602317
 30
0.0
 11
97.2117568327
 21
126.8522602317
 31
0.0
  0
SOLID
  5
150
100
AcDbEntity
  8
0
390
0
 62
         7
100
AcDbTrace
 10
116.678564295
 20
126.8522602317
 30
0.0
 11
120.803564295
 21
126.1647602317
 31
0.0
 12
120.803564295
 22
127.5397602317
 32
0.0
 13
120.803564295
 23
127.5397602317
 33
0.0
  0
SOLID
  5
151
100
AcDbEntity
  8
0
390
0
 62
         7
100
AcDbTrace
 10
112.678564295
 20
126.8522602317
 30
0.0
 11
108.553564295
 21
127.5397602317
 31
0.0
 12
108.553564295
 22
126.1647602317
 32
0.0
 13
108.553564295
 23
126.1647602317
 33
0.0
  0
POINT
  5
152
100
AcDbEntity
  8
0
390
0
 62
         7
100
AcDbPoint
 10
116.678564295
 20
146.6166826952
 30
0.0
  0
POINT
  5
153
100
AcDbEntity
  8
0
390
0
 62
         7
100
AcDbPoint
 10
112.678564295
 20
119.4096826952
 30
0.0
  0
ENDBLK
  5
154
100
AcDbEntity
  8
0
390
0
 62
         7
100
AcDbBlockEnd
  0
BLOCK
  5
157
100
AcDbEntity
  8
0
390
0
 62
         7
100
AcDbBlockBegin
  2
*D10
 70
         1
 10
0.0
 20
0.0
 30
0.0
  3
*D10
  1

  0
MTEXT
  5
158
100
AcDbEntity
  8
0
390
0
 62
         7
100
AcDbMText
 10
47.4916843396
 20
153.627539865
 30
0.0
 40
2.2
 41
0.0
 71
         7
 72
         1
  1
103"
  7
SLDTEXTSTYLE0
 73
         1
 44
1.0
  0
LINE
  5
159
100
AcDbEntity
  8
0
390
0
 62
         7
100
AcDbLine
 10
128.091564295
 20
206.1166826952
 30
0.0
 11
47.6030188679
 21
206.1166826952
 31
0.0
  0
LINE
  5
15A
100
AcDbEntity
  8
0
390
0
 62
         7
100
AcDbLine
 10
128.091564295
 20
103.1166826952
 30
0.0
 11
47.6030188679
 21
103.1166826952
 31
0.0
  0
LINE
  5
15B
100
AcDbEntity
  8
0
390
0
 62
         7
100
AcDbLine
 10
50.2430188679
 20
206.1166826952
 30
0.0
 11
50.2430188679
 21
156.7058255254
 31
0.0
  0
LINE
  5
15C
100
AcDbEntity
  8
0
390
0
 62
         7
100
AcDbLine
 10
50.2430188679
 20
103.1166826952
 30
0.0
 11
50.2430188679
 21
152.527539865
 31
0.0
  0
SOLID
  5
15D
100
AcDbEntity
  8
0
390
0
 62
         7
100
AcDbTrace
 10
50.2430188679
 20
206.1166826952
 30
0.0
 11
49.5555188679
 21
201.9916826952
 31
0.0
 12
50.9305188679
 22
201.9916826952
 32
0.0
 13
50.9305188679
 23
201.9916826952
 33
0.0
  0
SOLID
  5
15E
100
AcDbEntity
  8
0
390
0
 62
         7
100
AcDbTrace
 10
50.2430188679
 20
103.1166826952
 30
0.0
 11
50.9305188679
 21
107.2416826952
 31
0.0
 12
49.5555188679
 22
107.2416826952
 32
0.0
 13
49.5555188679
 23
107.2416826952
 33
0.0
  0
POINT
  5
15F
100
AcDbEntity
  8
0
390
0
 62
         7
100
AcDbPoint
 10
128.971564295
 20
206.1166826952
 30
0.0
  0
POINT
  5
160
100
AcDbEntity
  8
0
390
0
 62
         7
100
AcDbPoint
 10
128.971564295
 20
103.1166826952
 30
0.0
  0
ENDBLK
  5
161
100
AcDbEntity
  8
0
390
0
 62
         7
100
AcDbBlockEnd
  0
BLOCK
  5
164
100
AcDbEntity
  8
0
390
0
 62
         1
100
AcDbBlockBegin
  2
*D11
 70
         1
 10
0.0
 20
0.0
 30
0.0
  3
*D11
  1

  0
MTEXT
  5
165
100
AcDbEntity
  8
0
390
0
 62
         7
100
AcDbMText
 10
167.5164438345
 20
215.2881406228
 30
0.0
 40
2.2
 41
0.0
 71
         7
 72
         1
  1
RAD 
  7
SLDTEXTSTYLE0
 73
         1
 44
1.0
  0
MTEXT
  5
166
100
AcDbEntity
  8
0
390
0
 62
         7
100
AcDbMText
 10
174.3362985515
 20
215.2881406228
 30
0.0
 40
2.2
 41
0.0
 71
         7
 72
         1
  1
1/2"
  7
SLDTEXTSTYLE0
 73
         1
 44
1.0
  0
MTEXT
  5
167
100
AcDbEntity
  8
0
390
0
 62
         7
100
AcDbMText
 10
167.4211319477
 20
211.1098549625
 30
0.0
 40
2.2
 41
0.0
 71
         7
 72
         1
  1
4 PLACES
  7
SLDTEXTSTYLE0
 73
         1
 44
1.0
  0
LINE
  5
168
100
AcDbEntity
  8
0
390
0
 62
         7
100
AcDbLine
 10
195.9855397257
 20
198.4305270306
 30
0.0
 11
187.1530294949
 21
214.1881406228
 31
0.0
  0
LINE
  5
169
100
AcDbEntity
  8
0
390
0
 62
         7
100
AcDbLine
 10
187.1530294949
 20
214.1881406228
 30
0.0
 11
181.6530294949
 21
214.1881406228
 31
0.0
  0
SOLID
  5
16A
100
AcDbEntity
  8
0
390
0
 62
         7
100
AcDbTrace
 10
195.9855397257
 20
198.4305270306
 30
0.0
 11
194.5683314612
 21
202.3649649809
 31
0.0
 12
193.3689033835
 22
201.6926575465
 32
0.0
 13
193.3689033835
 23
201.6926575465
 33
0.0
  0
POINT
  5
16C
100
AcDbEntity
  8
0
390
0
 62
         7
100
AcDbPoint
 10
195.9855397257
 20
198.4305270306
 30
0.0
  0
POINT
  5
16D
100
AcDbEntity
  8
0
390
0
 62
         7
100
AcDbPoint
 10
195.741064295
 20
198.8666826952
 30
0.0
  0
ENDBLK
  5
16E
100
AcDbEntity
  8
0
390
0
100
AcDbBlockEnd
  0
BLOCK
  5
171
100
AcDbEntity
  8
0
390
0
 62
         1
100
AcDbBlockBegin
  2
*D12
 70
         1
 10
0.0
 20
0.0
 30
0.0
  3
*D12
  1

  0
MTEXT
  5
172
100
AcDbEntity
  8
0
390
0
100
AcDbMText
 10
212.801753241
 20
207.972928811
 30
0.0
 40
2.2
 41
0.0
 71
         7
 72
         1
  1
23 1/32"
  7
SLDTEXTSTYLE0
 73
         1
 44
1.0
  0
LINE
  5
173
100
AcDbEntity
  8
0
390
0
100
AcDbLine
 10
216.3008182624
 20
190.4459366627
 30
0.0
 11
228.5372151433
 21
202.6823335436
 31
0.0
  0
LINE
  5
174
100
AcDbEntity
  8
0
390
0
100
AcDbLine
 10
200.0078182624
 20
206.7389366627
 30
0.0
 11
212.2442151433
 21
218.9753335436
 31
0.0
  0
LINE
  5
175
100
AcDbEntity
  8
0
390
0
100
AcDbLine
 10
226.670453241
 20
200.8155716412
 30
0.0
 11
220.6130960712
 21
206.872928811
 31
0.0
  0
LINE
  5
176
100
AcDbEntity
  8
0
390
0
100
AcDbLine
 10
210.377453241
 20
217.1085716412
 30
0.0
 11
216.4348104108
 21
211.0512144714
 31
0.0
  0
ARC
  5
177
100
AcDbEntity
  8
0
390
0
100
AcDbCircle
 10
215.6050389014
 20
208.9620716412
 30
0.0
 40
4.671465383
100
AcDbArc
 50
153.4349488229
 51
206.5650511771
  0
ARC
  5
178
100
AcDbEntity
  8
0
390
0
100
AcDbCircle
 10
221.4428675806
 20
208.9620716412
 30
0.0
 40
4.671465383
100
AcDbArc
 50
333.4349488229
 51
26.5650511771
  0
SOLID
  5
179
100
AcDbEntity
  8
0
390
0
100
AcDbTrace
 10
226.670453241
 20
200.8155716412
 30
0.0
 11
224.2397736807
 21
204.2185230257
 31
0.0
 12
223.2675018565
 22
203.2462512016
 32
0.0
 13
223.2675018565
 23
203.2462512016
 33
0.0
  0
SOLID
  5
17A
100
AcDbEntity
  8
0
390
0
100
AcDbTrace
 10
210.377453241
 20
217.1085716412
 30
0.0
 11
212.8081328013
 21
213.7056202568
 31
0.0
 12
213.7804046255
 22
214.6778920809
 32
0.0
 13
213.7804046255
 23
214.6778920809
 33
0.0
  0
POINT
  5
17B
100
AcDbEntity
  8
0
390
0
100
AcDbPoint
 10
215.678564295
 20
189.8236826952
 30
0.0
  0
POINT
  5
17C
100
AcDbEntity
  8
0
390
0
100
AcDbPoint
 10
199.385564295
 20
206.1166826952
 30
0.0
  0
ENDBLK
  5
17D
100
AcDbEntity
  8
0
390
0
 62
         1
100
AcDbBlockEnd
  0
BLOCK
  5
180
100
AcDbEntity
  8
0
390
0
 62
         1
100
AcDbBlockBegin
  2
*D13
 70
         1
 10
0.0
 20
0.0
 30
0.0
  3
*D13
  1

  0
MTEXT
  5
181
100
AcDbEntity
  8
0
390
0
100
AcDbMText
 10
65.1658891288
 20
127.877539865
 30
0.0
 40
2.2
 41
0.0
 71
         7
 72
         1
  1
51 1/2"
  7
SLDTEXTSTYLE0
 73
         1
 44
1.0
  0
LINE
  5
182
100
AcDbEntity
  8
0
390
0
100
AcDbLine
 10
128.091564295
 20
103.1166826952
 30
0.0
 11
67.2584004495
 21
103.1166826952
 31
0.0
  0
LINE
  5
183
100
AcDbEntity
  8
0
390
0
100
AcDbLine
 10
163.298564295
 20
154.6166826952
 30
0.0
 11
67.2584004495
 21
154.6166826952
 31
0.0
  0
LINE
  5
184
100
AcDbEntity
  8
0
390
0
100
AcDbLine
 10
69.8984004495
 20
103.1166826952
 30
0.0
 11
69.8984004495
 21
126.777539865
 31
0.0
  0
LINE
  5
185
100
AcDbEntity
  8
0
390
0
100
AcDbLine
 10
69.8984004495
 20
154.6166826952
 30
0.0
 11
69.8984004495
 21
130.9558255254
 31
0.0
  0
SOLID
  5
186
100
AcDbEntity
  8
0
390
0
100
AcDbTrace
 10
69.8984004495
 20
103.1166826952
 30
0.0
 11
70.5859004495
 21
107.2416826952
 31
0.0
 12
69.2109004495
 22
107.2416826952
 32
0.0
 13
69.2109004495
 23
107.2416826952
 33
0.0
  0
SOLID
  5
187
100
AcDbEntity
  8
0
390
0
100
AcDbTrace
 10
69.8984004495
 20
154.6166826952
 30
0.0
 11
69.2109004495
 21
150.4916826952
 31
0.0
 12
70.5859004495
 22
150.4916826952
 32
0.0
 13
70.5859004495
 23
150.4916826952
 33
0.0
  0
POINT
  5
188
100
AcDbEntity
  8
0
390
0
100
AcDbPoint
 10
128.971564295
 20
103.1166826952
 30
0.0
  0
POINT
  5
189
100
AcDbEntity
  8
0
390
0
100
AcDbPoint
 10
164.178564295
 20
154.6166826952
 30
0.0
  0
ENDBLK
  5
18A
100
AcDbEntity
  8
0
390
0
 62
         1
100
AcDbBlockEnd
  0
BLOCK
  5
18D
100
AcDbEntity
  8
0
390
0
 62
         1
100
AcDbBlockBegin
  2
*D14
 70
         1
 10
0.0
 20
0.0
 30
0.0
  3
*D14
  1

  0
MTEXT
  5
18E
100
AcDbEntity
  8
0
390
0
100
AcDbMText
 10
146.4755200896
 20
74.8866162081
 30
0.0
 40
2.2
 41
0.0
 71
         7
 72
         1
  1
23"
  7
SLDTEXTSTYLE0
 73
         1
 44
1.0
  0
LINE
  5
18F
100
AcDbEntity
  8
0
390
0
100
AcDbLine
 10
164.178564295
 20
153.7366826952
 30
0.0
 11
164.178564295
 21
73.2357590383
 31
0.0
  0
LINE
  5
190
100
AcDbEntity
  8
0
390
0
100
AcDbLine
 10
187.178064295
 20
102.2366826952
 30
0.0
 11
187.178064295
 21
73.2357590383
 31
0.0
  0
LINE
  5
191
100
AcDbEntity
  8
0
390
0
100
AcDbLine
 10
164.178564295
 20
75.8757590383
 30
0.0
 11
152.2519355613
 21
75.8757590383
 31
0.0
  0
LINE
  5
192
100
AcDbEntity
  8
0
390
0
100
AcDbLine
 10
187.178064295
 20
75.8757590383
 30
0.0
 11
164.178564295
 21
75.8757590383
 31
0.0
  0
SOLID
  5
193
100
AcDbEntity
  8
0
390
0
100
AcDbTrace
 10
164.178564295
 20
75.8757590383
 30
0.0
 11
168.303564295
 21
75.1882590383
 31
0.0
 12
168.303564295
 22
76.5632590383
 32
0.0
 13
168.303564295
 23
76.5632590383
 33
0.0
  0
SOLID
  5
194
100
AcDbEntity
  8
0
390
0
100
AcDbTrace
 10
187.178064295
 20
75.8757590383
 30
0.0
 11
183.053064295
 21
76.5632590383
 31
0.0
 12
183.053064295
 22
75.1882590383
 32
0.0
 13
183.053064295
 23
75.1882590383
 33
0.0
  0
POINT
  5
195
100
AcDbEntity
  8
0
390
0
100
AcDbPoint
 10
164.178564295
 20
154.6166826952
 30
0.0
  0
POINT
  5
196
100
AcDbEntity
  8
0
390
0
100
AcDbPoint
 10
187.178064295
 20
103.1166826952
 30
0.0
  0
ENDBLK
  5
197
100
AcDbEntity
  8
0
390
0
 62
         1
100
AcDbBlockEnd
  0
BLOCK
  5
19A
100
AcDbEntity
  8
0
390
0
 62
         1
100
AcDbBlockBegin
  2
*D15
 70
         1
 10
0.0
 20
0.0
 30
0.0
  3
*D15
  1

  0
MTEXT
  5
19B
100
AcDbEntity
  8
0
390
0
100
AcDbMText
 10
82.5714183991
 20
167.4812936521
 30
0.0
 40
2.2
 41
0.0
 71
         7
 72
         1
  1
9"
  7
SLDTEXTSTYLE0
 73
         1
 44
1.0
  0
LINE
  5
19C
100
AcDbEntity
  8
0
390
0
100
AcDbLine
 10
163.298564295
 20
154.6166826952
 30
0.0
 11
86.9175183991
 21
154.6166826952
 31
0.0
  0
LINE
  5
19D
100
AcDbEntity
  8
0
390
0
100
AcDbLine
 10
111.798564295
 20
145.6166826952
 30
0.0
 11
86.9175183991
 21
145.6166826952
 31
0.0
  0
LINE
  5
19E
100
AcDbEntity
  8
0
390
0
100
AcDbLine
 10
86.8075183991
 20
168.4704364823
 30
0.0
 11
89.5575183991
 21
168.4704364823
 31
0.0
  0
LINE
  5
19F
100
AcDbEntity
  8
0
390
0
100
AcDbLine
 10
89.5575183991
 20
168.4704364823
 30
0.0
 11
89.5575183991
 21
154.6166826952
 31
0.0
  0
LINE
  5
1A0
100
AcDbEntity
  8
0
390
0
100
AcDbLine
 10
89.5575183991
 20
145.6166826952
 30
0.0
 11
89.5575183991
 21
134.6166826952
 31
0.0
  0
SOLID
  5
1A1
100
AcDbEntity
  8
0
390
0
100
AcDbTrace
 10
89.5575183991
 20
154.6166826952
 30
0.0
 11
90.2450183991
 21
158.7416826952
 31
0.0
 12
88.8700183991
 22
158.7416826952
 32
0.0
 13
88.8700183991
 23
158.7416826952
 33
0.0
  0
SOLID
  5
1A2
100
AcDbEntity
  8
0
390
0
100
AcDbTrace
 10
89.5575183991
 20
145.6166826952
 30
0.0
 11
88.8700183991
 21
141.4916826952
 31
0.0
 12
90.2450183991
 22
141.4916826952
 32
0.0
 13
90.2450183991
 23
141.4916826952
 33
0.0
  0
POINT
  5
1A3
100
AcDbEntity
  8
0
390
0
100
AcDbPoint
 10
164.178564295
 20
154.6166826952
 30
0.0
  0
POINT
  5
1A4
100
AcDbEntity
  8
0
390
0
100
AcDbPoint
 10
112.678564295
 20
145.6166826952
 30
0.0
  0
ENDBLK
  5
1A5
100
AcDbEntity
  8
0
390
0
 62
         1
100
AcDbBlockEnd
  0
BLOCK
  5
1A8
100
AcDbEntity
  8
0
390
0
 62
         1
100
AcDbBlockBegin
  2
*D16
 70
         1
 10
0.0
 20
0.0
 30
0.0
  3
*D16
  1

  0
MTEXT
  5
1A9
100
AcDbEntity
  8
0
390
0
 62
         7
100
AcDbMText
 10
146.8886190128
 20
170.4531512839
 30
0.0
 40
2.2
 41
0.0
 71
         7
 72
         1
  1
RAD 
  7
SLDTEXTSTYLE0
 73
         1
 44
1.0
  0
MTEXT
  5
1AA
100
AcDbEntity
  8
0
390
0
 62
         7
100
AcDbMText
 10
153.7084737297
 20
170.4531512839
 30
0.0
 40
2.2
 41
0.0
 71
         7
 72
         1
  1
1"
  7
SLDTEXTSTYLE0
 73
         1
 44
1.0
  0
MTEXT
  5
1AB
100
AcDbEntity
  8
0
390
0
 62
         7
100
AcDbMText
 10
145.362757126
 20
166.2748656235
 30
0.0
 40
2.2
 41
0.0
 71
         7
 72
         1
  1
2 PLACES
  7
SLDTEXTSTYLE0
 73
         1
 44
1.0
  0
LINE
  5
1AC
100
AcDbEntity
  8
0
390
0
 62
         7
100
AcDbLine
 10
116.6371641132
 20
162.9644394135
 30
0.0
 11
138.144007126
 21
169.3531512839
 31
0.0
  0
LINE
  5
1AD
100
AcDbEntity
  8
0
390
0
 62
         7
100
AcDbLine
 10
138.144007126
 20
169.3531512839
 30
0.0
 11
143.644007126
 21
169.3531512839
 31
0.0
  0
SOLID
  5
1AE
100
AcDbEntity
  8
0
390
0
 62
         7
100
AcDbTrace
 10
116.6371641132
 20
162.9644394135
 30
0.0
 11
120.7871586069
 21
163.4800235015
 31
0.0
 12
120.3956181192
 22
164.7980982515
 32
0.0
 13
120.3956181192
 23
164.7980982515
 33
0.0
  0
POINT
  5
1B0
100
AcDbEntity
  8
0
390
0
 62
         7
100
AcDbPoint
 10
116.6371641132
 20
162.9644394135
 30
0.0
  0
POINT
  5
1B1
100
AcDbEntity
  8
0
390
0
 62
         7
100
AcDbPoint
 10
115.678564295
 20
162.6796826952
 30
0.0
  0
ENDBLK
  5
1B2
100
AcDbEntity
  8
0
390
0
100
AcDbBlockEnd
  0
ENDSEC
  0
SECTION
  2
ENTITIES
  0
LINE
  5
2A
100
AcDbEntity
  8
0
370
         0
390
0
  6
Continuous
 62
         7
100
AcDbLine
 10
74.25
 20
233.75
 30
0.0
 11
33.0
 21
233.75
 31
0.0
  0
LINE
  5
2B
100
AcDbEntity
  8
0
370
         0
390
0
  6
Continuous
 62
         7
100
AcDbLine
 10
115.5
 20
233.75
 30
0.0
 11
74.25
 21
233.75
 31
0.0
  0
LINE
  5
2C
100
AcDbEntity
  8
0
370
         0
390
0
  6
Continuous
 62
         7
100
AcDbLine
 10
363.0
 20
8.25
 30
0.0
 11
321.75
 21
8.25
 31
0.0
  0
LINE
  5
2D
100
AcDbEntity
  8
0
370
         0
390
0
  6
Continuous
 62
         7
100
AcDbLine
 10
363.0
 20
8.25
 30
0.0
 11
363.0
 21
64.625
 31
0.0
  0
LINE
  5
2E
100
AcDbEntity
  8
0
370
         0
390
0
  6
Continuous
 62
         7
100
AcDbLine
 10
363.0
 20
177.375
 30
0.0
 11
365.75
 21
177.375
 31
0.0
  0
LINE
  5
2F
100
AcDbEntity
  8
0
370
         0
390
0
  6
Continuous
 62
         7
100
AcDbLine
 10
363.0
 20
121.0
 30
0.0
 11
365.75
 21
121.0
 31
0.0
  0
LINE
  5
30
100
AcDbEntity
  8
0
370
         0
390
0
  6
Continuous
 62
         7
100
AcDbLine
 10
156.75
 20
233.75
 30
0.0
 11
115.5
 21
233.75
 31
0.0
  0
LINE
  5
31
100
AcDbEntity
  8
0
370
         0
390
0
  6
Continuous
 62
         7
100
AcDbLine
 10
198.0
 20
233.75
 30
0.0
 11
156.75
 21
233.75
 31
0.0
  0
LINE
  5
32
100
AcDbEntity
  8
0
370
         0
390
0
  6
Continuous
 62
         7
100
AcDbLine
 10
239.25
 20
233.75
 30
0.0
 11
198.0
 21
233.75
 31
0.0
  0
LINE
  5
33
100
AcDbEntity
  8
0
370
         0
390
0
  6
Continuous
 62
         7
100
AcDbLine
 10
280.5
 20
233.75
 30
0.0
 11
239.25
 21
233.75
 31
0.0
  0
LINE
  5
34
100
AcDbEntity
  8
0
370
         0
390
0
  6
Continuous
 62
         7
100
AcDbLine
 10
321.75
 20
233.75
 30
0.0
 11
280.5
 21
233.75
 31
0.0
  0
LINE
  5
35
100
AcDbEntity
  8
0
370
         0
390
0
  6
Continuous
 62
         7
100
AcDbLine
 10
363.0
 20
64.625
 30
0.0
 11
365.75
 21
64.625
 31
0.0
  0
LINE
  5
36
100
AcDbEntity
  8
0
370
         0
390
0
  6
Continuous
 62
         7
100
AcDbLine
 10
363.0
 20
233.75
 30
0.0
 11
321.75
 21
233.75
 31
0.0
  0
LINE
  5
37
100
AcDbEntity
  8
0
370
         0
390
0
  6
Continuous
 62
         7
100
AcDbLine
 10
321.75
 20
233.75
 30
0.0
 11
321.75
 21
236.5
 31
0.0
  0
LINE
  5
38
100
AcDbEntity
  8
0
370
         0
390
0
  6
Continuous
 62
         7
100
AcDbLine
 10
280.5
 20
233.75
 30
0.0
 11
280.5
 21
236.5
 31
0.0
  0
LINE
  5
39
100
AcDbEntity
  8
0
370
         0
390
0
  6
Continuous
 62
         7
100
AcDbLine
 10
239.25
 20
233.75
 30
0.0
 11
239.25
 21
236.5
 31
0.0
  0
LINE
  5
3A
100
AcDbEntity
  8
0
370
         0
390
0
  6
Continuous
 62
         7
100
AcDbLine
 10
198.0
 20
233.75
 30
0.0
 11
198.0
 21
236.5
 31
0.0
  0
LINE
  5
3B
100
AcDbEntity
  8
0
370
         0
390
0
  6
Continuous
 62
         7
100
AcDbLine
 10
156.75
 20
233.75
 30
0.0
 11
156.75
 21
236.5
 31
0.0
  0
LINE
  5
3C
100
AcDbEntity
  8
0
370
         0
390
0
  6
Continuous
 62
         7
100
AcDbLine
 10
115.5
 20
233.75
 30
0.0
 11
115.5
 21
236.5
 31
0.0
  0
LINE
  5
3D
100
AcDbEntity
  8
0
370
         0
390
0
  6
Continuous
 62
         7
100
AcDbLine
 10
74.25
 20
233.75
 30
0.0
 11
74.25
 21
236.5
 31
0.0
  0
LINE
  5
3E
100
AcDbEntity
  8
0
370
         0
390
0
  6
Continuous
 62
         7
100
AcDbLine
 10
192.5
 20
37.18
 30
0.0
 11
192.5
 21
8.272
 31
0.0
  0
LINE
  5
3F
100
AcDbEntity
  8
0
370
         0
390
0
  6
Continuous
 62
         7
100
AcDbLine
 10
242.0
 20
52.25
 30
0.0
 11
363.0
 21
52.25
 31
0.0
  0
LINE
  5
40
100
AcDbEntity
  8
0
370
         0
390
0
  6
Continuous
 62
         7
100
AcDbLine
 10
242.0
 20
52.25
 30
0.0
 11
242.0
 21
8.25
 31
0.0
  0
LINE
  5
41
100
AcDbEntity
  8
0
370
         0
390
0
  6
Continuous
 62
         7
100
AcDbLine
 10
297.0
 20
52.25
 30
0.0
 11
297.0
 21
8.25
 31
0.0
  0
LINE
  5
42
100
AcDbEntity
  8
0
370
         0
390
0
  6
Continuous
 62
         7
100
AcDbLine
 10
297.0
 20
12.386
 30
0.0
 11
363.0
 21
12.386
 31
0.0
  0
LINE
  5
43
100
AcDbEntity
  8
0
370
         0
390
0
  6
Continuous
 62
         7
100
AcDbLine
 10
297.0
 20
20.636
 30
0.0
 11
363.0
 21
20.636
 31
0.0
  0
LINE
  5
44
100
AcDbEntity
  8
0
370
         0
390
0
  6
Continuous
 62
         7
100
AcDbLine
 10
297.0
 20
37.136
 30
0.0
 11
363.0
 21
37.136
 31
0.0
  0
LINE
  5
45
100
AcDbEntity
  8
0
370
         0
390
0
  6
Continuous
 62
         7
100
AcDbLine
 10
305.25
 20
20.636
 30
0.0
 11
305.25
 21
8.25
 31
0.0
  0
LINE
  5
46
100
AcDbEntity
  8
0
370
         0
390
0
  6
Continuous
 62
         7
100
AcDbLine
 10
192.5
 20
16.522
 30
0.0
 11
297.0
 21
16.522
 31
0.0
  0
LINE
  5
47
100
AcDbEntity
  8
0
370
         0
390
0
  6
Continuous
 62
         7
100
AcDbLine
 10
354.75
 20
20.636
 30
0.0
 11
354.75
 21
8.25
 31
0.0
  0
LINE
  5
48
100
AcDbEntity
  8
0
370
         0
390
0
  6
Continuous
 62
         7
100
AcDbLine
 10
297.0
 20
44.0
 30
0.0
 11
242.0
 21
44.0
 31
0.0
  0
LINE
  5
49
100
AcDbEntity
  8
0
370
         0
390
0
  6
Continuous
 62
         7
100
AcDbLine
 10
242.0
 20
26.114
 30
0.0
 11
297.0
 21
26.114
 31
0.0
  0
LINE
  5
4A
100
AcDbEntity
  8
0
370
         0
390
0
  6
Continuous
 62
         7
100
AcDbLine
 10
242.0
 20
12.386
 30
0.0
 11
297.0
 21
12.386
 31
0.0
  0
LINE
  5
4B
100
AcDbEntity
  8
0
370
         0
390
0
  6
Continuous
 62
         7
100
AcDbLine
 10
192.5
 20
28.908
 30
0.0
 11
242.0
 21
28.908
 31
0.0
  0
LINE
  5
4C
100
AcDbEntity
  8
0
370
         0
390
0
  6
Continuous
 62
         7
100
AcDbLine
 10
363.0
 20
64.625
 30
0.0
 11
363.0
 21
121.0
 31
0.0
  0
LINE
  5
4D
100
AcDbEntity
  8
0
370
         0
390
0
  6
Continuous
 62
         7
100
AcDbLine
 10
363.0
 20
121.0
 30
0.0
 11
363.0
 21
177.375
 31
0.0
  0
LINE
  5
4E
100
AcDbEntity
  8
0
370
         0
390
0
  6
Continuous
 62
         7
100
AcDbLine
 10
363.0
 20
177.375
 30
0.0
 11
363.0
 21
233.75
 31
0.0
  0
LINE
  5
4F
100
AcDbEntity
  8
0
370
         0
390
0
  6
Continuous
 62
         7
100
AcDbLine
 10
321.75
 20
8.25
 30
0.0
 11
280.5
 21
8.25
 31
0.0
  0
LINE
  5
50
100
AcDbEntity
  8
0
370
         0
390
0
  6
Continuous
 62
         7
100
AcDbLine
 10
280.5
 20
8.25
 30
0.0
 11
239.25
 21
8.25
 31
0.0
  0
LINE
  5
51
100
AcDbEntity
  8
0
370
         0
390
0
  6
Continuous
 62
         7
100
AcDbLine
 10
192.5
 20
33.044
 30
0.0
 11
242.0
 21
33.044
 31
0.0
  0
LINE
  5
52
100
AcDbEntity
  8
0
370
         0
390
0
  6
Continuous
 62
         7
100
AcDbLine
 10
192.5
 20
20.625
 30
0.0
 11
110.0
 21
20.625
 31
0.0
  0
LINE
  5
53
100
AcDbEntity
  8
0
370
         0
390
0
  6
Continuous
 62
         7
100
AcDbLine
 10
242.0
 20
37.18
 30
0.0
 11
192.5
 21
37.18
 31
0.0
  0
LINE
  5
54
100
AcDbEntity
  8
0
370
         0
390
0
  6
Continuous
 62
         7
100
AcDbLine
 10
225.5
 20
37.18
 30
0.0
 11
225.5
 21
24.772
 31
0.0
  0
LINE
  5
55
100
AcDbEntity
  8
0
370
         0
390
0
  6
Continuous
 62
         7
100
AcDbLine
 10
242.0
 20
39.864
 30
0.0
 11
297.0
 21
39.864
 31
0.0
  0
LINE
  5
56
100
AcDbEntity
  8
0
370
         0
390
0
  6
Continuous
 62
         7
100
AcDbLine
 10
192.5
 20
24.772
 30
0.0
 11
242.0
 21
24.772
 31
0.0
  0
LINE
  5
57
100
AcDbEntity
  8
0
370
         0
390
0
  6
Continuous
 62
         7
100
AcDbLine
 10
269.5
 20
44.0
 30
0.0
 11
269.5
 21
26.114
 31
0.0
  0
LINE
  5
58
100
AcDbEntity
  8
0
370
         0
390
0
  6
Continuous
 62
         7
100
AcDbLine
 10
239.25
 20
8.25
 30
0.0
 11
198.0
 21
8.25
 31
0.0
  0
LINE
  5
59
100
AcDbEntity
  8
0
370
         0
390
0
  6
Continuous
 62
         7
100
AcDbLine
 10
198.0
 20
8.25
 30
0.0
 11
156.75
 21
8.25
 31
0.0
  0
LINE
  5
5A
100
AcDbEntity
  8
0
370
         0
390
0
  6
Continuous
 62
         7
100
AcDbLine
 10
156.75
 20
8.25
 30
0.0
 11
115.5
 21
8.25
 31
0.0
  0
LINE
  5
5B
100
AcDbEntity
  8
0
370
         0
390
0
  6
Continuous
 62
         7
100
AcDbLine
 10
115.5
 20
8.25
 30
0.0
 11
74.25
 21
8.25
 31
0.0
  0
LINE
  5
5C
100
AcDbEntity
  8
0
370
         0
390
0
  6
Continuous
 62
         7
100
AcDbLine
 10
283.25
 20
44.0
 30
0.0
 11
283.25
 21
26.114
 31
0.0
  0
LINE
  5
5D
100
AcDbEntity
  8
0
370
         0
390
0
  6
Continuous
 62
         7
100
AcDbLine
 10
74.25
 20
8.25
 30
0.0
 11
33.0
 21
8.25
 31
0.0
  0
LINE
  5
5E
100
AcDbEntity
  8
0
370
         0
390
0
  6
Continuous
 62
         7
100
AcDbLine
 10
16.5
 20
233.75
 30
0.0
 11
16.5
 21
8.25
 31
0.0
  0
LINE
  5
5F
100
AcDbEntity
  8
0
370
         0
390
0
  6
Continuous
 62
         7
100
AcDbLine
 10
33.0
 20
64.625
 30
0.0
 11
33.0
 21
121.0
 31
0.0
  0
LINE
  5
60
100
AcDbEntity
  8
0
370
         0
390
0
  6
Continuous
 62
         7
100
AcDbLine
 10
33.0
 20
121.0
 30
0.0
 11
33.0
 21
177.375
 31
0.0
  0
LINE
  5
61
100
AcDbEntity
  8
0
370
         0
390
0
  6
Continuous
 62
         7
100
AcDbLine
 10
33.0
 20
177.375
 30
0.0
 11
33.0
 21
233.75
 31
0.0
  0
LINE
  5
62
100
AcDbEntity
  8
0
370
         0
390
0
  6
Continuous
 62
         7
100
AcDbLine
 10
33.0
 20
177.375
 30
0.0
 11
30.25
 21
177.375
 31
0.0
  0
LINE
  5
63
100
AcDbEntity
  8
0
370
         0
390
0
  6
Continuous
 62
         7
100
AcDbLine
 10
321.75
 20
8.25
 30
0.0
 11
321.75
 21
5.5
 31
0.0
  0
LINE
  5
64
100
AcDbEntity
  8
0
370
         0
390
0
  6
Continuous
 62
         7
100
AcDbLine
 10
280.5
 20
8.25
 30
0.0
 11
280.5
 21
5.5
 31
0.0
  0
LINE
  5
65
100
AcDbEntity
  8
0
370
         0
390
0
  6
Continuous
 62
         7
100
AcDbLine
 10
239.25
 20
8.25
 30
0.0
 11
239.25
 21
5.5
 31
0.0
  0
LINE
  5
66
100
AcDbEntity
  8
0
370
         0
390
0
  6
CENTERX2
 62
         7
100
AcDbLine
 10
198.0
 20
8.25
 30
0.0
 11
198.0
 21
5.5
 31
0.0
  0
LINE
  5
67
100
AcDbEntity
  8
0
370
         0
390
0
  6
Continuous
 62
         7
100
AcDbLine
 10
156.75
 20
8.25
 30
0.0
 11
156.75
 21
5.5
 31
0.0
  0
LINE
  5
68
100
AcDbEntity
  8
0
370
         0
390
0
  6
Continuous
 62
         7
100
AcDbLine
 10
115.5
 20
8.25
 30
0.0
 11
115.5
 21
5.5
 31
0.0
  0
LINE
  5
69
100
AcDbEntity
  8
0
370
         0
390
0
  6
Continuous
 62
         7
100
AcDbLine
 10
74.25
 20
8.25
 30
0.0
 11
74.25
 21
5.5
 31
0.0
  0
LINE
  5
6A
100
AcDbEntity
  8
0
370
         0
390
0
  6
Continuous
 62
         7
100
AcDbLine
 10
33.0
 20
121.0
 30
0.0
 11
30.25
 21
121.0
 31
0.0
  0
LINE
  5
6B
100
AcDbEntity
  8
0
370
         0
390
0
  6
Continuous
 62
         7
100
AcDbLine
 10
33.0
 20
64.625
 30
0.0
 11
30.25
 21
64.625
 31
0.0
  0
LINE
  5
6C
100
AcDbEntity
  8
0
370
         0
390
0
  6
Continuous
 62
         7
100
AcDbLine
 10
33.0
 20
8.25
 30
0.0
 11
33.0
 21
64.625
 31
0.0
  0
LINE
  5
6D
100
AcDbEntity
  8
0
370
         0
390
0
  6
Continuous
 62
         7
100
AcDbLine
 10
110.0
 20
20.625
 30
0.0
 11
110.0
 21
8.25
 31
0.0
  0
LINE
  5
6E
100
AcDbEntity
  8
0
370
         0
390
0
  6
Continuous
 62
         7
100
AcDbLine
 10
363.0
 20
229.614
 30
0.0
 11
275.0
 21
229.614
 31
0.0
  0
LINE
  5
6F
100
AcDbEntity
  8
0
370
         0
390
0
  6
Continuous
 62
         7
100
AcDbLine
 10
363.0
 20
225.478
 30
0.0
 11
275.0
 21
225.478
 31
0.0
  0
LINE
  5
70
100
AcDbEntity
  8
0
370
         0
390
0
  6
Continuous
 62
         7
100
AcDbLine
 10
363.0
 20
221.342
 30
0.0
 11
275.0
 21
221.342
 31
0.0
  0
LINE
  5
71
100
AcDbEntity
  8
0
370
         0
390
0
  6
Continuous
 62
         7
100
AcDbLine
 10
275.0
 20
233.75
 30
0.0
 11
275.0
 21
221.342
 31
0.0
  0
LINE
  5
72
100
AcDbEntity
  8
0
370
         0
390
0
  6
Continuous
 62
         7
100
AcDbLine
 10
283.25
 20
229.614
 30
0.0
 11
283.25
 21
221.342
 31
0.0
  0
LINE
  5
73
100
AcDbEntity
  8
0
370
         0
390
0
  6
Continuous
 62
         7
100
AcDbLine
 10
346.5
 20
229.614
 30
0.0
 11
346.5
 21
221.342
 31
0.0
  0
LINE
  5
74
100
AcDbEntity
  8
0
370
         0
390
0
  6
Continuous
 62
         7
100
AcDbLine
 10
332.75
 20
229.614
 30
0.0
 11
332.75
 21
221.342
 31
0.0
  0
MTEXT
  5
76
100
AcDbEntity
  8
0
390
0
 62
         1
100
AcDbMText
 10
262.0128637655
 20
87.9300417556
 30
0.0
 40
3.6666666667
 41
0.0
 71
         1
 72
         1
  1
THIS PART CAN BE FABRICATED FROM \PSEVERAL PIECES.
  7
SLDTEXTSTYLE0
 73
         1
 44
1.0
  0
MTEXT
  5
77
100
AcDbEntity
  8
0
390
0
 62
         1
100
AcDbMText
 10
261.0374921139
 20
15.9755031664
 30
0.0
 40
2.2
 41
0.0
 71
         1
 72
         1
  1
491.5 LBS
  7
SLDTEXTSTYLE0
 73
         1
 44
1.0
  0
MTEXT
  5
78
100
AcDbEntity
  8
0
390
0
 62
         1
100
AcDbMText
 10
208.1504466737
 20
20.7902555251
 30
0.0
 40
2.2
 41
0.0
 71
         1
 72
         1
  1
STEEL, A-36 1/4" THICK
  7
SLDTEXTSTYLE0
 73
         1
 44
1.0
  0
MTEXT
  5
79
100
AcDbEntity
  8
0
390
0
 62
         1
100
AcDbMText
 10
320.518
 20
66.8370377358
 30
0.0
 40
3.6666666667
 41
0.0
 71
         2
 72
         1
  1
1 REQUIRED\PPER ASSEM
  7
SLDTEXTSTYLE0
 73
         1
 44
1.0
  0
MTEXT
  5
7A
100
AcDbEntity
  8
0
390
0
 62
         7
100
AcDbMText
 10
367.6946917499
 20
199.9505814359
 30
0.0
 40
2.0625
 41
0.0
 71
         1
 72
         1
  1
D
  7
SLDTEXTSTYLE0
 73
         1
 44
1.0
  0
MTEXT
  5
7B
100
AcDbEntity
  8
0
390
0
 62
         7
100
AcDbMText
 10
367.2923286932
 20
144.0166524445
 30
0.0
 40
2.0625
 41
0.0
 71
         1
 72
         1
  1
C
  7
SLDTEXTSTYLE0
 73
         1
 44
1.0
  0
MTEXT
  5
7C
100
AcDbEntity
  8
0
390
0
 62
         7
100
AcDbMText
 10
367.5346576034
 20
92.8139335126
 30
0.0
 40
2.0625
 41
0.0
 71
         1
 72
         1
  1
B
  7
SLDTEXTSTYLE0
 73
         1
 44
1.0
  0
MTEXT
  5
7D
100
AcDbEntity
  8
0
390
0
 62
         7
100
AcDbMText
 10
367.5221365222
 20
37.7029005823
 30
0.0
 40
2.0625
 41
0.0
 71
         1
 72
         1
  1
A
  7
SLDTEXTSTYLE0
 73
         1
 44
1.0
  0
MTEXT
  5
7E
100
AcDbEntity
  8
0
390
0
 62
         7
100
AcDbMText
 10
21.2157571708
 20
37.255116108
 30
0.0
 40
2.0625
 41
0.0
 71
         1
 72
         1
  1
A
  7
SLDTEXTSTYLE0
 73
         1
 44
1.0
  0
MTEXT
  5
7F
100
AcDbEntity
  8
0
390
0
 62
         7
100
AcDbMText
 10
21.1455091411
 20
94.1114961739
 30
0.0
 40
2.0625
 41
0.0
 71
         1
 72
         1
  1
B
  7
SLDTEXTSTYLE0
 73
         1
 44
1.0
  0
MTEXT
  5
80
100
AcDbEntity
  8
0
390
0
 62
         7
100
AcDbMText
 10
20.8742139195
 20
151.233280145
 30
0.0
 40
2.0625
 41
0.0
 71
         1
 72
         1
  1
C
  7
SLDTEXTSTYLE0
 73
         1
 44
1.0
  0
MTEXT
  5
81
100
AcDbEntity
  8
0
390
0
 62
         7
100
AcDbMText
 10
20.8020771668
 20
204.7423044385
 30
0.0
 40
2.0625
 41
0.0
 71
         1
 72
         1
  1
D
  7
SLDTEXTSTYLE0
 73
         1
 44
1.0
  0
MTEXT
  5
82
100
AcDbEntity
  8
0
390
0
 62
         7
100
AcDbMText
 10
356.0877278538
 20
11.4329282972
 30
0.0
 40
1.98
 41
0.0
 71
         1
 72
         1
  1
REV.
  7
SLDTEXTSTYLE0
 73
         1
 44
1.0
  0
MTEXT
  5
83
100
AcDbEntity
  8
0
390
0
 62
         7
100
AcDbMText
 10
271.6796942605
 20
38.6912014381
 30
0.0
 40
1.98
 41
0.0
 71
         1
 72
         1
  1
%%p\P%%p\P%%p\P%%p
  7
SLDTEXTSTYLE0
 73
         1
 44
1.0
  0
MTEXT
  5
84
100
AcDbEntity
  8
0
390
0
 62
         7
100
AcDbMText
 10
193.8627135465
 20
24.1446611993
 30
0.0
 40
1.98
 41
0.0
 71
         1
 72
         1
  1
MATERIAL
  7
SLDTEXTSTYLE0
 73
         1
 44
1.0
  0
MTEXT
  5
85
100
AcDbEntity
  8
0
390
0
 62
         7
100
AcDbMText
 10
193.8123749421
 20
16.0968237511
 30
0.0
 40
1.98
 41
0.0
 71
         1
 72
         1
  1
FINISH
  7
SLDTEXTSTYLE0
 73
         1
 44
1.0
  0
MTEXT
  5
86
100
AcDbEntity
  8
0
390
0
 62
         7
100
AcDbMText
 10
347.6095260733
 20
7.0789043814
 30
0.0
 40
2.0625
 41
0.0
 71
         1
 72
         1
  1
1
  7
SLDTEXTSTYLE0
 73
         1
 44
1.0
  0
MTEXT
  5
87
100
AcDbEntity
  8
0
390
0
 62
         7
100
AcDbMText
 10
299.0764975885
 20
7.2932374856
 30
0.0
 40
2.0625
 41
0.0
 71
         1
 72
         1
  1
2
  7
SLDTEXTSTYLE0
 73
         1
 44
1.0
  0
MTEXT
  5
88
100
AcDbEntity
  8
0
390
0
 62
         7
100
AcDbMText
 10
253.7979769803
 20
7.3646818537
 30
0.0
 40
2.0625
 41
0.0
 71
         1
 72
         1
  1
3
  7
SLDTEXTSTYLE0
 73
         1
 44
1.0
  0
MTEXT
  5
89
100
AcDbEntity
  8
0
390
0
 62
         7
100
AcDbMText
 10
212.9969067762
 20
7.4083873015
 30
0.0
 40
2.0625
 41
0.0
 71
         1
 72
         1
  1
4
  7
SLDTEXTSTYLE0
 73
         1
 44
1.0
  0
MTEXT
  5
8A
100
AcDbEntity
  8
0
390
0
 62
         7
100
AcDbMText
 10
170.0878227073
 20
7.4798316696
 30
0.0
 40
2.0625
 41
0.0
 71
         1
 72
         1
  1
5
  7
SLDTEXTSTYLE0
 73
         1
 44
1.0
  0
MTEXT
  5
8B
100
AcDbEntity
  8
0
390
0
 62
         7
100
AcDbMText
 10
130.0247409693
 20
7.1226098292
 30
0.0
 40
2.0625
 41
0.0
 71
         1
 72
         1
  1
6
  7
SLDTEXTSTYLE0
 73
         1
 44
1.0
  0
MTEXT
  5
8C
100
AcDbEntity
  8
0
390
0
 62
         7
100
AcDbMText
 10
86.4650793301
 20
7.4361262218
 30
0.0
 40
2.0625
 41
0.0
 71
         1
 72
         1
  1
7
  7
SLDTEXTSTYLE0
 73
         1
 44
1.0
  0
MTEXT
  5
8D
100
AcDbEntity
  8
0
390
0
 62
         7
100
AcDbMText
 10
47.259330009
 20
7.4798316696
 30
0.0
 40
2.0625
 41
0.0
 71
         1
 72
         1
  1
8
  7
SLDTEXTSTYLE0
 73
         1
 44
1.0
  0
MTEXT
  5
8E
100
AcDbEntity
  8
0
390
0
 62
         7
100
AcDbMText
 10
46.5801369676
 20
237.791171669
 30
0.0
 40
2.0625
 41
0.0
 71
         1
 72
         1
  1
8
  7
SLDTEXTSTYLE0
 73
         1
 44
1.0
  0
MTEXT
  5
8F
100
AcDbEntity
  8
0
390
0
 62
         7
100
AcDbMText
 10
89.5500539507
 20
237.3008515625
 30
0.0
 40
2.0625
 41
0.0
 71
         1
 72
         1
  1
7
  7
SLDTEXTSTYLE0
 73
         1
 44
1.0
  0
MTEXT
  5
90
100
AcDbEntity
  8
0
390
0
 62
         7
100
AcDbMText
 10
130.9377242737
 20
237.1571115451
 30
0.0
 40
2.0625
 41
0.0
 71
         1
 72
         1
  1
6
  7
SLDTEXTSTYLE0
 73
         1
 44
1.0
  0
MTEXT
  5
91
100
AcDbEntity
  8
0
390
0
 62
         7
100
AcDbMText
 10
173.9362719799
 20
236.8962397894
 30
0.0
 40
2.0625
 41
0.0
 71
         1
 72
         1
  1
5
  7
SLDTEXTSTYLE0
 73
         1
 44
1.0
  0
MTEXT
  5
92
100
AcDbEntity
  8
0
390
0
 62
         7
100
AcDbMText
 10
216.6739479304
 20
237.5302999132
 30
0.0
 40
2.0625
 41
0.0
 71
         1
 72
         1
  1
4
  7
SLDTEXTSTYLE0
 73
         1
 44
1.0
  0
MTEXT
  5
93
100
AcDbEntity
  8
0
390
0
 62
         7
100
AcDbMText
 10
259.6286492973
 20
237.0752261653
 30
0.0
 40
2.0625
 41
0.0
 71
         1
 72
         1
  1
3
  7
SLDTEXTSTYLE0
 73
         1
 44
1.0
  0
MTEXT
  5
94
100
AcDbEntity
  8
0
390
0
 62
         7
100
AcDbMText
 10
300.7630556726
 20
237.3437057292
 30
0.0
 40
2.0625
 41
0.0
 71
         1
 72
         1
  1
2
  7
SLDTEXTSTYLE0
 73
         1
 44
1.0
  0
MTEXT
  5
95
100
AcDbEntity
  8
0
390
0
 62
         7
100
AcDbMText
 10
344.6717508746
 20
236.9781251692
 30
0.0
 40
2.0625
 41
0.0
 71
         1
 72
         1
  1
1
  7
SLDTEXTSTYLE0
 73
         1
 44
1.0
  0
MTEXT
  5
96
100
AcDbEntity
  8
0
390
0
 62
         7
100
AcDbMText
 10
300.4195482559
 20
50.6157824915
 30
0.0
 40
3.6666666667
 41
0.0
 71
         1
 72
         1
  1
RADIO  ASTRONOMY  LAB
  7
SLDTEXTSTYLE0
 73
         1
 44
1.0
  0
MTEXT
  5
97
100
AcDbEntity
  8
0
390
0
 62
         7
100
AcDbMText
 10
330.5006732603
 20
44.4300803989
 30
0.0
 40
2.2
 41
0.0
 71
         2
 72
         1
  1
University of California - Berkeley\PTel: 510-642-5040    Fax: 510-642-3411
  7
SLDTEXTSTYLE0
 73
         1
 44
1.0
  0
MTEXT
  5
98
100
AcDbEntity
  8
0
390
0
 62
         7
100
AcDbMText
 10
206.4476686941
 20
36.0307064953
 30
0.0
 40
1.98
 41
0.0
 71
         1
 72
         1
  1
NAME
  7
SLDTEXTSTYLE0
 73
         1
 44
1.0
  0
MTEXT
  5
99
100
AcDbEntity
  8
0
390
0
 62
         7
100
AcDbMText
 10
230.822662918
 20
35.9332253938
 30
0.0
 40
1.98
 41
0.0
 71
         1
 72
         1
  1
DATE
  7
SLDTEXTSTYLE0
 73
         1
 44
1.0
  0
MTEXT
  5
9A
100
AcDbEntity
  8
0
390
0
 62
         7
100
AcDbMText
 10
298.7452695126
 20
11.5313629904
 30
0.0
 40
1.98
 41
0.0
 71
         1
 72
         1
  1
SIZE
  7
SLDTEXTSTYLE0
 73
         1
 44
1.0
  0
MTEXT
  5
9B
100
AcDbEntity
  8
0
390
0
 62
         7
100
AcDbMText
 10
299.9589973729
 20
18.5709032795
 30
0.0
 40
4.125
 41
0.0
 71
         1
 72
         1
  1
B
  7
SLDTEXTSTYLE0
 73
         1
 44
1.0
  0
MTEXT
  5
9C
100
AcDbEntity
  8
0
390
0
 62
         7
100
AcDbMText
 10
243.7426827245
 20
11.283055755
 30
0.0
 40
1.98
 41
0.0
 71
         1
 72
         1
  1
SCALE:
  7
SLDTEXTSTYLE0
 73
         1
 44
1.0
  0
MTEXT
  5
9D
100
AcDbEntity
  8
0
390
0
 62
         7
100
AcDbMText
 10
306.3365927172
 20
11.4400061863
 30
0.0
 40
1.98
 41
0.0
 71
         1
 72
         1
  1
DWG NUM:      SHEET             OF
  7
SLDTEXTSTYLE0
 73
         1
 44
1.0
  0
MTEXT
  5
9E
100
AcDbEntity
  8
0
390
0
 62
         7
100
AcDbMText
 10
351.9731925472
 20
228.4766590758
 30
0.0
 40
1.98
 41
0.0
 71
         1
 72
         1
  1
DATE
  7
SLDTEXTSTYLE0
 73
         1
 44
1.0
  0
MTEXT
  5
9F
100
AcDbEntity
  8
0
390
0
 62
         7
100
AcDbMText
 10
336.654748744
 20
228.4672403276
 30
0.0
 40
1.98
 41
0.0
 71
         1
 72
         1
  1
NAME
  7
SLDTEXTSTYLE0
 73
         1
 44
1.0
  0
MTEXT
  5
A0
100
AcDbEntity
  8
0
390
0
 62
         7
100
AcDbMText
 10
308.7276247164
 20
232.583222755
 30
0.0
 40
1.98
 41
0.0
 71
         1
 72
         1
  1
REVISIONS
  7
SLDTEXTSTYLE0
 73
         1
 44
1.0
  0
MTEXT
  5
A1
100
AcDbEntity
  8
0
390
0
 62
         7
100
AcDbMText
 10
276.8083689115
 20
228.4355313131
 30
0.0
 40
1.98
 41
0.0
 71
         1
 72
         1
  1
REV
  7
SLDTEXTSTYLE0
 73
         1
 44
1.0
  0
MTEXT
  5
A2
100
AcDbEntity
  8
0
390
0
 62
         7
100
AcDbMText
 10
285.1740252148
 20
228.4235948556
 30
0.0
 40
1.98
 41
0.0
 71
         1
 72
         1
  1
DESCRIPTION
  7
SLDTEXTSTYLE0
 73
         1
 44
1.0
  0
MTEXT
  5
A3
100
AcDbEntity
  8
0
390
0
 62
         7
100
AcDbMText
 10
243.6284329107
 20
15.3658079263
 30
0.0
 40
1.98
 41
0.0
 71
         1
 72
         1
  1
WEIGHT:
  7
SLDTEXTSTYLE0
 73
         1
 44
1.0
  0
MTEXT
  5
A4
100
AcDbEntity
  8
0
390
0
 62
         7
100
AcDbMText
 10
193.8368105877
 20
31.8459781888
 30
0.0
 40
1.98
 41
0.0
 71
         1
 72
         1
  1
DRAWN
  7
SLDTEXTSTYLE0
 73
         1
 44
1.0
  0
MTEXT
  5
A5
100
AcDbEntity
  8
0
390
0
 62
         7
100
AcDbMText
 10
193.8318074148
 20
27.749269325
 30
0.0
 40
1.98
 41
0.0
 71
         1
 72
         1
  1
CHECKED
  7
SLDTEXTSTYLE0
 73
         1
 44
1.0
  0
MTEXT
  5
A6
100
AcDbEntity
  8
0
390
0
 62
         7
100
AcDbMText
 10
267.6361444334
 20
38.5862512134
 30
0.0
 40
1.98
 41
0.0
 71
         3
 72
         1
  1
WHOLE & FRACTION\PDECIMAL   X.X\PDECIMAL   X.XX\PDECIMAL   X.XXX
  7
SLDTEXTSTYLE0
 73
         1
 44
1.0
  0
MTEXT
  5
A7
100
AcDbEntity
  8
0
390
0
 62
         7
100
AcDbMText
 10
276.9205465461
 20
43.2241925735
 30
0.0
 40
1.98
 41
0.0
 71
         2
 72
         1
  1
LINEAR
  7
SLDTEXTSTYLE0
 73
         1
 44
1.0
  0
MTEXT
  5
A8
100
AcDbEntity
  8
0
390
0
 62
         7
100
AcDbMText
 10
289.6917001302
 20
43.356582844
 30
0.0
 40
1.98
 41
0.0
 71
         2
 72
         1
  1
ANGLE
  7
SLDTEXTSTYLE0
 73
         1
 44
1.0
  0
INSERT
  5
AF
100
AcDbEntity
  8
0
390
0
100
AcDbBlockReference
  2
NOTE51
 10
245.6739270863
 20
24.0689845574
 30
0.0
  0
MTEXT
  5
B0
100
AcDbEntity
  8
0
390
0
 62
         7
100
AcDbMText
 10
269.472576738
 20
50.7958626245
 30
0.0
 40
1.98
 41
0.0
 71
         2
 72
         1
  1
UNLESS OTHERWISE SPECIFIED\PDIMENSIONS ARE INCHES & DEGREES
  7
SLDTEXTSTYLE0
 73
         1
 44
1.0
  0
MTEXT
  5
B1
100
AcDbEntity
  8
0
390
0
 62
         7
100
AcDbMText
 10
246.4286023981
 20
43.0841059657
 30
0.0
 40
1.98
 41
0.0
 71
         1
 72
         1
  1
TOLERANCES:
  7
SLDTEXTSTYLE0
 73
         1
 44
1.0
  0
MTEXT
  5
B2
100
AcDbEntity
  8
0
390
0
 62
         7
100
AcDbMText
 10
285.0201607274
 20
38.6718676909
 30
0.0
 40
1.98
 41
0.0
 71
         1
 72
         1
  1
%%p\P%%p\P%%p\P%%p
  7
SLDTEXTSTYLE0
 73
         1
 44
1.0
  0
MTEXT
  5
B3
100
AcDbEntity
  8
0
390
0
 62
         7
100
AcDbMText
 10
322.5948064578
 20
228.4969815763
 30
0.0
 40
1.98
 41
0.0
 71
         1
 72
         1
  1
ZONE
  7
SLDTEXTSTYLE0
 73
         1
 44
1.0
  0
MTEXT
  5
B4
100
AcDbEntity
  8
0
390
0
 62
         7
100
AcDbMText
 10
112.0947890025
 20
19.020466678
 30
0.0
 40
1.76
 41
0.0
 71
         1
 72
         1
  1
THIS DRAWING IS THE PROPERTY OF AND CONTAINS CONFIDENTIAL\PINFORMATION PROPRIETARY TO THE UNIVERSITY OF CALIFORNIA AND\PSHALL BE USED ONLY FOR THE PURPOSE FOR WHICH IT WAS PROVIDED\PAND SHALL NOT BE REPRODUCED OR DISCLOSED TO OTHERS.
  7
SLDTEXTSTYLE0
 73
         1
 44
1.0
  0
MTEXT
  5
B5
100
AcDbEntity
  8
0
390
0
 62
         7
100
AcDbMText
 10
278.0570894843
 20
224.5077818742
 30
0.0
 40
1.98
 41
0.0
 71
         1
 72
         1
  1
A
  7
SLDTEXTSTYLE0
 73
         1
 44
1.0
  0
MTEXT
  5
B6
100
AcDbEntity
  8
0
390
0
 62
         7
100
AcDbMText
 10
285.515910106
 20
224.5023331842
 30
0.0
 40
1.98
 41
0.0
 71
         1
 72
         1
  1
RELEASED
  7
SLDTEXTSTYLE0
 73
         1
 44
1.0
  0
MTEXT
  5
B7
100
AcDbEntity
  8
0
390
0
 62
         7
100
AcDbMText
 10
206.1218318093
 20
32.1227915651
 30
0.0
 40
2.2916666667
 41
0.0
 71
         1
 72
         1
  1
M. C. FLEMING
  7
SLDTEXTSTYLE0
 73
         1
 44
1.0
  0
MTEXT
  5
B8
100
AcDbEntity
  8
0
390
0
 62
         7
100
AcDbMText
 10
357.5462965365
 20
18.1955498517
 30
0.0
 40
4.125
 41
0.0
 71
         1
 72
         1
  1
A
  7
SLDTEXTSTYLE0
 73
         1
 44
1.0
  0
MTEXT
  5
B9
100
AcDbEntity
  8
0
390
0
 62
         7
100
AcDbMText
 10
227.0870860933
 20
32.0848918758
 30
0.0
 40
2.2916666667
 41
0.0
 71
         1
 72
         1
  1
2004-12-23
  7
SLDTEXTSTYLE0
 73
         1
 44
1.0
  0
MTEXT
  5
BA
100
AcDbEntity
  8
0
390
0
 62
         7
100
AcDbMText
 10
275.2730400916
 20
38.716187926
 30
0.0
 40
1.98
 41
0.0
 71
         1
 72
         1
  1
1/16\P0.1\P0.01\P0.005
  7
SLDTEXTSTYLE0
 73
         1
 44
1.0
  0
MTEXT
  5
BB
100
AcDbEntity
  8
0
390
0
 62
         7
100
AcDbMText
 10
288.2546528284
 20
38.6732522494
 30
0.0
 40
1.98
 41
0.0
 71
         1
 72
         1
  1
1%%d\P0.1%%d\P0.01%%d\P0.001%%d
  7
SLDTEXTSTYLE0
 73
         1
 44
1.0
  0
MTEXT
  5
BC
100
AcDbEntity
  8
0
390
0
 62
         7
100
AcDbMText
 10
309.7974662424
 20
18.5935642479
 30
0.0
 40
4.125
 41
0.0
 71
         1
 72
         1
  1
24-09-211    1 of 1
  7
SLDTEXTSTYLE0
 73
         1
 44
1.0
  0
MTEXT
  5
BD
100
AcDbEntity
  8
0
390
0
 62
         7
100
AcDbMText
 10
336.5115214877
 20
224.5118953176
 30
0.0
 40
2.2916666667
 41
0.0
 71
         1
 72
         1
  1
M.C.F.
  7
SLDTEXTSTYLE0
 73
         1
 44
1.0
  0
MTEXT
  5
BE
100
AcDbEntity
  8
0
390
0
 62
         7
100
AcDbMText
 10
348.5234282147
 20
224.4913527224
 30
0.0
 40
2.2916666667
 41
0.0
 71
         1
 72
         1
  1
2004-12-23
  7
SLDTEXTSTYLE0
 73
         1
 44
1.0
  0
MTEXT
  5
BF
100
AcDbEntity
  8
0
390
0
 62
         7
100
AcDbMText
 10
328.6509468329
 20
33.7168991145
 30
0.0
 40
4.125
 41
0.0
 71
         2
 72
         1
  1
CARMA 6m Base,\PBottom Plate
  7
SLDTEXTSTYLE0
 73
         1
 44
1.0
  0
CIRCLE
  5
C0
100
AcDbEntity
  8
0
370
        15
390
0
  6
Continuous
 62
         7
100
AcDbCircle
 10
164.178564295
 20
154.6166826952
 30
0.0
 40
30.0
  0
LINE
  5
C1
100
AcDbEntity
  8
0
370
        15
390
0
  6
Continuous
 62
         7
100
AcDbLine
 10
215.6785637093
 20
119.4096833295
 30
0.0
 11
215.6785637093
 21
189.823682061
 31
0.0
  0
LINE
  5
C2
100
AcDbEntity
  8
0
370
        15
390
0
  6
Continuous
 62
         7
100
AcDbLine
 10
199.3855636607
 20
103.1166832809
 30
0.0
 11
215.6785637093
 21
119.4096833295
 31
0.0
  0
LINE
  5
C3
100
AcDbEntity
  8
0
370
        15
390
0
  6
Continuous
 62
         7
100
AcDbLine
 10
196.2410643063
 20
103.1166832809
 30
0.0
 11
199.3855636607
 21
103.1166832809
 31
0.0
  0
LINE
  5
C4
100
AcDbEntity
  8
0
370
        15
390
0
  6
Continuous
 62
         7
100
AcDbLine
 10
196.241064295
 20
110.3666826952
 30
0.0
 11
196.2410643063
 21
103.1166832809
 31
0.0
  0
ARC
  5
C5
100
AcDbEntity
  8
0
370
        15
390
0
  6
Continuous
 62
         7
100
AcDbCircle
 10
195.741064295
 20
110.3666826952
 30
0.0
 40
0.5
100
AcDbArc
 50
0.0
 51
90.0
  0
LINE
  5
C6
100
AcDbEntity
  8
0
370
        15
390
0
  6
Continuous
 62
         7
100
AcDbLine
 10
187.678064295
 20
110.8666826952
 30
0.0
 11
195.741064295
 21
110.8666826952
 31
0.0
  0
ARC
  5
C7
100
AcDbEntity
  8
0
370
        15
390
0
  6
Continuous
 62
         7
100
AcDbCircle
 10
187.678064295
 20
110.3666826952
 30
0.0
 40
0.5
100
AcDbArc
 50
90.0
 51
180.0
  0
LINE
  5
C8
100
AcDbEntity
  8
0
370
        15
390
0
  6
Continuous
 62
         7
100
AcDbLine
 10
187.1780654295
 20
103.1166832809
 30
0.0
 11
187.178064295
 21
110.3666826952
 31
0.0
  0
LINE
  5
C9
100
AcDbEntity
  8
0
370
        15
390
0
  6
Continuous
 62
         7
100
AcDbLine
 10
128.9715649292
 20
103.1166832809
 30
0.0
 11
187.1780654295
 21
103.1166832809
 31
0.0
  0
LINE
  5
CA
100
AcDbEntity
  8
0
370
        15
390
0
  6
Continuous
 62
         7
100
AcDbLine
 10
112.6785648807
 20
119.4096833295
 30
0.0
 11
128.9715649292
 21
103.1166832809
 31
0.0
  0
LINE
  5
CB
100
AcDbEntity
  8
0
370
        15
390
0
  6
Continuous
 62
         7
100
AcDbLine
 10
112.6785648807
 20
145.6166828773
 30
0.0
 11
112.6785648807
 21
119.4096833295
 31
0.0
  0
LINE
  5
CC
100
AcDbEntity
  8
0
370
        15
390
0
  6
Continuous
 62
         7
100
AcDbLine
 10
115.678564295
 20
145.6166826952
 30
0.0
 11
112.6785648807
 21
145.6166828773
 31
0.0
  0
ARC
  5
CD
100
AcDbEntity
  8
0
370
        15
390
0
  6
Continuous
 62
         7
100
AcDbCircle
 10
115.678564295
 20
146.6166826952
 30
0.0
 40
1.0
100
AcDbArc
 50
270.0
 51
0.0
  0
LINE
  5
CE
100
AcDbEntity
  8
0
370
        15
390
0
  6
Continuous
 62
         7
100
AcDbLine
 10
116.678564295
 20
162.6796826952
 30
0.0
 11
116.678564295
 21
146.6166826952
 31
0.0
  0
ARC
  5
CF
100
AcDbEntity
  8
0
370
        15
390
0
  6
Continuous
 62
         7
100
AcDbCircle
 10
115.678564295
 20
162.6796826952
 30
0.0
 40
1.0
100
AcDbArc
 50
0.0
 51
90.0
  0
LINE
  5
D0
100
AcDbEntity
  8
0
370
        15
390
0
  6
Continuous
 62
         7
100
AcDbLine
 10
112.6785648807
 20
163.6796827453
 30
0.0
 11
115.678564295
 21
163.6796826952
 31
0.0
  0
LINE
  5
D1
100
AcDbEntity
  8
0
370
        15
390
0
  6
Continuous
 62
         7
100
AcDbLine
 10
112.6785648807
 20
189.823682061
 30
0.0
 11
112.6785648807
 21
163.6796827453
 31
0.0
  0
LINE
  5
D2
100
AcDbEntity
  8
0
370
        15
390
0
  6
Continuous
 62
         7
100
AcDbLine
 10
128.9715649292
 20
206.1166821095
 30
0.0
 11
112.6785648807
 21
189.823682061
 31
0.0
  0
LINE
  5
D3
100
AcDbEntity
  8
0
370
        15
390
0
  6
Continuous
 62
         7
100
AcDbLine
 10
187.1780654295
 20
206.1166821095
 30
0.0
 11
128.9715649292
 21
206.1166821095
 31
0.0
  0
LINE
  5
D4
100
AcDbEntity
  8
0
370
        15
390
0
  6
Continuous
 62
         7
100
AcDbLine
 10
187.178064295
 20
198.8666826952
 30
0.0
 11
187.1780654295
 21
206.1166821095
 31
0.0
  0
ARC
  5
D5
100
AcDbEntity
  8
0
370
        15
390
0
  6
Continuous
 62
         7
100
AcDbCircle
 10
187.678064295
 20
198.8666826952
 30
0.0
 40
0.5
100
AcDbArc
 50
180.0
 51
270.0
  0
LINE
  5
D6
100
AcDbEntity
  8
0
370
        15
390
0
  6
Continuous
 62
         7
100
AcDbLine
 10
195.741064295
 20
198.3666826952
 30
0.0
 11
187.678064295
 21
198.3666826952
 31
0.0
  0
ARC
  5
D7
100
AcDbEntity
  8
0
370
        15
390
0
  6
Continuous
 62
         7
100
AcDbCircle
 10
195.741064295
 20
198.8666826952
 30
0.0
 40
0.5
100
AcDbArc
 50
270.0
 51
0.0
  0
LINE
  5
D8
100
AcDbEntity
  8
0
370
        15
390
0
  6
Continuous
 62
         7
100
AcDbLine
 10
196.2410643063
 20
206.1166821095
 30
0.0
 11
196.241064295
 21
198.8666826952
 31
0.0
  0
LINE
  5
D9
100
AcDbEntity
  8
0
370
        15
390
0
  6
Continuous
 62
         7
100
AcDbLine
 10
199.3855636607
 20
206.1166821095
 30
0.0
 11
196.2410643063
 21
206.1166821095
 31
0.0
  0
LINE
  5
DA
100
AcDbEntity
  8
0
370
        15
390
0
  6
Continuous
 62
         7
100
AcDbLine
 10
215.6785637093
 20
189.823682061
 30
0.0
 11
199.3855636607
 21
206.1166821095
 31
0.0
  0
DIMENSION
  5
E6
100
AcDbEntity
  8
0
390
0
100
AcDbDimension
  2
*D1
 10
172.1664945898
 20
125.6996813015
 30
0.0
 11
136.4944225721
 21
215.1801018755
 31
0.0
 70
       163
 71
         5
 72
         1
 41
1.0
 42
0.0
  1
<>
  3
SLDDIMSTYLE0
100
AcDbDiametricDimension
 15
156.1906340001
 25
183.5336840889
 35
0.0
 40
0.0
  0
DIMENSION
  5
F6
100
AcDbEntity
  8
0
390
0
100
AcDbDimension
  2
*D2
 10
215.678564295
 20
189.8236826952
 30
0.0
 11
225.8143024815
 21
143.8795192896
 31
0.0
 70
       162
 71
         5
 72
         1
 41
1.0
 42
0.0
  1
<>\P4 PLACES
  3
SLDDIMSTYLE1
100
AcDb2LineAngularDimension
 13
199.385564295
 23
103.1166826952
 33
0.0
 14
215.678564295
 24
119.4096826952
 34
0.0
 15
215.678564295
 25
119.4096826952
 35
0.0
 16
230.3933754152
 26
141.4319538142
 36
0.0
  0
DIMENSION
  5
104
100
AcDbEntity
  8
0
390
0
 62
         7
100
AcDbDimension
  2
*D3
 10
215.678564295
 20
85.9860214078
 30
0.0
 11
232.626604094
 21
85.9860214078
 31
0.0
 70
       160
 71
         5
 72
         1
 41
1.0
 42
0.0
  3
SLDDIMSTYLE2
100
AcDbAlignedDimension
 13
199.385564295
 23
103.1166826952
 33
0.0
 14
215.678564295
 24
119.4096826952
 34
0.0
100
AcDbRotatedDimension
  0
DIMENSION
  5
111
100
AcDbEntity
  8
0
390
0
 62
         7
100
AcDbDimension
  2
*D4
 10
215.678564295
 20
67.4174320075
 30
0.0
 11
189.928564295
 21
67.4174320075
 31
0.0
 70
       160
 71
         5
 72
         1
 41
1.0
 42
0.0
  3
SLDDIMSTYLE2
100
AcDbAlignedDimension
 13
164.178564295
 23
154.6166826952
 33
0.0
 14
215.678564295
 24
119.4096826952
 34
0.0
100
AcDbRotatedDimension
  0
DIMENSION
  5
11E
100
AcDbEntity
  8
0
390
0
 62
         7
100
AcDbDimension
  2
*D5
 10
112.678564295
 20
58.5695904831
 30
0.0
 11
164.178564295
 21
58.5695904831
 31
0.0
 70
       160
 71
         5
 72
         1
 41
1.0
 42
0.0
  3
SLDDIMSTYLE2
100
AcDbAlignedDimension
 13
215.678564295
 23
119.4096826952
 33
0.0
 14
112.678564295
 24
119.4096826952
 34
0.0
100
AcDbRotatedDimension
  0
DIMENSION
  5
12D
100
AcDbEntity
  8
0
390
0
 62
         7
100
AcDbDimension
  2
*D6
 10
238.245369196
 20
103.1166826952
 30
0.0
 11
238.245369196
 21
94.5089890334
 31
0.0
 70
       160
 71
         5
 72
         1
 41
1.0
 42
0.0
  1
<>\P2 PLACES
  3
SLDDIMSTYLE2
100
AcDbAlignedDimension
 13
195.741064295
 23
110.8666826952
 33
0.0
 14
187.178064295
 24
103.1166826952
 34
0.0
 50
90.0
100
AcDbRotatedDimension
  0
DIMENSION
  5
13B
100
AcDbEntity
  8
0
390
0
 62
         7
100
AcDbDimension
  2
*D7
 10
196.241064295
 20
75.8757590383
 30
0.0
 11
230.7573150519
 21
75.8757590383
 31
0.0
 70
       160
 71
         5
 72
         1
 41
1.0
 42
0.0
  1
<>\P2 PLACES
  3
SLDDIMSTYLE2
100
AcDbAlignedDimension
 13
187.178064295
 23
103.1166826952
 33
0.0
 14
196.241064295
 24
103.1166826952
 34
0.0
100
AcDbRotatedDimension
  0
DIMENSION
  5
149
100
AcDbEntity
  8
0
390
0
 62
         7
100
AcDbDimension
  2
*D8
 10
101.2344226671
 20
145.6166826952
 30
0.0
 11
101.2344226671
 21
181.5122510665
 31
0.0
 70
       160
 71
         5
 72
         1
 41
1.0
 42
0.0
  3
SLDDIMSTYLE2
100
AcDbAlignedDimension
 13
112.678564295
 23
163.6796826952
 33
0.0
 14
112.678564295
 24
145.6166826952
 34
0.0
 50
90.0
100
AcDbRotatedDimension
  0
DIMENSION
  5
155
100
AcDbEntity
  8
0
390
0
 62
         7
100
AcDbDimension
  2
*D9
 10
112.678564295
 20
126.8522602317
 30
0.0
 11
94.296441361
 21
126.8522602317
 31
0.0
 70
       160
 71
         5
 72
         1
 41
1.0
 42
0.0
  3
SLDDIMSTYLE2
100
AcDbAlignedDimension
 13
116.678564295
 23
146.6166826952
 33
0.0
 14
112.678564295
 24
119.4096826952
 34
0.0
100
AcDbRotatedDimension
  0
DIMENSION
  5
162
100
AcDbEntity
  8
0
390
0
 62
         7
100
AcDbDimension
  2
*D10
 10
50.2430188679
 20
103.1166826952
 30
0.0
 11
50.2430188679
 21
154.6166826952
 31
0.0
 70
       160
 71
         5
 72
         1
 41
1.0
 42
0.0
  3
SLDDIMSTYLE2
100
AcDbAlignedDimension
 13
128.971564295
 23
206.1166826952
 33
0.0
 14
128.971564295
 24
103.1166826952
 34
0.0
 50
-90.0
100
AcDbRotatedDimension
  0
DIMENSION
  5
16F
100
AcDbEntity
  8
0
390
0
100
AcDbDimension
  2
*D11
 10
195.741064295
 20
198.8666826952
 30
0.0
 11
173.6777057213
 21
214.1881406228
 31
0.0
 70
       164
 71
         5
 72
         1
 41
1.0
 42
0.0
  1
RAD <>\P4 PLACES
  3
SLDDIMSTYLE3
100
AcDbRadialDimension
 15
195.9855397257
 25
198.4305270306
 35
0.0
 40
0.0
  0
DIMENSION
  5
17E
100
AcDbEntity
  8
0
390
0
100
AcDbDimension
  2
*D12
 10
210.377453241
 20
217.1085716412
 30
0.0
 11
218.523953241
 21
208.9620716412
 31
0.0
 70
       160
 71
         5
 72
         1
 41
1.0
 42
0.0
  1
(<>)
  3
SLDDIMSTYLE2
100
AcDbAlignedDimension
 13
215.678564295
 23
189.8236826952
 33
0.0
 14
199.385564295
 24
206.1166826952
 34
0.0
 50
-45.0
100
AcDbRotatedDimension
  0
DIMENSION
  5
18B
100
AcDbEntity
  8
0
390
0
100
AcDbDimension
  2
*D13
 10
69.8984004495
 20
154.6166826952
 30
0.0
 11
69.8984004495
 21
128.8666826952
 31
0.0
 70
       160
 71
         5
 72
         1
 41
1.0
 42
0.0
  3
SLDDIMSTYLE2
100
AcDbAlignedDimension
 13
128.971564295
 23
103.1166826952
 33
0.0
 14
164.178564295
 24
154.6166826952
 34
0.0
 50
90.0
100
AcDbRotatedDimension
  0
DIMENSION
  5
198
100
AcDbEntity
  8
0
390
0
100
AcDbDimension
  2
*D14
 10
187.178064295
 20
75.8757590383
 30
0.0
 11
148.6762278254
 21
75.8757590383
 31
0.0
 70
       160
 71
         5
 72
         1
 41
1.0
 42
0.0
  3
SLDDIMSTYLE2
100
AcDbAlignedDimension
 13
164.178564295
 23
154.6166826952
 33
0.0
 14
187.178064295
 24
103.1166826952
 34
0.0
 50
180.0
100
AcDbRotatedDimension
  0
DIMENSION
  5
1A6
100
AcDbEntity
  8
0
390
0
100
AcDbDimension
  2
*D15
 10
89.5575183991
 20
145.6166826952
 30
0.0
 11
89.5575183991
 21
168.4704364823
 31
0.0
 70
       160
 71
         5
 72
         1
 41
1.0
 42
0.0
  3
SLDDIMSTYLE2
100
AcDbAlignedDimension
 13
164.178564295
 23
154.6166826952
 33
0.0
 14
112.678564295
 24
145.6166826952
 34
0.0
 50
90.0
100
AcDbRotatedDimension
  0
DIMENSION
  5
1B3
100
AcDbEntity
  8
0
390
0
100
AcDbDimension
  2
*D16
 10
115.678564295
 20
162.6796826952
 30
0.0
 11
151.5095654279
 21
169.3531512839
 31
0.0
 70
       164
 71
         5
 72
         1
 41
1.0
 42
0.0
  1
RAD <>\P2 PLACES
  3
SLDDIMSTYLE4
100
AcDbRadialDimension
 15
116.6371641132
 25
162.9644394135
 35
0.0
 40
0.0
  0
POLYLINE
  5
1B4
100
AcDbEntity
  8
0
390
0
  6
Continuous
 62
         7
100
AcDb2dPolyline
 66
         1
 10
0.0
 20
0.0
 30
0.0
 70
       128
 40
0.1299212598
 41
0.1299212598
  0
VERTEX
  5
1B5
100
AcDbEntity
  8
0
390
0
100
AcDbVertex
100
AcDb2dVertex
 10
290.1677605268
 20
155.2573530208
 30
0.0
  0
VERTEX
  5
1B6
100
AcDbEntity
  8
0
390
0
100
AcDbVertex
100
AcDb2dVertex
 10
290.5545247651
 20
155.0398488836
 30
0.0
  0
VERTEX
  5
1B7
100
AcDbEntity
  8
0
390
0
100
AcDbVertex
100
AcDb2dVertex
 10
290.9510191326
 20
154.828263918
 30
0.0
  0
VERTEX
  5
1B8
100
AcDbEntity
  8
0
390
0
100
AcDbVertex
100
AcDb2dVertex
 10
291.356971892
 20
154.6227431336
 30
0.0
  0
VERTEX
  5
1B9
100
AcDbEntity
  8
0
390
0
100
AcDbVertex
100
AcDb2dVertex
 10
291.7721048234
 20
154.4234273842
 30
0.0
  0
VERTEX
  5
1BA
100
AcDbEntity
  8
0
390
0
100
AcDbVertex
100
AcDb2dVertex
 10
292.1961334155
 20
154.2304532709
 30
0.0
  0
VERTEX
  5
1BB
100
AcDbEntity
  8
0
390
0
100
AcDbVertex
100
AcDb2dVertex
 10
292.6287670603
 20
154.0439530485
 30
0.0
  0
VERTEX
  5
1BC
100
AcDbEntity
  8
0
390
0
100
AcDbVertex
100
AcDb2dVertex
 10
293.0697092522
 20
153.8640545348
 30
0.0
  0
VERTEX
  5
1BD
100
AcDbEntity
  8
0
390
0
100
AcDbVertex
100
AcDb2dVertex
 10
293.5186577916
 20
153.6908810233
 30
0.0
  0
VERTEX
  5
1BE
100
AcDbEntity
  8
0
390
0
100
AcDbVertex
100
AcDb2dVertex
 10
293.9753049915
 20
153.5245511986
 30
0.0
  0
VERTEX
  5
1BF
100
AcDbEntity
  8
0
390
0
100
AcDbVertex
100
AcDb2dVertex
 10
294.4393378888
 20
153.3651790548
 30
0.0
  0
VERTEX
  5
1C0
100
AcDbEntity
  8
0
390
0
100
AcDbVertex
100
AcDb2dVertex
 10
294.9104384584
 20
153.2128738175
 30
0.0
  0
VERTEX
  5
1C1
100
AcDbEntity
  8
0
390
0
100
AcDbVertex
100
AcDb2dVertex
 10
295.3882838317
 20
153.0677398693
 30
0.0
  0
VERTEX
  5
1C2
100
AcDbEntity
  8
0
390
0
100
AcDbVertex
100
AcDb2dVertex
 10
295.8725465171
 20
152.9298766776
 30
0.0
  0
VERTEX
  5
1C3
100
AcDbEntity
  8
0
390
0
100
AcDbVertex
100
AcDb2dVertex
 10
296.3628946253
 20
152.7993787269
 30
0.0
  0
VERTEX
  5
1C4
100
AcDbEntity
  8
0
390
0
100
AcDbVertex
100
AcDb2dVertex
 10
296.8589920963
 20
152.6763354541
 30
0.0
  0
VERTEX
  5
1C5
100
AcDbEntity
  8
0
390
0
100
AcDbVertex
100
AcDb2dVertex
 10
297.3604989294
 20
152.560831187
 30
0.0
  0
VERTEX
  5
1C6
100
AcDbEntity
  8
0
390
0
100
AcDbVertex
100
AcDb2dVertex
 10
297.8670714171
 20
152.4529450862
 30
0.0
  0
VERTEX
  5
1C7
100
AcDbEntity
  8
0
390
0
100
AcDbVertex
100
AcDb2dVertex
 10
298.3783623798
 20
152.3527510916
 30
0.0
  0
VERTEX
  5
1C8
100
AcDbEntity
  8
0
390
0
100
AcDbVertex
100
AcDb2dVertex
 10
298.8940214043
 20
152.2603178712
 30
0.0
  0
VERTEX
  5
1C9
100
AcDbEntity
  8
0
390
0
100
AcDbVertex
100
AcDb2dVertex
 10
299.4136950835
 20
152.175708774
 30
0.0
  0
VERTEX
  5
1CA
100
AcDbEntity
  8
0
390
0
100
AcDbVertex
100
AcDb2dVertex
 10
299.9370272593
 20
152.0989817868
 30
0.0
  0
VERTEX
  5
1CB
100
AcDbEntity
  8
0
390
0
100
AcDbVertex
100
AcDb2dVertex
 10
300.4636592657
 20
152.0301894947
 30
0.0
  0
VERTEX
  5
1CC
100
AcDbEntity
  8
0
390
0
100
AcDbVertex
100
AcDb2dVertex
 10
300.9932301755
 20
151.9693790443
 30
0.0
  0
VERTEX
  5
1CD
100
AcDbEntity
  8
0
390
0
100
AcDbVertex
100
AcDb2dVertex
 10
301.5253770473
 20
151.916592112
 30
0.0
  0
VERTEX
  5
1CE
100
AcDbEntity
  8
0
390
0
100
AcDbVertex
100
AcDb2dVertex
 10
302.0597351742
 20
151.8718648755
 30
0.0
  0
VERTEX
  5
1CF
100
AcDbEntity
  8
0
390
0
100
AcDbVertex
100
AcDb2dVertex
 10
302.5959383339
 20
151.8352279885
 30
0.0
  0
VERTEX
  5
1D0
100
AcDbEntity
  8
0
390
0
100
AcDbVertex
100
AcDb2dVertex
 10
303.1336190394
 20
151.8067065602
 30
0.0
  0
VERTEX
  5
1D1
100
AcDbEntity
  8
0
390
0
100
AcDbVertex
100
AcDb2dVertex
 10
303.6724087913
 20
151.7863201376
 30
0.0
  0
VERTEX
  5
1D2
100
AcDbEntity
  8
0
390
0
100
AcDbVertex
100
AcDb2dVertex
 10
304.2119383299
 20
151.7740826926
 30
0.0
  0
VERTEX
  5
1D3
100
AcDbEntity
  8
0
390
0
100
AcDbVertex
100
AcDb2dVertex
 10
304.7518378888
 20
151.7700026122
 30
0.0
  0
VERTEX
  5
1D4
100
AcDbEntity
  8
0
390
0
100
AcDbVertex
100
AcDb2dVertex
 10
305.2917374476
 20
151.7740826926
 30
0.0
  0
VERTEX
  5
1D5
100
AcDbEntity
  8
0
390
0
100
AcDbVertex
100
AcDb2dVertex
 10
305.8312669863
 20
151.7863201376
 30
0.0
  0
VERTEX
  5
1D6
100
AcDbEntity
  8
0
390
0
100
AcDbVertex
100
AcDb2dVertex
 10
306.3700567382
 20
151.8067065602
 30
0.0
  0
VERTEX
  5
1D7
100
AcDbEntity
  8
0
390
0
100
AcDbVertex
100
AcDb2dVertex
 10
306.9077374437
 20
151.8352279885
 30
0.0
  0
VERTEX
  5
1D8
100
AcDbEntity
  8
0
390
0
100
AcDbVertex
100
AcDb2dVertex
 10
307.4439406033
 20
151.8718648755
 30
0.0
  0
VERTEX
  5
1D9
100
AcDbEntity
  8
0
390
0
100
AcDbVertex
100
AcDb2dVertex
 10
307.9782987302
 20
151.916592112
 30
0.0
  0
VERTEX
  5
1DA
100
AcDbEntity
  8
0
390
0
100
AcDbVertex
100
AcDb2dVertex
 10
308.5104456021
 20
151.9693790443
 30
0.0
  0
VERTEX
  5
1DB
100
AcDbEntity
  8
0
390
0
100
AcDbVertex
100
AcDb2dVertex
 10
309.0400165119
 20
152.0301894947
 30
0.0
  0
VERTEX
  5
1DC
100
AcDbEntity
  8
0
390
0
100
AcDbVertex
100
AcDb2dVertex
 10
309.5666485183
 20
152.0989817868
 30
0.0
  0
VERTEX
  5
1DD
100
AcDbEntity
  8
0
390
0
100
AcDbVertex
100
AcDb2dVertex
 10
310.089980694
 20
152.175708774
 30
0.0
  0
VERTEX
  5
1DE
100
AcDbEntity
  8
0
390
0
100
AcDbVertex
100
AcDb2dVertex
 10
310.6096543733
 20
152.2603178712
 30
0.0
  0
VERTEX
  5
1DF
100
AcDbEntity
  8
0
390
0
100
AcDbVertex
100
AcDb2dVertex
 10
311.1253133978
 20
152.3527510916
 30
0.0
  0
VERTEX
  5
1E0
100
AcDbEntity
  8
0
390
0
100
AcDbVertex
100
AcDb2dVertex
 10
311.6366043605
 20
152.4529450862
 30
0.0
  0
VERTEX
  5
1E1
100
AcDbEntity
  8
0
390
0
100
AcDbVertex
100
AcDb2dVertex
 10
312.1431768482
 20
152.560831187
 30
0.0
  0
VERTEX
  5
1E2
100
AcDbEntity
  8
0
390
0
100
AcDbVertex
100
AcDb2dVertex
 10
312.6446836813
 20
152.6763354541
 30
0.0
  0
VERTEX
  5
1E3
100
AcDbEntity
  8
0
390
0
100
AcDbVertex
100
AcDb2dVertex
 10
313.1407811522
 20
152.7993787269
 30
0.0
  0
VERTEX
  5
1E4
100
AcDbEntity
  8
0
390
0
100
AcDbVertex
100
AcDb2dVertex
 10
313.6311292605
 20
152.9298766776
 30
0.0
  0
VERTEX
  5
1E5
100
AcDbEntity
  8
0
390
0
100
AcDbVertex
100
AcDb2dVertex
 10
314.1153919459
 20
153.0677398693
 30
0.0
  0
VERTEX
  5
1E6
100
AcDbEntity
  8
0
390
0
100
AcDbVertex
100
AcDb2dVertex
 10
314.5932373191
 20
153.2128738175
 30
0.0
  0
VERTEX
  5
1E7
100
AcDbEntity
  8
0
390
0
100
AcDbVertex
100
AcDb2dVertex
 10
315.0643378888
 20
153.3651790548
 30
0.0
  0
VERTEX
  5
1E8
100
AcDbEntity
  8
0
390
0
100
AcDbVertex
100
AcDb2dVertex
 10
315.5283707861
 20
153.5245511986
 30
0.0
  0
VERTEX
  5
1E9
100
AcDbEntity
  8
0
390
0
100
AcDbVertex
100
AcDb2dVertex
 10
315.985017986
 20
153.6908810233
 30
0.0
  0
VERTEX
  5
1EA
100
AcDbEntity
  8
0
390
0
100
AcDbVertex
100
AcDb2dVertex
 10
316.4339665254
 20
153.8640545348
 30
0.0
  0
VERTEX
  5
1EB
100
AcDbEntity
  8
0
390
0
100
AcDbVertex
100
AcDb2dVertex
 10
316.8749087173
 20
154.0439530485
 30
0.0
  0
VERTEX
  5
1EC
100
AcDbEntity
  8
0
390
0
100
AcDbVertex
100
AcDb2dVertex
 10
317.3075423621
 20
154.2304532709
 30
0.0
  0
VERTEX
  5
1ED
100
AcDbEntity
  8
0
390
0
100
AcDbVertex
100
AcDb2dVertex
 10
317.7315709542
 20
154.4234273842
 30
0.0
  0
VERTEX
  5
1EE
100
AcDbEntity
  8
0
390
0
100
AcDbVertex
100
AcDb2dVertex
 10
318.1467038856
 20
154.6227431336
 30
0.0
  0
VERTEX
  5
1EF
100
AcDbEntity
  8
0
390
0
100
AcDbVertex
100
AcDb2dVertex
 10
318.5526566449
 20
154.828263918
 30
0.0
  0
VERTEX
  5
1F0
100
AcDbEntity
  8
0
390
0
100
AcDbVertex
100
AcDb2dVertex
 10
318.9491510125
 20
155.0398488836
 30
0.0
  0
VERTEX
  5
1F1
100
AcDbEntity
  8
0
390
0
100
AcDbVertex
100
AcDb2dVertex
 10
319.3359152508
 20
155.2573530208
 30
0.0
  0
VERTEX
  5
1F2
100
AcDbEntity
  8
0
390
0
100
AcDbVertex
100
AcDb2dVertex
 10
319.7126842909
 20
155.480627263
 30
0.0
  0
VERTEX
  5
1F3
100
AcDbEntity
  8
0
390
0
100
AcDbVertex
100
AcDb2dVertex
 10
320.0791999143
 20
155.7095185893
 30
0.0
  0
VERTEX
  5
1F4
100
AcDbEntity
  8
0
390
0
100
AcDbVertex
100
AcDb2dVertex
 10
320.4352109293
 20
155.943870129
 30
0.0
  0
VERTEX
  5
1F5
100
AcDbEntity
  8
0
390
0
100
AcDbVertex
100
AcDb2dVertex
 10
320.7804733438
 20
156.1835212691
 30
0.0
  0
VERTEX
  5
1F6
100
AcDbEntity
  8
0
390
0
100
AcDbVertex
100
AcDb2dVertex
 10
321.1147505323
 20
156.4283077649
 30
0.0
  0
VERTEX
  5
1F7
100
AcDbEntity
  8
0
390
0
100
AcDbVertex
100
AcDb2dVertex
 10
321.4378133978
 20
156.6780618519
 30
0.0
  0
VERTEX
  5
1F8
100
AcDbEntity
  8
0
390
0
100
AcDbVertex
100
AcDb2dVertex
 10
321.7494405291
 20
156.9326123611
 30
0.0
  0
VERTEX
  5
1F9
100
AcDbEntity
  8
0
390
0
100
AcDbVertex
100
AcDb2dVertex
 10
322.0494183527
 20
157.1917848362
 30
0.0
  0
VERTEX
  5
1FA
100
AcDbEntity
  8
0
390
0
100
AcDbVertex
100
AcDb2dVertex
 10
322.3375412786
 20
157.4554016535
 30
0.0
  0
VERTEX
  5
1FB
100
AcDbEntity
  8
0
390
0
100
AcDbVertex
100
AcDb2dVertex
 10
322.6136118418
 20
157.7232821431
 30
0.0
  0
VERTEX
  5
1FC
100
AcDbEntity
  8
0
390
0
100
AcDbVertex
100
AcDb2dVertex
 10
322.8774408374
 20
157.9952427131
 30
0.0
  0
VERTEX
  5
1FD
100
AcDbEntity
  8
0
390
0
100
AcDbVertex
100
AcDb2dVertex
 10
323.1288474502
 20
158.2710969753
 30
0.0
  0
VERTEX
  5
1FE
100
AcDbEntity
  8
0
390
0
100
AcDbVertex
100
AcDb2dVertex
 10
323.3676593785
 20
158.5506558731
 30
0.0
  0
VERTEX
  5
1FF
100
AcDbEntity
  8
0
390
0
100
AcDbVertex
100
AcDb2dVertex
 10
323.5937129527
 20
158.8337278106
 30
0.0
  0
VERTEX
  5
200
100
AcDbEntity
  8
0
390
0
100
AcDbVertex
100
AcDb2dVertex
 10
323.8068532468
 20
159.1201187845
 30
0.0
  0
VERTEX
  5
201
100
AcDbEntity
  8
0
390
0
100
AcDbVertex
100
AcDb2dVertex
 10
324.0069341853
 20
159.4096325168
 30
0.0
  0
VERTEX
  5
202
100
AcDbEntity
  8
0
390
0
100
AcDbVertex
100
AcDb2dVertex
 10
324.1938186426
 20
159.7020705893
 30
0.0
  0
VERTEX
  5
203
100
AcDbEntity
  8
0
390
0
100
AcDbVertex
100
AcDb2dVertex
 10
324.3673785374
 20
159.9972325793
 30
0.0
  0
VERTEX
  5
204
100
AcDbEntity
  8
0
390
0
100
AcDbVertex
100
AcDb2dVertex
 10
324.5274949204
 20
160.2949161978
 30
0.0
  0
VERTEX
  5
205
100
AcDbEntity
  8
0
390
0
100
AcDbVertex
100
AcDb2dVertex
 10
324.674058056
 20
160.5949174271
 30
0.0
  0
VERTEX
  5
206
100
AcDbEntity
  8
0
390
0
100
AcDbVertex
100
AcDb2dVertex
 10
324.806967497
 20
160.8970306615
 30
0.0
  0
VERTEX
  5
207
100
AcDbEntity
  8
0
390
0
100
AcDbVertex
100
AcDb2dVertex
 10
324.9261321539
 20
161.2010488476
 30
0.0
  0
VERTEX
  5
208
100
AcDbEntity
  8
0
390
0
100
AcDbVertex
100
AcDb2dVertex
 10
325.0314703573
 20
161.5067636265
 30
0.0
  0
VERTEX
  5
209
100
AcDbEntity
  8
0
390
0
100
AcDbVertex
100
AcDb2dVertex
 10
325.1229099136
 20
161.8139654767
 30
0.0
  0
VERTEX
  5
20A
100
AcDbEntity
  8
0
390
0
100
AcDbVertex
100
AcDb2dVertex
 10
325.2003881546
 20
162.1224438572
 30
0.0
  0
VERTEX
  5
20B
100
AcDbEntity
  8
0
390
0
100
AcDbVertex
100
AcDb2dVertex
 10
325.2638519808
 20
162.4319873524
 30
0.0
  0
VERTEX
  5
20C
100
AcDbEntity
  8
0
390
0
100
AcDbVertex
100
AcDb2dVertex
 10
325.313257897
 20
162.7423838167
 30
0.0
  0
VERTEX
  5
20D
100
AcDbEntity
  8
0
390
0
100
AcDbVertex
100
AcDb2dVertex
 10
325.3485720431
 20
163.0534205199
 30
0.0
  0
VERTEX
  5
20E
100
AcDbEntity
  8
0
390
0
100
AcDbVertex
100
AcDb2dVertex
 10
325.3697702164
 20
163.3648842929
 30
0.0
  0
VERTEX
  5
20F
100
AcDbEntity
  8
0
390
0
100
AcDbVertex
100
AcDb2dVertex
 10
325.3768378888
 20
163.6765616739
 30
0.0
  0
VERTEX
  5
210
100
AcDbEntity
  8
0
390
0
100
AcDbVertex
100
AcDb2dVertex
 10
325.3697702164
 20
163.988239055
 30
0.0
  0
VERTEX
  5
211
100
AcDbEntity
  8
0
390
0
100
AcDbVertex
100
AcDb2dVertex
 10
325.3485720431
 20
164.299702828
 30
0.0
  0
VERTEX
  5
212
100
AcDbEntity
  8
0
390
0
100
AcDbVertex
100
AcDb2dVertex
 10
325.313257897
 20
164.6107395312
 30
0.0
  0
VERTEX
  5
213
100
AcDbEntity
  8
0
390
0
100
AcDbVertex
100
AcDb2dVertex
 10
325.2638519808
 20
164.9211359955
 30
0.0
  0
VERTEX
  5
214
100
AcDbEntity
  8
0
390
0
100
AcDbVertex
100
AcDb2dVertex
 10
325.2003881546
 20
165.2306794907
 30
0.0
  0
VERTEX
  5
215
100
AcDbEntity
  8
0
390
0
100
AcDbVertex
100
AcDb2dVertex
 10
325.1229099136
 20
165.5391578712
 30
0.0
  0
VERTEX
  5
216
100
AcDbEntity
  8
0
390
0
100
AcDbVertex
100
AcDb2dVertex
 10
325.0314703573
 20
165.8463597214
 30
0.0
  0
VERTEX
  5
217
100
AcDbEntity
  8
0
390
0
100
AcDbVertex
100
AcDb2dVertex
 10
324.9261321539
 20
166.1520745003
 30
0.0
  0
VERTEX
  5
218
100
AcDbEntity
  8
0
390
0
100
AcDbVertex
100
AcDb2dVertex
 10
324.806967497
 20
166.4560926864
 30
0.0
  0
VERTEX
  5
219
100
AcDbEntity
  8
0
390
0
100
AcDbVertex
100
AcDb2dVertex
 10
324.674058056
 20
166.7582059208
 30
0.0
  0
VERTEX
  5
21A
100
AcDbEntity
  8
0
390
0
100
AcDbVertex
100
AcDb2dVertex
 10
324.5274949204
 20
167.0582071501
 30
0.0
  0
VERTEX
  5
21B
100
AcDbEntity
  8
0
390
0
100
AcDbVertex
100
AcDb2dVertex
 10
324.3673785374
 20
167.3558907686
 30
0.0
  0
VERTEX
  5
21C
100
AcDbEntity
  8
0
390
0
100
AcDbVertex
100
AcDb2dVertex
 10
324.1938186426
 20
167.6510527586
 30
0.0
  0
VERTEX
  5
21D
100
AcDbEntity
  8
0
390
0
100
AcDbVertex
100
AcDb2dVertex
 10
324.0069341853
 20
167.9434908311
 30
0.0
  0
VERTEX
  5
21E
100
AcDbEntity
  8
0
390
0
100
AcDbVertex
100
AcDb2dVertex
 10
323.8068532468
 20
168.2330045634
 30
0.0
  0
VERTEX
  5
21F
100
AcDbEntity
  8
0
390
0
100
AcDbVertex
100
AcDb2dVertex
 10
323.5937129527
 20
168.5193955373
 30
0.0
  0
VERTEX
  5
220
100
AcDbEntity
  8
0
390
0
100
AcDbVertex
100
AcDb2dVertex
 10
323.3676593785
 20
168.8024674748
 30
0.0
  0
VERTEX
  5
221
100
AcDbEntity
  8
0
390
0
100
AcDbVertex
100
AcDb2dVertex
 10
323.1288474502
 20
169.0820263726
 30
0.0
  0
VERTEX
  5
222
100
AcDbEntity
  8
0
390
0
100
AcDbVertex
100
AcDb2dVertex
 10
322.8774408374
 20
169.3578806348
 30
0.0
  0
VERTEX
  5
223
100
AcDbEntity
  8
0
390
0
100
AcDbVertex
100
AcDb2dVertex
 10
322.6136118418
 20
169.6298412048
 30
0.0
  0
VERTEX
  5
224
100
AcDbEntity
  8
0
390
0
100
AcDbVertex
100
AcDb2dVertex
 10
322.3375412786
 20
169.8977216944
 30
0.0
  0
VERTEX
  5
225
100
AcDbEntity
  8
0
390
0
100
AcDbVertex
100
AcDb2dVertex
 10
322.0494183527
 20
170.1613385117
 30
0.0
  0
VERTEX
  5
226
100
AcDbEntity
  8
0
390
0
100
AcDbVertex
100
AcDb2dVertex
 10
321.7494405291
 20
170.4205109868
 30
0.0
  0
VERTEX
  5
227
100
AcDbEntity
  8
0
390
0
100
AcDbVertex
100
AcDb2dVertex
 10
321.4378133978
 20
170.675061496
 30
0.0
  0
VERTEX
  5
228
100
AcDbEntity
  8
0
390
0
100
AcDbVertex
100
AcDb2dVertex
 10
321.1147505323
 20
170.924815583
 30
0.0
  0
VERTEX
  5
229
100
AcDbEntity
  8
0
390
0
100
AcDbVertex
100
AcDb2dVertex
 10
320.7804733438
 20
171.1696020788
 30
0.0
  0
VERTEX
  5
22A
100
AcDbEntity
  8
0
390
0
100
AcDbVertex
100
AcDb2dVertex
 10
320.4352109293
 20
171.4092532189
 30
0.0
  0
VERTEX
  5
22B
100
AcDbEntity
  8
0
390
0
100
AcDbVertex
100
AcDb2dVertex
 10
320.0791999143
 20
171.6436047586
 30
0.0
  0
VERTEX
  5
22C
100
AcDbEntity
  8
0
390
0
100
AcDbVertex
100
AcDb2dVertex
 10
319.7126842909
 20
171.8724960849
 30
0.0
  0
VERTEX
  5
22D
100
AcDbEntity
  8
0
390
0
100
AcDbVertex
100
AcDb2dVertex
 10
319.3359152508
 20
172.0957703271
 30
0.0
  0
VERTEX
  5
22E
100
AcDbEntity
  8
0
390
0
100
AcDbVertex
100
AcDb2dVertex
 10
318.9491510125
 20
172.3132744643
 30
0.0
  0
VERTEX
  5
22F
100
AcDbEntity
  8
0
390
0
100
AcDbVertex
100
AcDb2dVertex
 10
318.5526566449
 20
172.5248594299
 30
0.0
  0
VERTEX
  5
230
100
AcDbEntity
  8
0
390
0
100
AcDbVertex
100
AcDb2dVertex
 10
318.1467038856
 20
172.7303802143
 30
0.0
  0
VERTEX
  5
231
100
AcDbEntity
  8
0
390
0
100
AcDbVertex
100
AcDb2dVertex
 10
317.7315709542
 20
172.9296959636
 30
0.0
  0
VERTEX
  5
232
100
AcDbEntity
  8
0
390
0
100
AcDbVertex
100
AcDb2dVertex
 10
317.3075423621
 20
173.122670077
 30
0.0
  0
VERTEX
  5
233
100
AcDbEntity
  8
0
390
0
100
AcDbVertex
100
AcDb2dVertex
 10
316.8749087173
 20
173.3091702994
 30
0.0
  0
VERTEX
  5
234
100
AcDbEntity
  8
0
390
0
100
AcDbVertex
100
AcDb2dVertex
 10
316.4339665254
 20
173.4890688131
 30
0.0
  0
VERTEX
  5
235
100
AcDbEntity
  8
0
390
0
100
AcDbVertex
100
AcDb2dVertex
 10
315.985017986
 20
173.6622423246
 30
0.0
  0
VERTEX
  5
236
100
AcDbEntity
  8
0
390
0
100
AcDbVertex
100
AcDb2dVertex
 10
315.5283707861
 20
173.8285721493
 30
0.0
  0
VERTEX
  5
237
100
AcDbEntity
  8
0
390
0
100
AcDbVertex
100
AcDb2dVertex
 10
315.0643378888
 20
173.9879442931
 30
0.0
  0
VERTEX
  5
238
100
AcDbEntity
  8
0
390
0
100
AcDbVertex
100
AcDb2dVertex
 10
314.5932373191
 20
174.1402495303
 30
0.0
  0
VERTEX
  5
239
100
AcDbEntity
  8
0
390
0
100
AcDbVertex
100
AcDb2dVertex
 10
314.1153919459
 20
174.2853834786
 30
0.0
  0
VERTEX
  5
23A
100
AcDbEntity
  8
0
390
0
100
AcDbVertex
100
AcDb2dVertex
 10
313.6311292605
 20
174.4232466703
 30
0.0
  0
VERTEX
  5
23B
100
AcDbEntity
  8
0
390
0
100
AcDbVertex
100
AcDb2dVertex
 10
313.1407811522
 20
174.553744621
 30
0.0
  0
VERTEX
  5
23C
100
AcDbEntity
  8
0
390
0
100
AcDbVertex
100
AcDb2dVertex
 10
312.6446836813
 20
174.6767878937
 30
0.0
  0
VERTEX
  5
23D
100
AcDbEntity
  8
0
390
0
100
AcDbVertex
100
AcDb2dVertex
 10
312.1431768482
 20
174.7922921609
 30
0.0
  0
VERTEX
  5
23E
100
AcDbEntity
  8
0
390
0
100
AcDbVertex
100
AcDb2dVertex
 10
311.6366043605
 20
174.9001782617
 30
0.0
  0
VERTEX
  5
23F
100
AcDbEntity
  8
0
390
0
100
AcDbVertex
100
AcDb2dVertex
 10
311.1253133978
 20
175.0003722563
 30
0.0
  0
VERTEX
  5
240
100
AcDbEntity
  8
0
390
0
100
AcDbVertex
100
AcDb2dVertex
 10
310.6096543733
 20
175.0928054767
 30
0.0
  0
VERTEX
  5
241
100
AcDbEntity
  8
0
390
0
100
AcDbVertex
100
AcDb2dVertex
 10
310.089980694
 20
175.1774145739
 30
0.0
  0
VERTEX
  5
242
100
AcDbEntity
  8
0
390
0
100
AcDbVertex
100
AcDb2dVertex
 10
309.5666485183
 20
175.254141561
 30
0.0
  0
VERTEX
  5
243
100
AcDbEntity
  8
0
390
0
100
AcDbVertex
100
AcDb2dVertex
 10
309.0400165119
 20
175.3229338532
 30
0.0
  0
VERTEX
  5
244
100
AcDbEntity
  8
0
390
0
100
AcDbVertex
100
AcDb2dVertex
 10
308.5104456021
 20
175.3837443036
 30
0.0
  0
VERTEX
  5
245
100
AcDbEntity
  8
0
390
0
100
AcDbVertex
100
AcDb2dVertex
 10
307.9782987302
 20
175.4365312359
 30
0.0
  0
VERTEX
  5
246
100
AcDbEntity
  8
0
390
0
100
AcDbVertex
100
AcDb2dVertex
 10
307.4439406033
 20
175.4812584724
 30
0.0
  0
VERTEX
  5
247
100
AcDbEntity
  8
0
390
0
100
AcDbVertex
100
AcDb2dVertex
 10
306.9077374437
 20
175.5178953594
 30
0.0
  0
VERTEX
  5
248
100
AcDbEntity
  8
0
390
0
100
AcDbVertex
100
AcDb2dVertex
 10
306.3700567382
 20
175.5464167877
 30
0.0
  0
VERTEX
  5
249
100
AcDbEntity
  8
0
390
0
100
AcDbVertex
100
AcDb2dVertex
 10
305.8312669863
 20
175.5668032103
 30
0.0
  0
VERTEX
  5
24A
100
AcDbEntity
  8
0
390
0
100
AcDbVertex
100
AcDb2dVertex
 10
305.2917374476
 20
175.5790406553
 30
0.0
  0
VERTEX
  5
24B
100
AcDbEntity
  8
0
390
0
100
AcDbVertex
100
AcDb2dVertex
 10
304.7518378888
 20
175.5831207357
 30
0.0
  0
VERTEX
  5
24C
100
AcDbEntity
  8
0
390
0
100
AcDbVertex
100
AcDb2dVertex
 10
304.2119383299
 20
175.5790406553
 30
0.0
  0
VERTEX
  5
24D
100
AcDbEntity
  8
0
390
0
100
AcDbVertex
100
AcDb2dVertex
 10
303.6724087913
 20
175.5668032103
 30
0.0
  0
VERTEX
  5
24E
100
AcDbEntity
  8
0
390
0
100
AcDbVertex
100
AcDb2dVertex
 10
303.1336190394
 20
175.5464167877
 30
0.0
  0
VERTEX
  5
24F
100
AcDbEntity
  8
0
390
0
100
AcDbVertex
100
AcDb2dVertex
 10
302.5959383339
 20
175.5178953594
 30
0.0
  0
VERTEX
  5
250
100
AcDbEntity
  8
0
390
0
100
AcDbVertex
100
AcDb2dVertex
 10
302.0597351742
 20
175.4812584724
 30
0.0
  0
VERTEX
  5
251
100
AcDbEntity
  8
0
390
0
100
AcDbVertex
100
AcDb2dVertex
 10
301.5253770473
 20
175.4365312359
 30
0.0
  0
VERTEX
  5
252
100
AcDbEntity
  8
0
390
0
100
AcDbVertex
100
AcDb2dVertex
 10
300.9932301755
 20
175.3837443036
 30
0.0
  0
VERTEX
  5
253
100
AcDbEntity
  8
0
390
0
100
AcDbVertex
100
AcDb2dVertex
 10
300.4636592657
 20
175.3229338532
 30
0.0
  0
VERTEX
  5
254
100
AcDbEntity
  8
0
390
0
100
AcDbVertex
100
AcDb2dVertex
 10
299.9370272593
 20
175.254141561
 30
0.0
  0
VERTEX
  5
255
100
AcDbEntity
  8
0
390
0
100
AcDbVertex
100
AcDb2dVertex
 10
299.4136950835
 20
175.1774145739
 30
0.0
  0
VERTEX
  5
256
100
AcDbEntity
  8
0
390
0
100
AcDbVertex
100
AcDb2dVertex
 10
298.8940214043
 20
175.0928054767
 30
0.0
  0
VERTEX
  5
257
100
AcDbEntity
  8
0
390
0
100
AcDbVertex
100
AcDb2dVertex
 10
298.3783623798
 20
175.0003722563
 30
0.0
  0
VERTEX
  5
258
100
AcDbEntity
  8
0
390
0
100
AcDbVertex
100
AcDb2dVertex
 10
297.8670714171
 20
174.9001782617
 30
0.0
  0
VERTEX
  5
259
100
AcDbEntity
  8
0
390
0
100
AcDbVertex
100
AcDb2dVertex
 10
297.3604989294
 20
174.7922921609
 30
0.0
  0
VERTEX
  5
25A
100
AcDbEntity
  8
0
390
0
100
AcDbVertex
100
AcDb2dVertex
 10
296.8589920963
 20
174.6767878937
 30
0.0
  0
VERTEX
  5
25B
100
AcDbEntity
  8
0
390
0
100
AcDbVertex
100
AcDb2dVertex
 10
296.3628946253
 20
174.553744621
 30
0.0
  0
VERTEX
  5
25C
100
AcDbEntity
  8
0
390
0
100
AcDbVertex
100
AcDb2dVertex
 10
295.8725465171
 20
174.4232466703
 30
0.0
  0
VERTEX
  5
25D
100
AcDbEntity
  8
0
390
0
100
AcDbVertex
100
AcDb2dVertex
 10
295.3882838317
 20
174.2853834786
 30
0.0
  0
VERTEX
  5
25E
100
AcDbEntity
  8
0
390
0
100
AcDbVertex
100
AcDb2dVertex
 10
294.9104384584
 20
174.1402495303
 30
0.0
  0
VERTEX
  5
25F
100
AcDbEntity
  8
0
390
0
100
AcDbVertex
100
AcDb2dVertex
 10
294.4393378888
 20
173.9879442931
 30
0.0
  0
VERTEX
  5
260
100
AcDbEntity
  8
0
390
0
100
AcDbVertex
100
AcDb2dVertex
 10
293.9753049915
 20
173.8285721493
 30
0.0
  0
VERTEX
  5
261
100
AcDbEntity
  8
0
390
0
100
AcDbVertex
100
AcDb2dVertex
 10
293.5186577916
 20
173.6622423246
 30
0.0
  0
VERTEX
  5
262
100
AcDbEntity
  8
0
390
0
100
AcDbVertex
100
AcDb2dVertex
 10
293.0697092522
 20
173.4890688131
 30
0.0
  0
VERTEX
  5
263
100
AcDbEntity
  8
0
390
0
100
AcDbVertex
100
AcDb2dVertex
 10
292.6287670603
 20
173.3091702994
 30
0.0
  0
VERTEX
  5
264
100
AcDbEntity
  8
0
390
0
100
AcDbVertex
100
AcDb2dVertex
 10
292.1961334155
 20
173.122670077
 30
0.0
  0
VERTEX
  5
265
100
AcDbEntity
  8
0
390
0
100
AcDbVertex
100
AcDb2dVertex
 10
291.7721048234
 20
172.9296959636
 30
0.0
  0
VERTEX
  5
266
100
AcDbEntity
  8
0
390
0
100
AcDbVertex
100
AcDb2dVertex
 10
291.356971892
 20
172.7303802143
 30
0.0
  0
VERTEX
  5
267
100
AcDbEntity
  8
0
390
0
100
AcDbVertex
100
AcDb2dVertex
 10
290.9510191326
 20
172.5248594299
 30
0.0
  0
VERTEX
  5
268
100
AcDbEntity
  8
0
390
0
100
AcDbVertex
100
AcDb2dVertex
 10
290.5545247651
 20
172.3132744643
 30
0.0
  0
VERTEX
  5
269
100
AcDbEntity
  8
0
390
0
100
AcDbVertex
100
AcDb2dVertex
 10
290.1677605268
 20
172.0957703271
 30
0.0
  0
VERTEX
  5
26A
100
AcDbEntity
  8
0
390
0
100
AcDbVertex
100
AcDb2dVertex
 10
289.7909914867
 20
171.8724960849
 30
0.0
  0
VERTEX
  5
26B
100
AcDbEntity
  8
0
390
0
100
AcDbVertex
100
AcDb2dVertex
 10
289.4244758633
 20
171.6436047586
 30
0.0
  0
VERTEX
  5
26C
100
AcDbEntity
  8
0
390
0
100
AcDbVertex
100
AcDb2dVertex
 10
289.0684648483
 20
171.4092532189
 30
0.0
  0
VERTEX
  5
26D
100
AcDbEntity
  8
0
390
0
100
AcDbVertex
100
AcDb2dVertex
 10
288.7232024337
 20
171.1696020788
 30
0.0
  0
VERTEX
  5
26E
100
AcDbEntity
  8
0
390
0
100
AcDbVertex
100
AcDb2dVertex
 10
288.3889252453
 20
170.924815583
 30
0.0
  0
VERTEX
  5
26F
100
AcDbEntity
  8
0
390
0
100
AcDbVertex
100
AcDb2dVertex
 10
288.0658623798
 20
170.675061496
 30
0.0
  0
VERTEX
  5
270
100
AcDbEntity
  8
0
390
0
100
AcDbVertex
100
AcDb2dVertex
 10
287.7542352485
 20
170.4205109868
 30
0.0
  0
VERTEX
  5
271
100
AcDbEntity
  8
0
390
0
100
AcDbVertex
100
AcDb2dVertex
 10
287.4542574249
 20
170.1613385117
 30
0.0
  0
VERTEX
  5
272
100
AcDbEntity
  8
0
390
0
100
AcDbVertex
100
AcDb2dVertex
 10
287.166134499
 20
169.8977216944
 30
0.0
  0
VERTEX
  5
273
100
AcDbEntity
  8
0
390
0
100
AcDbVertex
100
AcDb2dVertex
 10
286.8900639357
 20
169.6298412048
 30
0.0
  0
VERTEX
  5
274
100
AcDbEntity
  8
0
390
0
100
AcDbVertex
100
AcDb2dVertex
 10
286.6262349401
 20
169.3578806348
 30
0.0
  0
VERTEX
  5
275
100
AcDbEntity
  8
0
390
0
100
AcDbVertex
100
AcDb2dVertex
 10
286.3748283274
 20
169.0820263726
 30
0.0
  0
VERTEX
  5
276
100
AcDbEntity
  8
0
390
0
100
AcDbVertex
100
AcDb2dVertex
 10
286.1360163991
 20
168.8024674748
 30
0.0
  0
VERTEX
  5
277
100
AcDbEntity
  8
0
390
0
100
AcDbVertex
100
AcDb2dVertex
 10
285.9099628249
 20
168.5193955373
 30
0.0
  0
VERTEX
  5
278
100
AcDbEntity
  8
0
390
0
100
AcDbVertex
100
AcDb2dVertex
 10
285.6968225307
 20
168.2330045634
 30
0.0
  0
VERTEX
  5
279
100
AcDbEntity
  8
0
390
0
100
AcDbVertex
100
AcDb2dVertex
 10
285.4967415923
 20
167.9434908311
 30
0.0
  0
VERTEX
  5
27A
100
AcDbEntity
  8
0
390
0
100
AcDbVertex
100
AcDb2dVertex
 10
285.309857135
 20
167.6510527586
 30
0.0
  0
VERTEX
  5
27B
100
AcDbEntity
  8
0
390
0
100
AcDbVertex
100
AcDb2dVertex
 10
285.1362972402
 20
167.3558907686
 30
0.0
  0
VERTEX
  5
27C
100
AcDbEntity
  8
0
390
0
100
AcDbVertex
100
AcDb2dVertex
 10
284.9761808571
 20
167.0582071501
 30
0.0
  0
VERTEX
  5
27D
100
AcDbEntity
  8
0
390
0
100
AcDbVertex
100
AcDb2dVertex
 10
284.8296177216
 20
166.7582059208
 30
0.0
  0
VERTEX
  5
27E
100
AcDbEntity
  8
0
390
0
100
AcDbVertex
100
AcDb2dVertex
 10
284.6967082806
 20
166.4560926864
 30
0.0
  0
VERTEX
  5
27F
100
AcDbEntity
  8
0
390
0
100
AcDbVertex
100
AcDb2dVertex
 10
284.5775436236
 20
166.1520745003
 30
0.0
  0
VERTEX
  5
280
100
AcDbEntity
  8
0
390
0
100
AcDbVertex
100
AcDb2dVertex
 10
284.4722054203
 20
165.8463597214
 30
0.0
  0
VERTEX
  5
281
100
AcDbEntity
  8
0
390
0
100
AcDbVertex
100
AcDb2dVertex
 10
284.380765864
 20
165.5391578712
 30
0.0
  0
VERTEX
  5
282
100
AcDbEntity
  8
0
390
0
100
AcDbVertex
100
AcDb2dVertex
 10
284.3032876229
 20
165.2306794907
 30
0.0
  0
VERTEX
  5
283
100
AcDbEntity
  8
0
390
0
100
AcDbVertex
100
AcDb2dVertex
 10
284.2398237968
 20
164.9211359955
 30
0.0
  0
VERTEX
  5
284
100
AcDbEntity
  8
0
390
0
100
AcDbVertex
100
AcDb2dVertex
 10
284.1904178805
 20
164.6107395312
 30
0.0
  0
VERTEX
  5
285
100
AcDbEntity
  8
0
390
0
100
AcDbVertex
100
AcDb2dVertex
 10
284.1551037345
 20
164.299702828
 30
0.0
  0
VERTEX
  5
286
100
AcDbEntity
  8
0
390
0
100
AcDbVertex
100
AcDb2dVertex
 10
284.1339055612
 20
163.988239055
 30
0.0
  0
VERTEX
  5
287
100
AcDbEntity
  8
0
390
0
100
AcDbVertex
100
AcDb2dVertex
 10
284.1268378888
 20
163.6765616739
 30
0.0
  0
VERTEX
  5
288
100
AcDbEntity
  8
0
390
0
100
AcDbVertex
100
AcDb2dVertex
 10
284.1339055612
 20
163.3648842929
 30
0.0
  0
VERTEX
  5
289
100
AcDbEntity
  8
0
390
0
100
AcDbVertex
100
AcDb2dVertex
 10
284.1551037345
 20
163.0534205199
 30
0.0
  0
VERTEX
  5
28A
100
AcDbEntity
  8
0
390
0
100
AcDbVertex
100
AcDb2dVertex
 10
284.1904178805
 20
162.7423838167
 30
0.0
  0
VERTEX
  5
28B
100
AcDbEntity
  8
0
390
0
100
AcDbVertex
100
AcDb2dVertex
 10
284.2398237968
 20
162.4319873524
 30
0.0
  0
VERTEX
  5
28C
100
AcDbEntity
  8
0
390
0
100
AcDbVertex
100
AcDb2dVertex
 10
284.3032876229
 20
162.1224438572
 30
0.0
  0
VERTEX
  5
28D
100
AcDbEntity
  8
0
390
0
100
AcDbVertex
100
AcDb2dVertex
 10
284.380765864
 20
161.8139654767
 30
0.0
  0
VERTEX
  5
28E
100
AcDbEntity
  8
0
390
0
100
AcDbVertex
100
AcDb2dVertex
 10
284.4722054203
 20
161.5067636265
 30
0.0
  0
VERTEX
  5
28F
100
AcDbEntity
  8
0
390
0
100
AcDbVertex
100
AcDb2dVertex
 10
284.5775436236
 20
161.2010488476
 30
0.0
  0
VERTEX
  5
290
100
AcDbEntity
  8
0
390
0
100
AcDbVertex
100
AcDb2dVertex
 10
284.6967082806
 20
160.8970306615
 30
0.0
  0
VERTEX
  5
291
100
AcDbEntity
  8
0
390
0
100
AcDbVertex
100
AcDb2dVertex
 10
284.8296177216
 20
160.5949174271
 30
0.0
  0
VERTEX
  5
292
100
AcDbEntity
  8
0
390
0
100
AcDbVertex
100
AcDb2dVertex
 10
284.9761808571
 20
160.2949161978
 30
0.0
  0
VERTEX
  5
293
100
AcDbEntity
  8
0
390
0
100
AcDbVertex
100
AcDb2dVertex
 10
285.1362972402
 20
159.9972325793
 30
0.0
  0
VERTEX
  5
294
100
AcDbEntity
  8
0
390
0
100
AcDbVertex
100
AcDb2dVertex
 10
285.309857135
 20
159.7020705893
 30
0.0
  0
VERTEX
  5
295
100
AcDbEntity
  8
0
390
0
100
AcDbVertex
100
AcDb2dVertex
 10
285.4967415923
 20
159.4096325168
 30
0.0
  0
VERTEX
  5
296
100
AcDbEntity
  8
0
390
0
100
AcDbVertex
100
AcDb2dVertex
 10
285.6968225307
 20
159.1201187845
 30
0.0
  0
VERTEX
  5
297
100
AcDbEntity
  8
0
390
0
100
AcDbVertex
100
AcDb2dVertex
 10
285.9099628249
 20
158.8337278106
 30
0.0
  0
VERTEX
  5
298
100
AcDbEntity
  8
0
390
0
100
AcDbVertex
100
AcDb2dVertex
 10
286.1360163991
 20
158.5506558731
 30
0.0
  0
VERTEX
  5
299
100
AcDbEntity
  8
0
390
0
100
AcDbVertex
100
AcDb2dVertex
 10
286.3748283274
 20
158.2710969753
 30
0.0
  0
VERTEX
  5
29A
100
AcDbEntity
  8
0
390
0
100
AcDbVertex
100
AcDb2dVertex
 10
286.6262349401
 20
157.9952427131
 30
0.0
  0
VERTEX
  5
29B
100
AcDbEntity
  8
0
390
0
100
AcDbVertex
100
AcDb2dVertex
 10
286.8900639357
 20
157.7232821431
 30
0.0
  0
VERTEX
  5
29C
100
AcDbEntity
  8
0
390
0
100
AcDbVertex
100
AcDb2dVertex
 10
287.166134499
 20
157.4554016535
 30
0.0
  0
VERTEX
  5
29D
100
AcDbEntity
  8
0
390
0
100
AcDbVertex
100
AcDb2dVertex
 10
287.4542574249
 20
157.1917848362
 30
0.0
  0
VERTEX
  5
29E
100
AcDbEntity
  8
0
390
0
100
AcDbVertex
100
AcDb2dVertex
 10
287.7542352485
 20
156.9326123611
 30
0.0
  0
VERTEX
  5
29F
100
AcDbEntity
  8
0
390
0
100
AcDbVertex
100
AcDb2dVertex
 10
288.0658623798
 20
156.6780618519
 30
0.0
  0
VERTEX
  5
2A0
100
AcDbEntity
  8
0
390
0
100
AcDbVertex
100
AcDb2dVertex
 10
288.3889252453
 20
156.4283077649
 30
0.0
  0
VERTEX
  5
2A1
100
AcDbEntity
  8
0
390
0
100
AcDbVertex
100
AcDb2dVertex
 10
288.7232024337
 20
156.1835212691
 30
0.0
  0
VERTEX
  5
2A2
100
AcDbEntity
  8
0
390
0
100
AcDbVertex
100
AcDb2dVertex
 10
289.0684648483
 20
155.943870129
 30
0.0
  0
VERTEX
  5
2A3
100
AcDbEntity
  8
0
390
0
100
AcDbVertex
100
AcDb2dVertex
 10
289.4244758633
 20
155.7095185893
 30
0.0
  0
VERTEX
  5
2A4
100
AcDbEntity
  8
0
390
0
100
AcDbVertex
100
AcDb2dVertex
 10
289.7909914867
 20
155.480627263
 30
0.0
  0
VERTEX
  5
2A5
100
AcDbEntity
  8
0
390
0
100
AcDbVertex
100
AcDb2dVertex
 10
290.1677605268
 20
155.2573530208
 30
0.0
  0
SEQEND
  5
2A6
100
AcDbEntity
  8
0
390
0
  0
LINE
  5
2A7
100
AcDbEntity
  8
0
370
        15
390
0
  6
Continuous
 62
         7
100
AcDbLine
 10
312.6724503041
 20
139.3430841843
 30
0.0
 11
346.9032244163
 21
159.1040894544
 31
0.0
  0
LINE
  5
2A8
100
AcDbEntity
  8
0
370
        15
390
0
  6
Continuous
 62
         7
100
AcDbLine
 10
296.8312254735
 20
139.3430841843
 30
0.0
 11
312.6724503041
 21
139.3430841843
 31
0.0
  0
LINE
  5
2A9
100
AcDbEntity
  8
0
370
        15
390
0
  6
Continuous
 62
         7
100
AcDbLine
 10
295.302571098
 20
140.2255575713
 30
0.0
 11
296.8312254735
 21
139.3430841843
 31
0.0
  0
LINE
  5
2AA
100
AcDbEntity
  8
0
370
        15
390
0
  6
Continuous
 62
         7
100
AcDbLine
 10
298.8270564605
 20
142.2601996624
 30
0.0
 11
295.302571098
 21
140.2255575713
 31
0.0
  0
POLYLINE
  5
2AB
100
AcDbEntity
  8
0
390
0
  6
Continuous
 62
         7
100
AcDb2dPolyline
 66
         1
 10
0.0
 20
0.0
 30
0.0
 70
       128
 40
0.1299212598
 41
0.1299212598
  0
VERTEX
  5
2AC
100
AcDbEntity
  8
0
390
0
100
AcDbVertex
100
AcDb2dVertex
 10
298.8270564605
 20
142.5408399509
 30
0.0
  0
VERTEX
  5
2AD
100
AcDbEntity
  8
0
390
0
100
AcDbVertex
100
AcDb2dVertex
 10
298.8655720197
 20
142.5143418353
 30
0.0
  0
VERTEX
  5
2AE
100
AcDbEntity
  8
0
390
0
100
AcDbVertex
100
AcDb2dVertex
 10
298.8955318062
 20
142.4843852949
 30
0.0
  0
VERTEX
  5
2AF
100
AcDbEntity
  8
0
390
0
100
AcDbVertex
100
AcDb2dVertex
 10
298.9160255072
 20
142.4518805441
 30
0.0
  0
VERTEX
  5
2B0
100
AcDbEntity
  8
0
390
0
100
AcDbVertex
100
AcDb2dVertex
 10
298.9264304319
 20
142.4178152233
 30
0.0
  0
VERTEX
  5
2B1
100
AcDbEntity
  8
0
390
0
100
AcDbVertex
100
AcDb2dVertex
 10
298.9264304319
 20
142.38322439
 30
0.0
  0
VERTEX
  5
2B2
100
AcDbEntity
  8
0
390
0
100
AcDbVertex
100
AcDb2dVertex
 10
298.9160255072
 20
142.3491590692
 30
0.0
  0
VERTEX
  5
2B3
100
AcDbEntity
  8
0
390
0
100
AcDbVertex
100
AcDb2dVertex
 10
298.8955318062
 20
142.3166543184
 30
0.0
  0
VERTEX
  5
2B4
100
AcDbEntity
  8
0
390
0
100
AcDbVertex
100
AcDb2dVertex
 10
298.8655720197
 20
142.2866977781
 30
0.0
  0
VERTEX
  5
2B5
100
AcDbEntity
  8
0
390
0
100
AcDbVertex
100
AcDb2dVertex
 10
298.8270564605
 20
142.2601996624
 30
0.0
  0
SEQEND
  5
2B6
100
AcDbEntity
  8
0
390
0
  0
LINE
  5
2B7
100
AcDbEntity
  8
0
370
        15
390
0
  6
Continuous
 62
         7
100
AcDbLine
 10
294.9073426015
 20
144.8036425966
 30
0.0
 11
298.8270564605
 21
142.5408399509
 31
0.0
  0
POLYLINE
  5
2B8
100
AcDbEntity
  8
0
390
0
  6
Continuous
 62
         7
100
AcDb2dPolyline
 66
         1
 10
0.0
 20
0.0
 30
0.0
 70
       128
 40
0.1299212598
 41
0.1299212598
  0
VERTEX
  5
2B9
100
AcDbEntity
  8
0
390
0
100
AcDbVertex
100
AcDb2dVertex
 10
294.4212066894
 20
144.8036425966
 30
0.0
  0
VERTEX
  5
2BA
100
AcDbEntity
  8
0
390
0
100
AcDbVertex
100
AcDb2dVertex
 10
294.4671077455
 20
144.8258771556
 30
0.0
  0
VERTEX
  5
2BB
100
AcDbEntity
  8
0
390
0
100
AcDbVertex
100
AcDb2dVertex
 10
294.518999618
 20
144.8431725723
 30
0.0
  0
VERTEX
  5
2BC
100
AcDbEntity
  8
0
390
0
100
AcDbVertex
100
AcDb2dVertex
 10
294.5753055987
 20
144.855003334
 30
0.0
  0
VERTEX
  5
2BD
100
AcDbEntity
  8
0
390
0
100
AcDbVertex
100
AcDb2dVertex
 10
294.6343148589
 20
144.8610099692
 30
0.0
  0
VERTEX
  5
2BE
100
AcDbEntity
  8
0
390
0
100
AcDbVertex
100
AcDb2dVertex
 10
294.694234432
 20
144.8610099692
 30
0.0
  0
VERTEX
  5
2BF
100
AcDbEntity
  8
0
390
0
100
AcDbVertex
100
AcDb2dVertex
 10
294.7532436922
 20
144.855003334
 30
0.0
  0
VERTEX
  5
2C0
100
AcDbEntity
  8
0
390
0
100
AcDbVertex
100
AcDb2dVertex
 10
294.8095496729
 20
144.8431725723
 30
0.0
  0
VERTEX
  5
2C1
100
AcDbEntity
  8
0
390
0
100
AcDbVertex
100
AcDb2dVertex
 10
294.8614415455
 20
144.8258771556
 30
0.0
  0
VERTEX
  5
2C2
100
AcDbEntity
  8
0
390
0
100
AcDbVertex
100
AcDb2dVertex
 10
294.9073426015
 20
144.8036425966
 30
0.0
  0
SEQEND
  5
2C3
100
AcDbEntity
  8
0
390
0
  0
LINE
  5
2C4
100
AcDbEntity
  8
0
370
        15
390
0
  6
Continuous
 62
         7
100
AcDbLine
 10
290.896721327
 20
142.7690005054
 30
0.0
 11
294.4212066894
 21
144.8036425966
 31
0.0
  0
LINE
  5
2C5
100
AcDbEntity
  8
0
370
        15
390
0
  6
Continuous
 62
         7
100
AcDbLine
 10
262.6004513613
 20
159.1040894544
 30
0.0
 11
290.896721327
 21
142.7690005054
 31
0.0
  0
LINE
  5
2C6
100
AcDbEntity
  8
0
370
        15
390
0
  6
Continuous
 62
         7
100
AcDbLine
 10
262.6004513613
 20
168.2490338935
 30
0.0
 11
262.6004513613
 21
159.1040894544
 31
0.0
  0
LINE
  5
2C7
100
AcDbEntity
  8
0
370
        15
390
0
  6
Continuous
 62
         7
100
AcDbLine
 10
275.3406152088
 20
175.6037739326
 30
0.0
 11
262.6004513613
 21
168.2490338935
 31
0.0
  0
LINE
  5
2C8
100
AcDbEntity
  8
0
370
        15
390
0
  6
Continuous
 62
         7
100
AcDbLine
 10
276.799022945
 20
174.7618530673
 30
0.0
 11
275.3406152088
 21
175.6037739326
 31
0.0
  0
POLYLINE
  5
2C9
100
AcDbEntity
  8
0
390
0
  6
Continuous
 62
         7
100
AcDb2dPolyline
 66
         1
 10
0.0
 20
0.0
 30
0.0
 70
       128
 40
0.1299212598
 41
0.1299212598
  0
VERTEX
  5
2CA
100
AcDbEntity
  8
0
390
0
100
AcDbVertex
100
AcDb2dVertex
 10
277.7712947691
 20
174.7618530673
 30
0.0
  0
VERTEX
  5
2CB
100
AcDbEntity
  8
0
390
0
100
AcDbVertex
100
AcDb2dVertex
 10
277.709153082
 20
174.7300718023
 30
0.0
  0
VERTEX
  5
2CC
100
AcDbEntity
  8
0
390
0
100
AcDbVertex
100
AcDb2dVertex
 10
277.6408286043
 20
174.702846347
 30
0.0
  0
VERTEX
  5
2CD
100
AcDbEntity
  8
0
390
0
100
AcDbVertex
100
AcDb2dVertex
 10
277.5673176608
 20
174.6805737099
 30
0.0
  0
VERTEX
  5
2CE
100
AcDbEntity
  8
0
390
0
100
AcDbVertex
100
AcDb2dVertex
 10
277.4896922066
 20
174.6635786762
 30
0.0
  0
VERTEX
  5
2CF
100
AcDbEntity
  8
0
390
0
100
AcDbVertex
100
AcDb2dVertex
 10
277.4090841956
 20
174.6521090718
 30
0.0
  0
VERTEX
  5
2D0
100
AcDbEntity
  8
0
390
0
100
AcDbVertex
100
AcDb2dVertex
 10
277.326669074
 20
174.6463321494
 30
0.0
  0
VERTEX
  5
2D1
100
AcDbEntity
  8
0
390
0
100
AcDbVertex
100
AcDb2dVertex
 10
277.2436486401
 20
174.6463321494
 30
0.0
  0
VERTEX
  5
2D2
100
AcDbEntity
  8
0
390
0
100
AcDbVertex
100
AcDb2dVertex
 10
277.1612335186
 20
174.6521090718
 30
0.0
  0
VERTEX
  5
2D3
100
AcDbEntity
  8
0
390
0
100
AcDbVertex
100
AcDb2dVertex
 10
277.0806255075
 20
174.6635786762
 30
0.0
  0
VERTEX
  5
2D4
100
AcDbEntity
  8
0
390
0
100
AcDbVertex
100
AcDb2dVertex
 10
277.0030000533
 20
174.6805737099
 30
0.0
  0
VERTEX
  5
2D5
100
AcDbEntity
  8
0
390
0
100
AcDbVertex
100
AcDb2dVertex
 10
276.9294891098
 20
174.702846347
 30
0.0
  0
VERTEX
  5
2D6
100
AcDbEntity
  8
0
390
0
100
AcDbVertex
100
AcDb2dVertex
 10
276.8611646321
 20
174.7300718023
 30
0.0
  0
VERTEX
  5
2D7
100
AcDbEntity
  8
0
390
0
100
AcDbVertex
100
AcDb2dVertex
 10
276.799022945
 20
174.7618530673
 30
0.0
  0
SEQEND
  5
2D8
100
AcDbEntity
  8
0
390
0
  0
LINE
  5
2D9
100
AcDbEntity
  8
0
370
        15
390
0
  6
Continuous
 62
         7
100
AcDbLine
 10
285.5800959246
 20
179.2697780205
 30
0.0
 11
277.7712947691
 21
174.7618530673
 31
0.0
  0
POLYLINE
  5
2DA
100
AcDbEntity
  8
0
390
0
  6
Continuous
 62
         7
100
AcDb2dPolyline
 66
         1
 10
0.0
 20
0.0
 30
0.0
 70
       128
 40
0.1299212598
 41
0.1299212598
  0
VERTEX
  5
2DB
100
AcDbEntity
  8
0
390
0
100
AcDbVertex
100
AcDb2dVertex
 10
285.5800959246
 20
179.8310585974
 30
0.0
  0
VERTEX
  5
2DC
100
AcDbEntity
  8
0
390
0
100
AcDbVertex
100
AcDb2dVertex
 10
285.6351486555
 20
179.795184965
 30
0.0
  0
VERTEX
  5
2DD
100
AcDbEntity
  8
0
390
0
100
AcDbVertex
100
AcDb2dVertex
 10
285.6823096373
 20
179.7557420836
 30
0.0
  0
VERTEX
  5
2DE
100
AcDbEntity
  8
0
390
0
100
AcDbVertex
100
AcDb2dVertex
 10
285.7208911567
 20
179.7133051192
 30
0.0
  0
VERTEX
  5
2DF
100
AcDbEntity
  8
0
390
0
100
AcDbVertex
100
AcDb2dVertex
 10
285.7503306083
 20
179.6684928983
 30
0.0
  0
VERTEX
  5
2E0
100
AcDbEntity
  8
0
390
0
100
AcDbVertex
100
AcDb2dVertex
 10
285.7701986986
 20
179.6219588841
 30
0.0
  0
VERTEX
  5
2E1
100
AcDbEntity
  8
0
390
0
100
AcDbVertex
100
AcDb2dVertex
 10
285.7802057061
 20
179.5743816471
 30
0.0
  0
VERTEX
  5
2E2
100
AcDbEntity
  8
0
390
0
100
AcDbVertex
100
AcDb2dVertex
 10
285.7802057061
 20
179.5264549707
 30
0.0
  0
VERTEX
  5
2E3
100
AcDbEntity
  8
0
390
0
100
AcDbVertex
100
AcDb2dVertex
 10
285.7701986986
 20
179.4788777338
 30
0.0
  0
VERTEX
  5
2E4
100
AcDbEntity
  8
0
390
0
100
AcDbVertex
100
AcDb2dVertex
 10
285.7503306083
 20
179.4323437195
 30
0.0
  0
VERTEX
  5
2E5
100
AcDbEntity
  8
0
390
0
100
AcDbVertex
100
AcDb2dVertex
 10
285.7208911567
 20
179.3875314987
 30
0.0
  0
VERTEX
  5
2E6
100
AcDbEntity
  8
0
390
0
100
AcDbVertex
100
AcDb2dVertex
 10
285.6823096373
 20
179.3450945343
 30
0.0
  0
VERTEX
  5
2E7
100
AcDbEntity
  8
0
390
0
100
AcDbVertex
100
AcDb2dVertex
 10
285.6351486555
 20
179.3056516529
 30
0.0
  0
VERTEX
  5
2E8
100
AcDbEntity
  8
0
390
0
100
AcDbVertex
100
AcDb2dVertex
 10
285.5800959246
 20
179.2697780205
 30
0.0
  0
SEQEND
  5
2E9
100
AcDbEntity
  8
0
390
0
  0
LINE
  5
2EA
100
AcDbEntity
  8
0
370
        15
390
0
  6
Continuous
 62
         7
100
AcDbLine
 10
284.1216881884
 20
180.6729794627
 30
0.0
 11
285.5800959246
 21
179.8310585974
 31
0.0
  0
LINE
  5
2EB
100
AcDbEntity
  8
0
370
        15
390
0
  6
Continuous
 62
         7
100
AcDbLine
 10
296.8312254735
 20
188.0100391636
 30
0.0
 11
284.1216881884
 21
180.6729794627
 31
0.0
  0
LINE
  5
2EC
100
AcDbEntity
  8
0
370
        15
390
0
  6
Continuous
 62
         7
100
AcDbLine
 10
312.6724503041
 20
188.0100391636
 30
0.0
 11
296.8312254735
 21
188.0100391636
 31
0.0
  0
LINE
  5
2ED
100
AcDbEntity
  8
0
370
        15
390
0
  6
Continuous
 62
         7
100
AcDbLine
 10
340.9687202697
 20
171.6749502146
 30
0.0
 11
312.6724503041
 21
188.0100391636
 31
0.0
  0
LINE
  5
2EE
100
AcDbEntity
  8
0
370
        15
390
0
  6
Continuous
 62
         7
100
AcDbLine
 10
337.4442349072
 20
169.6403081234
 30
0.0
 11
340.9687202697
 21
171.6749502146
 31
0.0
  0
POLYLINE
  5
2EF
100
AcDbEntity
  8
0
390
0
  6
Continuous
 62
         7
100
AcDb2dPolyline
 66
         1
 10
0.0
 20
0.0
 30
0.0
 70
       128
 40
0.1299212598
 41
0.1299212598
  0
VERTEX
  5
2F0
100
AcDbEntity
  8
0
390
0
100
AcDbVertex
100
AcDb2dVertex
 10
337.4442349072
 20
169.359667835
 30
0.0
  0
VERTEX
  5
2F1
100
AcDbEntity
  8
0
390
0
100
AcDbVertex
100
AcDb2dVertex
 10
337.4057193481
 20
169.3861659506
 30
0.0
  0
VERTEX
  5
2F2
100
AcDbEntity
  8
0
390
0
100
AcDbVertex
100
AcDb2dVertex
 10
337.3757595615
 20
169.416122491
 30
0.0
  0
VERTEX
  5
2F3
100
AcDbEntity
  8
0
390
0
100
AcDbVertex
100
AcDb2dVertex
 10
337.3552658605
 20
169.4486272418
 30
0.0
  0
VERTEX
  5
2F4
100
AcDbEntity
  8
0
390
0
100
AcDbVertex
100
AcDb2dVertex
 10
337.3448609358
 20
169.4826925626
 30
0.0
  0
VERTEX
  5
2F5
100
AcDbEntity
  8
0
390
0
100
AcDbVertex
100
AcDb2dVertex
 10
337.3448609358
 20
169.5172833958
 30
0.0
  0
VERTEX
  5
2F6
100
AcDbEntity
  8
0
390
0
100
AcDbVertex
100
AcDb2dVertex
 10
337.3552658605
 20
169.5513487166
 30
0.0
  0
VERTEX
  5
2F7
100
AcDbEntity
  8
0
390
0
100
AcDbVertex
100
AcDb2dVertex
 10
337.3757595615
 20
169.5838534674
 30
0.0
  0
VERTEX
  5
2F8
100
AcDbEntity
  8
0
390
0
100
AcDbVertex
100
AcDb2dVertex
 10
337.4057193481
 20
169.6138100078
 30
0.0
  0
VERTEX
  5
2F9
100
AcDbEntity
  8
0
390
0
100
AcDbVertex
100
AcDb2dVertex
 10
337.4442349072
 20
169.6403081234
 30
0.0
  0
SEQEND
  5
2FA
100
AcDbEntity
  8
0
390
0
  0
LINE
  5
2FB
100
AcDbEntity
  8
0
370
        15
390
0
  6
Continuous
 62
         7
100
AcDbLine
 10
341.3639487662
 20
167.0968651893
 30
0.0
 11
337.4442349072
 21
169.359667835
 31
0.0
  0
POLYLINE
  5
2FC
100
AcDbEntity
  8
0
390
0
  6
Continuous
 62
         7
100
AcDb2dPolyline
 66
         1
 10
0.0
 20
0.0
 30
0.0
 70
       128
 40
0.1299212598
 41
0.1299212598
  0
VERTEX
  5
2FD
100
AcDbEntity
  8
0
390
0
100
AcDbVertex
100
AcDb2dVertex
 10
341.8500846783
 20
167.0968651893
 30
0.0
  0
VERTEX
  5
2FE
100
AcDbEntity
  8
0
390
0
100
AcDbVertex
100
AcDb2dVertex
 10
341.8041836223
 20
167.0746306303
 30
0.0
  0
VERTEX
  5
2FF
100
AcDbEntity
  8
0
390
0
100
AcDbVertex
100
AcDb2dVertex
 10
341.7522917497
 20
167.0573352136
 30
0.0
  0
VERTEX
  5
300
100
AcDbEntity
  8
0
390
0
100
AcDbVertex
100
AcDb2dVertex
 10
341.695985769
 20
167.0455044519
 30
0.0
  0
VERTEX
  5
301
100
AcDbEntity
  8
0
390
0
100
AcDbVertex
100
AcDb2dVertex
 10
341.6369765088
 20
167.0394978167
 30
0.0
  0
VERTEX
  5
302
100
AcDbEntity
  8
0
390
0
100
AcDbVertex
100
AcDb2dVertex
 10
341.5770569357
 20
167.0394978167
 30
0.0
  0
VERTEX
  5
303
100
AcDbEntity
  8
0
390
0
100
AcDbVertex
100
AcDb2dVertex
 10
341.5180476755
 20
167.0455044519
 30
0.0
  0
VERTEX
  5
304
100
AcDbEntity
  8
0
390
0
100
AcDbVertex
100
AcDb2dVertex
 10
341.4617416948
 20
167.0573352136
 30
0.0
  0
VERTEX
  5
305
100
AcDbEntity
  8
0
390
0
100
AcDbVertex
100
AcDb2dVertex
 10
341.4098498223
 20
167.0746306303
 30
0.0
  0
VERTEX
  5
306
100
AcDbEntity
  8
0
390
0
100
AcDbVertex
100
AcDb2dVertex
 10
341.3639487662
 20
167.0968651893
 30
0.0
  0
SEQEND
  5
307
100
AcDbEntity
  8
0
390
0
  0
LINE
  5
308
100
AcDbEntity
  8
0
370
        15
390
0
  6
Continuous
 62
         7
100
AcDbLine
 10
345.3745700408
 20
169.1315072805
 30
0.0
 11
341.8500846783
 21
167.0968651893
 31
0.0
  0
LINE
  5
309
100
AcDbEntity
  8
0
370
        15
390
0
  6
Continuous
 62
         7
100
AcDbLine
 10
346.9032244163
 20
168.2490338935
 30
0.0
 11
345.3745700408
 21
169.1315072805
 31
0.0
  0
LINE
  5
30A
100
AcDbEntity
  8
0
370
        15
390
0
  6
Continuous
 62
         7
100
AcDbLine
 10
346.9032244163
 20
159.1040894544
 30
0.0
 11
346.9032244163
 21
168.2490338935
 31
0.0
  0
LINE
  5
30B
100
AcDbEntity
  8
0
370
        15
390
0
  6
Continuous
 62
         7
100
AcDbLine
 10
296.8312254735
 20
139.3430841843
 30
0.0
 11
296.8312254735
 21
139.2027412322
 31
0.0
  0
LINE
  5
30C
100
AcDbEntity
  8
0
370
        15
390
0
  6
Continuous
 62
         7
100
AcDbLine
 10
312.6724503041
 20
139.3430841843
 30
0.0
 11
312.6724503041
 21
139.2027412322
 31
0.0
  0
LINE
  5
30D
100
AcDbEntity
  8
0
370
        15
390
0
  6
Continuous
 62
         7
100
AcDbLine
 10
296.8312254735
 20
139.2027412322
 30
0.0
 11
312.6724503041
 21
139.2027412322
 31
0.0
  0
LINE
  5
30E
100
AcDbEntity
  8
0
370
        15
390
0
  6
Continuous
 62
         7
100
AcDbLine
 10
346.9032244163
 20
159.1040894544
 30
0.0
 11
346.9032244163
 21
158.9637465024
 31
0.0
  0
LINE
  5
30F
100
AcDbEntity
  8
0
370
        15
390
0
  6
Continuous
 62
         7
100
AcDbLine
 10
312.6724503041
 20
139.2027412322
 30
0.0
 11
346.9032244163
 21
158.9637465024
 31
0.0
  0
LINE
  5
310
100
AcDbEntity
  8
0
370
        15
390
0
  6
Continuous
 62
         7
100
AcDbLine
 10
295.302571098
 20
140.2255575713
 30
0.0
 11
295.302571098
 21
140.0852146192
 31
0.0
  0
LINE
  5
311
100
AcDbEntity
  8
0
370
        15
390
0
  6
Continuous
 62
         7
100
AcDbLine
 10
295.302571098
 20
140.0852146192
 30
0.0
 11
296.8312254735
 21
139.2027412322
 31
0.0
  0
LINE
  5
312
100
AcDbEntity
  8
0
370
        15
390
0
  6
Continuous
 62
         7
100
AcDbLine
 10
298.8270564605
 20
142.5408399509
 30
0.0
 11
298.8270564605
 21
142.4004969988
 31
0.0
  0
POLYLINE
  5
313
100
AcDbEntity
  8
0
390
0
  6
Continuous
 62
         7
100
AcDb2dPolyline
 66
         1
 10
0.0
 20
0.0
 30
0.0
 70
       128
 40
0.1299212598
 41
0.1299212598
  0
VERTEX
  5
314
100
AcDbEntity
  8
0
390
0
100
AcDbVertex
100
AcDb2dVertex
 10
298.8270564605
 20
142.4004969988
 30
0.0
  0
VERTEX
  5
315
100
AcDbEntity
  8
0
390
0
100
AcDbVertex
100
AcDb2dVertex
 10
298.8655720197
 20
142.3739988832
 30
0.0
  0
VERTEX
  5
316
100
AcDbEntity
  8
0
390
0
100
AcDbVertex
100
AcDb2dVertex
 10
298.8955318062
 20
142.3440423429
 30
0.0
  0
VERTEX
  5
317
100
AcDbEntity
  8
0
390
0
100
AcDbVertex
100
AcDb2dVertex
 10
298.905529719
 20
142.3303483306
 30
0.0
  0
SEQEND
  5
318
100
AcDbEntity
  8
0
390
0
  0
LINE
  5
319
100
AcDbEntity
  8
0
370
        15
390
0
  6
Continuous
 62
         7
100
AcDbLine
 10
294.9073426015
 20
144.8036425966
 30
0.0
 11
294.9073426015
 21
144.6632996445
 31
0.0
  0
LINE
  5
31A
100
AcDbEntity
  8
0
370
        15
390
0
  6
Continuous
 62
         7
100
AcDbLine
 10
294.9073426015
 20
144.6632996445
 30
0.0
 11
298.8270564605
 21
142.4004969988
 31
0.0
  0
LINE
  5
31B
100
AcDbEntity
  8
0
370
        15
390
0
  6
Continuous
 62
         7
100
AcDbLine
 10
290.896721327
 20
142.7690005054
 30
0.0
 11
290.896721327
 21
142.6286575533
 31
0.0
  0
LINE
  5
31C
100
AcDbEntity
  8
0
370
        15
390
0
  6
Continuous
 62
         7
100
AcDbLine
 10
294.4212066894
 20
144.8036425966
 30
0.0
 11
294.4212066894
 21
144.6632996445
 31
0.0
  0
LINE
  5
31D
100
AcDbEntity
  8
0
370
        15
390
0
  6
Continuous
 62
         7
100
AcDbLine
 10
290.896721327
 20
142.6286575533
 30
0.0
 11
294.4212066894
 21
144.6632996445
 31
0.0
  0
LINE
  5
31E
100
AcDbEntity
  8
0
370
        15
390
0
  6
Continuous
 62
         7
100
AcDbLine
 10
262.6004513613
 20
159.1040894544
 30
0.0
 11
262.6004513613
 21
158.9637465024
 31
0.0
  0
LINE
  5
31F
100
AcDbEntity
  8
0
370
        15
390
0
  6
Continuous
 62
         7
100
AcDbLine
 10
262.6004513613
 20
158.9637465024
 30
0.0
 11
290.896721327
 21
142.6286575533
 31
0.0
  0
POLYLINE
  5
320
100
AcDbEntity
  8
0
390
0
  6
Continuous
 62
         7
100
AcDb2dPolyline
 66
         1
 10
0.0
 20
0.0
 30
0.0
 70
       128
 40
0.1299212598
 41
0.1299212598
  0
VERTEX
  5
321
100
AcDbEntity
  8
0
390
0
100
AcDbVertex
100
AcDb2dVertex
 10
294.4212066894
 20
144.6632996445
 30
0.0
  0
VERTEX
  5
322
100
AcDbEntity
  8
0
390
0
100
AcDbVertex
100
AcDb2dVertex
 10
294.4671077455
 20
144.6855342036
 30
0.0
  0
VERTEX
  5
323
100
AcDbEntity
  8
0
390
0
100
AcDbVertex
100
AcDb2dVertex
 10
294.518999618
 20
144.7028296202
 30
0.0
  0
VERTEX
  5
324
100
AcDbEntity
  8
0
390
0
100
AcDbVertex
100
AcDb2dVertex
 10
294.5753055987
 20
144.714660382
 30
0.0
  0
VERTEX
  5
325
100
AcDbEntity
  8
0
390
0
100
AcDbVertex
100
AcDb2dVertex
 10
294.6343148589
 20
144.7206670171
 30
0.0
  0
VERTEX
  5
326
100
AcDbEntity
  8
0
390
0
100
AcDbVertex
100
AcDb2dVertex
 10
294.694234432
 20
144.7206670171
 30
0.0
  0
VERTEX
  5
327
100
AcDbEntity
  8
0
390
0
100
AcDbVertex
100
AcDb2dVertex
 10
294.7532436922
 20
144.714660382
 30
0.0
  0
VERTEX
  5
328
100
AcDbEntity
  8
0
390
0
100
AcDbVertex
100
AcDb2dVertex
 10
294.8095496729
 20
144.7028296202
 30
0.0
  0
VERTEX
  5
329
100
AcDbEntity
  8
0
390
0
100
AcDbVertex
100
AcDb2dVertex
 10
294.8614415455
 20
144.6855342036
 30
0.0
  0
VERTEX
  5
32A
100
AcDbEntity
  8
0
390
0
100
AcDbVertex
100
AcDb2dVertex
 10
294.9073426015
 20
144.6632996445
 30
0.0
  0
SEQEND
  5
32B
100
AcDbEntity
  8
0
390
0
  0
POLYLINE
  5
32C
100
AcDbEntity
  8
0
390
0
  6
Continuous
 62
         7
100
AcDb2dPolyline
 66
         1
 10
0.0
 20
0.0
 30
0.0
 70
       128
 40
0.1299212598
 41
0.1299212598
  0
VERTEX
  5
32D
100
AcDbEntity
  8
0
390
0
100
AcDbVertex
100
AcDb2dVertex
 10
325.3764796964
 20
163.6063901972
 30
0.0
  0
VERTEX
  5
32E
100
AcDbEntity
  8
0
390
0
100
AcDbVertex
100
AcDb2dVertex
 10
325.3697702164
 20
163.847896103
 30
0.0
  0
VERTEX
  5
32F
100
AcDbEntity
  8
0
390
0
100
AcDbVertex
100
AcDb2dVertex
 10
325.3485720431
 20
164.159359876
 30
0.0
  0
VERTEX
  5
330
100
AcDbEntity
  8
0
390
0
100
AcDbVertex
100
AcDb2dVertex
 10
325.313257897
 20
164.4703965791
 30
0.0
  0
VERTEX
  5
331
100
AcDbEntity
  8
0
390
0
100
AcDbVertex
100
AcDb2dVertex
 10
325.2638519808
 20
164.7807930434
 30
0.0
  0
VERTEX
  5
332
100
AcDbEntity
  8
0
390
0
100
AcDbVertex
100
AcDb2dVertex
 10
325.2003881546
 20
165.0903365387
 30
0.0
  0
VERTEX
  5
333
100
AcDbEntity
  8
0
390
0
100
AcDbVertex
100
AcDb2dVertex
 10
325.1229099136
 20
165.3988149192
 30
0.0
  0
VERTEX
  5
334
100
AcDbEntity
  8
0
390
0
100
AcDbVertex
100
AcDb2dVertex
 10
325.0314703573
 20
165.7060167693
 30
0.0
  0
VERTEX
  5
335
100
AcDbEntity
  8
0
390
0
100
AcDbVertex
100
AcDb2dVertex
 10
324.9261321539
 20
166.0117315483
 30
0.0
  0
VERTEX
  5
336
100
AcDbEntity
  8
0
390
0
100
AcDbVertex
100
AcDb2dVertex
 10
324.806967497
 20
166.3157497344
 30
0.0
  0
VERTEX
  5
337
100
AcDbEntity
  8
0
390
0
100
AcDbVertex
100
AcDb2dVertex
 10
324.674058056
 20
166.6178629687
 30
0.0
  0
VERTEX
  5
338
100
AcDbEntity
  8
0
390
0
100
AcDbVertex
100
AcDb2dVertex
 10
324.5274949204
 20
166.9178641981
 30
0.0
  0
VERTEX
  5
339
100
AcDbEntity
  8
0
390
0
100
AcDbVertex
100
AcDb2dVertex
 10
324.3673785374
 20
167.2155478165
 30
0.0
  0
VERTEX
  5
33A
100
AcDbEntity
  8
0
390
0
100
AcDbVertex
100
AcDb2dVertex
 10
324.1938186426
 20
167.5107098066
 30
0.0
  0
VERTEX
  5
33B
100
AcDbEntity
  8
0
390
0
100
AcDbVertex
100
AcDb2dVertex
 10
324.0069341853
 20
167.803147879
 30
0.0
  0
VERTEX
  5
33C
100
AcDbEntity
  8
0
390
0
100
AcDbVertex
100
AcDb2dVertex
 10
323.8068532468
 20
168.0926616113
 30
0.0
  0
VERTEX
  5
33D
100
AcDbEntity
  8
0
390
0
100
AcDbVertex
100
AcDb2dVertex
 10
323.5937129527
 20
168.3790525853
 30
0.0
  0
VERTEX
  5
33E
100
AcDbEntity
  8
0
390
0
100
AcDbVertex
100
AcDb2dVertex
 10
323.3676593785
 20
168.6621245228
 30
0.0
  0
VERTEX
  5
33F
100
AcDbEntity
  8
0
390
0
100
AcDbVertex
100
AcDb2dVertex
 10
323.1288474502
 20
168.9416834205
 30
0.0
  0
VERTEX
  5
340
100
AcDbEntity
  8
0
390
0
100
AcDbVertex
100
AcDb2dVertex
 10
322.8774408374
 20
169.2175376828
 30
0.0
  0
VERTEX
  5
341
100
AcDbEntity
  8
0
390
0
100
AcDbVertex
100
AcDb2dVertex
 10
322.6136118418
 20
169.4894982528
 30
0.0
  0
VERTEX
  5
342
100
AcDbEntity
  8
0
390
0
100
AcDbVertex
100
AcDb2dVertex
 10
322.3375412786
 20
169.7573787424
 30
0.0
  0
VERTEX
  5
343
100
AcDbEntity
  8
0
390
0
100
AcDbVertex
100
AcDb2dVertex
 10
322.0494183527
 20
170.0209955597
 30
0.0
  0
VERTEX
  5
344
100
AcDbEntity
  8
0
390
0
100
AcDbVertex
100
AcDb2dVertex
 10
321.7494405291
 20
170.2801680348
 30
0.0
  0
VERTEX
  5
345
100
AcDbEntity
  8
0
390
0
100
AcDbVertex
100
AcDb2dVertex
 10
321.4378133978
 20
170.534718544
 30
0.0
  0
VERTEX
  5
346
100
AcDbEntity
  8
0
390
0
100
AcDbVertex
100
AcDb2dVertex
 10
321.1147505323
 20
170.7844726309
 30
0.0
  0
VERTEX
  5
347
100
AcDbEntity
  8
0
390
0
100
AcDbVertex
100
AcDb2dVertex
 10
320.7804733438
 20
171.0292591267
 30
0.0
  0
VERTEX
  5
348
100
AcDbEntity
  8
0
390
0
100
AcDbVertex
100
AcDb2dVertex
 10
320.4352109293
 20
171.2689102669
 30
0.0
  0
VERTEX
  5
349
100
AcDbEntity
  8
0
390
0
100
AcDbVertex
100
AcDb2dVertex
 10
320.0791999143
 20
171.5032618066
 30
0.0
  0
VERTEX
  5
34A
100
AcDbEntity
  8
0
390
0
100
AcDbVertex
100
AcDb2dVertex
 10
319.7126842909
 20
171.7321531328
 30
0.0
  0
VERTEX
  5
34B
100
AcDbEntity
  8
0
390
0
100
AcDbVertex
100
AcDb2dVertex
 10
319.3359152508
 20
171.9554273751
 30
0.0
  0
VERTEX
  5
34C
100
AcDbEntity
  8
0
390
0
100
AcDbVertex
100
AcDb2dVertex
 10
318.9491510125
 20
172.1729315123
 30
0.0
  0
VERTEX
  5
34D
100
AcDbEntity
  8
0
390
0
100
AcDbVertex
100
AcDb2dVertex
 10
318.5526566449
 20
172.3845164779
 30
0.0
  0
VERTEX
  5
34E
100
AcDbEntity
  8
0
390
0
100
AcDbVertex
100
AcDb2dVertex
 10
318.1467038856
 20
172.5900372622
 30
0.0
  0
VERTEX
  5
34F
100
AcDbEntity
  8
0
390
0
100
AcDbVertex
100
AcDb2dVertex
 10
317.7315709542
 20
172.7893530116
 30
0.0
  0
VERTEX
  5
350
100
AcDbEntity
  8
0
390
0
100
AcDbVertex
100
AcDb2dVertex
 10
317.3075423621
 20
172.9823271249
 30
0.0
  0
VERTEX
  5
351
100
AcDbEntity
  8
0
390
0
100
AcDbVertex
100
AcDb2dVertex
 10
316.8749087173
 20
173.1688273474
 30
0.0
  0
VERTEX
  5
352
100
AcDbEntity
  8
0
390
0
100
AcDbVertex
100
AcDb2dVertex
 10
316.4339665254
 20
173.3487258611
 30
0.0
  0
VERTEX
  5
353
100
AcDbEntity
  8
0
390
0
100
AcDbVertex
100
AcDb2dVertex
 10
315.985017986
 20
173.5218993725
 30
0.0
  0
VERTEX
  5
354
100
AcDbEntity
  8
0
390
0
100
AcDbVertex
100
AcDb2dVertex
 10
315.5283707861
 20
173.6882291972
 30
0.0
  0
VERTEX
  5
355
100
AcDbEntity
  8
0
390
0
100
AcDbVertex
100
AcDb2dVertex
 10
315.0643378888
 20
173.8476013411
 30
0.0
  0
VERTEX
  5
356
100
AcDbEntity
  8
0
390
0
100
AcDbVertex
100
AcDb2dVertex
 10
314.5932373191
 20
173.9999065783
 30
0.0
  0
VERTEX
  5
357
100
AcDbEntity
  8
0
390
0
100
AcDbVertex
100
AcDb2dVertex
 10
314.1153919459
 20
174.1450405266
 30
0.0
  0
VERTEX
  5
358
100
AcDbEntity
  8
0
390
0
100
AcDbVertex
100
AcDb2dVertex
 10
313.6311292605
 20
174.2829037183
 30
0.0
  0
VERTEX
  5
359
100
AcDbEntity
  8
0
390
0
100
AcDbVertex
100
AcDb2dVertex
 10
313.1407811522
 20
174.4134016689
 30
0.0
  0
VERTEX
  5
35A
100
AcDbEntity
  8
0
390
0
100
AcDbVertex
100
AcDb2dVertex
 10
312.6446836813
 20
174.5364449417
 30
0.0
  0
VERTEX
  5
35B
100
AcDbEntity
  8
0
390
0
100
AcDbVertex
100
AcDb2dVertex
 10
312.1431768482
 20
174.6519492089
 30
0.0
  0
VERTEX
  5
35C
100
AcDbEntity
  8
0
390
0
100
AcDbVertex
100
AcDb2dVertex
 10
311.6366043605
 20
174.7598353097
 30
0.0
  0
VERTEX
  5
35D
100
AcDbEntity
  8
0
390
0
100
AcDbVertex
100
AcDb2dVertex
 10
311.1253133978
 20
174.8600293042
 30
0.0
  0
VERTEX
  5
35E
100
AcDbEntity
  8
0
390
0
100
AcDbVertex
100
AcDb2dVertex
 10
310.6096543733
 20
174.9524625247
 30
0.0
  0
VERTEX
  5
35F
100
AcDbEntity
  8
0
390
0
100
AcDbVertex
100
AcDb2dVertex
 10
310.089980694
 20
175.0370716219
 30
0.0
  0
VERTEX
  5
360
100
AcDbEntity
  8
0
390
0
100
AcDbVertex
100
AcDb2dVertex
 10
309.5666485183
 20
175.113798609
 30
0.0
  0
VERTEX
  5
361
100
AcDbEntity
  8
0
390
0
100
AcDbVertex
100
AcDb2dVertex
 10
309.0400165119
 20
175.1825909012
 30
0.0
  0
VERTEX
  5
362
100
AcDbEntity
  8
0
390
0
100
AcDbVertex
100
AcDb2dVertex
 10
308.5104456021
 20
175.2434013516
 30
0.0
  0
VERTEX
  5
363
100
AcDbEntity
  8
0
390
0
100
AcDbVertex
100
AcDb2dVertex
 10
307.9782987302
 20
175.2961882838
 30
0.0
  0
VERTEX
  5
364
100
AcDbEntity
  8
0
390
0
100
AcDbVertex
100
AcDb2dVertex
 10
307.4439406033
 20
175.3409155203
 30
0.0
  0
VERTEX
  5
365
100
AcDbEntity
  8
0
390
0
100
AcDbVertex
100
AcDb2dVertex
 10
306.9077374437
 20
175.3775524073
 30
0.0
  0
VERTEX
  5
366
100
AcDbEntity
  8
0
390
0
100
AcDbVertex
100
AcDb2dVertex
 10
306.3700567382
 20
175.4060738357
 30
0.0
  0
VERTEX
  5
367
100
AcDbEntity
  8
0
390
0
100
AcDbVertex
100
AcDb2dVertex
 10
305.8312669863
 20
175.4264602583
 30
0.0
  0
VERTEX
  5
368
100
AcDbEntity
  8
0
390
0
100
AcDbVertex
100
AcDb2dVertex
 10
305.2917374476
 20
175.4386977033
 30
0.0
  0
VERTEX
  5
369
100
AcDbEntity
  8
0
390
0
100
AcDbVertex
100
AcDb2dVertex
 10
304.7518378888
 20
175.4427777837
 30
0.0
  0
VERTEX
  5
36A
100
AcDbEntity
  8
0
390
0
100
AcDbVertex
100
AcDb2dVertex
 10
304.2119383299
 20
175.4386977033
 30
0.0
  0
VERTEX
  5
36B
100
AcDbEntity
  8
0
390
0
100
AcDbVertex
100
AcDb2dVertex
 10
303.6724087913
 20
175.4264602583
 30
0.0
  0
VERTEX
  5
36C
100
AcDbEntity
  8
0
390
0
100
AcDbVertex
100
AcDb2dVertex
 10
303.1336190394
 20
175.4060738357
 30
0.0
  0
VERTEX
  5
36D
100
AcDbEntity
  8
0
390
0
100
AcDbVertex
100
AcDb2dVertex
 10
302.5959383339
 20
175.3775524073
 30
0.0
  0
VERTEX
  5
36E
100
AcDbEntity
  8
0
390
0
100
AcDbVertex
100
AcDb2dVertex
 10
302.0597351742
 20
175.3409155203
 30
0.0
  0
VERTEX
  5
36F
100
AcDbEntity
  8
0
390
0
100
AcDbVertex
100
AcDb2dVertex
 10
301.5253770473
 20
175.2961882838
 30
0.0
  0
VERTEX
  5
370
100
AcDbEntity
  8
0
390
0
100
AcDbVertex
100
AcDb2dVertex
 10
300.9932301755
 20
175.2434013516
 30
0.0
  0
VERTEX
  5
371
100
AcDbEntity
  8
0
390
0
100
AcDbVertex
100
AcDb2dVertex
 10
300.4636592657
 20
175.1825909012
 30
0.0
  0
VERTEX
  5
372
100
AcDbEntity
  8
0
390
0
100
AcDbVertex
100
AcDb2dVertex
 10
299.9370272593
 20
175.113798609
 30
0.0
  0
VERTEX
  5
373
100
AcDbEntity
  8
0
390
0
100
AcDbVertex
100
AcDb2dVertex
 10
299.4136950835
 20
175.0370716219
 30
0.0
  0
VERTEX
  5
374
100
AcDbEntity
  8
0
390
0
100
AcDbVertex
100
AcDb2dVertex
 10
298.8940214043
 20
174.9524625247
 30
0.0
  0
VERTEX
  5
375
100
AcDbEntity
  8
0
390
0
100
AcDbVertex
100
AcDb2dVertex
 10
298.3783623798
 20
174.8600293042
 30
0.0
  0
VERTEX
  5
376
100
AcDbEntity
  8
0
390
0
100
AcDbVertex
100
AcDb2dVertex
 10
297.8670714171
 20
174.7598353097
 30
0.0
  0
VERTEX
  5
377
100
AcDbEntity
  8
0
390
0
100
AcDbVertex
100
AcDb2dVertex
 10
297.3604989294
 20
174.6519492089
 30
0.0
  0
VERTEX
  5
378
100
AcDbEntity
  8
0
390
0
100
AcDbVertex
100
AcDb2dVertex
 10
296.8589920963
 20
174.5364449417
 30
0.0
  0
VERTEX
  5
379
100
AcDbEntity
  8
0
390
0
100
AcDbVertex
100
AcDb2dVertex
 10
296.3628946253
 20
174.4134016689
 30
0.0
  0
VERTEX
  5
37A
100
AcDbEntity
  8
0
390
0
100
AcDbVertex
100
AcDb2dVertex
 10
295.8725465171
 20
174.2829037183
 30
0.0
  0
VERTEX
  5
37B
100
AcDbEntity
  8
0
390
0
100
AcDbVertex
100
AcDb2dVertex
 10
295.3882838317
 20
174.1450405266
 30
0.0
  0
VERTEX
  5
37C
100
AcDbEntity
  8
0
390
0
100
AcDbVertex
100
AcDb2dVertex
 10
294.9104384584
 20
173.9999065783
 30
0.0
  0
VERTEX
  5
37D
100
AcDbEntity
  8
0
390
0
100
AcDbVertex
100
AcDb2dVertex
 10
294.4393378888
 20
173.8476013411
 30
0.0
  0
VERTEX
  5
37E
100
AcDbEntity
  8
0
390
0
100
AcDbVertex
100
AcDb2dVertex
 10
293.9753049915
 20
173.6882291972
 30
0.0
  0
VERTEX
  5
37F
100
AcDbEntity
  8
0
390
0
100
AcDbVertex
100
AcDb2dVertex
 10
293.5186577916
 20
173.5218993725
 30
0.0
  0
VERTEX
  5
380
100
AcDbEntity
  8
0
390
0
100
AcDbVertex
100
AcDb2dVertex
 10
293.0697092522
 20
173.3487258611
 30
0.0
  0
VERTEX
  5
381
100
AcDbEntity
  8
0
390
0
100
AcDbVertex
100
AcDb2dVertex
 10
292.6287670603
 20
173.1688273474
 30
0.0
  0
VERTEX
  5
382
100
AcDbEntity
  8
0
390
0
100
AcDbVertex
100
AcDb2dVertex
 10
292.1961334155
 20
172.9823271249
 30
0.0
  0
VERTEX
  5
383
100
AcDbEntity
  8
0
390
0
100
AcDbVertex
100
AcDb2dVertex
 10
291.7721048234
 20
172.7893530116
 30
0.0
  0
VERTEX
  5
384
100
AcDbEntity
  8
0
390
0
100
AcDbVertex
100
AcDb2dVertex
 10
291.356971892
 20
172.5900372622
 30
0.0
  0
VERTEX
  5
385
100
AcDbEntity
  8
0
390
0
100
AcDbVertex
100
AcDb2dVertex
 10
290.9510191326
 20
172.3845164779
 30
0.0
  0
VERTEX
  5
386
100
AcDbEntity
  8
0
390
0
100
AcDbVertex
100
AcDb2dVertex
 10
290.5545247651
 20
172.1729315123
 30
0.0
  0
VERTEX
  5
387
100
AcDbEntity
  8
0
390
0
100
AcDbVertex
100
AcDb2dVertex
 10
290.1677605268
 20
171.9554273751
 30
0.0
  0
VERTEX
  5
388
100
AcDbEntity
  8
0
390
0
100
AcDbVertex
100
AcDb2dVertex
 10
289.7909914867
 20
171.7321531328
 30
0.0
  0
VERTEX
  5
389
100
AcDbEntity
  8
0
390
0
100
AcDbVertex
100
AcDb2dVertex
 10
289.4244758633
 20
171.5032618066
 30
0.0
  0
VERTEX
  5
38A
100
AcDbEntity
  8
0
390
0
100
AcDbVertex
100
AcDb2dVertex
 10
289.0684648483
 20
171.2689102669
 30
0.0
  0
VERTEX
  5
38B
100
AcDbEntity
  8
0
390
0
100
AcDbVertex
100
AcDb2dVertex
 10
288.7232024337
 20
171.0292591267
 30
0.0
  0
VERTEX
  5
38C
100
AcDbEntity
  8
0
390
0
100
AcDbVertex
100
AcDb2dVertex
 10
288.3889252453
 20
170.7844726309
 30
0.0
  0
VERTEX
  5
38D
100
AcDbEntity
  8
0
390
0
100
AcDbVertex
100
AcDb2dVertex
 10
288.0658623798
 20
170.534718544
 30
0.0
  0
VERTEX
  5
38E
100
AcDbEntity
  8
0
390
0
100
AcDbVertex
100
AcDb2dVertex
 10
287.7542352485
 20
170.2801680348
 30
0.0
  0
VERTEX
  5
38F
100
AcDbEntity
  8
0
390
0
100
AcDbVertex
100
AcDb2dVertex
 10
287.4542574249
 20
170.0209955597
 30
0.0
  0
VERTEX
  5
390
100
AcDbEntity
  8
0
390
0
100
AcDbVertex
100
AcDb2dVertex
 10
287.166134499
 20
169.7573787424
 30
0.0
  0
VERTEX
  5
391
100
AcDbEntity
  8
0
390
0
100
AcDbVertex
100
AcDb2dVertex
 10
286.8900639357
 20
169.4894982528
 30
0.0
  0
VERTEX
  5
392
100
AcDbEntity
  8
0
390
0
100
AcDbVertex
100
AcDb2dVertex
 10
286.6262349401
 20
169.2175376828
 30
0.0
  0
VERTEX
  5
393
100
AcDbEntity
  8
0
390
0
100
AcDbVertex
100
AcDb2dVertex
 10
286.3748283274
 20
168.9416834205
 30
0.0
  0
VERTEX
  5
394
100
AcDbEntity
  8
0
390
0
100
AcDbVertex
100
AcDb2dVertex
 10
286.1360163991
 20
168.6621245228
 30
0.0
  0
VERTEX
  5
395
100
AcDbEntity
  8
0
390
0
100
AcDbVertex
100
AcDb2dVertex
 10
285.9099628249
 20
168.3790525853
 30
0.0
  0
VERTEX
  5
396
100
AcDbEntity
  8
0
390
0
100
AcDbVertex
100
AcDb2dVertex
 10
285.6968225307
 20
168.0926616113
 30
0.0
  0
VERTEX
  5
397
100
AcDbEntity
  8
0
390
0
100
AcDbVertex
100
AcDb2dVertex
 10
285.4967415923
 20
167.803147879
 30
0.0
  0
VERTEX
  5
398
100
AcDbEntity
  8
0
390
0
100
AcDbVertex
100
AcDb2dVertex
 10
285.309857135
 20
167.5107098066
 30
0.0
  0
VERTEX
  5
399
100
AcDbEntity
  8
0
390
0
100
AcDbVertex
100
AcDb2dVertex
 10
285.1362972402
 20
167.2155478165
 30
0.0
  0
VERTEX
  5
39A
100
AcDbEntity
  8
0
390
0
100
AcDbVertex
100
AcDb2dVertex
 10
284.9761808571
 20
166.9178641981
 30
0.0
  0
VERTEX
  5
39B
100
AcDbEntity
  8
0
390
0
100
AcDbVertex
100
AcDb2dVertex
 10
284.8296177216
 20
166.6178629687
 30
0.0
  0
VERTEX
  5
39C
100
AcDbEntity
  8
0
390
0
100
AcDbVertex
100
AcDb2dVertex
 10
284.6967082806
 20
166.3157497344
 30
0.0
  0
VERTEX
  5
39D
100
AcDbEntity
  8
0
390
0
100
AcDbVertex
100
AcDb2dVertex
 10
284.5775436236
 20
166.0117315483
 30
0.0
  0
VERTEX
  5
39E
100
AcDbEntity
  8
0
390
0
100
AcDbVertex
100
AcDb2dVertex
 10
284.4722054203
 20
165.7060167693
 30
0.0
  0
VERTEX
  5
39F
100
AcDbEntity
  8
0
390
0
100
AcDbVertex
100
AcDb2dVertex
 10
284.380765864
 20
165.3988149192
 30
0.0
  0
VERTEX
  5
3A0
100
AcDbEntity
  8
0
390
0
100
AcDbVertex
100
AcDb2dVertex
 10
284.3032876229
 20
165.0903365387
 30
0.0
  0
VERTEX
  5
3A1
100
AcDbEntity
  8
0
390
0
100
AcDbVertex
100
AcDb2dVertex
 10
284.2398237968
 20
164.7807930434
 30
0.0
  0
VERTEX
  5
3A2
100
AcDbEntity
  8
0
390
0
100
AcDbVertex
100
AcDb2dVertex
 10
284.1904178805
 20
164.4703965791
 30
0.0
  0
VERTEX
  5
3A3
100
AcDbEntity
  8
0
390
0
100
AcDbVertex
100
AcDb2dVertex
 10
284.1551037345
 20
164.159359876
 30
0.0
  0
VERTEX
  5
3A4
100
AcDbEntity
  8
0
390
0
100
AcDbVertex
100
AcDb2dVertex
 10
284.1339055612
 20
163.847896103
 30
0.0
  0
VERTEX
  5
3A5
100
AcDbEntity
  8
0
390
0
100
AcDbVertex
100
AcDb2dVertex
 10
284.1271960812
 20
163.6063901972
 30
0.0
  0
SEQEND
  5
3A6
100
AcDbEntity
  8
0
390
0
  0
LINE
  5
3A7
100
AcDbEntity
  8
0
370
        15
390
0
  6
Continuous
 62
         7
100
AcDbLine
 10
337.4442349072
 20
169.6403081234
 30
0.0
 11
337.4442349072
 21
169.4999651714
 31
0.0
  0
POLYLINE
  5
3A8
100
AcDbEntity
  8
0
390
0
  6
Continuous
 62
         7
100
AcDb2dPolyline
 66
         1
 10
0.0
 20
0.0
 30
0.0
 70
       128
 40
0.1299212598
 41
0.1299212598
  0
VERTEX
  5
3A9
100
AcDbEntity
  8
0
390
0
100
AcDbVertex
100
AcDb2dVertex
 10
337.3657616487
 20
169.4298165032
 30
0.0
  0
VERTEX
  5
3AA
100
AcDbEntity
  8
0
390
0
100
AcDbVertex
100
AcDb2dVertex
 10
337.3757595615
 20
169.4435105154
 30
0.0
  0
VERTEX
  5
3AB
100
AcDbEntity
  8
0
390
0
100
AcDbVertex
100
AcDb2dVertex
 10
337.4057193481
 20
169.4734670558
 30
0.0
  0
VERTEX
  5
3AC
100
AcDbEntity
  8
0
390
0
100
AcDbVertex
100
AcDb2dVertex
 10
337.4442349072
 20
169.4999651714
 30
0.0
  0
SEQEND
  5
3AD
100
AcDbEntity
  8
0
390
0
  0
LINE
  5
3AE
100
AcDbEntity
  8
0
370
        15
390
0
  6
Continuous
 62
         7
100
AcDbLine
 10
340.9687202697
 20
171.6749502146
 30
0.0
 11
340.9687202697
 21
171.5346072626
 31
0.0
  0
LINE
  5
3AF
100
AcDbEntity
  8
0
370
        15
390
0
  6
Continuous
 62
         7
100
AcDbLine
 10
337.4442349072
 20
169.4999651714
 30
0.0
 11
340.9687202697
 21
171.5346072626
 31
0.0
  0
LINE
  5
3B0
100
AcDbEntity
  8
0
370
        15
390
0
  6
Continuous
 62
         7
100
AcDbLine
 10
285.5800959246
 20
179.8310585974
 30
0.0
 11
285.5800959246
 21
179.6907156453
 31
0.0
  0
POLYLINE
  5
3B1
100
AcDbEntity
  8
0
390
0
  6
Continuous
 62
         7
100
AcDb2dPolyline
 66
         1
 10
0.0
 20
0.0
 30
0.0
 70
       128
 40
0.1299212598
 41
0.1299212598
  0
VERTEX
  5
3B2
100
AcDbEntity
  8
0
390
0
100
AcDbVertex
100
AcDb2dVertex
 10
285.5800959246
 20
179.6907156453
 30
0.0
  0
VERTEX
  5
3B3
100
AcDbEntity
  8
0
390
0
100
AcDbVertex
100
AcDb2dVertex
 10
285.6351486555
 20
179.6548420129
 30
0.0
  0
VERTEX
  5
3B4
100
AcDbEntity
  8
0
390
0
100
AcDbVertex
100
AcDb2dVertex
 10
285.6823096373
 20
179.6153991315
 30
0.0
  0
VERTEX
  5
3B5
100
AcDbEntity
  8
0
390
0
100
AcDbVertex
100
AcDb2dVertex
 10
285.7208911567
 20
179.5729621671
 30
0.0
  0
VERTEX
  5
3B6
100
AcDbEntity
  8
0
390
0
100
AcDbVertex
100
AcDb2dVertex
 10
285.7503306083
 20
179.5281499463
 30
0.0
  0
VERTEX
  5
3B7
100
AcDbEntity
  8
0
390
0
100
AcDbVertex
100
AcDb2dVertex
 10
285.7701986986
 20
179.481615932
 30
0.0
  0
VERTEX
  5
3B8
100
AcDbEntity
  8
0
390
0
100
AcDbVertex
100
AcDb2dVertex
 10
285.770629016
 20
179.4802468329
 30
0.0
  0
SEQEND
  5
3B9
100
AcDbEntity
  8
0
390
0
  0
LINE
  5
3BA
100
AcDbEntity
  8
0
370
        15
390
0
  6
Continuous
 62
         7
100
AcDbLine
 10
284.1216881884
 20
180.6729794627
 30
0.0
 11
284.1216881884
 21
180.5326365106
 31
0.0
  0
LINE
  5
3BB
100
AcDbEntity
  8
0
370
        15
390
0
  6
Continuous
 62
         7
100
AcDbLine
 10
284.1216881884
 20
180.5326365106
 30
0.0
 11
285.5800959246
 21
179.6907156453
 31
0.0
  0
ENDSEC
  0
SECTION
  2
OBJECTS
  0
DICTIONARY
  5
19
100
AcDbDictionary
280
         0
281
         1
  3
ACAD_GROUP
350
1A
  3
ACAD_MLINESTYLE
350
1B
  3
ACAD_LAYOUT
350
1E
  3
ACAD_PLOTSETTINGS
350
22
  3
ACAD_PLOTSTYLENAME
350
1F
  3
ACAD_WIPEOUT_VARS
350
23
  0
DICTIONARY
  5
1A
102
{ACAD_REACTORS
330
19
102
}
100
AcDbDictionary
280
         0
281
         1
  0
DICTIONARY
  5
1B
102
{ACAD_REACTORS
330
19
102
}
100
AcDbDictionary
280
         0
281
         1
  3
Standard
350
1C
  0
MLINESTYLE
  5
1C
102
{ACAD_REACTORS
330
1B
102
}
100
AcDbMlineStyle
  2
Standard
 70
         0
  3

 62
         0
 51
90.0
 52
90.0
 71
         2
 49
0.5
 62
       256
  6
ByLayer
 49
-0.5
 62
       256
  6
ByLayer
  0
ACDBDICTIONARYWDFLT
  5
1F
102
{ACAD_REACTORS
330
19
102
}
100
AcDbDictionary
281
         1
  3
Normal
350
1D
100
AcDbDictionaryWithDefault
340
1D
  0
ACDBPLACEHOLDER
  5
1D
102
{ACAD_REACTORS
330
1F
102
}
  0
LAYOUT
  5
20
102
{ACAD_REACTORS
330
1E
102
}
100
AcDbPlotSettings
  1

  2

  4

  6

 40
0.0
 41
0.0
 42
0.0
 43
0.0
 44
0.0
 45
0.0
 46
0.0
 47
0.0
 48
0.0
 49
0.0
140
0.0
141
0.0
142
1.0
143
1.0
 70
      1024
 72
         0
 73
         0
 74
         0
  7

 75
         0
147
1.0
148
0.0
149
0.0
100
AcDbLayout
  1
Model
 70
         0
 71
         0
 10
0.0
 20
0.0
 11
0.0
 21
0.0
 12
0.0
 22
0.0
 32
0.0
 14
0.0
 24
0.0
 34
0.0
 15
0.0
 25
0.0
 35
0.0
146
0.0
 13
0.0
 23
0.0
 33
0.0
 16
0.0
 26
0.0
 36
0.0
 17
0.0
 27
0.0
 37
0.0
 76
         0
330
A
331
0
345
0
346
0
  0
LAYOUT
  5
21
102
{ACAD_REACTORS
330
1E
102
}
100
AcDbPlotSettings
  1

  2

  4

  6

 40
0.0
 41
0.0
 42
0.0
 43
0.0
 44
0.0
 45
0.0
 46
0.0
 47
0.0
 48
0.0
 49
0.0
140
0.0
141
0.0
142
1.0
143
1.0
 70
         0
 72
         0
 73
         0
 74
         0
  7

 75
         0
147
1.0
148
0.0
149
0.0
100
AcDbLayout
  1
Layout1
 70
         0
 71
         0
 10
0.0
 20
0.0
 11
0.0
 21
0.0
 12
0.0
 22
0.0
 32
0.0
 14
0.0
 24
0.0
 34
0.0
 15
0.0
 25
0.0
 35
0.0
146
0.0
 13
0.0
 23
0.0
 33
0.0
 16
0.0
 26
0.0
 36
0.0
 17
0.0
 27
0.0
 37
0.0
 76
         0
330
B
331
0
345
0
346
0
  0
DICTIONARY
  5
1E
102
{ACAD_REACTORS
330
19
102
}
100
AcDbDictionary
280
         0
281
         1
  3
Layout1
350
21
  3
Model
350
20
  0
DICTIONARY
  5
22
102
{ACAD_REACTORS
330
19
102
}
100
AcDbDictionary
280
         0
281
         1
  0
WIPEOUTVARIABLES
  5
23
100
AcDbWipeoutVariables
 70
         1
  0
ENDSEC
  0
EOF
