  0
SECTION
  2
HEADER
  9
$ACADVER
  1
AC1015
  9
$ACADMAINTVER
 70
         6
  9
$DWGCODEPAGE
  3
ANSI_1252
  9
$INSBASE
 10
0.0
 20
0.0
 30
0.0
  9
$EXTMIN
 10
0.0
 20
0.0
 30
0.0
  9
$EXTMAX
 10
374.0
 20
242.0
 30
0.0
  9
$LIMMIN
 10
0.0
 20
0.0
  9
$LIMMAX
 10
0.0
 20
0.0
  9
$ORTHOMODE
 70
         0
  9
$REGENMODE
 70
         1
  9
$FILLMODE
 70
         1
  9
$QTEXTMODE
 70
         0
  9
$MIRRTEXT
 70
         1
  9
$LTSCALE
 40
1.0
  9
$ATTMODE
 70
         1
  9
$TEXTSIZE
 40
2.2
  9
$TRACEWID
 40
0.05
  9
$TEXTSTYLE
  7
Standard
  9
$CLAYER
  8
0
  9
$CELTYPE
  6
Continuous
  9
$CECOLOR
 62
       256
  9
$CELTSCALE
 40
1.0
  9
$DISPSILH
 70
         0
  9
$DIMSCALE
 40
1.0
  9
$DIMASZ
 40
0.0
  9
$DIMEXO
 40
0.0
  9
$DIMDLI
 40
0.38
  9
$DIMRND
 40
0.0
  9
$DIMDLE
 40
0.0
  9
$DIMEXE
 40
0.18
  9
$DIMTP
 40
0.0
  9
$DIMTM
 40
0.0
  9
$DIMTXT
 40
2.2
  9
$DIMCEN
 40
0.09
  9
$DIMTSZ
 40
0.0
  9
$DIMTOL
 70
         0
  9
$DIMLIM
 70
         0
  9
$DIMTIH
 70
         1
  9
$DIMTOH
 70
         1
  9
$DIMSE1
 70
         0
  9
$DIMSE2
 70
         0
  9
$DIMTAD
 70
         0
  9
$DIMZIN
 70
         0
  9
$DIMBLK
  1

  9
$DIMASO
 70
         1
  9
$DIMSHO
 70
         1
  9
$DIMPOST
  1

  9
$DIMAPOST
  1

  9
$DIMALT
 70
         0
  9
$DIMALTD
 70
         2
  9
$DIMALTF
 40
25.4
  9
$DIMLFAC
 40
1.0
  9
$DIMTOFL
 70
         0
  9
$DIMTVP
 40
0.0
  9
$DIMTIX
 70
         0
  9
$DIMSOXD
 70
         0
  9
$DIMSAH
 70
         0
  9
$DIMBLK1
  1

  9
$DIMBLK2
  1

  9
$DIMSTYLE
  2
Standard
  9
$DIMCLRD
 70
         0
  9
$DIMCLRE
 70
         0
  9
$DIMCLRT
 70
         0
  9
$DIMTFAC
 40
1.0
  9
$DIMGAP
 40
0.0
  9
$DIMJUST
 70
         0
  9
$DIMSD1
 70
         0
  9
$DIMSD2
 70
         0
  9
$DIMTOLJ
 70
         1
  9
$DIMTZIN
 70
         0
  9
$DIMALTZ
 70
         0
  9
$DIMALTTZ
 70
         0
  9
$DIMUPT
 70
         0
  9
$DIMDEC
 70
         4
  9
$DIMTDEC
 70
         4
  9
$DIMALTU
 70
         2
  9
$DIMALTTD
 70
         2
  9
$DIMTXSTY
  7
Standard
  9
$DIMAUNIT
 70
         0
  9
$DIMADEC
 70
         0
  9
$DIMALTRND
 40
0.0
  9
$DIMAZIN
 70
         0
  9
$DIMDSEP
 70
         0
  9
$DIMATFIT
 70
         3
  9
$DIMFRAC
 70
         0
  9
$DIMLDRBLK
  1

  9
$DIMLUNIT
 70
         2
  9
$DIMLWD
 70
         0
  9
$DIMLWE
 70
         0
  9
$DIMTMOVE
 70
         0
  9
$LUNITS
 70
         2
  9
$LUPREC
 70
         3
  9
$SKETCHINC
 40
0.1
  9
$FILLETRAD
 40
0.0
  9
$AUNITS
 70
         0
  9
$AUPREC
 70
         0
  9
$MENU
  1
acad
  9
$ELEVATION
 40
0.0
  9
$PELEVATION
 40
0.0
  9
$THICKNESS
 40
0.0
  9
$LIMCHECK
 70
         0
  9
$CHAMFERA
 40
0.0
  9
$CHAMFERB
 40
0.0
  9
$CHAMFERC
 40
0.0
  9
$CHAMFERD
 40
0.0
  9
$SKPOLY
 70
         0
  9
$TDCREATE
 40
0.000000000
  9
$TDUCREATE
 40
0.000000000
  9
$TDUPDATE
 40
0.000000000
  9
$TDUUPDATE
 40
0.000000000
  9
$TDINDWG
 40
0.0000000000
  9
$TDUSRTIMER
 40
0.0000000000
  9
$USRTIMER
 70
         1
  9
$ANGBASE
 50
0.0
  9
$ANGDIR
 70
         0
  9
$PDMODE
 70
         0
  9
$PDSIZE
 40
-1.0
  9
$PLINEWID
 40
0.0
  9
$SPLFRAME
 70
         0
  9
$SPLINETYPE
 70
         6
  9
$SPLINESEGS
 70
         8
  9
$HANDSEED
  5
499
  9
$SURFTAB1
 70
         6
  9
$SURFTAB2
 70
         6
  9
$SURFTYPE
 70
         6
  9
$SURFU
 70
         6
  9
$SURFV
 70
         6
  9
$UCSBASE
  2

  9
$UCSNAME
  2

  9
$UCSORG
 10
0.0
 20
0.0
 30
0.0
  9
$UCSXDIR
 10
1.0
 20
0.0
 30
0.0
  9
$UCSYDIR
 10
0.0
 20
1.0
 30
0.0
  9
$UCSORTHOREF
  2

  9
$UCSORTHOVIEW
 70
         0
  9
$UCSORGTOP
 10
0.0
 20
0.0
 30
0.0
  9
$UCSORGBOTTOM
 10
0.0
 20
0.0
 30
0.0
  9
$UCSORGLEFT
 10
0.0
 20
0.0
 30
0.0
  9
$UCSORGRIGHT
 10
0.0
 20
0.0
 30
0.0
  9
$UCSORGFRONT
 10
0.0
 20
0.0
 30
0.0
  9
$UCSORGBACK
 10
0.0
 20
0.0
 30
0.0
  9
$PUCSBASE
  2

  9
$PUCSNAME
  2

  9
$PUCSORG
 10
0.0
 20
0.0
 30
0.0
  9
$PUCSXDIR
 10
1.0
 20
0.0
 30
0.0
  9
$PUCSYDIR
 10
0.0
 20
1.0
 30
0.0
  9
$PUCSORTHOREF
  2

  9
$PUCSORTHOVIEW
 70
         0
  9
$PUCSORGTOP
 10
0.0
 20
0.0
 30
0.0
  9
$PUCSORGBOTTOM
 10
0.0
 20
0.0
 30
0.0
  9
$PUCSORGLEFT
 10
0.0
 20
0.0
 30
0.0
  9
$PUCSORGRIGHT
 10
0.0
 20
0.0
 30
0.0
  9
$PUCSORGFRONT
 10
0.0
 20
0.0
 30
0.0
  9
$PUCSORGBACK
 10
0.0
 20
0.0
 30
0.0
  9
$USERI1
 70
         0
  9
$USERI2
 70
         0
  9
$USERI3
 70
         0
  9
$USERI4
 70
         0
  9
$USERI5
 70
         0
  9
$USERR1
 40
0.0
  9
$USERR2
 40
0.0
  9
$USERR3
 40
0.0
  9
$USERR4
 40
0.0
  9
$USERR5
 40
0.0
  9
$WORLDVIEW
 70
         1
  9
$SHADEDGE
 70
         3
  9
$SHADEDIF
 70
        70
  9
$TILEMODE
 70
         1
  9
$MAXACTVP
 70
        16
  9
$PINSBASE
 10
0.0
 20
0.0
 30
0.0
  9
$PLIMCHECK
 70
         0
  9
$PEXTMIN
 10
1.0000000000E+20
 20
1.0000000000E+20
 30
1.0000000000E+20
  9
$PEXTMAX
 10
-1.0000000000E+20
 20
-1.0000000000E+20
 30
-1.0000000000E+20
  9
$PLIMMIN
 10
0.0
 20
0.0
  9
$PLIMMAX
 10
12.0
 20
9.0
  9
$UNITMODE
 70
         0
  9
$VISRETAIN
 70
         0
  9
$PLINEGEN
 70
         1
  9
$PSLTSCALE
 70
         1
  9
$TREEDEPTH
 70
      3020
  9
$CMLSTYLE
  2
Standard
  9
$CMLJUST
 70
         0
  9
$CMLSCALE
 40
1.0
  9
$PROXYGRAPHICS
 70
         0
  9
$MEASUREMENT
 70
         0
  9
$CELWEIGHT
370
         0
  9
$ENDCAPS
280
         0
  9
$JOINSTYLE
280
         0
  9
$LWDISPLAY
290
         1
  9
$INSUNITS
 70
         0
  9
$HYPERLINKBASE
  1

  9
$STYLESHEET
  1

  9
$XEDIT
290
         1
  9
$CEPSNTYPE
380
         0
  9
$PSTYLEMODE
290
         1
  9
$FINGERPRINTGUID
  2

  9
$VERSIONGUID
  2

  9
$EXTNAMES
290
         1
  9
$PSVPSCALE
 40
0.0
  0
ENDSEC
  0
SECTION
  2
CLASSES
  0
CLASS
  1
LWPOLYLINE
  2
AcDbPolyline
  3
AutoCAD 2000
 90
        0
280
         0
281
         1
  0
CLASS
  1
IMAGE
  2
AcDbRasterImage
  3
ISM
 90
      127
280
         0
281
         1
  0
CLASS
  1
OLE2FRAME
  2
AcDbOle2Frame
  3
AutoCAD 2000
 90
        0
280
         0
281
         1
  0
CLASS
  1
HATCH
  2
AcDbHatch
  3
AutoCAD 2000
 90
        0
280
         0
281
         1
  0
CLASS
  1
DICTIONARYVAR
  2
AcDbDictionaryVar
  3
AutoCAD 2000
 90
        0
280
         0
281
         0
  0
CLASS
  1
RASTERVARIABLES
  2
AcDbRasterVariables
  3
ISM
 90
        0
280
         0
281
         0
  0
CLASS
  1
IMAGEDEF
  2
AcDbRasterImageDef
  3
ISM
 90
        0
280
         0
281
         0
  0
CLASS
  1
IMAGEDEF_REACTOR
  2
AcDbRasterImageDefReactor
  3
ISM
 90
        1
280
         0
281
         0
  0
CLASS
  1
IDBUFFER
  2
AcDbIdBuffer
  3
AutoCAD 2000
 90
        0
280
         0
281
         0
  0
CLASS
  1
SPATIAL_FILTER
  2
AcDbSpatialFilter
  3
AutoCAD 2000
 90
        0
280
         0
281
         0
  0
CLASS
  1
XRECORD
  2
AcDbXrecord
  3
AutoCAD 2000
 90
        0
280
         0
281
         0
  0
CLASS
  1
SORTENTSTABLE
  2
AcDbSortentsTable
  3
AutoCAD 2000
 90
        0
280
         0
281
         0
  0
CLASS
  1
LAYER_INDEX
  2
AcDbLayerIndex
  3
AutoCAD 2000
 90
        0
280
         0
281
         0
  0
CLASS
  1
SPATIAL_INDEX
  2
AcDbSpatialIndex
  3
AutoCAD 2000
 90
        0
280
         0
281
         0
  0
CLASS
  1
OBJECT_PTR
  2
CAseDLPNTableRecord
  3
"ASE-LPNTableRecord"
 90
        1
280
         0
281
         0
  0
CLASS
  1
LAYOUT
  2
AcDbLayout
  3
AutoCAD 2000
 90
        0
280
         0
281
         0
  0
CLASS
  1
PLOTSETTINGS
  2
AcDbPlotSettings
  3
AutoCAD 2000
 90
        0
280
         0
281
         0
  0
CLASS
  1
ACDBDICTIONARYWDFLT
  2
AcDbDictionaryWithDefault
  3
AutoCAD 2000
 90
        0
280
         0
281
         0
  0
CLASS
  1
ACDBPLACEHOLDER
  2
AcDbPlaceHolder
  3
AutoCAD 2000
 90
        0
280
         0
281
         0
  0
CLASS
  1
VBA_PROJECT
  2
AcDbVbaProject
  3
acadvba
 90
        0
280
         0
281
         0
  0
CLASS
  1
WIPEOUT
  2
AcDbWipeout
  3
WipeOut|AutoCAD Express Tool|expresstools@autodesk.com
 90
      127
280
         0
281
         1
  0
CLASS
  1
WIPEOUTVARIABLES
  2
AcDbWipeoutVariables
  3
WipeOut|AutoCAD Express Tool|expresstools@autodesk.com
 90
        0
280
         0
281
         0
  0
CLASS
  1
RTEXT
  2
RText
  3
RText|AutoCAD Express Tool|expresstools@autodesk.com
 90
        0
280
         0
281
         1
  0
CLASS
  1
ARCALIGNEDTEXT
  2
AcDbArcAlignedText
  3
ATEXT|AutoCAD Express Tool|expresstools@autodesk.com
 90
        0
280
         0
281
         1
  0
ENDSEC
  0
SECTION
  2
TABLES
  0
TABLE
  2
VPORT
  5
7
100
AcDbSymbolTable
 70
         1
  0
VPORT
  5
15
100
AcDbSymbolTableRecord
100
AcDbViewportTableRecord
  2
*ACTIVE
 70
         0
 10
0.0
 20
0.0
 11
1.0
 21
1.0
 12
187.0
 22
121.0
 13
0.0
 23
0.0
 14
1.0
 24
1.0
 15
0.0
 25
0.0
 16
0.0
 26
0.0
 36
1.0
 17
0.0
 27
0.0
 37
0.0
 40
242.0
 41
0.6470588235
 42
50.0
 43
0.0
 44
0.0
 50
0.0
 51
0.0
 71
         0
 72
      2000
 73
         1
 74
         1
 75
         0
 76
         0
 77
         0
 78
         0
281
         0
 65
         0
110
0.0
120
0.0
130
0.0
111
1.0
121
0.0
131
0.0
112
0.0
122
1.0
132
0.0
345
0
346
0
 79
         0
146
0.0
  0
ENDTAB
  0
TABLE
  2
LTYPE
  5
4
100
AcDbSymbolTable
 70
         8
  0
LTYPE
  5
11
100
AcDbSymbolTableRecord
100
AcDbLinetypeTableRecord
  2
ByBlock
 70
        64
  3

 72
        65
 73
         0
 40
0.0
  0
LTYPE
  5
12
100
AcDbSymbolTableRecord
100
AcDbLinetypeTableRecord
  2
ByLayer
 70
        64
  3

 72
        65
 73
         0
 40
0.0
  0
LTYPE
  5
13
100
AcDbSymbolTableRecord
100
AcDbLinetypeTableRecord
  2
Continuous
 70
        64
  3
Solid line
 72
        65
 73
         0
 40
0.0
  0
LTYPE
  5
24
100
AcDbSymbolTableRecord
100
AcDbLinetypeTableRecord
  2
HIDDEN
 70
        64
  3
Hidden __ __ __ __ __ __ __ __ __ __ __ __ __ __
 72
        65
 73
         2
 40
0.075
 49
0.05
 74
         0
 49
-0.025
 74
         0
  0
LTYPE
  5
25
100
AcDbSymbolTableRecord
100
AcDbLinetypeTableRecord
  2
PHANTOM
 70
        64
  3
Phantom ______  __  __  ______  __  __  ______
 72
        65
 73
         6
 40
0.5
 49
0.25
 74
         0
 49
-0.05
 74
         0
 49
0.05
 74
         0
 49
-0.05
 74
         0
 49
0.05
 74
         0
 49
-0.05
 74
         0
  0
LTYPE
  5
26
100
AcDbSymbolTableRecord
100
AcDbLinetypeTableRecord
  2
CENTER
 70
        64
  3
Center ____ _ ____ _ ____ _ ____ _ ____ _ ____
 72
        65
 73
         4
 40
0.4
 49
0.25
 74
         0
 49
-0.05
 74
         0
 49
0.05
 74
         0
 49
-0.05
 74
         0
  0
LTYPE
  5
27
100
AcDbSymbolTableRecord
100
AcDbLinetypeTableRecord
  2
CENTERX2
 70
        64
  3
Center (2x) ________  __  ________  __  _____
 72
        65
 73
         4
 40
0.8
 49
0.5
 74
         0
 49
-0.1
 74
         0
 49
0.1
 74
         0
 49
-0.1
 74
         0
  0
LTYPE
  5
28
100
AcDbSymbolTableRecord
100
AcDbLinetypeTableRecord
  2
DOT2
 70
        64
  3
Dot (.5x) ........................................
 72
        65
 73
         2
 40
0.025
 49
0.0
 74
         0
 49
-0.025
 74
         0
  0
ENDTAB
  0
TABLE
  2
LAYER
  5
2
100
AcDbSymbolTable
 70
         1
  0
LAYER
  5
14
100
AcDbSymbolTableRecord
100
AcDbLayerTableRecord
  2
0
 70
         0
 62
         7
  6
Continuous
290
         1
370
        -3
390
1D
  0
ENDTAB
  0
TABLE
  2
STYLE
  5
3
100
AcDbSymbolTable
 70
         2
  0
STYLE
  5
17
100
AcDbSymbolTableRecord
100
AcDbTextStyleTableRecord
  2
Standard
 70
         0
 40
0.0
 41
1.0
 50
0.0
 71
         0
 42
0.0
  3
txt
  4

  0
STYLE
  5
75
100
AcDbSymbolTableRecord
100
AcDbTextStyleTableRecord
  2
SLDTEXTSTYLE0
 70
         0
 40
0.0
 41
0.75
 50
0.0
 71
         0
 42
0.0
  3
txt
  4

  0
ENDTAB
  0
TABLE
  2
VIEW
  5
5
100
AcDbSymbolTable
 70
         0
  0
ENDTAB
  0
TABLE
  2
UCS
  5
6
100
AcDbSymbolTable
 70
         0
  0
ENDTAB
  0
TABLE
  2
APPID
  5
8
100
AcDbSymbolTable
 70
         1
  0
APPID
  5
16
100
AcDbSymbolTableRecord
100
AcDbRegAppTableRecord
  2
ACAD
 70
         0
  0
ENDTAB
  0
TABLE
  2
DIMSTYLE
  5
9
100
AcDbSymbolTable
 70
         6
100
AcDbDimStyleTable
 71
         0
  0
DIMSTYLE
105
18
100
AcDbSymbolTableRecord
100
AcDbDimStyleTableRecord
  2
Standard
 70
         0
  3

  4

 40
1.0
 41
0.18
 42
0.0625
 43
0.38
 44
0.18
 45
0.0
 46
0.0
 47
0.0
 48
0.0
 71
         0
 72
         0
 73
         1
 74
         1
 75
         0
 76
         0
 77
         0
 78
         0
 79
         0
140
0.18
141
0.09
142
0.0
143
25.4
144
1.0
145
0.0
146
1.0
147
0.09
148
0.0
170
         0
171
         2
172
         0
173
         0
174
         0
175
         0
176
         0
177
         0
178
         0
179
         0
271
         4
272
         4
273
         2
274
         2
275
         0
276
         0
277
         2
278
        46
279
         0
280
         0
281
         0
282
         0
283
         1
284
         0
285
         0
286
         0
288
         0
289
         3
340
17
341
0
342
0
343
0
344
0
371
        -2
372
        -2
  0
DIMSTYLE
105
E4
100
AcDbSymbolTableRecord
100
AcDbDimStyleTableRecord
  2
SLDDIMSTYLE0
 70
         0
  3

  4

 40
1.0
 41
4.125
 42
0.0625
 43
0.38
 44
2.64
 45
0.0
 46
0.0
 47
0.0
 48
0.0
 71
         0
 72
         0
 73
         1
 74
         1
 75
         0
 76
         0
 77
         0
 78
        12
 79
         0
140
2.2
141
0.09
142
0.0
143
25.4
144
1.0
145
0.0
146
1.0
147
0.55
148
0.0
170
         0
171
         2
172
         1
173
         1
174
         0
175
         0
176
         7
177
         7
178
         7
179
         0
271
         3
272
         4
273
         2
274
         2
275
         0
276
         0
277
         2
278
        46
279
         0
280
         0
281
         0
282
         0
283
         1
284
        12
285
         0
286
         0
288
         0
289
         3
340
17
341
0
342
0
343
0
344
0
371
        -2
372
        -2
  0
DIMSTYLE
105
F2
100
AcDbSymbolTableRecord
100
AcDbDimStyleTableRecord
  2
SLDDIMSTYLE1
 70
         0
  3

  4

 40
1.0
 41
4.125
 42
0.0625
 43
0.38
 44
2.64
 45
0.0
 46
0.0
 47
0.0
 48
0.0
 71
         0
 72
         0
 73
         1
 74
         1
 75
         0
 76
         0
 77
         0
 78
        12
 79
         0
140
2.2
141
0.09
142
0.0
143
25.4
144
1.0
145
0.0
146
1.0
147
0.55
148
0.0
170
         0
171
         2
172
         0
173
         1
174
         0
175
         0
176
         7
177
         7
178
         7
179
         0
271
         3
272
         4
273
         2
274
         2
275
         0
276
         0
277
         2
278
        46
279
         0
280
         0
281
         0
282
         0
283
         1
284
        12
285
         0
286
         0
288
         0
289
         3
340
17
341
0
342
0
343
0
344
0
371
        -2
372
        -2
  0
DIMSTYLE
105
15C
100
AcDbSymbolTableRecord
100
AcDbDimStyleTableRecord
  2
SLDDIMSTYLE2
 70
         0
  3

  4

 40
1.0
 41
4.125
 42
0.0625
 43
0.38
 44
2.64
 45
0.0
 46
0.0
 47
0.0
 48
0.0
 71
         0
 72
         0
 73
         1
 74
         1
 75
         0
 76
         0
 77
         0
 78
        12
 79
         0
140
2.2
141
0.09
142
0.0
143
25.4
144
1.0
145
0.0
146
1.0
147
0.55
148
0.0
170
         0
171
         2
172
         0
173
         1
174
         0
175
         0
176
         1
177
         1
178
         1
179
         0
271
         3
272
         4
273
         2
274
         2
275
         0
276
         0
277
         2
278
        46
279
         0
280
         0
281
         0
282
         0
283
         1
284
        12
285
         0
286
         0
288
         0
289
         3
340
17
341
0
342
0
343
0
344
0
371
        -2
372
        -2
  0
DIMSTYLE
105
1A3
100
AcDbSymbolTableRecord
100
AcDbDimStyleTableRecord
  2
SLDDIMSTYLE3
 70
         0
  3

  4

 40
1.0
 41
4.125
 42
0.0625
 43
0.38
 44
2.64
 45
0.0
 46
0.0
 47
0.0
 48
0.0
 71
         0
 72
         0
 73
         1
 74
         1
 75
         0
 76
         0
 77
         0
 78
        12
 79
         0
140
2.2
141
0.09
142
0.0
143
25.4
144
1.0
145
0.0
146
1.0
147
0.55
148
0.0
170
         0
171
         2
172
         0
173
         1
174
         0
175
         0
176
         1
177
         1
178
         1
179
         0
271
         0
272
         4
273
         2
274
         2
275
         0
276
         0
277
         2
278
        46
279
         0
280
         0
281
         0
282
         0
283
         1
284
        12
285
         0
286
         0
288
         0
289
         3
340
17
341
0
342
0
343
0
344
0
371
        -2
372
        -2
  0
DIMSTYLE
105
201
100
AcDbSymbolTableRecord
100
AcDbDimStyleTableRecord
  2
SLDDIMSTYLE4
 70
         0
  3

  4

 40
1.0
 41
4.125
 42
0.0625
 43
0.38
 44
2.64
 45
0.0
 46
0.0
 47
0.0
 48
0.0
 71
         0
 72
         0
 73
         1
 74
         1
 75
         0
 76
         0
 77
         0
 78
        12
 79
         0
140
2.2
141
0.09
142
0.0
143
25.4
144
1.0
145
0.0
146
1.0
147
0.55
148
0.0
170
         0
171
         2
172
         0
173
         1
174
         0
175
         0
176
         1
177
         1
178
         1
179
         0
271
         3
272
         4
273
         2
274
         2
275
         0
276
         0
277
         2
278
        46
279
         0
280
         0
281
         0
282
         0
283
         1
284
        12
285
         0
286
         0
288
         0
289
         3
340
17
341
0
342
0
343
0
344
0
371
        -2
372
        -2
  0
ENDTAB
  0
TABLE
  2
BLOCK_RECORD
  5
1
100
AcDbSymbolTable
 70
        23
  0
BLOCK_RECORD
  5
A
100
AcDbSymbolTableRecord
100
AcDbBlockTableRecord
  2
*MODEL_SPACE
340
20
  0
BLOCK_RECORD
  5
B
100
AcDbSymbolTableRecord
100
AcDbBlockTableRecord
  2
*PAPER_SPACE
340
21
  0
BLOCK_RECORD
  5
A9
100
AcDbSymbolTableRecord
100
AcDbBlockTableRecord
  2
NOTE51
340
0
102
{BLKREFS
331
AF
102
}
  0
BLOCK_RECORD
  5
DD
100
AcDbSymbolTableRecord
100
AcDbBlockTableRecord
  2
*D1
340
0
  0
BLOCK_RECORD
  5
E9
100
AcDbSymbolTableRecord
100
AcDbBlockTableRecord
  2
*D2
340
0
  0
BLOCK_RECORD
  5
F7
100
AcDbSymbolTableRecord
100
AcDbBlockTableRecord
  2
*D3
340
0
  0
BLOCK_RECORD
  5
104
100
AcDbSymbolTableRecord
100
AcDbBlockTableRecord
  2
*D4
340
0
  0
BLOCK_RECORD
  5
111
100
AcDbSymbolTableRecord
100
AcDbBlockTableRecord
  2
*D5
340
0
  0
BLOCK_RECORD
  5
11F
100
AcDbSymbolTableRecord
100
AcDbBlockTableRecord
  2
*D6
340
0
  0
BLOCK_RECORD
  5
12D
100
AcDbSymbolTableRecord
100
AcDbBlockTableRecord
  2
*D7
340
0
  0
BLOCK_RECORD
  5
13B
100
AcDbSymbolTableRecord
100
AcDbBlockTableRecord
  2
*D8
340
0
  0
BLOCK_RECORD
  5
147
100
AcDbSymbolTableRecord
100
AcDbBlockTableRecord
  2
*D9
340
0
  0
BLOCK_RECORD
  5
154
100
AcDbSymbolTableRecord
100
AcDbBlockTableRecord
  2
*D10
340
0
  0
BLOCK_RECORD
  5
161
100
AcDbSymbolTableRecord
100
AcDbBlockTableRecord
  2
*D11
340
0
  0
BLOCK_RECORD
  5
170
100
AcDbSymbolTableRecord
100
AcDbBlockTableRecord
  2
*D12
340
0
  0
BLOCK_RECORD
  5
17D
100
AcDbSymbolTableRecord
100
AcDbBlockTableRecord
  2
*D13
340
0
  0
BLOCK_RECORD
  5
18A
100
AcDbSymbolTableRecord
100
AcDbBlockTableRecord
  2
*D14
340
0
  0
BLOCK_RECORD
  5
198
100
AcDbSymbolTableRecord
100
AcDbBlockTableRecord
  2
*D15
340
0
  0
BLOCK_RECORD
  5
1AA
100
AcDbSymbolTableRecord
100
AcDbBlockTableRecord
  2
*D16
340
0
  0
BLOCK_RECORD
  5
1B7
100
AcDbSymbolTableRecord
100
AcDbBlockTableRecord
  2
*D17
340
0
  0
BLOCK_RECORD
  5
1C4
100
AcDbSymbolTableRecord
100
AcDbBlockTableRecord
  2
*D18
340
0
  0
BLOCK_RECORD
  5
1D1
100
AcDbSymbolTableRecord
100
AcDbBlockTableRecord
  2
*D19
340
0
  0
BLOCK_RECORD
  5
1DE
100
AcDbSymbolTableRecord
100
AcDbBlockTableRecord
  2
*D20
340
0
  0
BLOCK_RECORD
  5
1EB
100
AcDbSymbolTableRecord
100
AcDbBlockTableRecord
  2
*D21
340
0
  0
BLOCK_RECORD
  5
1F9
100
AcDbSymbolTableRecord
100
AcDbBlockTableRecord
  2
*D22
340
0
  0
ENDTAB
  0
ENDSEC
  0
SECTION
  2
BLOCKS
  0
BLOCK
  5
D
100
AcDbEntity
  8
0
390
0
100
AcDbBlockBegin
  2
*MODEL_SPACE
 70
         0
 10
0.0
 20
0.0
 30
0.0
  3
*MODEL_SPACE
  1

  0
ENDBLK
  5
E
100
AcDbEntity
  8
0
390
0
100
AcDbBlockEnd
  0
BLOCK
  5
F
100
AcDbEntity
 67
         1
  8
0
390
0
100
AcDbBlockBegin
  2
*PAPER_SPACE
 70
         0
 10
0.0
 20
0.0
 30
0.0
  3
*PAPER_SPACE
  1

  0
ENDBLK
  5
10
100
AcDbEntity
 67
         1
  8
0
390
0
100
AcDbBlockEnd
  0
BLOCK
  5
AA
100
AcDbEntity
  8
0
390
0
 62
         0
100
AcDbBlockBegin
  2
NOTE51
 70
         0
 10
0.0
 20
0.0
 30
0.0
  3
NOTE51
  1

  0
MTEXT
  5
AB
100
AcDbEntity
  8
0
390
0
 62
         7
100
AcDbMText
 10
0.0
 20
0.0
 30
0.0
 40
1.98
 41
0.0
 71
         1
 72
         1
  1
BREAK SHARP EDGES 0.010 RAD %%p 0.003
  7
SLDTEXTSTYLE0
 73
         1
 44
1.0
  0
MTEXT
  5
AC
100
AcDbEntity
  8
0
390
0
 62
         7
100
AcDbMText
 10
0.0
 20
-2.97
 30
0.0
 40
1.98
 41
0.0
 71
         1
 72
         1
  1
MACHINED SURF FINISH  
  7
SLDTEXTSTYLE0
 73
         1
 44
1.0
  0
MTEXT
  5
AD
100
AcDbEntity
  8
0
390
0
 62
         7
100
AcDbMText
 10
30.492
 20
-2.97
 30
0.0
 40
1.98
 41
0.0
 71
         1
 72
         1
  1
< 125 MICROINCH
  7
SLDTEXTSTYLE0
 73
         1
 44
1.0
  0
ENDBLK
  5
AE
100
AcDbEntity
  8
0
390
0
100
AcDbBlockEnd
  0
BLOCK
  5
DE
100
AcDbEntity
  8
0
390
0
 62
         7
100
AcDbBlockBegin
  2
*D1
 70
         1
 10
0.0
 20
0.0
 30
0.0
  3
*D1
  1

  0
MTEXT
  5
DF
100
AcDbEntity
  8
0
390
0
 62
         7
100
AcDbMText
 10
118.9584782745
 20
221.6370199578
 30
0.0
 40
2.2
 41
0.0
 71
         7
 72
         1
  1
%%c
  7
SLDTEXTSTYLE0
 73
         1
 44
1.0
  0
MTEXT
  5
E0
100
AcDbEntity
  8
0
390
0
 62
         7
100
AcDbMText
 10
122.7156963877
 20
221.6370199578
 30
0.0
 40
2.2
 41
0.0
 71
         7
 72
         1
  1
74"
  7
SLDTEXTSTYLE0
 73
         1
 44
1.0
  0
LINE
  5
E1
100
AcDbEntity
  8
0
390
0
 62
         7
100
AcDbLine
 10
143.3774422024
 20
191.215057952
 30
0.0
 11
134.2116428028
 21
222.626162788
 31
0.0
  0
LINE
  5
E2
100
AcDbEntity
  8
0
390
0
 62
         7
100
AcDbLine
 10
134.2116428028
 20
222.626162788
 30
0.0
 11
128.7116428028
 21
222.626162788
 31
0.0
  0
SOLID
  5
E3
100
AcDbEntity
  8
0
390
0
 62
         7
100
AcDbTrace
 10
143.3774422024
 20
191.215057952
 30
0.0
 11
142.8819272131
 21
195.3674965302
 31
0.0
 12
141.561974971
 22
194.9823328267
 32
0.0
 13
141.561974971
 23
194.9823328267
 33
0.0
  0
POINT
  5
E5
100
AcDbEntity
  8
0
390
0
 62
         7
100
AcDbPoint
 10
143.3774422024
 20
191.215057952
 30
0.0
  0
POINT
  5
E6
100
AcDbEntity
  8
0
390
0
 62
         7
100
AcDbPoint
 10
164.1062524253
 20
120.1776281931
 30
0.0
  0
ENDBLK
  5
E7
100
AcDbEntity
  8
0
390
0
100
AcDbBlockEnd
  0
BLOCK
  5
EA
100
AcDbEntity
  8
0
390
0
 62
         7
100
AcDbBlockBegin
  2
*D2
 70
         1
 10
0.0
 20
0.0
 30
0.0
  3
*D2
  1

  0
MTEXT
  5
EB
100
AcDbEntity
  8
0
390
0
 62
         7
100
AcDbMText
 10
216.3176123995
 20
90.3861385893
 30
0.0
 40
2.2
 41
0.0
 71
         7
 72
         1
  1
16 9/32"
  7
SLDTEXTSTYLE0
 73
         1
 44
1.0
  0
LINE
  5
EC
100
AcDbEntity
  8
0
390
0
 62
         7
100
AcDbLine
 10
188.9488473139
 20
103.3163430726
 30
0.0
 11
188.9488473139
 21
88.7352814195
 31
0.0
  0
LINE
  5
ED
100
AcDbEntity
  8
0
390
0
 62
         7
100
AcDbLine
 10
205.2418473139
 20
119.6093430726
 30
0.0
 11
205.2418473139
 21
88.7352814195
 31
0.0
  0
LINE
  5
EE
100
AcDbEntity
  8
0
390
0
 62
         7
100
AcDbLine
 10
188.9488473139
 20
91.3752814195
 30
0.0
 11
205.2418473139
 21
91.3752814195
 31
0.0
  0
LINE
  5
EF
100
AcDbEntity
  8
0
390
0
 62
         7
100
AcDbLine
 10
205.2418473139
 20
91.3752814195
 30
0.0
 11
214.9426123995
 21
91.3752814195
 31
0.0
  0
SOLID
  5
F0
100
AcDbEntity
  8
0
390
0
 62
         7
100
AcDbTrace
 10
188.9488473139
 20
91.3752814195
 30
0.0
 11
193.0738473139
 21
90.6877814195
 31
0.0
 12
193.0738473139
 22
92.0627814195
 32
0.0
 13
193.0738473139
 23
92.0627814195
 33
0.0
  0
SOLID
  5
F1
100
AcDbEntity
  8
0
390
0
 62
         7
100
AcDbTrace
 10
205.2418473139
 20
91.3752814195
 30
0.0
 11
201.1168473139
 21
92.0627814195
 31
0.0
 12
201.1168473139
 22
90.6877814195
 32
0.0
 13
201.1168473139
 23
90.6877814195
 33
0.0
  0
POINT
  5
F3
100
AcDbEntity
  8
0
390
0
 62
         7
100
AcDbPoint
 10
188.9488473139
 20
104.1963430726
 30
0.0
  0
POINT
  5
F4
100
AcDbEntity
  8
0
390
0
 62
         7
100
AcDbPoint
 10
205.2418473139
 20
120.4893430726
 30
0.0
  0
ENDBLK
  5
F5
100
AcDbEntity
  8
0
390
0
 62
         7
100
AcDbBlockEnd
  0
BLOCK
  5
F8
100
AcDbEntity
  8
0
390
0
 62
         7
100
AcDbBlockBegin
  2
*D3
 70
         1
 10
0.0
 20
0.0
 30
0.0
  3
*D3
  1

  0
MTEXT
  5
F9
100
AcDbEntity
  8
0
390
0
 62
         7
100
AcDbMText
 10
174.7593359931
 20
69.12432346
 30
0.0
 40
2.2
 41
0.0
 71
         7
 72
         1
  1
51 1/2"
  7
SLDTEXTSTYLE0
 73
         1
 44
1.0
  0
LINE
  5
FA
100
AcDbEntity
  8
0
390
0
 62
         7
100
AcDbLine
 10
153.7418473139
 20
154.8163430726
 30
0.0
 11
153.7418473139
 21
67.4734662902
 31
0.0
  0
LINE
  5
FB
100
AcDbEntity
  8
0
390
0
 62
         7
100
AcDbLine
 10
205.2418473139
 20
119.6093430726
 30
0.0
 11
205.2418473139
 21
67.4734662902
 31
0.0
  0
LINE
  5
FC
100
AcDbEntity
  8
0
390
0
 62
         7
100
AcDbLine
 10
153.7418473139
 20
70.1134662902
 30
0.0
 11
173.3843359931
 21
70.1134662902
 31
0.0
  0
LINE
  5
FD
100
AcDbEntity
  8
0
390
0
 62
         7
100
AcDbLine
 10
205.2418473139
 20
70.1134662902
 30
0.0
 11
185.5993586346
 21
70.1134662902
 31
0.0
  0
SOLID
  5
FE
100
AcDbEntity
  8
0
390
0
 62
         7
100
AcDbTrace
 10
153.7418473139
 20
70.1134662902
 30
0.0
 11
157.8668473139
 21
69.4259662902
 31
0.0
 12
157.8668473139
 22
70.8009662902
 32
0.0
 13
157.8668473139
 23
70.8009662902
 33
0.0
  0
SOLID
  5
FF
100
AcDbEntity
  8
0
390
0
 62
         7
100
AcDbTrace
 10
205.2418473139
 20
70.1134662902
 30
0.0
 11
201.1168473139
 21
70.8009662902
 31
0.0
 12
201.1168473139
 22
69.4259662902
 32
0.0
 13
201.1168473139
 23
69.4259662902
 33
0.0
  0
POINT
  5
100
100
AcDbEntity
  8
0
390
0
 62
         7
100
AcDbPoint
 10
153.7418473139
 20
155.6963430726
 30
0.0
  0
POINT
  5
101
100
AcDbEntity
  8
0
390
0
 62
         7
100
AcDbPoint
 10
205.2418473139
 20
120.4893430726
 30
0.0
  0
ENDBLK
  5
102
100
AcDbEntity
  8
0
390
0
 62
         7
100
AcDbBlockEnd
  0
BLOCK
  5
105
100
AcDbEntity
  8
0
390
0
 62
         7
100
AcDbBlockBegin
  2
*D4
 70
         1
 10
0.0
 20
0.0
 30
0.0
  3
*D4
  1

  0
MTEXT
  5
106
100
AcDbEntity
  8
0
390
0
 62
         7
100
AcDbMText
 10
150.9905127856
 20
60.3112762945
 30
0.0
 40
2.2
 41
0.0
 71
         7
 72
         1
  1
103"
  7
SLDTEXTSTYLE0
 73
         1
 44
1.0
  0
LINE
  5
107
100
AcDbEntity
  8
0
390
0
 62
         7
100
AcDbLine
 10
205.2418473139
 20
119.6093430726
 30
0.0
 11
205.2418473139
 21
58.6604191247
 31
0.0
  0
LINE
  5
108
100
AcDbEntity
  8
0
390
0
 62
         7
100
AcDbLine
 10
102.2418473139
 20
119.6093430726
 30
0.0
 11
102.2418473139
 21
58.6604191247
 31
0.0
  0
LINE
  5
109
100
AcDbEntity
  8
0
390
0
 62
         7
100
AcDbLine
 10
205.2418473139
 20
61.3004191247
 30
0.0
 11
157.8681818422
 21
61.3004191247
 31
0.0
  0
LINE
  5
10A
100
AcDbEntity
  8
0
390
0
 62
         7
100
AcDbLine
 10
102.2418473139
 20
61.3004191247
 30
0.0
 11
149.6155127856
 21
61.3004191247
 31
0.0
  0
SOLID
  5
10B
100
AcDbEntity
  8
0
390
0
 62
         7
100
AcDbTrace
 10
205.2418473139
 20
61.3004191247
 30
0.0
 11
201.1168473139
 21
61.9879191247
 31
0.0
 12
201.1168473139
 22
60.6129191247
 32
0.0
 13
201.1168473139
 23
60.6129191247
 33
0.0
  0
SOLID
  5
10C
100
AcDbEntity
  8
0
390
0
 62
         7
100
AcDbTrace
 10
102.2418473139
 20
61.3004191247
 30
0.0
 11
106.3668473139
 21
60.6129191247
 31
0.0
 12
106.3668473139
 22
61.9879191247
 32
0.0
 13
106.3668473139
 23
61.9879191247
 33
0.0
  0
POINT
  5
10D
100
AcDbEntity
  8
0
390
0
 62
         7
100
AcDbPoint
 10
205.2418473139
 20
120.4893430726
 30
0.0
  0
POINT
  5
10E
100
AcDbEntity
  8
0
390
0
 62
         7
100
AcDbPoint
 10
102.2418473139
 20
120.4893430726
 30
0.0
  0
ENDBLK
  5
10F
100
AcDbEntity
  8
0
390
0
 62
         7
100
AcDbBlockEnd
  0
BLOCK
  5
112
100
AcDbEntity
  8
0
390
0
 62
         7
100
AcDbBlockBegin
  2
*D5
 70
         1
 10
0.0
 20
0.0
 30
0.0
  3
*D5
  1

  0
MTEXT
  5
113
100
AcDbEntity
  8
0
390
0
 62
         7
100
AcDbMText
 10
158.0795746825
 20
92.4752814195
 30
0.0
 40
2.2
 41
0.0
 71
         7
 72
         1
  1
7 3/4"
  7
SLDTEXTSTYLE0
 73
         1
 44
1.0
  0
MTEXT
  5
114
100
AcDbEntity
  8
0
390
0
 62
         7
100
AcDbMText
 10
156.443947324
 20
88.2969957591
 30
0.0
 40
2.2
 41
0.0
 71
         7
 72
         1
  1
2 PLACES
  7
SLDTEXTSTYLE0
 73
         1
 44
1.0
  0
LINE
  5
115
100
AcDbEntity
  8
0
390
0
 62
         7
100
AcDbLine
 10
176.3613473139
 20
111.9463430726
 30
0.0
 11
170.5663139278
 21
111.9463430726
 31
0.0
  0
LINE
  5
116
100
AcDbEntity
  8
0
390
0
 62
         7
100
AcDbLine
 10
170.4563139278
 20
91.3752814195
 30
0.0
 11
173.2063139278
 21
91.3752814195
 31
0.0
  0
LINE
  5
117
100
AcDbEntity
  8
0
390
0
 62
         7
100
AcDbLine
 10
173.2063139278
 20
91.3752814195
 30
0.0
 11
173.2063139278
 21
104.1963430726
 31
0.0
  0
LINE
  5
118
100
AcDbEntity
  8
0
390
0
 62
         7
100
AcDbLine
 10
173.2063139278
 20
111.9463430726
 30
0.0
 11
173.2063139278
 21
122.9463430726
 31
0.0
  0
SOLID
  5
119
100
AcDbEntity
  8
0
390
0
 62
         7
100
AcDbTrace
 10
173.2063139278
 20
111.9463430726
 30
0.0
 11
173.8938139278
 21
116.0713430726
 31
0.0
 12
172.5188139278
 22
116.0713430726
 32
0.0
 13
172.5188139278
 23
116.0713430726
 33
0.0
  0
SOLID
  5
11A
100
AcDbEntity
  8
0
390
0
 62
         7
100
AcDbTrace
 10
173.2063139278
 20
104.1963430726
 30
0.0
 11
172.5188139278
 21
100.0713430726
 31
0.0
 12
173.8938139278
 22
100.0713430726
 32
0.0
 13
173.8938139278
 23
100.0713430726
 33
0.0
  0
POINT
  5
11B
100
AcDbEntity
  8
0
390
0
 62
         7
100
AcDbPoint
 10
177.2413473139
 20
111.9463430726
 30
0.0
  0
POINT
  5
11C
100
AcDbEntity
  8
0
390
0
 62
         7
100
AcDbPoint
 10
176.7413473139
 20
104.1963430726
 30
0.0
  0
ENDBLK
  5
11D
100
AcDbEntity
  8
0
390
0
 62
         7
100
AcDbBlockEnd
  0
BLOCK
  5
120
100
AcDbEntity
  8
0
390
0
 62
         7
100
AcDbBlockBegin
  2
*D6
 70
         1
 10
0.0
 20
0.0
 30
0.0
  3
*D6
  1

  0
MTEXT
  5
121
100
AcDbEntity
  8
0
390
0
 62
         7
100
AcDbMText
 10
217.3073010788
 20
79.6508754136
 30
0.0
 40
2.2
 41
0.0
 71
         7
 72
         1
  1
9 1/16"
  7
SLDTEXTSTYLE0
 73
         1
 44
1.0
  0
MTEXT
  5
122
100
AcDbEntity
  8
0
390
0
 62
         7
100
AcDbMText
 10
215.8930040976
 20
75.4725897533
 30
0.0
 40
2.2
 41
0.0
 71
         7
 72
         1
  1
2 PLACES
  7
SLDTEXTSTYLE0
 73
         1
 44
1.0
  0
LINE
  5
123
100
AcDbEntity
  8
0
390
0
 62
         7
100
AcDbLine
 10
176.7413473139
 20
103.3163430726
 30
0.0
 11
176.7413473139
 21
75.9108754136
 31
0.0
  0
LINE
  5
124
100
AcDbEntity
  8
0
390
0
 62
         7
100
AcDbLine
 10
185.8043473139
 20
103.3163430726
 30
0.0
 11
185.8043473139
 21
75.9108754136
 31
0.0
  0
LINE
  5
125
100
AcDbEntity
  8
0
390
0
 62
         7
100
AcDbLine
 10
176.7413473139
 20
78.5508754136
 30
0.0
 11
165.7413473139
 21
78.5508754136
 31
0.0
  0
LINE
  5
126
100
AcDbEntity
  8
0
390
0
 62
         7
100
AcDbLine
 10
185.8043473139
 20
78.5508754136
 30
0.0
 11
214.1742540976
 21
78.5508754136
 31
0.0
  0
SOLID
  5
127
100
AcDbEntity
  8
0
390
0
 62
         7
100
AcDbTrace
 10
176.7413473139
 20
78.5508754136
 30
0.0
 11
172.6163473139
 21
79.2383754136
 31
0.0
 12
172.6163473139
 22
77.8633754136
 32
0.0
 13
172.6163473139
 23
77.8633754136
 33
0.0
  0
SOLID
  5
128
100
AcDbEntity
  8
0
390
0
 62
         7
100
AcDbTrace
 10
185.8043473139
 20
78.5508754136
 30
0.0
 11
189.9293473139
 21
77.8633754136
 31
0.0
 12
189.9293473139
 22
79.2383754136
 32
0.0
 13
189.9293473139
 23
79.2383754136
 33
0.0
  0
POINT
  5
129
100
AcDbEntity
  8
0
390
0
 62
         7
100
AcDbPoint
 10
176.7413473139
 20
104.1963430726
 30
0.0
  0
POINT
  5
12A
100
AcDbEntity
  8
0
390
0
 62
         7
100
AcDbPoint
 10
185.8043473139
 20
104.1963430726
 30
0.0
  0
ENDBLK
  5
12B
100
AcDbEntity
  8
0
390
0
 62
         7
100
AcDbBlockEnd
  0
BLOCK
  5
12E
100
AcDbEntity
  8
0
390
0
 62
         7
100
AcDbBlockBegin
  2
*D7
 70
         1
 10
0.0
 20
0.0
 30
0.0
  3
*D7
  1

  0
MTEXT
  5
12F
100
AcDbEntity
  8
0
390
0
 62
         7
100
AcDbMText
 10
80.8692327274
 20
181.2918680544
 30
0.0
 40
2.2
 41
0.0
 71
         7
 72
         1
  1
18 1/16"
  7
SLDTEXTSTYLE0
 73
         1
 44
1.0
  0
LINE
  5
130
100
AcDbEntity
  8
0
390
0
 62
         7
100
AcDbLine
 10
101.3618473139
 20
164.7593430726
 30
0.0
 11
92.9205089538
 21
164.7593430726
 31
0.0
  0
LINE
  5
131
100
AcDbEntity
  8
0
390
0
 62
         7
100
AcDbLine
 10
101.3618473139
 20
146.6963430726
 30
0.0
 11
92.9205089538
 21
146.6963430726
 31
0.0
  0
LINE
  5
132
100
AcDbEntity
  8
0
390
0
 62
         7
100
AcDbLine
 10
92.8105089538
 20
182.2810108846
 30
0.0
 11
95.5605089538
 21
182.2810108846
 31
0.0
  0
LINE
  5
133
100
AcDbEntity
  8
0
390
0
 62
         7
100
AcDbLine
 10
95.5605089538
 20
182.2810108846
 30
0.0
 11
95.5605089538
 21
164.7593430726
 31
0.0
  0
LINE
  5
134
100
AcDbEntity
  8
0
390
0
 62
         7
100
AcDbLine
 10
95.5605089538
 20
164.7593430726
 30
0.0
 11
95.5605089538
 21
146.6963430726
 31
0.0
  0
SOLID
  5
135
100
AcDbEntity
  8
0
390
0
 62
         7
100
AcDbTrace
 10
95.5605089538
 20
164.7593430726
 30
0.0
 11
94.8730089538
 21
160.6343430726
 31
0.0
 12
96.2480089538
 22
160.6343430726
 32
0.0
 13
96.2480089538
 23
160.6343430726
 33
0.0
  0
SOLID
  5
136
100
AcDbEntity
  8
0
390
0
 62
         7
100
AcDbTrace
 10
95.5605089538
 20
146.6963430726
 30
0.0
 11
96.2480089538
 21
150.8213430726
 31
0.0
 12
94.8730089538
 22
150.8213430726
 32
0.0
 13
94.8730089538
 23
150.8213430726
 33
0.0
  0
POINT
  5
137
100
AcDbEntity
  8
0
390
0
 62
         7
100
AcDbPoint
 10
102.2418473139
 20
164.7593430726
 30
0.0
  0
POINT
  5
138
100
AcDbEntity
  8
0
390
0
 62
         7
100
AcDbPoint
 10
102.2418473139
 20
146.6963430726
 30
0.0
  0
ENDBLK
  5
139
100
AcDbEntity
  8
0
390
0
 62
         7
100
AcDbBlockEnd
  0
BLOCK
  5
13C
100
AcDbEntity
  8
0
390
0
 62
         7
100
AcDbBlockBegin
  2
*D8
 70
         1
 10
0.0
 20
0.0
 30
0.0
  3
*D8
  1

  0
MTEXT
  5
13D
100
AcDbEntity
  8
0
390
0
 62
         7
100
AcDbMText
 10
91.7629715995
 20
136.2073935421
 30
0.0
 40
2.2
 41
0.0
 71
         7
 72
         1
  1
4"
  7
SLDTEXTSTYLE0
 73
         1
 44
1.0
  0
LINE
  5
13E
100
AcDbEntity
  8
0
390
0
 62
         7
100
AcDbLine
 10
106.2418473139
 20
146.8163430726
 30
0.0
 11
106.2418473139
 21
134.5565363722
 31
0.0
  0
LINE
  5
13F
100
AcDbEntity
  8
0
390
0
 62
         7
100
AcDbLine
 10
106.2418473139
 20
137.1965363722
 30
0.0
 11
117.2418473139
 21
137.1965363722
 31
0.0
  0
LINE
  5
140
100
AcDbEntity
  8
0
390
0
 62
         7
100
AcDbLine
 10
102.2418473139
 20
137.1965363722
 30
0.0
 11
96.2186025429
 21
137.1965363722
 31
0.0
  0
SOLID
  5
141
100
AcDbEntity
  8
0
390
0
 62
         7
100
AcDbTrace
 10
106.2418473139
 20
137.1965363722
 30
0.0
 11
110.3668473139
 21
136.5090363722
 31
0.0
 12
110.3668473139
 22
137.8840363722
 32
0.0
 13
110.3668473139
 23
137.8840363722
 33
0.0
  0
SOLID
  5
142
100
AcDbEntity
  8
0
390
0
 62
         7
100
AcDbTrace
 10
102.2418473139
 20
137.1965363722
 30
0.0
 11
98.1168473139
 21
137.8840363722
 31
0.0
 12
98.1168473139
 22
136.5090363722
 32
0.0
 13
98.1168473139
 23
136.5090363722
 33
0.0
  0
POINT
  5
143
100
AcDbEntity
  8
0
390
0
 62
         7
100
AcDbPoint
 10
106.2418473139
 20
147.6963430726
 30
0.0
  0
POINT
  5
144
100
AcDbEntity
  8
0
390
0
 62
         7
100
AcDbPoint
 10
102.2418473139
 20
146.6963430726
 30
0.0
  0
ENDBLK
  5
145
100
AcDbEntity
  8
0
390
0
 62
         7
100
AcDbBlockEnd
  0
BLOCK
  5
148
100
AcDbEntity
  8
0
390
0
 62
         7
100
AcDbBlockBegin
  2
*D9
 70
         1
 10
0.0
 20
0.0
 30
0.0
  3
*D9
  1

  0
MTEXT
  5
149
100
AcDbEntity
  8
0
390
0
 62
         7
100
AcDbMText
 10
48.571344717
 20
154.7072002424
 30
0.0
 40
2.2
 41
0.0
 71
         7
 72
         1
  1
103"
  7
SLDTEXTSTYLE0
 73
         1
 44
1.0
  0
LINE
  5
14A
100
AcDbEntity
  8
0
390
0
 62
         7
100
AcDbLine
 10
117.6548473139
 20
207.1963430726
 30
0.0
 11
48.6826792453
 21
207.1963430726
 31
0.0
  0
LINE
  5
14B
100
AcDbEntity
  8
0
390
0
 62
         7
100
AcDbLine
 10
117.6548473139
 20
104.1963430726
 30
0.0
 11
48.6826792453
 21
104.1963430726
 31
0.0
  0
LINE
  5
14C
100
AcDbEntity
  8
0
390
0
 62
         7
100
AcDbLine
 10
51.3226792453
 20
207.1963430726
 30
0.0
 11
51.3226792453
 21
157.7854859028
 31
0.0
  0
LINE
  5
14D
100
AcDbEntity
  8
0
390
0
 62
         7
100
AcDbLine
 10
51.3226792453
 20
104.1963430726
 30
0.0
 11
51.3226792453
 21
153.6072002424
 31
0.0
  0
SOLID
  5
14E
100
AcDbEntity
  8
0
390
0
 62
         7
100
AcDbTrace
 10
51.3226792453
 20
207.1963430726
 30
0.0
 11
50.6351792453
 21
203.0713430726
 31
0.0
 12
52.0101792453
 22
203.0713430726
 32
0.0
 13
52.0101792453
 23
203.0713430726
 33
0.0
  0
SOLID
  5
14F
100
AcDbEntity
  8
0
390
0
 62
         7
100
AcDbTrace
 10
51.3226792453
 20
104.1963430726
 30
0.0
 11
52.0101792453
 21
108.3213430726
 31
0.0
 12
50.6351792453
 22
108.3213430726
 32
0.0
 13
50.6351792453
 23
108.3213430726
 33
0.0
  0
POINT
  5
150
100
AcDbEntity
  8
0
390
0
 62
         7
100
AcDbPoint
 10
118.5348473139
 20
207.1963430726
 30
0.0
  0
POINT
  5
151
100
AcDbEntity
  8
0
390
0
 62
         7
100
AcDbPoint
 10
118.5348473139
 20
104.1963430726
 30
0.0
  0
ENDBLK
  5
152
100
AcDbEntity
  8
0
390
0
 62
         7
100
AcDbBlockEnd
  0
BLOCK
  5
155
100
AcDbEntity
  8
0
390
0
 62
         1
100
AcDbBlockBegin
  2
*D10
 70
         1
 10
0.0
 20
0.0
 30
0.0
  3
*D10
  1

  0
MTEXT
  5
156
100
AcDbEntity
  8
0
390
0
 62
         7
100
AcDbMText
 10
157.2381313646
 20
220.9615318254
 30
0.0
 40
2.2
 41
0.0
 71
         7
 72
         1
  1
RAD 
  7
SLDTEXTSTYLE0
 73
         1
 44
1.0
  0
MTEXT
  5
157
100
AcDbEntity
  8
0
390
0
 62
         7
100
AcDbMText
 10
164.0579860816
 20
220.9615318254
 30
0.0
 40
2.2
 41
0.0
 71
         7
 72
         1
  1
1/2"
  7
SLDTEXTSTYLE0
 73
         1
 44
1.0
  0
MTEXT
  5
158
100
AcDbEntity
  8
0
390
0
 62
         7
100
AcDbMText
 10
157.1428194778
 20
216.783246165
 30
0.0
 40
2.2
 41
0.0
 71
         7
 72
         1
  1
4 PLACES
  7
SLDTEXTSTYLE0
 73
         1
 44
1.0
  0
LINE
  5
159
100
AcDbEntity
  8
0
390
0
 62
         7
100
AcDbLine
 10
185.4992452287
 20
199.4858924207
 30
0.0
 11
176.874717025
 21
219.8615318254
 31
0.0
  0
LINE
  5
15A
100
AcDbEntity
  8
0
390
0
 62
         7
100
AcDbLine
 10
176.874717025
 20
219.8615318254
 30
0.0
 11
171.374717025
 21
219.8615318254
 31
0.0
  0
SOLID
  5
15B
100
AcDbEntity
  8
0
390
0
 62
         7
100
AcDbTrace
 10
185.4992452287
 20
199.4858924207
 30
0.0
 11
184.5244570776
 21
203.5525949314
 31
0.0
 12
183.258217785
 22
203.0166256656
 32
0.0
 13
183.258217785
 23
203.0166256656
 33
0.0
  0
POINT
  5
15D
100
AcDbEntity
  8
0
390
0
 62
         7
100
AcDbPoint
 10
185.4992452287
 20
199.4858924207
 30
0.0
  0
POINT
  5
15E
100
AcDbEntity
  8
0
390
0
 62
         7
100
AcDbPoint
 10
185.3043473139
 20
199.9463430726
 30
0.0
  0
ENDBLK
  5
15F
100
AcDbEntity
  8
0
390
0
100
AcDbBlockEnd
  0
BLOCK
  5
162
100
AcDbEntity
  8
0
390
0
 62
         1
100
AcDbBlockBegin
  2
*D11
 70
         1
 10
0.0
 20
0.0
 30
0.0
  3
*D11
  1

  0
MTEXT
  5
163
100
AcDbEntity
  8
0
390
0
100
AcDbMText
 10
203.864489893
 20
206.8333619704
 30
0.0
 40
2.2
 41
0.0
 71
         7
 72
         1
  1
23 1/32"
  7
SLDTEXTSTYLE0
 73
         1
 44
1.0
  0
LINE
  5
164
100
AcDbEntity
  8
0
390
0
100
AcDbLine
 10
205.8641012813
 20
191.52559704
 30
0.0
 11
217.7406113698
 21
203.4021071285
 31
0.0
  0
LINE
  5
165
100
AcDbEntity
  8
0
390
0
100
AcDbLine
 10
189.5711012813
 20
207.81859704
 30
0.0
 11
201.4476113698
 21
219.6951071285
 31
0.0
  0
LINE
  5
166
100
AcDbEntity
  8
0
390
0
100
AcDbLine
 10
215.8738494674
 20
201.5353452261
 30
0.0
 11
211.6758327232
 21
205.7333619704
 31
0.0
  0
LINE
  5
167
100
AcDbEntity
  8
0
390
0
100
AcDbLine
 10
199.5808494674
 20
217.8283452261
 30
0.0
 11
207.4975470628
 21
209.9116476308
 31
0.0
  0
ARC
  5
168
100
AcDbEntity
  8
0
390
0
100
AcDbCircle
 10
206.6677755534
 20
207.8225048006
 30
0.0
 40
4.671465383
100
AcDbArc
 50
153.4349488229
 51
206.5650511771
  0
ARC
  5
169
100
AcDbEntity
  8
0
390
0
100
AcDbCircle
 10
212.5056042326
 20
207.8225048006
 30
0.0
 40
4.671465383
100
AcDbArc
 50
333.4349488229
 51
26.5650511771
  0
SOLID
  5
16A
100
AcDbEntity
  8
0
390
0
100
AcDbTrace
 10
215.8738494674
 20
201.5353452261
 30
0.0
 11
213.4431699071
 21
204.9382966106
 31
0.0
 12
212.470898083
 22
203.9660247865
 32
0.0
 13
212.470898083
 23
203.9660247865
 33
0.0
  0
SOLID
  5
16B
100
AcDbEntity
  8
0
390
0
100
AcDbTrace
 10
199.5808494674
 20
217.8283452261
 30
0.0
 11
202.0115290277
 21
214.4253938417
 31
0.0
 12
202.9838008519
 22
215.3976656658
 32
0.0
 13
202.9838008519
 23
215.3976656658
 33
0.0
  0
POINT
  5
16C
100
AcDbEntity
  8
0
390
0
100
AcDbPoint
 10
205.2418473139
 20
190.9033430726
 30
0.0
  0
POINT
  5
16D
100
AcDbEntity
  8
0
390
0
100
AcDbPoint
 10
188.9488473139
 20
207.1963430726
 30
0.0
  0
ENDBLK
  5
16E
100
AcDbEntity
  8
0
390
0
 62
         1
100
AcDbBlockEnd
  0
BLOCK
  5
171
100
AcDbEntity
  8
0
390
0
 62
         1
100
AcDbBlockBegin
  2
*D12
 70
         1
 10
0.0
 20
0.0
 30
0.0
  3
*D12
  1

  0
MTEXT
  5
172
100
AcDbEntity
  8
0
390
0
100
AcDbMText
 10
67.1037150943
 20
128.9572002424
 30
0.0
 40
2.2
 41
0.0
 71
         7
 72
         1
  1
51 1/2"
  7
SLDTEXTSTYLE0
 73
         1
 44
1.0
  0
LINE
  5
173
100
AcDbEntity
  8
0
390
0
100
AcDbLine
 10
117.6548473139
 20
104.1963430726
 30
0.0
 11
69.1962264151
 21
104.1963430726
 31
0.0
  0
LINE
  5
174
100
AcDbEntity
  8
0
390
0
100
AcDbLine
 10
152.8618473139
 20
155.6963430726
 30
0.0
 11
69.1962264151
 21
155.6963430726
 31
0.0
  0
LINE
  5
175
100
AcDbEntity
  8
0
390
0
100
AcDbLine
 10
71.8362264151
 20
104.1963430726
 30
0.0
 11
71.8362264151
 21
127.8572002424
 31
0.0
  0
LINE
  5
176
100
AcDbEntity
  8
0
390
0
100
AcDbLine
 10
71.8362264151
 20
155.6963430726
 30
0.0
 11
71.8362264151
 21
132.0354859028
 31
0.0
  0
SOLID
  5
177
100
AcDbEntity
  8
0
390
0
100
AcDbTrace
 10
71.8362264151
 20
104.1963430726
 30
0.0
 11
72.5237264151
 21
108.3213430726
 31
0.0
 12
71.1487264151
 22
108.3213430726
 32
0.0
 13
71.1487264151
 23
108.3213430726
 33
0.0
  0
SOLID
  5
178
100
AcDbEntity
  8
0
390
0
100
AcDbTrace
 10
71.8362264151
 20
155.6963430726
 30
0.0
 11
71.1487264151
 21
151.5713430726
 31
0.0
 12
72.5237264151
 22
151.5713430726
 32
0.0
 13
72.5237264151
 23
151.5713430726
 33
0.0
  0
POINT
  5
179
100
AcDbEntity
  8
0
390
0
100
AcDbPoint
 10
118.5348473139
 20
104.1963430726
 30
0.0
  0
POINT
  5
17A
100
AcDbEntity
  8
0
390
0
100
AcDbPoint
 10
153.7418473139
 20
155.6963430726
 30
0.0
  0
ENDBLK
  5
17B
100
AcDbEntity
  8
0
390
0
 62
         1
100
AcDbBlockEnd
  0
BLOCK
  5
17E
100
AcDbEntity
  8
0
390
0
 62
         1
100
AcDbBlockBegin
  2
*D13
 70
         1
 10
0.0
 20
0.0
 30
0.0
  3
*D13
  1

  0
MTEXT
  5
17F
100
AcDbEntity
  8
0
390
0
100
AcDbMText
 10
135.8728077019
 20
77.5617325835
 30
0.0
 40
2.2
 41
0.0
 71
         7
 72
         1
  1
23"
  7
SLDTEXTSTYLE0
 73
         1
 44
1.0
  0
LINE
  5
180
100
AcDbEntity
  8
0
390
0
100
AcDbLine
 10
153.7418473139
 20
154.8163430726
 30
0.0
 11
153.7418473139
 21
75.9108754136
 31
0.0
  0
LINE
  5
181
100
AcDbEntity
  8
0
390
0
100
AcDbLine
 10
176.7413473139
 20
103.3163430726
 30
0.0
 11
176.7413473139
 21
75.9108754136
 31
0.0
  0
LINE
  5
182
100
AcDbEntity
  8
0
390
0
100
AcDbLine
 10
153.7418473139
 20
78.5508754136
 30
0.0
 11
141.6492231736
 21
78.5508754136
 31
0.0
  0
LINE
  5
183
100
AcDbEntity
  8
0
390
0
100
AcDbLine
 10
176.7413473139
 20
78.5508754136
 30
0.0
 11
153.7418473139
 21
78.5508754136
 31
0.0
  0
SOLID
  5
184
100
AcDbEntity
  8
0
390
0
100
AcDbTrace
 10
153.7418473139
 20
78.5508754136
 30
0.0
 11
157.8668473139
 21
77.8633754136
 31
0.0
 12
157.8668473139
 22
79.2383754136
 32
0.0
 13
157.8668473139
 23
79.2383754136
 33
0.0
  0
SOLID
  5
185
100
AcDbEntity
  8
0
390
0
100
AcDbTrace
 10
176.7413473139
 20
78.5508754136
 30
0.0
 11
172.6163473139
 21
79.2383754136
 31
0.0
 12
172.6163473139
 22
77.8633754136
 32
0.0
 13
172.6163473139
 23
77.8633754136
 33
0.0
  0
POINT
  5
186
100
AcDbEntity
  8
0
390
0
100
AcDbPoint
 10
153.7418473139
 20
155.6963430726
 30
0.0
  0
POINT
  5
187
100
AcDbEntity
  8
0
390
0
100
AcDbPoint
 10
176.7413473139
 20
104.1963430726
 30
0.0
  0
ENDBLK
  5
188
100
AcDbEntity
  8
0
390
0
 62
         1
100
AcDbBlockEnd
  0
BLOCK
  5
18B
100
AcDbEntity
  8
0
390
0
 62
         1
100
AcDbBlockBegin
  2
*D14
 70
         1
 10
0.0
 20
0.0
 30
0.0
  3
*D14
  1

  0
MTEXT
  5
18C
100
AcDbEntity
  8
0
390
0
100
AcDbMText
 10
79.9653716981
 20
170.1609765001
 30
0.0
 40
2.2
 41
0.0
 71
         7
 72
         1
  1
9"
  7
SLDTEXTSTYLE0
 73
         1
 44
1.0
  0
LINE
  5
18D
100
AcDbEntity
  8
0
390
0
100
AcDbLine
 10
152.8618473139
 20
155.6963430726
 30
0.0
 11
84.3114716981
 21
155.6963430726
 31
0.0
  0
LINE
  5
18E
100
AcDbEntity
  8
0
390
0
100
AcDbLine
 10
101.3618473139
 20
146.6963430726
 30
0.0
 11
84.3114716981
 21
146.6963430726
 31
0.0
  0
LINE
  5
18F
100
AcDbEntity
  8
0
390
0
100
AcDbLine
 10
84.2014716981
 20
171.1501193303
 30
0.0
 11
86.9514716981
 21
171.1501193303
 31
0.0
  0
LINE
  5
190
100
AcDbEntity
  8
0
390
0
100
AcDbLine
 10
86.9514716981
 20
171.1501193303
 30
0.0
 11
86.9514716981
 21
155.6963430726
 31
0.0
  0
LINE
  5
191
100
AcDbEntity
  8
0
390
0
100
AcDbLine
 10
86.9514716981
 20
146.6963430726
 30
0.0
 11
86.9514716981
 21
135.6963430726
 31
0.0
  0
SOLID
  5
192
100
AcDbEntity
  8
0
390
0
100
AcDbTrace
 10
86.9514716981
 20
155.6963430726
 30
0.0
 11
87.6389716981
 21
159.8213430726
 31
0.0
 12
86.2639716981
 22
159.8213430726
 32
0.0
 13
86.2639716981
 23
159.8213430726
 33
0.0
  0
SOLID
  5
193
100
AcDbEntity
  8
0
390
0
100
AcDbTrace
 10
86.9514716981
 20
146.6963430726
 30
0.0
 11
86.2639716981
 21
142.5713430726
 31
0.0
 12
87.6389716981
 22
142.5713430726
 32
0.0
 13
87.6389716981
 23
142.5713430726
 33
0.0
  0
POINT
  5
194
100
AcDbEntity
  8
0
390
0
100
AcDbPoint
 10
153.7418473139
 20
155.6963430726
 30
0.0
  0
POINT
  5
195
100
AcDbEntity
  8
0
390
0
100
AcDbPoint
 10
102.2418473139
 20
146.6963430726
 30
0.0
  0
ENDBLK
  5
196
100
AcDbEntity
  8
0
390
0
 62
         1
100
AcDbBlockEnd
  0
BLOCK
  5
199
100
AcDbEntity
  8
0
390
0
 62
         1
100
AcDbBlockBegin
  2
*D15
 70
         1
 10
0.0
 20
0.0
 30
0.0
  3
*D15
  1

  0
MTEXT
  5
19A
100
AcDbEntity
  8
0
390
0
 62
         7
100
AcDbMText
 10
221.6962171191
 20
184.208469386
 30
0.0
 40
2.2
 41
0.0
 71
         7
 72
         1
  1
45%%d
  7
SLDTEXTSTYLE0
 73
         1
 44
1.0
  0
MTEXT
  5
19B
100
AcDbEntity
  8
0
390
0
 62
         7
100
AcDbMText
 10
226.3171635342
 20
184.208469386
 30
0.0
 40
2.2
 41
0.0
 71
         7
 72
         1
  1
 TYP
  7
SLDTEXTSTYLE0
 73
         1
 44
1.0
  0
LINE
  5
19C
100
AcDbEntity
  8
0
390
0
 62
         7
100
AcDbLine
 10
205.8641012813
 20
190.2810891051
 30
0.0
 11
223.2992825441
 21
172.8459078423
 31
0.0
  0
ARC
  5
19D
100
AcDbEntity
  8
0
390
0
 62
         7
100
AcDbCircle
 10
224.4995027795
 20
185.1976122162
 30
0.0
 40
4.671465383
100
AcDbArc
 50
153.4349488229
 51
206.5650511771
  0
ARC
  5
19E
100
AcDbEntity
  8
0
390
0
 62
         7
100
AcDbCircle
 10
230.3337325908
 20
185.1976122162
 30
0.0
 40
4.671465383
100
AcDbArc
 50
333.4349488229
 51
26.5650511771
  0
ARC
  5
19F
100
AcDbEntity
  8
0
390
0
 62
         7
100
AcDbCircle
 10
205.2418473139
 20
190.9033430726
 30
0.0
 40
22.8970698044
100
AcDbArc
 50
270.0
 51
315.0
  0
ARC
  5
1A0
100
AcDbEntity
  8
0
390
0
 62
         7
100
AcDbCircle
 10
205.2418473139
 20
190.9033430726
 30
0.0
 40
22.8970698044
100
AcDbArc
 50
315.0
 51
340.0968614111
  0
SOLID
  5
1A1
100
AcDbEntity
  8
0
390
0
 62
         7
100
AcDbTrace
 10
205.2418473139
 20
168.0062732682
 30
0.0
 11
209.4116662756
 21
167.6886397111
 31
0.0
 12
209.2892869448
 22
169.0581828099
 32
0.0
 13
209.2892869448
 23
169.0581828099
 33
0.0
  0
SOLID
  5
1A2
100
AcDbEntity
  8
0
390
0
 62
         7
100
AcDbTrace
 10
221.4325206418
 20
174.7126697446
 30
0.0
 11
217.8267362622
 21
172.5945101052
 31
0.0
 12
218.7086142198
 22
171.5395616383
 32
0.0
 13
218.7086142198
 23
171.5395616383
 33
0.0
  0
POINT
  5
1A4
100
AcDbEntity
  8
0
390
0
 62
         7
100
AcDbPoint
 10
188.9488473139
 20
207.1963430726
 30
0.0
  0
POINT
  5
1A5
100
AcDbEntity
  8
0
390
0
 62
         7
100
AcDbPoint
 10
205.2418473139
 20
190.9033430726
 30
0.0
  0
POINT
  5
1A6
100
AcDbEntity
  8
0
390
0
 62
         7
100
AcDbPoint
 10
205.2418473139
 20
120.4893430726
 30
0.0
  0
POINT
  5
1A7
100
AcDbEntity
  8
0
390
0
 62
         7
100
AcDbPoint
 10
205.2418473139
 20
190.9033430726
 30
0.0
  0
ENDBLK
  5
1A8
100
AcDbEntity
  8
0
390
0
100
AcDbBlockEnd
  0
BLOCK
  5
1AB
100
AcDbEntity
  8
0
390
0
 62
         1
100
AcDbBlockBegin
  2
*D16
 70
         1
 10
0.0
 20
0.0
 30
0.0
  3
*D16
  1

  0
MTEXT
  5
1AC
100
AcDbEntity
  8
0
390
0
100
AcDbMText
 10
218.3535881489
 20
143.6763519957
 30
0.0
 40
2.2
 41
0.0
 71
         7
 72
         1
  1
20"
  7
SLDTEXTSTYLE0
 73
         1
 44
1.0
  0
LINE
  5
1AD
100
AcDbEntity
  8
0
390
0
100
AcDbLine
 10
154.6218473139
 20
155.6963430726
 30
0.0
 11
223.1942958847
 21
155.6963430726
 31
0.0
  0
LINE
  5
1AE
100
AcDbEntity
  8
0
390
0
100
AcDbLine
 10
202.1218473139
 20
135.6963430726
 30
0.0
 11
223.1942958847
 21
135.6963430726
 31
0.0
  0
LINE
  5
1AF
100
AcDbEntity
  8
0
390
0
100
AcDbLine
 10
220.5542958847
 20
155.6963430726
 30
0.0
 11
220.5542958847
 21
146.7546376561
 31
0.0
  0
LINE
  5
1B0
100
AcDbEntity
  8
0
390
0
100
AcDbLine
 10
220.5542958847
 20
135.6963430726
 30
0.0
 11
220.5542958847
 21
142.5763519957
 31
0.0
  0
SOLID
  5
1B1
100
AcDbEntity
  8
0
390
0
100
AcDbTrace
 10
220.5542958847
 20
155.6963430726
 30
0.0
 11
219.8667958847
 21
151.5713430726
 31
0.0
 12
221.2417958847
 22
151.5713430726
 32
0.0
 13
221.2417958847
 23
151.5713430726
 33
0.0
  0
SOLID
  5
1B2
100
AcDbEntity
  8
0
390
0
100
AcDbTrace
 10
220.5542958847
 20
135.6963430726
 30
0.0
 11
221.2417958847
 21
139.8213430726
 31
0.0
 12
219.8667958847
 22
139.8213430726
 32
0.0
 13
219.8667958847
 23
139.8213430726
 33
0.0
  0
POINT
  5
1B3
100
AcDbEntity
  8
0
390
0
100
AcDbPoint
 10
153.7418473139
 20
155.6963430726
 30
0.0
  0
POINT
  5
1B4
100
AcDbEntity
  8
0
390
0
100
AcDbPoint
 10
201.2418473139
 20
135.6963430726
 30
0.0
  0
ENDBLK
  5
1B5
100
AcDbEntity
  8
0
390
0
 62
         1
100
AcDbBlockEnd
  0
BLOCK
  5
1B8
100
AcDbEntity
  8
0
390
0
 62
         1
100
AcDbBlockBegin
  2
*D17
 70
         1
 10
0.0
 20
0.0
 30
0.0
  3
*D17
  1

  0
MTEXT
  5
1B9
100
AcDbEntity
  8
0
390
0
100
AcDbMText
 10
231.9104897875
 20
139.5691097057
 30
0.0
 40
2.2
 41
0.0
 71
         7
 72
         1
  1
26"
  7
SLDTEXTSTYLE0
 73
         1
 44
1.0
  0
LINE
  5
1BA
100
AcDbEntity
  8
0
390
0
100
AcDbLine
 10
154.6218473139
 20
155.6963430726
 30
0.0
 11
236.7511975234
 21
155.6963430726
 31
0.0
  0
LINE
  5
1BB
100
AcDbEntity
  8
0
390
0
100
AcDbLine
 10
202.1218473139
 20
129.6963430726
 30
0.0
 11
236.7511975234
 21
129.6963430726
 31
0.0
  0
LINE
  5
1BC
100
AcDbEntity
  8
0
390
0
100
AcDbLine
 10
234.1111975234
 20
155.6963430726
 30
0.0
 11
234.1111975234
 21
142.6473953661
 31
0.0
  0
LINE
  5
1BD
100
AcDbEntity
  8
0
390
0
100
AcDbLine
 10
234.1111975234
 20
129.6963430726
 30
0.0
 11
234.1111975234
 21
138.4691097057
 31
0.0
  0
SOLID
  5
1BE
100
AcDbEntity
  8
0
390
0
100
AcDbTrace
 10
234.1111975234
 20
155.6963430726
 30
0.0
 11
233.4236975234
 21
151.5713430726
 31
0.0
 12
234.7986975234
 22
151.5713430726
 32
0.0
 13
234.7986975234
 23
151.5713430726
 33
0.0
  0
SOLID
  5
1BF
100
AcDbEntity
  8
0
390
0
100
AcDbTrace
 10
234.1111975234
 20
129.6963430726
 30
0.0
 11
234.7986975234
 21
133.8213430726
 31
0.0
 12
233.4236975234
 22
133.8213430726
 32
0.0
 13
233.4236975234
 23
133.8213430726
 33
0.0
  0
POINT
  5
1C0
100
AcDbEntity
  8
0
390
0
100
AcDbPoint
 10
153.7418473139
 20
155.6963430726
 30
0.0
  0
POINT
  5
1C1
100
AcDbEntity
  8
0
390
0
100
AcDbPoint
 10
201.2418473139
 20
129.6963430726
 30
0.0
  0
ENDBLK
  5
1C2
100
AcDbEntity
  8
0
390
0
 62
         1
100
AcDbBlockEnd
  0
BLOCK
  5
1C5
100
AcDbEntity
  8
0
390
0
 62
         1
100
AcDbBlockBegin
  2
*D18
 70
         1
 10
0.0
 20
0.0
 30
0.0
  3
*D18
  1

  0
MTEXT
  5
1C6
100
AcDbEntity
  8
0
390
0
100
AcDbMText
 10
171.3317955515
 20
161.9176945439
 30
0.0
 40
2.2
 41
0.0
 71
         7
 72
         1
  1
47 1/2"
  7
SLDTEXTSTYLE0
 73
         1
 44
1.0
  0
LINE
  5
1C7
100
AcDbEntity
  8
0
390
0
100
AcDbLine
 10
153.7418473139
 20
156.5763430726
 30
0.0
 11
153.7418473139
 21
165.5468373741
 31
0.0
  0
LINE
  5
1C8
100
AcDbEntity
  8
0
390
0
100
AcDbLine
 10
201.2418473139
 20
130.5763430726
 30
0.0
 11
201.2418473139
 21
165.5468373741
 31
0.0
  0
LINE
  5
1C9
100
AcDbEntity
  8
0
390
0
100
AcDbLine
 10
153.7418473139
 20
162.9068373741
 30
0.0
 11
169.9567955515
 21
162.9068373741
 31
0.0
  0
LINE
  5
1CA
100
AcDbEntity
  8
0
390
0
100
AcDbLine
 10
201.2418473139
 20
162.9068373741
 30
0.0
 11
182.8304110232
 21
162.9068373741
 31
0.0
  0
SOLID
  5
1CB
100
AcDbEntity
  8
0
390
0
100
AcDbTrace
 10
153.7418473139
 20
162.9068373741
 30
0.0
 11
157.8668473139
 21
162.2193373741
 31
0.0
 12
157.8668473139
 22
163.5943373741
 32
0.0
 13
157.8668473139
 23
163.5943373741
 33
0.0
  0
SOLID
  5
1CC
100
AcDbEntity
  8
0
390
0
100
AcDbTrace
 10
201.2418473139
 20
162.9068373741
 30
0.0
 11
197.1168473139
 21
163.5943373741
 31
0.0
 12
197.1168473139
 22
162.2193373741
 32
0.0
 13
197.1168473139
 23
162.2193373741
 33
0.0
  0
POINT
  5
1CD
100
AcDbEntity
  8
0
390
0
100
AcDbPoint
 10
153.7418473139
 20
155.6963430726
 30
0.0
  0
POINT
  5
1CE
100
AcDbEntity
  8
0
390
0
100
AcDbPoint
 10
201.2418473139
 20
129.6963430726
 30
0.0
  0
ENDBLK
  5
1CF
100
AcDbEntity
  8
0
390
0
 62
         1
100
AcDbBlockEnd
  0
BLOCK
  5
1D2
100
AcDbEntity
  8
0
390
0
 62
         1
100
AcDbBlockBegin
  2
*D19
 70
         1
 10
0.0
 20
0.0
 30
0.0
  3
*D19
  1

  0
MTEXT
  5
1D3
100
AcDbEntity
  8
0
390
0
 62
         7
100
AcDbMText
 10
239.1894353518
 20
98.4625028037
 30
0.0
 40
2.2
 41
0.0
 71
         7
 72
         1
  1
%%c 
  7
SLDTEXTSTYLE0
 73
         1
 44
1.0
  0
MTEXT
  5
1D4
100
AcDbEntity
  8
0
390
0
 62
         7
100
AcDbMText
 10
244.2674379934
 20
98.4625028037
 30
0.0
 40
2.2
 41
0.0
 71
         7
 72
         1
  1
1 11/16"
  7
SLDTEXTSTYLE0
 73
         1
 44
1.0
  0
MTEXT
  5
1D5
100
AcDbEntity
  8
0
390
0
 62
         7
100
AcDbMText
 10
240.4239051632
 20
94.2842171433
 30
0.0
 40
2.2
 41
0.0
 71
         7
 72
         1
  1
FOR 1-1/4
  7
SLDTEXTSTYLE0
 73
         1
 44
1.0
  0
MTEXT
  5
1D6
100
AcDbEntity
  8
0
390
0
 62
         7
100
AcDbMText
 10
236.0278879934
 20
90.1059314829
 30
0.0
 40
2.2
 41
0.0
 71
         7
 72
         1
  1
CONDUIT FITTING
  7
SLDTEXTSTYLE0
 73
         1
 44
1.0
  0
LINE
  5
1D7
100
AcDbEntity
  8
0
390
0
 62
         7
100
AcDbLine
 10
201.769427161
 20
129.0375597205
 30
0.0
 11
228.8091379934
 21
95.2733599735
 31
0.0
  0
LINE
  5
1D8
100
AcDbEntity
  8
0
390
0
 62
         7
100
AcDbLine
 10
228.8091379934
 20
95.2733599735
 30
0.0
 11
234.3091379934
 21
95.2733599735
 31
0.0
  0
SOLID
  5
1D9
100
AcDbEntity
  8
0
390
0
 62
         7
100
AcDbTrace
 10
201.769427161
 20
129.0375597205
 30
0.0
 11
203.8113149747
 21
125.3880425736
 31
0.0
 12
204.8845698433
 22
126.2475476562
 32
0.0
 13
204.8845698433
 23
126.2475476562
 33
0.0
  0
POINT
  5
1DA
100
AcDbEntity
  8
0
390
0
 62
         7
100
AcDbPoint
 10
201.769427161
 20
129.0375597205
 30
0.0
  0
POINT
  5
1DB
100
AcDbEntity
  8
0
390
0
 62
         7
100
AcDbPoint
 10
200.7142674667
 20
130.3551264246
 30
0.0
  0
ENDBLK
  5
1DC
100
AcDbEntity
  8
0
390
0
100
AcDbBlockEnd
  0
BLOCK
  5
1DF
100
AcDbEntity
  8
0
390
0
 62
         1
100
AcDbBlockBegin
  2
*D20
 70
         1
 10
0.0
 20
0.0
 30
0.0
  3
*D20
  1

  0
MTEXT
  5
1E0
100
AcDbEntity
  8
0
390
0
 62
         7
100
AcDbMText
 10
244.0543013804
 20
125.6400723806
 30
0.0
 40
2.2
 41
0.0
 71
         7
 72
         1
  1
%%c 
  7
SLDTEXTSTYLE0
 73
         1
 44
1.0
  0
MTEXT
  5
1E1
100
AcDbEntity
  8
0
390
0
 62
         7
100
AcDbMText
 10
249.1323040219
 20
125.6400723806
 30
0.0
 40
2.2
 41
0.0
 71
         7
 72
         1
  1
1 3/32"
  7
SLDTEXTSTYLE0
 73
         1
 44
1.0
  0
MTEXT
  5
1E2
100
AcDbEntity
  8
0
390
0
 62
         7
100
AcDbMText
 10
246.278459871
 20
121.4617867203
 30
0.0
 40
2.2
 41
0.0
 71
         7
 72
         1
  1
FOR 3/4
  7
SLDTEXTSTYLE0
 73
         1
 44
1.0
  0
MTEXT
  5
1E3
100
AcDbEntity
  8
0
390
0
 62
         7
100
AcDbMText
 10
240.7811891163
 20
117.2835010599
 30
0.0
 40
2.2
 41
0.0
 71
         7
 72
         1
  1
CONDUIT FITTING
  7
SLDTEXTSTYLE0
 73
         1
 44
1.0
  0
LINE
  5
1E4
100
AcDbEntity
  8
0
390
0
 62
         7
100
AcDbLine
 10
201.7475305834
 20
135.4891072627
 30
0.0
 11
233.5624391163
 21
122.4509295505
 31
0.0
  0
LINE
  5
1E5
100
AcDbEntity
  8
0
390
0
 62
         7
100
AcDbLine
 10
233.5624391163
 20
122.4509295505
 30
0.0
 11
239.0624391163
 21
122.4509295505
 31
0.0
  0
SOLID
  5
1E6
100
AcDbEntity
  8
0
390
0
 62
         7
100
AcDbTrace
 10
201.7475305834
 20
135.4891072627
 30
0.0
 11
205.3037407713
 21
133.2887322153
 31
0.0
 12
205.8251483441
 22
134.5610368734
 32
0.0
 13
205.8251483441
 23
134.5610368734
 33
0.0
  0
POINT
  5
1E7
100
AcDbEntity
  8
0
390
0
 62
         7
100
AcDbPoint
 10
201.7475305834
 20
135.4891072627
 30
0.0
  0
POINT
  5
1E8
100
AcDbEntity
  8
0
390
0
 62
         7
100
AcDbPoint
 10
200.7361640443
 20
135.9035788824
 30
0.0
  0
ENDBLK
  5
1E9
100
AcDbEntity
  8
0
390
0
100
AcDbBlockEnd
  0
BLOCK
  5
1EC
100
AcDbEntity
  8
0
390
0
 62
         1
100
AcDbBlockBegin
  2
*D21
 70
         1
 10
0.0
 20
0.0
 30
0.0
  3
*D21
  1

  0
MTEXT
  5
1ED
100
AcDbEntity
  8
0
390
0
100
AcDbMText
 10
218.2844903267
 20
111.6253489309
 30
0.0
 40
2.2
 41
0.0
 71
         7
 72
         1
  1
16 9/32"
  7
SLDTEXTSTYLE0
 73
         1
 44
1.0
  0
MTEXT
  5
1EE
100
AcDbEntity
  8
0
390
0
100
AcDbMText
 10
229.7288903267
 20
111.6253489309
 30
0.0
 40
2.2
 41
0.0
 71
         7
 72
         1
  1
 TYP
  7
SLDTEXTSTYLE0
 73
         1
 44
1.0
  0
LINE
  5
1EF
100
AcDbEntity
  8
0
390
0
100
AcDbLine
 10
206.1218473139
 20
120.4893430726
 30
0.0
 11
230.0566176852
 21
120.4893430726
 31
0.0
  0
LINE
  5
1F0
100
AcDbEntity
  8
0
390
0
100
AcDbLine
 10
189.8288473139
 20
104.1963430726
 30
0.0
 11
230.0566176852
 21
104.1963430726
 31
0.0
  0
LINE
  5
1F1
100
AcDbEntity
  8
0
390
0
100
AcDbLine
 10
227.4166176852
 20
120.4893430726
 30
0.0
 11
227.4166176852
 21
114.7036345912
 31
0.0
  0
LINE
  5
1F2
100
AcDbEntity
  8
0
390
0
100
AcDbLine
 10
227.4166176852
 20
104.1963430726
 30
0.0
 11
227.4166176852
 21
110.5253489309
 31
0.0
  0
SOLID
  5
1F3
100
AcDbEntity
  8
0
390
0
100
AcDbTrace
 10
227.4166176852
 20
120.4893430726
 30
0.0
 11
226.7291176852
 21
116.3643430726
 31
0.0
 12
228.1041176852
 22
116.3643430726
 32
0.0
 13
228.1041176852
 23
116.3643430726
 33
0.0
  0
SOLID
  5
1F4
100
AcDbEntity
  8
0
390
0
100
AcDbTrace
 10
227.4166176852
 20
104.1963430726
 30
0.0
 11
228.1041176852
 21
108.3213430726
 31
0.0
 12
226.7291176852
 22
108.3213430726
 32
0.0
 13
226.7291176852
 23
108.3213430726
 33
0.0
  0
POINT
  5
1F5
100
AcDbEntity
  8
0
390
0
100
AcDbPoint
 10
205.2418473139
 20
120.4893430726
 30
0.0
  0
POINT
  5
1F6
100
AcDbEntity
  8
0
390
0
100
AcDbPoint
 10
188.9488473139
 20
104.1963430726
 30
0.0
  0
ENDBLK
  5
1F7
100
AcDbEntity
  8
0
390
0
 62
         1
100
AcDbBlockEnd
  0
BLOCK
  5
1FA
100
AcDbEntity
  8
0
390
0
 62
         1
100
AcDbBlockBegin
  2
*D22
 70
         1
 10
0.0
 20
0.0
 30
0.0
  3
*D22
  1

  0
MTEXT
  5
1FB
100
AcDbEntity
  8
0
390
0
 62
         7
100
AcDbMText
 10
125.806747001
 20
169.4559053428
 30
0.0
 40
2.2
 41
0.0
 71
         7
 72
         1
  1
RAD 
  7
SLDTEXTSTYLE0
 73
         1
 44
1.0
  0
MTEXT
  5
1FC
100
AcDbEntity
  8
0
390
0
 62
         7
100
AcDbMText
 10
132.626601718
 20
169.4559053428
 30
0.0
 40
2.2
 41
0.0
 71
         7
 72
         1
  1
1"
  7
SLDTEXTSTYLE0
 73
         1
 44
1.0
  0
MTEXT
  5
1FD
100
AcDbEntity
  8
0
390
0
 62
         7
100
AcDbMText
 10
124.2808851142
 20
165.2776196824
 30
0.0
 40
2.2
 41
0.0
 71
         7
 72
         1
  1
2 PLACES
  7
SLDTEXTSTYLE0
 73
         1
 44
1.0
  0
LINE
  5
1FE
100
AcDbEntity
  8
0
390
0
 62
         7
100
AcDbLine
 10
106.173857747
 20
164.1217745179
 30
0.0
 11
117.0621351142
 21
168.3559053428
 31
0.0
  0
LINE
  5
1FF
100
AcDbEntity
  8
0
390
0
 62
         7
100
AcDbLine
 10
117.0621351142
 20
168.3559053428
 30
0.0
 11
122.5621351142
 21
168.3559053428
 31
0.0
  0
SOLID
  5
200
100
AcDbEntity
  8
0
390
0
 62
         7
100
AcDbTrace
 10
106.173857747
 20
164.1217745179
 30
0.0
 11
110.2675724022
 21
164.9760470574
 31
0.0
 12
109.7692291648
 22
166.2575614029
 32
0.0
 13
109.7692291648
 23
166.2575614029
 33
0.0
  0
POINT
  5
202
100
AcDbEntity
  8
0
390
0
 62
         7
100
AcDbPoint
 10
106.173857747
 20
164.1217745179
 30
0.0
  0
POINT
  5
203
100
AcDbEntity
  8
0
390
0
 62
         7
100
AcDbPoint
 10
105.2418473139
 20
163.7593430726
 30
0.0
  0
ENDBLK
  5
204
100
AcDbEntity
  8
0
390
0
100
AcDbBlockEnd
  0
ENDSEC
  0
SECTION
  2
ENTITIES
  0
LINE
  5
2A
100
AcDbEntity
  8
0
370
         0
390
0
  6
Continuous
 62
         7
100
AcDbLine
 10
74.25
 20
233.75
 30
0.0
 11
33.0
 21
233.75
 31
0.0
  0
LINE
  5
2B
100
AcDbEntity
  8
0
370
         0
390
0
  6
Continuous
 62
         7
100
AcDbLine
 10
115.5
 20
233.75
 30
0.0
 11
74.25
 21
233.75
 31
0.0
  0
LINE
  5
2C
100
AcDbEntity
  8
0
370
         0
390
0
  6
Continuous
 62
         7
100
AcDbLine
 10
363.0
 20
8.25
 30
0.0
 11
321.75
 21
8.25
 31
0.0
  0
LINE
  5
2D
100
AcDbEntity
  8
0
370
         0
390
0
  6
Continuous
 62
         7
100
AcDbLine
 10
363.0
 20
8.25
 30
0.0
 11
363.0
 21
64.625
 31
0.0
  0
LINE
  5
2E
100
AcDbEntity
  8
0
370
         0
390
0
  6
Continuous
 62
         7
100
AcDbLine
 10
363.0
 20
177.375
 30
0.0
 11
365.75
 21
177.375
 31
0.0
  0
LINE
  5
2F
100
AcDbEntity
  8
0
370
         0
390
0
  6
Continuous
 62
         7
100
AcDbLine
 10
363.0
 20
121.0
 30
0.0
 11
365.75
 21
121.0
 31
0.0
  0
LINE
  5
30
100
AcDbEntity
  8
0
370
         0
390
0
  6
Continuous
 62
         7
100
AcDbLine
 10
156.75
 20
233.75
 30
0.0
 11
115.5
 21
233.75
 31
0.0
  0
LINE
  5
31
100
AcDbEntity
  8
0
370
         0
390
0
  6
Continuous
 62
         7
100
AcDbLine
 10
198.0
 20
233.75
 30
0.0
 11
156.75
 21
233.75
 31
0.0
  0
LINE
  5
32
100
AcDbEntity
  8
0
370
         0
390
0
  6
Continuous
 62
         7
100
AcDbLine
 10
239.25
 20
233.75
 30
0.0
 11
198.0
 21
233.75
 31
0.0
  0
LINE
  5
33
100
AcDbEntity
  8
0
370
         0
390
0
  6
Continuous
 62
         7
100
AcDbLine
 10
280.5
 20
233.75
 30
0.0
 11
239.25
 21
233.75
 31
0.0
  0
LINE
  5
34
100
AcDbEntity
  8
0
370
         0
390
0
  6
Continuous
 62
         7
100
AcDbLine
 10
321.75
 20
233.75
 30
0.0
 11
280.5
 21
233.75
 31
0.0
  0
LINE
  5
35
100
AcDbEntity
  8
0
370
         0
390
0
  6
Continuous
 62
         7
100
AcDbLine
 10
363.0
 20
64.625
 30
0.0
 11
365.75
 21
64.625
 31
0.0
  0
LINE
  5
36
100
AcDbEntity
  8
0
370
         0
390
0
  6
Continuous
 62
         7
100
AcDbLine
 10
363.0
 20
233.75
 30
0.0
 11
321.75
 21
233.75
 31
0.0
  0
LINE
  5
37
100
AcDbEntity
  8
0
370
         0
390
0
  6
Continuous
 62
         7
100
AcDbLine
 10
321.75
 20
233.75
 30
0.0
 11
321.75
 21
236.5
 31
0.0
  0
LINE
  5
38
100
AcDbEntity
  8
0
370
         0
390
0
  6
Continuous
 62
         7
100
AcDbLine
 10
280.5
 20
233.75
 30
0.0
 11
280.5
 21
236.5
 31
0.0
  0
LINE
  5
39
100
AcDbEntity
  8
0
370
         0
390
0
  6
Continuous
 62
         7
100
AcDbLine
 10
239.25
 20
233.75
 30
0.0
 11
239.25
 21
236.5
 31
0.0
  0
LINE
  5
3A
100
AcDbEntity
  8
0
370
         0
390
0
  6
Continuous
 62
         7
100
AcDbLine
 10
198.0
 20
233.75
 30
0.0
 11
198.0
 21
236.5
 31
0.0
  0
LINE
  5
3B
100
AcDbEntity
  8
0
370
         0
390
0
  6
Continuous
 62
         7
100
AcDbLine
 10
156.75
 20
233.75
 30
0.0
 11
156.75
 21
236.5
 31
0.0
  0
LINE
  5
3C
100
AcDbEntity
  8
0
370
         0
390
0
  6
Continuous
 62
         7
100
AcDbLine
 10
115.5
 20
233.75
 30
0.0
 11
115.5
 21
236.5
 31
0.0
  0
LINE
  5
3D
100
AcDbEntity
  8
0
370
         0
390
0
  6
Continuous
 62
         7
100
AcDbLine
 10
74.25
 20
233.75
 30
0.0
 11
74.25
 21
236.5
 31
0.0
  0
LINE
  5
3E
100
AcDbEntity
  8
0
370
         0
390
0
  6
Continuous
 62
         7
100
AcDbLine
 10
192.5
 20
37.18
 30
0.0
 11
192.5
 21
8.272
 31
0.0
  0
LINE
  5
3F
100
AcDbEntity
  8
0
370
         0
390
0
  6
Continuous
 62
         7
100
AcDbLine
 10
242.0
 20
52.25
 30
0.0
 11
363.0
 21
52.25
 31
0.0
  0
LINE
  5
40
100
AcDbEntity
  8
0
370
         0
390
0
  6
Continuous
 62
         7
100
AcDbLine
 10
242.0
 20
52.25
 30
0.0
 11
242.0
 21
8.25
 31
0.0
  0
LINE
  5
41
100
AcDbEntity
  8
0
370
         0
390
0
  6
Continuous
 62
         7
100
AcDbLine
 10
297.0
 20
52.25
 30
0.0
 11
297.0
 21
8.25
 31
0.0
  0
LINE
  5
42
100
AcDbEntity
  8
0
370
         0
390
0
  6
Continuous
 62
         7
100
AcDbLine
 10
297.0
 20
12.386
 30
0.0
 11
363.0
 21
12.386
 31
0.0
  0
LINE
  5
43
100
AcDbEntity
  8
0
370
         0
390
0
  6
Continuous
 62
         7
100
AcDbLine
 10
297.0
 20
20.636
 30
0.0
 11
363.0
 21
20.636
 31
0.0
  0
LINE
  5
44
100
AcDbEntity
  8
0
370
         0
390
0
  6
Continuous
 62
         7
100
AcDbLine
 10
297.0
 20
37.136
 30
0.0
 11
363.0
 21
37.136
 31
0.0
  0
LINE
  5
45
100
AcDbEntity
  8
0
370
         0
390
0
  6
Continuous
 62
         7
100
AcDbLine
 10
305.25
 20
20.636
 30
0.0
 11
305.25
 21
8.25
 31
0.0
  0
LINE
  5
46
100
AcDbEntity
  8
0
370
         0
390
0
  6
Continuous
 62
         7
100
AcDbLine
 10
192.5
 20
16.522
 30
0.0
 11
297.0
 21
16.522
 31
0.0
  0
LINE
  5
47
100
AcDbEntity
  8
0
370
         0
390
0
  6
Continuous
 62
         7
100
AcDbLine
 10
354.75
 20
20.636
 30
0.0
 11
354.75
 21
8.25
 31
0.0
  0
LINE
  5
48
100
AcDbEntity
  8
0
370
         0
390
0
  6
Continuous
 62
         7
100
AcDbLine
 10
297.0
 20
44.0
 30
0.0
 11
242.0
 21
44.0
 31
0.0
  0
LINE
  5
49
100
AcDbEntity
  8
0
370
         0
390
0
  6
Continuous
 62
         7
100
AcDbLine
 10
242.0
 20
26.114
 30
0.0
 11
297.0
 21
26.114
 31
0.0
  0
LINE
  5
4A
100
AcDbEntity
  8
0
370
         0
390
0
  6
Continuous
 62
         7
100
AcDbLine
 10
242.0
 20
12.386
 30
0.0
 11
297.0
 21
12.386
 31
0.0
  0
LINE
  5
4B
100
AcDbEntity
  8
0
370
         0
390
0
  6
Continuous
 62
         7
100
AcDbLine
 10
192.5
 20
28.908
 30
0.0
 11
242.0
 21
28.908
 31
0.0
  0
LINE
  5
4C
100
AcDbEntity
  8
0
370
         0
390
0
  6
Continuous
 62
         7
100
AcDbLine
 10
363.0
 20
64.625
 30
0.0
 11
363.0
 21
121.0
 31
0.0
  0
LINE
  5
4D
100
AcDbEntity
  8
0
370
         0
390
0
  6
Continuous
 62
         7
100
AcDbLine
 10
363.0
 20
121.0
 30
0.0
 11
363.0
 21
177.375
 31
0.0
  0
LINE
  5
4E
100
AcDbEntity
  8
0
370
         0
390
0
  6
Continuous
 62
         7
100
AcDbLine
 10
363.0
 20
177.375
 30
0.0
 11
363.0
 21
233.75
 31
0.0
  0
LINE
  5
4F
100
AcDbEntity
  8
0
370
         0
390
0
  6
Continuous
 62
         7
100
AcDbLine
 10
321.75
 20
8.25
 30
0.0
 11
280.5
 21
8.25
 31
0.0
  0
LINE
  5
50
100
AcDbEntity
  8
0
370
         0
390
0
  6
Continuous
 62
         7
100
AcDbLine
 10
280.5
 20
8.25
 30
0.0
 11
239.25
 21
8.25
 31
0.0
  0
LINE
  5
51
100
AcDbEntity
  8
0
370
         0
390
0
  6
Continuous
 62
         7
100
AcDbLine
 10
192.5
 20
33.044
 30
0.0
 11
242.0
 21
33.044
 31
0.0
  0
LINE
  5
52
100
AcDbEntity
  8
0
370
         0
390
0
  6
Continuous
 62
         7
100
AcDbLine
 10
192.5
 20
20.625
 30
0.0
 11
110.0
 21
20.625
 31
0.0
  0
LINE
  5
53
100
AcDbEntity
  8
0
370
         0
390
0
  6
Continuous
 62
         7
100
AcDbLine
 10
242.0
 20
37.18
 30
0.0
 11
192.5
 21
37.18
 31
0.0
  0
LINE
  5
54
100
AcDbEntity
  8
0
370
         0
390
0
  6
Continuous
 62
         7
100
AcDbLine
 10
225.5
 20
37.18
 30
0.0
 11
225.5
 21
24.772
 31
0.0
  0
LINE
  5
55
100
AcDbEntity
  8
0
370
         0
390
0
  6
Continuous
 62
         7
100
AcDbLine
 10
242.0
 20
39.864
 30
0.0
 11
297.0
 21
39.864
 31
0.0
  0
LINE
  5
56
100
AcDbEntity
  8
0
370
         0
390
0
  6
Continuous
 62
         7
100
AcDbLine
 10
192.5
 20
24.772
 30
0.0
 11
242.0
 21
24.772
 31
0.0
  0
LINE
  5
57
100
AcDbEntity
  8
0
370
         0
390
0
  6
Continuous
 62
         7
100
AcDbLine
 10
269.5
 20
44.0
 30
0.0
 11
269.5
 21
26.114
 31
0.0
  0
LINE
  5
58
100
AcDbEntity
  8
0
370
         0
390
0
  6
Continuous
 62
         7
100
AcDbLine
 10
239.25
 20
8.25
 30
0.0
 11
198.0
 21
8.25
 31
0.0
  0
LINE
  5
59
100
AcDbEntity
  8
0
370
         0
390
0
  6
Continuous
 62
         7
100
AcDbLine
 10
198.0
 20
8.25
 30
0.0
 11
156.75
 21
8.25
 31
0.0
  0
LINE
  5
5A
100
AcDbEntity
  8
0
370
         0
390
0
  6
Continuous
 62
         7
100
AcDbLine
 10
156.75
 20
8.25
 30
0.0
 11
115.5
 21
8.25
 31
0.0
  0
LINE
  5
5B
100
AcDbEntity
  8
0
370
         0
390
0
  6
Continuous
 62
         7
100
AcDbLine
 10
115.5
 20
8.25
 30
0.0
 11
74.25
 21
8.25
 31
0.0
  0
LINE
  5
5C
100
AcDbEntity
  8
0
370
         0
390
0
  6
Continuous
 62
         7
100
AcDbLine
 10
283.25
 20
44.0
 30
0.0
 11
283.25
 21
26.114
 31
0.0
  0
LINE
  5
5D
100
AcDbEntity
  8
0
370
         0
390
0
  6
Continuous
 62
         7
100
AcDbLine
 10
74.25
 20
8.25
 30
0.0
 11
33.0
 21
8.25
 31
0.0
  0
LINE
  5
5E
100
AcDbEntity
  8
0
370
         0
390
0
  6
Continuous
 62
         7
100
AcDbLine
 10
16.5
 20
233.75
 30
0.0
 11
16.5
 21
8.25
 31
0.0
  0
LINE
  5
5F
100
AcDbEntity
  8
0
370
         0
390
0
  6
Continuous
 62
         7
100
AcDbLine
 10
33.0
 20
64.625
 30
0.0
 11
33.0
 21
121.0
 31
0.0
  0
LINE
  5
60
100
AcDbEntity
  8
0
370
         0
390
0
  6
Continuous
 62
         7
100
AcDbLine
 10
33.0
 20
121.0
 30
0.0
 11
33.0
 21
177.375
 31
0.0
  0
LINE
  5
61
100
AcDbEntity
  8
0
370
         0
390
0
  6
Continuous
 62
         7
100
AcDbLine
 10
33.0
 20
177.375
 30
0.0
 11
33.0
 21
233.75
 31
0.0
  0
LINE
  5
62
100
AcDbEntity
  8
0
370
         0
390
0
  6
Continuous
 62
         7
100
AcDbLine
 10
33.0
 20
177.375
 30
0.0
 11
30.25
 21
177.375
 31
0.0
  0
LINE
  5
63
100
AcDbEntity
  8
0
370
         0
390
0
  6
Continuous
 62
         7
100
AcDbLine
 10
321.75
 20
8.25
 30
0.0
 11
321.75
 21
5.5
 31
0.0
  0
LINE
  5
64
100
AcDbEntity
  8
0
370
         0
390
0
  6
Continuous
 62
         7
100
AcDbLine
 10
280.5
 20
8.25
 30
0.0
 11
280.5
 21
5.5
 31
0.0
  0
LINE
  5
65
100
AcDbEntity
  8
0
370
         0
390
0
  6
Continuous
 62
         7
100
AcDbLine
 10
239.25
 20
8.25
 30
0.0
 11
239.25
 21
5.5
 31
0.0
  0
LINE
  5
66
100
AcDbEntity
  8
0
370
         0
390
0
  6
CENTERX2
 62
         7
100
AcDbLine
 10
198.0
 20
8.25
 30
0.0
 11
198.0
 21
5.5
 31
0.0
  0
LINE
  5
67
100
AcDbEntity
  8
0
370
         0
390
0
  6
Continuous
 62
         7
100
AcDbLine
 10
156.75
 20
8.25
 30
0.0
 11
156.75
 21
5.5
 31
0.0
  0
LINE
  5
68
100
AcDbEntity
  8
0
370
         0
390
0
  6
Continuous
 62
         7
100
AcDbLine
 10
115.5
 20
8.25
 30
0.0
 11
115.5
 21
5.5
 31
0.0
  0
LINE
  5
69
100
AcDbEntity
  8
0
370
         0
390
0
  6
Continuous
 62
         7
100
AcDbLine
 10
74.25
 20
8.25
 30
0.0
 11
74.25
 21
5.5
 31
0.0
  0
LINE
  5
6A
100
AcDbEntity
  8
0
370
         0
390
0
  6
Continuous
 62
         7
100
AcDbLine
 10
33.0
 20
121.0
 30
0.0
 11
30.25
 21
121.0
 31
0.0
  0
LINE
  5
6B
100
AcDbEntity
  8
0
370
         0
390
0
  6
Continuous
 62
         7
100
AcDbLine
 10
33.0
 20
64.625
 30
0.0
 11
30.25
 21
64.625
 31
0.0
  0
LINE
  5
6C
100
AcDbEntity
  8
0
370
         0
390
0
  6
Continuous
 62
         7
100
AcDbLine
 10
33.0
 20
8.25
 30
0.0
 11
33.0
 21
64.625
 31
0.0
  0
LINE
  5
6D
100
AcDbEntity
  8
0
370
         0
390
0
  6
Continuous
 62
         7
100
AcDbLine
 10
110.0
 20
20.625
 30
0.0
 11
110.0
 21
8.25
 31
0.0
  0
LINE
  5
6E
100
AcDbEntity
  8
0
370
         0
390
0
  6
Continuous
 62
         7
100
AcDbLine
 10
363.0
 20
229.614
 30
0.0
 11
275.0
 21
229.614
 31
0.0
  0
LINE
  5
6F
100
AcDbEntity
  8
0
370
         0
390
0
  6
Continuous
 62
         7
100
AcDbLine
 10
363.0
 20
225.478
 30
0.0
 11
275.0
 21
225.478
 31
0.0
  0
LINE
  5
70
100
AcDbEntity
  8
0
370
         0
390
0
  6
Continuous
 62
         7
100
AcDbLine
 10
363.0
 20
221.342
 30
0.0
 11
275.0
 21
221.342
 31
0.0
  0
LINE
  5
71
100
AcDbEntity
  8
0
370
         0
390
0
  6
Continuous
 62
         7
100
AcDbLine
 10
275.0
 20
233.75
 30
0.0
 11
275.0
 21
221.342
 31
0.0
  0
LINE
  5
72
100
AcDbEntity
  8
0
370
         0
390
0
  6
Continuous
 62
         7
100
AcDbLine
 10
283.25
 20
229.614
 30
0.0
 11
283.25
 21
221.342
 31
0.0
  0
LINE
  5
73
100
AcDbEntity
  8
0
370
         0
390
0
  6
Continuous
 62
         7
100
AcDbLine
 10
346.5
 20
229.614
 30
0.0
 11
346.5
 21
221.342
 31
0.0
  0
LINE
  5
74
100
AcDbEntity
  8
0
370
         0
390
0
  6
Continuous
 62
         7
100
AcDbLine
 10
332.75
 20
229.614
 30
0.0
 11
332.75
 21
221.342
 31
0.0
  0
MTEXT
  5
76
100
AcDbEntity
  8
0
390
0
 62
         1
100
AcDbMText
 10
263.8647084257
 20
84.5967213673
 30
0.0
 40
3.6666666667
 41
0.0
 71
         1
 72
         1
  1
THIS PART CAN BE FABRICATED FROM \PSEVERAL PIECES.
  7
SLDTEXTSTYLE0
 73
         1
 44
1.0
  0
MTEXT
  5
77
100
AcDbEntity
  8
0
390
0
 62
         1
100
AcDbMText
 10
261.0374921139
 20
15.9755031664
 30
0.0
 40
2.2
 41
0.0
 71
         1
 72
         1
  1
491.5 LBS
  7
SLDTEXTSTYLE0
 73
         1
 44
1.0
  0
MTEXT
  5
78
100
AcDbEntity
  8
0
390
0
 62
         1
100
AcDbMText
 10
208.1504466737
 20
20.7902555251
 30
0.0
 40
2.2
 41
0.0
 71
         1
 72
         1
  1
STEEL, A-36 1/4" THICK
  7
SLDTEXTSTYLE0
 73
         1
 44
1.0
  0
MTEXT
  5
79
100
AcDbEntity
  8
0
390
0
 62
         1
100
AcDbMText
 10
328.1455035721
 20
65.449901264
 30
0.0
 40
3.6666666667
 41
0.0
 71
         2
 72
         1
  1
1 REQUIRED\PPER ASSEM
  7
SLDTEXTSTYLE0
 73
         1
 44
1.0
  0
MTEXT
  5
7A
100
AcDbEntity
  8
0
390
0
 62
         7
100
AcDbMText
 10
367.6946917499
 20
199.9505814359
 30
0.0
 40
2.0625
 41
0.0
 71
         1
 72
         1
  1
D
  7
SLDTEXTSTYLE0
 73
         1
 44
1.0
  0
MTEXT
  5
7B
100
AcDbEntity
  8
0
390
0
 62
         7
100
AcDbMText
 10
367.2923286932
 20
144.0166524445
 30
0.0
 40
2.0625
 41
0.0
 71
         1
 72
         1
  1
C
  7
SLDTEXTSTYLE0
 73
         1
 44
1.0
  0
MTEXT
  5
7C
100
AcDbEntity
  8
0
390
0
 62
         7
100
AcDbMText
 10
367.5346576034
 20
92.8139335126
 30
0.0
 40
2.0625
 41
0.0
 71
         1
 72
         1
  1
B
  7
SLDTEXTSTYLE0
 73
         1
 44
1.0
  0
MTEXT
  5
7D
100
AcDbEntity
  8
0
390
0
 62
         7
100
AcDbMText
 10
367.5221365222
 20
37.7029005823
 30
0.0
 40
2.0625
 41
0.0
 71
         1
 72
         1
  1
A
  7
SLDTEXTSTYLE0
 73
         1
 44
1.0
  0
MTEXT
  5
7E
100
AcDbEntity
  8
0
390
0
 62
         7
100
AcDbMText
 10
21.2157571708
 20
37.255116108
 30
0.0
 40
2.0625
 41
0.0
 71
         1
 72
         1
  1
A
  7
SLDTEXTSTYLE0
 73
         1
 44
1.0
  0
MTEXT
  5
7F
100
AcDbEntity
  8
0
390
0
 62
         7
100
AcDbMText
 10
21.1455091411
 20
94.1114961739
 30
0.0
 40
2.0625
 41
0.0
 71
         1
 72
         1
  1
B
  7
SLDTEXTSTYLE0
 73
         1
 44
1.0
  0
MTEXT
  5
80
100
AcDbEntity
  8
0
390
0
 62
         7
100
AcDbMText
 10
20.8742139195
 20
151.233280145
 30
0.0
 40
2.0625
 41
0.0
 71
         1
 72
         1
  1
C
  7
SLDTEXTSTYLE0
 73
         1
 44
1.0
  0
MTEXT
  5
81
100
AcDbEntity
  8
0
390
0
 62
         7
100
AcDbMText
 10
20.8020771668
 20
204.7423044385
 30
0.0
 40
2.0625
 41
0.0
 71
         1
 72
         1
  1
D
  7
SLDTEXTSTYLE0
 73
         1
 44
1.0
  0
MTEXT
  5
82
100
AcDbEntity
  8
0
390
0
 62
         7
100
AcDbMText
 10
356.0877278538
 20
11.4329282972
 30
0.0
 40
1.98
 41
0.0
 71
         1
 72
         1
  1
REV.
  7
SLDTEXTSTYLE0
 73
         1
 44
1.0
  0
MTEXT
  5
83
100
AcDbEntity
  8
0
390
0
 62
         7
100
AcDbMText
 10
271.6796942605
 20
38.6912014381
 30
0.0
 40
1.98
 41
0.0
 71
         1
 72
         1
  1
%%p\P%%p\P%%p\P%%p
  7
SLDTEXTSTYLE0
 73
         1
 44
1.0
  0
MTEXT
  5
84
100
AcDbEntity
  8
0
390
0
 62
         7
100
AcDbMText
 10
193.8627135465
 20
24.1446611993
 30
0.0
 40
1.98
 41
0.0
 71
         1
 72
         1
  1
MATERIAL
  7
SLDTEXTSTYLE0
 73
         1
 44
1.0
  0
MTEXT
  5
85
100
AcDbEntity
  8
0
390
0
 62
         7
100
AcDbMText
 10
193.8123749421
 20
16.0968237511
 30
0.0
 40
1.98
 41
0.0
 71
         1
 72
         1
  1
FINISH
  7
SLDTEXTSTYLE0
 73
         1
 44
1.0
  0
MTEXT
  5
86
100
AcDbEntity
  8
0
390
0
 62
         7
100
AcDbMText
 10
347.6095260733
 20
7.0789043814
 30
0.0
 40
2.0625
 41
0.0
 71
         1
 72
         1
  1
1
  7
SLDTEXTSTYLE0
 73
         1
 44
1.0
  0
MTEXT
  5
87
100
AcDbEntity
  8
0
390
0
 62
         7
100
AcDbMText
 10
299.0764975885
 20
7.2932374856
 30
0.0
 40
2.0625
 41
0.0
 71
         1
 72
         1
  1
2
  7
SLDTEXTSTYLE0
 73
         1
 44
1.0
  0
MTEXT
  5
88
100
AcDbEntity
  8
0
390
0
 62
         7
100
AcDbMText
 10
253.7979769803
 20
7.3646818537
 30
0.0
 40
2.0625
 41
0.0
 71
         1
 72
         1
  1
3
  7
SLDTEXTSTYLE0
 73
         1
 44
1.0
  0
MTEXT
  5
89
100
AcDbEntity
  8
0
390
0
 62
         7
100
AcDbMText
 10
212.9969067762
 20
7.4083873015
 30
0.0
 40
2.0625
 41
0.0
 71
         1
 72
         1
  1
4
  7
SLDTEXTSTYLE0
 73
         1
 44
1.0
  0
MTEXT
  5
8A
100
AcDbEntity
  8
0
390
0
 62
         7
100
AcDbMText
 10
170.0878227073
 20
7.4798316696
 30
0.0
 40
2.0625
 41
0.0
 71
         1
 72
         1
  1
5
  7
SLDTEXTSTYLE0
 73
         1
 44
1.0
  0
MTEXT
  5
8B
100
AcDbEntity
  8
0
390
0
 62
         7
100
AcDbMText
 10
130.0247409693
 20
7.1226098292
 30
0.0
 40
2.0625
 41
0.0
 71
         1
 72
         1
  1
6
  7
SLDTEXTSTYLE0
 73
         1
 44
1.0
  0
MTEXT
  5
8C
100
AcDbEntity
  8
0
390
0
 62
         7
100
AcDbMText
 10
86.4650793301
 20
7.4361262218
 30
0.0
 40
2.0625
 41
0.0
 71
         1
 72
         1
  1
7
  7
SLDTEXTSTYLE0
 73
         1
 44
1.0
  0
MTEXT
  5
8D
100
AcDbEntity
  8
0
390
0
 62
         7
100
AcDbMText
 10
47.259330009
 20
7.4798316696
 30
0.0
 40
2.0625
 41
0.0
 71
         1
 72
         1
  1
8
  7
SLDTEXTSTYLE0
 73
         1
 44
1.0
  0
MTEXT
  5
8E
100
AcDbEntity
  8
0
390
0
 62
         7
100
AcDbMText
 10
46.5801369676
 20
237.791171669
 30
0.0
 40
2.0625
 41
0.0
 71
         1
 72
         1
  1
8
  7
SLDTEXTSTYLE0
 73
         1
 44
1.0
  0
MTEXT
  5
8F
100
AcDbEntity
  8
0
390
0
 62
         7
100
AcDbMText
 10
89.5500539507
 20
237.3008515625
 30
0.0
 40
2.0625
 41
0.0
 71
         1
 72
         1
  1
7
  7
SLDTEXTSTYLE0
 73
         1
 44
1.0
  0
MTEXT
  5
90
100
AcDbEntity
  8
0
390
0
 62
         7
100
AcDbMText
 10
130.9377242737
 20
237.1571115451
 30
0.0
 40
2.0625
 41
0.0
 71
         1
 72
         1
  1
6
  7
SLDTEXTSTYLE0
 73
         1
 44
1.0
  0
MTEXT
  5
91
100
AcDbEntity
  8
0
390
0
 62
         7
100
AcDbMText
 10
173.9362719799
 20
236.8962397894
 30
0.0
 40
2.0625
 41
0.0
 71
         1
 72
         1
  1
5
  7
SLDTEXTSTYLE0
 73
         1
 44
1.0
  0
MTEXT
  5
92
100
AcDbEntity
  8
0
390
0
 62
         7
100
AcDbMText
 10
216.6739479304
 20
237.5302999132
 30
0.0
 40
2.0625
 41
0.0
 71
         1
 72
         1
  1
4
  7
SLDTEXTSTYLE0
 73
         1
 44
1.0
  0
MTEXT
  5
93
100
AcDbEntity
  8
0
390
0
 62
         7
100
AcDbMText
 10
259.6286492973
 20
237.0752261653
 30
0.0
 40
2.0625
 41
0.0
 71
         1
 72
         1
  1
3
  7
SLDTEXTSTYLE0
 73
         1
 44
1.0
  0
MTEXT
  5
94
100
AcDbEntity
  8
0
390
0
 62
         7
100
AcDbMText
 10
300.7630556726
 20
237.3437057292
 30
0.0
 40
2.0625
 41
0.0
 71
         1
 72
         1
  1
2
  7
SLDTEXTSTYLE0
 73
         1
 44
1.0
  0
MTEXT
  5
95
100
AcDbEntity
  8
0
390
0
 62
         7
100
AcDbMText
 10
344.6717508746
 20
236.9781251692
 30
0.0
 40
2.0625
 41
0.0
 71
         1
 72
         1
  1
1
  7
SLDTEXTSTYLE0
 73
         1
 44
1.0
  0
MTEXT
  5
96
100
AcDbEntity
  8
0
390
0
 62
         7
100
AcDbMText
 10
301.1393218408
 20
50.6157824915
 30
0.0
 40
3.6666666667
 41
0.0
 71
         1
 72
         1
  1
RADIO  ASTRONOMY  LAB
  7
SLDTEXTSTYLE0
 73
         1
 44
1.0
  0
MTEXT
  5
97
100
AcDbEntity
  8
0
390
0
 62
         7
100
AcDbMText
 10
330.5006732603
 20
44.4300803989
 30
0.0
 40
2.2
 41
0.0
 71
         2
 72
         1
  1
University of California - Berkeley\PTel: 510-642-5040    Fax: 510-642-3411
  7
SLDTEXTSTYLE0
 73
         1
 44
1.0
  0
MTEXT
  5
98
100
AcDbEntity
  8
0
390
0
 62
         7
100
AcDbMText
 10
206.4476686941
 20
36.0307064953
 30
0.0
 40
1.98
 41
0.0
 71
         1
 72
         1
  1
NAME
  7
SLDTEXTSTYLE0
 73
         1
 44
1.0
  0
MTEXT
  5
99
100
AcDbEntity
  8
0
390
0
 62
         7
100
AcDbMText
 10
230.822662918
 20
35.9332253938
 30
0.0
 40
1.98
 41
0.0
 71
         1
 72
         1
  1
DATE
  7
SLDTEXTSTYLE0
 73
         1
 44
1.0
  0
MTEXT
  5
9A
100
AcDbEntity
  8
0
390
0
 62
         7
100
AcDbMText
 10
298.7452695126
 20
11.5313629904
 30
0.0
 40
1.98
 41
0.0
 71
         1
 72
         1
  1
SIZE
  7
SLDTEXTSTYLE0
 73
         1
 44
1.0
  0
MTEXT
  5
9B
100
AcDbEntity
  8
0
390
0
 62
         7
100
AcDbMText
 10
299.9589973729
 20
18.5709032795
 30
0.0
 40
4.125
 41
0.0
 71
         1
 72
         1
  1
B
  7
SLDTEXTSTYLE0
 73
         1
 44
1.0
  0
MTEXT
  5
9C
100
AcDbEntity
  8
0
390
0
 62
         7
100
AcDbMText
 10
243.7426827245
 20
11.283055755
 30
0.0
 40
1.98
 41
0.0
 71
         1
 72
         1
  1
SCALE:
  7
SLDTEXTSTYLE0
 73
         1
 44
1.0
  0
MTEXT
  5
9D
100
AcDbEntity
  8
0
390
0
 62
         7
100
AcDbMText
 10
306.3365927172
 20
11.4400061863
 30
0.0
 40
1.98
 41
0.0
 71
         1
 72
         1
  1
DWG NUM:      SHEET             OF
  7
SLDTEXTSTYLE0
 73
         1
 44
1.0
  0
MTEXT
  5
9E
100
AcDbEntity
  8
0
390
0
 62
         7
100
AcDbMText
 10
351.9731925472
 20
228.4766590758
 30
0.0
 40
1.98
 41
0.0
 71
         1
 72
         1
  1
DATE
  7
SLDTEXTSTYLE0
 73
         1
 44
1.0
  0
MTEXT
  5
9F
100
AcDbEntity
  8
0
390
0
 62
         7
100
AcDbMText
 10
336.654748744
 20
228.4672403276
 30
0.0
 40
1.98
 41
0.0
 71
         1
 72
         1
  1
NAME
  7
SLDTEXTSTYLE0
 73
         1
 44
1.0
  0
MTEXT
  5
A0
100
AcDbEntity
  8
0
390
0
 62
         7
100
AcDbMText
 10
308.7276247164
 20
232.583222755
 30
0.0
 40
1.98
 41
0.0
 71
         1
 72
         1
  1
REVISIONS
  7
SLDTEXTSTYLE0
 73
         1
 44
1.0
  0
MTEXT
  5
A1
100
AcDbEntity
  8
0
390
0
 62
         7
100
AcDbMText
 10
276.8083689115
 20
228.4355313131
 30
0.0
 40
1.98
 41
0.0
 71
         1
 72
         1
  1
REV
  7
SLDTEXTSTYLE0
 73
         1
 44
1.0
  0
MTEXT
  5
A2
100
AcDbEntity
  8
0
390
0
 62
         7
100
AcDbMText
 10
285.1740252148
 20
228.4235948556
 30
0.0
 40
1.98
 41
0.0
 71
         1
 72
         1
  1
DESCRIPTION
  7
SLDTEXTSTYLE0
 73
         1
 44
1.0
  0
MTEXT
  5
A3
100
AcDbEntity
  8
0
390
0
 62
         7
100
AcDbMText
 10
243.6284329107
 20
15.3658079263
 30
0.0
 40
1.98
 41
0.0
 71
         1
 72
         1
  1
WEIGHT:
  7
SLDTEXTSTYLE0
 73
         1
 44
1.0
  0
MTEXT
  5
A4
100
AcDbEntity
  8
0
390
0
 62
         7
100
AcDbMText
 10
193.8368105877
 20
31.8459781888
 30
0.0
 40
1.98
 41
0.0
 71
         1
 72
         1
  1
DRAWN
  7
SLDTEXTSTYLE0
 73
         1
 44
1.0
  0
MTEXT
  5
A5
100
AcDbEntity
  8
0
390
0
 62
         7
100
AcDbMText
 10
193.8318074148
 20
27.749269325
 30
0.0
 40
1.98
 41
0.0
 71
         1
 72
         1
  1
CHECKED
  7
SLDTEXTSTYLE0
 73
         1
 44
1.0
  0
MTEXT
  5
A6
100
AcDbEntity
  8
0
390
0
 62
         7
100
AcDbMText
 10
267.6361444334
 20
38.5862512134
 30
0.0
 40
1.98
 41
0.0
 71
         3
 72
         1
  1
WHOLE & FRACTION\PDECIMAL   X.X\PDECIMAL   X.XX\PDECIMAL   X.XXX
  7
SLDTEXTSTYLE0
 73
         1
 44
1.0
  0
MTEXT
  5
A7
100
AcDbEntity
  8
0
390
0
 62
         7
100
AcDbMText
 10
276.9205465461
 20
43.2241925735
 30
0.0
 40
1.98
 41
0.0
 71
         2
 72
         1
  1
LINEAR
  7
SLDTEXTSTYLE0
 73
         1
 44
1.0
  0
MTEXT
  5
A8
100
AcDbEntity
  8
0
390
0
 62
         7
100
AcDbMText
 10
289.6917001302
 20
43.356582844
 30
0.0
 40
1.98
 41
0.0
 71
         2
 72
         1
  1
ANGLE
  7
SLDTEXTSTYLE0
 73
         1
 44
1.0
  0
INSERT
  5
AF
100
AcDbEntity
  8
0
390
0
100
AcDbBlockReference
  2
NOTE51
 10
245.6739270863
 20
24.0689845574
 30
0.0
  0
MTEXT
  5
B0
100
AcDbEntity
  8
0
390
0
 62
         7
100
AcDbMText
 10
269.472576738
 20
50.7958626245
 30
0.0
 40
1.98
 41
0.0
 71
         2
 72
         1
  1
UNLESS OTHERWISE SPECIFIED\PDIMENSIONS ARE INCHES & DEGREES
  7
SLDTEXTSTYLE0
 73
         1
 44
1.0
  0
MTEXT
  5
B1
100
AcDbEntity
  8
0
390
0
 62
         7
100
AcDbMText
 10
246.4286023981
 20
43.0841059657
 30
0.0
 40
1.98
 41
0.0
 71
         1
 72
         1
  1
TOLERANCES:
  7
SLDTEXTSTYLE0
 73
         1
 44
1.0
  0
MTEXT
  5
B2
100
AcDbEntity
  8
0
390
0
 62
         7
100
AcDbMText
 10
285.0201607274
 20
38.6718676909
 30
0.0
 40
1.98
 41
0.0
 71
         1
 72
         1
  1
%%p\P%%p\P%%p\P%%p
  7
SLDTEXTSTYLE0
 73
         1
 44
1.0
  0
MTEXT
  5
B3
100
AcDbEntity
  8
0
390
0
 62
         7
100
AcDbMText
 10
322.5948064578
 20
228.4969815763
 30
0.0
 40
1.98
 41
0.0
 71
         1
 72
         1
  1
ZONE
  7
SLDTEXTSTYLE0
 73
         1
 44
1.0
  0
MTEXT
  5
B4
100
AcDbEntity
  8
0
390
0
 62
         7
100
AcDbMText
 10
112.0947890025
 20
19.020466678
 30
0.0
 40
1.76
 41
0.0
 71
         1
 72
         1
  1
THIS DRAWING IS THE PROPERTY OF AND CONTAINS CONFIDENTIAL\PINFORMATION PROPRIETARY TO THE UNIVERSITY OF CALIFORNIA AND\PSHALL BE USED ONLY FOR THE PURPOSE FOR WHICH IT WAS PROVIDED\PAND SHALL NOT BE REPRODUCED OR DISCLOSED TO OTHERS.
  7
SLDTEXTSTYLE0
 73
         1
 44
1.0
  0
MTEXT
  5
B5
100
AcDbEntity
  8
0
390
0
 62
         7
100
AcDbMText
 10
278.0570894843
 20
224.5077818742
 30
0.0
 40
1.98
 41
0.0
 71
         1
 72
         1
  1
A
  7
SLDTEXTSTYLE0
 73
         1
 44
1.0
  0
MTEXT
  5
B6
100
AcDbEntity
  8
0
390
0
 62
         7
100
AcDbMText
 10
285.515910106
 20
224.5023331842
 30
0.0
 40
1.98
 41
0.0
 71
         1
 72
         1
  1
RELEASED
  7
SLDTEXTSTYLE0
 73
         1
 44
1.0
  0
MTEXT
  5
B7
100
AcDbEntity
  8
0
390
0
 62
         7
100
AcDbMText
 10
206.1218318093
 20
32.1227915651
 30
0.0
 40
2.2916666667
 41
0.0
 71
         1
 72
         1
  1
M. C. FLEMING
  7
SLDTEXTSTYLE0
 73
         1
 44
1.0
  0
MTEXT
  5
B8
100
AcDbEntity
  8
0
390
0
 62
         7
100
AcDbMText
 10
357.5462965365
 20
18.1955498517
 30
0.0
 40
4.125
 41
0.0
 71
         1
 72
         1
  1
A
  7
SLDTEXTSTYLE0
 73
         1
 44
1.0
  0
MTEXT
  5
B9
100
AcDbEntity
  8
0
390
0
 62
         7
100
AcDbMText
 10
227.0870860933
 20
32.0848918758
 30
0.0
 40
2.2916666667
 41
0.0
 71
         1
 72
         1
  1
2004-12-23
  7
SLDTEXTSTYLE0
 73
         1
 44
1.0
  0
MTEXT
  5
BA
100
AcDbEntity
  8
0
390
0
 62
         7
100
AcDbMText
 10
275.2730400916
 20
38.716187926
 30
0.0
 40
1.98
 41
0.0
 71
         1
 72
         1
  1
1/16\P0.1\P0.01\P0.005
  7
SLDTEXTSTYLE0
 73
         1
 44
1.0
  0
MTEXT
  5
BB
100
AcDbEntity
  8
0
390
0
 62
         7
100
AcDbMText
 10
288.2546528284
 20
38.6732522494
 30
0.0
 40
1.98
 41
0.0
 71
         1
 72
         1
  1
1%%d\P0.1%%d\P0.01%%d\P0.001%%d
  7
SLDTEXTSTYLE0
 73
         1
 44
1.0
  0
MTEXT
  5
BC
100
AcDbEntity
  8
0
390
0
 62
         7
100
AcDbMText
 10
309.7974662424
 20
18.5935642479
 30
0.0
 40
4.125
 41
0.0
 71
         1
 72
         1
  1
24-09-212    1 of 1
  7
SLDTEXTSTYLE0
 73
         1
 44
1.0
  0
MTEXT
  5
BD
100
AcDbEntity
  8
0
390
0
 62
         7
100
AcDbMText
 10
336.5115214877
 20
224.5118953176
 30
0.0
 40
2.2916666667
 41
0.0
 71
         1
 72
         1
  1
M.C.F.
  7
SLDTEXTSTYLE0
 73
         1
 44
1.0
  0
MTEXT
  5
BE
100
AcDbEntity
  8
0
390
0
 62
         7
100
AcDbMText
 10
348.5234282147
 20
224.4913527224
 30
0.0
 40
2.2916666667
 41
0.0
 71
         1
 72
         1
  1
2004-12-23
  7
SLDTEXTSTYLE0
 73
         1
 44
1.0
  0
MTEXT
  5
BF
100
AcDbEntity
  8
0
390
0
 62
         7
100
AcDbMText
 10
328.9677558553
 20
33.7168991145
 30
0.0
 40
4.125
 41
0.0
 71
         2
 72
         1
  1
CARMA 6m Base,\PTop Plate
  7
SLDTEXTSTYLE0
 73
         1
 44
1.0
  0
CIRCLE
  5
C0
100
AcDbEntity
  8
0
370
        15
390
0
  6
Continuous
 62
         7
100
AcDbCircle
 10
201.2418473139
 20
135.6963430726
 30
0.0
 40
0.5465
  0
CIRCLE
  5
C1
100
AcDbEntity
  8
0
370
        15
390
0
  6
Continuous
 62
         7
100
AcDbCircle
 10
153.7418473139
 20
155.6963430726
 30
0.0
 40
37.0
  0
LINE
  5
C2
100
AcDbEntity
  8
0
370
        15
390
0
  6
Continuous
 62
         7
100
AcDbLine
 10
205.2418467281
 20
120.4893437068
 30
0.0
 11
205.2418467281
 21
190.9033424383
 31
0.0
  0
LINE
  5
C3
100
AcDbEntity
  8
0
370
        15
390
0
  6
Continuous
 62
         7
100
AcDbLine
 10
188.9488466796
 20
104.1963436583
 30
0.0
 11
205.2418467281
 21
120.4893437068
 31
0.0
  0
LINE
  5
C4
100
AcDbEntity
  8
0
370
        15
390
0
  6
Continuous
 62
         7
100
AcDbLine
 10
185.8043473251
 20
104.1963436583
 30
0.0
 11
188.9488466796
 21
104.1963436583
 31
0.0
  0
LINE
  5
C5
100
AcDbEntity
  8
0
370
        15
390
0
  6
Continuous
 62
         7
100
AcDbLine
 10
185.8043473139
 20
111.4463430726
 30
0.0
 11
185.8043473251
 21
104.1963436583
 31
0.0
  0
ARC
  5
C6
100
AcDbEntity
  8
0
370
        15
390
0
  6
Continuous
 62
         7
100
AcDbCircle
 10
185.3043473139
 20
111.4463430726
 30
0.0
 40
0.5
100
AcDbArc
 50
0.0
 51
90.0
  0
LINE
  5
C7
100
AcDbEntity
  8
0
370
        15
390
0
  6
Continuous
 62
         7
100
AcDbLine
 10
177.2413473139
 20
111.9463430726
 30
0.0
 11
185.3043473139
 21
111.9463430726
 31
0.0
  0
ARC
  5
C8
100
AcDbEntity
  8
0
370
        15
390
0
  6
Continuous
 62
         7
100
AcDbCircle
 10
177.2413473139
 20
111.4463430726
 30
0.0
 40
0.5
100
AcDbArc
 50
90.0
 51
180.0
  0
LINE
  5
C9
100
AcDbEntity
  8
0
370
        15
390
0
  6
Continuous
 62
         7
100
AcDbLine
 10
176.7413484483
 20
104.1963436583
 30
0.0
 11
176.7413473139
 21
111.4463430726
 31
0.0
  0
LINE
  5
CA
100
AcDbEntity
  8
0
370
        15
390
0
  6
Continuous
 62
         7
100
AcDbLine
 10
118.5348479481
 20
104.1963436583
 30
0.0
 11
176.7413484483
 21
104.1963436583
 31
0.0
  0
LINE
  5
CB
100
AcDbEntity
  8
0
370
        15
390
0
  6
Continuous
 62
         7
100
AcDbLine
 10
102.2418478996
 20
120.4893437068
 30
0.0
 11
118.5348479481
 21
104.1963436583
 31
0.0
  0
LINE
  5
CC
100
AcDbEntity
  8
0
370
        15
390
0
  6
Continuous
 62
         7
100
AcDbLine
 10
102.2418478996
 20
146.6963432547
 30
0.0
 11
102.2418478996
 21
120.4893437068
 31
0.0
  0
LINE
  5
CD
100
AcDbEntity
  8
0
370
        15
390
0
  6
Continuous
 62
         7
100
AcDbLine
 10
105.2418473139
 20
146.6963430726
 30
0.0
 11
102.2418478996
 21
146.6963432547
 31
0.0
  0
ARC
  5
CE
100
AcDbEntity
  8
0
370
        15
390
0
  6
Continuous
 62
         7
100
AcDbCircle
 10
105.2418473139
 20
147.6963430726
 30
0.0
 40
1.0
100
AcDbArc
 50
270.0
 51
0.0
  0
LINE
  5
CF
100
AcDbEntity
  8
0
370
        15
390
0
  6
Continuous
 62
         7
100
AcDbLine
 10
106.2418473139
 20
163.7593430726
 30
0.0
 11
106.2418473139
 21
147.6963430726
 31
0.0
  0
ARC
  5
D0
100
AcDbEntity
  8
0
370
        15
390
0
  6
Continuous
 62
         7
100
AcDbCircle
 10
105.2418473139
 20
163.7593430726
 30
0.0
 40
1.0
100
AcDbArc
 50
0.0
 51
90.0
  0
LINE
  5
D1
100
AcDbEntity
  8
0
370
        15
390
0
  6
Continuous
 62
         7
100
AcDbLine
 10
102.2418478996
 20
164.7593431227
 30
0.0
 11
105.2418473139
 21
164.7593430726
 31
0.0
  0
LINE
  5
D2
100
AcDbEntity
  8
0
370
        15
390
0
  6
Continuous
 62
         7
100
AcDbLine
 10
102.2418478996
 20
190.9033424383
 30
0.0
 11
102.2418478996
 21
164.7593431227
 31
0.0
  0
LINE
  5
D3
100
AcDbEntity
  8
0
370
        15
390
0
  6
Continuous
 62
         7
100
AcDbLine
 10
118.5348479481
 20
207.1963424869
 30
0.0
 11
102.2418478996
 21
190.9033424383
 31
0.0
  0
LINE
  5
D4
100
AcDbEntity
  8
0
370
        15
390
0
  6
Continuous
 62
         7
100
AcDbLine
 10
176.7413484483
 20
207.1963424869
 30
0.0
 11
118.5348479481
 21
207.1963424869
 31
0.0
  0
LINE
  5
D5
100
AcDbEntity
  8
0
370
        15
390
0
  6
Continuous
 62
         7
100
AcDbLine
 10
176.7413473139
 20
199.9463430726
 30
0.0
 11
176.7413484483
 21
207.1963424869
 31
0.0
  0
ARC
  5
D6
100
AcDbEntity
  8
0
370
        15
390
0
  6
Continuous
 62
         7
100
AcDbCircle
 10
177.2413473139
 20
199.9463430726
 30
0.0
 40
0.5
100
AcDbArc
 50
180.0
 51
270.0
  0
LINE
  5
D7
100
AcDbEntity
  8
0
370
        15
390
0
  6
Continuous
 62
         7
100
AcDbLine
 10
185.3043473139
 20
199.4463430726
 30
0.0
 11
177.2413473139
 21
199.4463430726
 31
0.0
  0
ARC
  5
D8
100
AcDbEntity
  8
0
370
        15
390
0
  6
Continuous
 62
         7
100
AcDbCircle
 10
185.3043473139
 20
199.9463430726
 30
0.0
 40
0.5
100
AcDbArc
 50
270.0
 51
0.0
  0
LINE
  5
D9
100
AcDbEntity
  8
0
370
        15
390
0
  6
Continuous
 62
         7
100
AcDbLine
 10
185.8043473251
 20
207.1963424869
 30
0.0
 11
185.8043473139
 21
199.9463430726
 31
0.0
  0
LINE
  5
DA
100
AcDbEntity
  8
0
370
        15
390
0
  6
Continuous
 62
         7
100
AcDbLine
 10
188.9488466796
 20
207.1963424869
 30
0.0
 11
185.8043473251
 21
207.1963424869
 31
0.0
  0
LINE
  5
DB
100
AcDbEntity
  8
0
370
        15
390
0
  6
Continuous
 62
         7
100
AcDbLine
 10
205.2418467281
 20
190.9033424383
 30
0.0
 11
188.9488466796
 21
207.1963424869
 31
0.0
  0
CIRCLE
  5
DC
100
AcDbEntity
  8
0
370
        15
390
0
  6
Continuous
 62
         7
100
AcDbCircle
 10
201.2418473139
 20
129.6963430726
 30
0.0
 40
0.844
  0
DIMENSION
  5
E8
100
AcDbEntity
  8
0
390
0
100
AcDbDimension
  2
*D1
 10
164.1062524253
 20
120.1776281931
 30
0.0
 11
123.1475605386
 21
222.626162788
 31
0.0
 70
       163
 71
         5
 72
         1
 41
1.0
 42
0.0
  1
<>
  3
SLDDIMSTYLE0
100
AcDbDiametricDimension
 15
143.3774422024
 25
191.215057952
 35
0.0
 40
0.0
  0
DIMENSION
  5
F6
100
AcDbEntity
  8
0
390
0
 62
         7
100
AcDbDimension
  2
*D2
 10
205.2418473139
 20
91.3752814195
 30
0.0
 11
222.0398123995
 21
91.3752814195
 31
0.0
 70
       160
 71
         5
 72
         1
 41
1.0
 42
0.0
  3
SLDDIMSTYLE1
100
AcDbAlignedDimension
 13
188.9488473139
 23
104.1963430726
 33
0.0
 14
205.2418473139
 24
120.4893430726
 34
0.0
100
AcDbRotatedDimension
  0
DIMENSION
  5
103
100
AcDbEntity
  8
0
390
0
 62
         7
100
AcDbDimension
  2
*D3
 10
205.2418473139
 20
70.1134662902
 30
0.0
 11
179.4918473139
 21
70.1134662902
 31
0.0
 70
       160
 71
         5
 72
         1
 41
1.0
 42
0.0
  3
SLDDIMSTYLE1
100
AcDbAlignedDimension
 13
153.7418473139
 23
155.6963430726
 33
0.0
 14
205.2418473139
 24
120.4893430726
 34
0.0
100
AcDbRotatedDimension
  0
DIMENSION
  5
110
100
AcDbEntity
  8
0
390
0
 62
         7
100
AcDbDimension
  2
*D4
 10
102.2418473139
 20
61.3004191247
 30
0.0
 11
153.7418473139
 21
61.3004191247
 31
0.0
 70
       160
 71
         5
 72
         1
 41
1.0
 42
0.0
  3
SLDDIMSTYLE1
100
AcDbAlignedDimension
 13
205.2418473139
 23
120.4893430726
 33
0.0
 14
102.2418473139
 24
120.4893430726
 34
0.0
100
AcDbRotatedDimension
  0
DIMENSION
  5
11E
100
AcDbEntity
  8
0
390
0
 62
         7
100
AcDbDimension
  2
*D5
 10
173.2063139278
 20
104.1963430726
 30
0.0
 11
173.2063139278
 21
91.3752814195
 31
0.0
 70
       160
 71
         5
 72
         1
 41
1.0
 42
0.0
  1
<>\P2 PLACES
  3
SLDDIMSTYLE1
100
AcDbAlignedDimension
 13
177.2413473139
 23
111.9463430726
 33
0.0
 14
176.7413473139
 24
104.1963430726
 34
0.0
 50
90.0
100
AcDbRotatedDimension
  0
DIMENSION
  5
12C
100
AcDbEntity
  8
0
390
0
 62
         7
100
AcDbDimension
  2
*D6
 10
185.8043473139
 20
78.5508754136
 30
0.0
 11
222.0398123995
 21
78.5508754136
 31
0.0
 70
       160
 71
         5
 72
         1
 41
1.0
 42
0.0
  1
<>\P2 PLACES
  3
SLDDIMSTYLE1
100
AcDbAlignedDimension
 13
176.7413473139
 23
104.1963430726
 33
0.0
 14
185.8043473139
 24
104.1963430726
 34
0.0
100
AcDbRotatedDimension
  0
DIMENSION
  5
13A
100
AcDbEntity
  8
0
390
0
 62
         7
100
AcDbDimension
  2
*D7
 10
95.5605089538
 20
146.6963430726
 30
0.0
 11
95.5605089538
 21
182.2810108846
 31
0.0
 70
       160
 71
         5
 72
         1
 41
1.0
 42
0.0
  3
SLDDIMSTYLE1
100
AcDbAlignedDimension
 13
102.2418473139
 23
164.7593430726
 33
0.0
 14
102.2418473139
 24
146.6963430726
 34
0.0
 50
-90.0
100
AcDbRotatedDimension
  0
DIMENSION
  5
146
100
AcDbEntity
  8
0
390
0
 62
         7
100
AcDbDimension
  2
*D8
 10
102.2418473139
 20
137.1965363722
 30
0.0
 11
93.3032870712
 21
137.1965363722
 31
0.0
 70
       160
 71
         5
 72
         1
 41
1.0
 42
0.0
  3
SLDDIMSTYLE1
100
AcDbAlignedDimension
 13
106.2418473139
 23
147.6963430726
 33
0.0
 14
102.2418473139
 24
146.6963430726
 34
0.0
100
AcDbRotatedDimension
  0
DIMENSION
  5
153
100
AcDbEntity
  8
0
390
0
 62
         7
100
AcDbDimension
  2
*D9
 10
51.3226792453
 20
104.1963430726
 30
0.0
 11
51.3226792453
 21
155.6963430726
 31
0.0
 70
       160
 71
         5
 72
         1
 41
1.0
 42
0.0
  3
SLDDIMSTYLE1
100
AcDbAlignedDimension
 13
118.5348473139
 23
207.1963430726
 33
0.0
 14
118.5348473139
 24
104.1963430726
 34
0.0
 50
-90.0
100
AcDbRotatedDimension
  0
DIMENSION
  5
160
100
AcDbEntity
  8
0
390
0
100
AcDbDimension
  2
*D10
 10
185.3043473139
 20
199.9463430726
 30
0.0
 11
163.3993932514
 21
219.8615318254
 31
0.0
 70
       164
 71
         5
 72
         1
 41
1.0
 42
0.0
  1
RAD <>\P4 PLACES
  3
SLDDIMSTYLE2
100
AcDbRadialDimension
 15
185.4992452287
 25
199.4858924207
 35
0.0
 40
0.0
  0
DIMENSION
  5
16F
100
AcDbEntity
  8
0
390
0
100
AcDbDimension
  2
*D11
 10
199.5808494674
 20
217.8283452261
 30
0.0
 11
209.586689893
 21
207.8225048006
 31
0.0
 70
       160
 71
         5
 72
         1
 41
1.0
 42
0.0
  1
(<>)
  3
SLDDIMSTYLE1
100
AcDbAlignedDimension
 13
205.2418473139
 23
190.9033430726
 33
0.0
 14
188.9488473139
 24
207.1963430726
 34
0.0
 50
-45.0
100
AcDbRotatedDimension
  0
DIMENSION
  5
17C
100
AcDbEntity
  8
0
390
0
100
AcDbDimension
  2
*D12
 10
71.8362264151
 20
155.6963430726
 30
0.0
 11
71.8362264151
 21
129.9463430726
 31
0.0
 70
       160
 71
         5
 72
         1
 41
1.0
 42
0.0
  3
SLDDIMSTYLE1
100
AcDbAlignedDimension
 13
118.5348473139
 23
104.1963430726
 33
0.0
 14
153.7418473139
 24
155.6963430726
 34
0.0
 50
90.0
100
AcDbRotatedDimension
  0
DIMENSION
  5
189
100
AcDbEntity
  8
0
390
0
100
AcDbDimension
  2
*D13
 10
176.7413473139
 20
78.5508754136
 30
0.0
 11
138.0735154378
 21
78.5508754136
 31
0.0
 70
       160
 71
         5
 72
         1
 41
1.0
 42
0.0
  3
SLDDIMSTYLE1
100
AcDbAlignedDimension
 13
153.7418473139
 23
155.6963430726
 33
0.0
 14
176.7413473139
 24
104.1963430726
 34
0.0
 50
180.0
100
AcDbRotatedDimension
  0
DIMENSION
  5
197
100
AcDbEntity
  8
0
390
0
100
AcDbDimension
  2
*D14
 10
86.9514716981
 20
146.6963430726
 30
0.0
 11
86.9514716981
 21
171.1501193303
 31
0.0
 70
       160
 71
         5
 72
         1
 41
1.0
 42
0.0
  3
SLDDIMSTYLE1
100
AcDbAlignedDimension
 13
153.7418473139
 23
155.6963430726
 33
0.0
 14
102.2418473139
 24
146.6963430726
 34
0.0
 50
90.0
100
AcDbRotatedDimension
  0
DIMENSION
  5
1A9
100
AcDbEntity
  8
0
390
0
100
AcDbDimension
  2
*D15
 10
205.2418473139
 20
120.4893430726
 30
0.0
 11
214.0041765777
 21
169.7492089259
 31
0.0
 70
       162
 71
         5
 72
         1
 41
1.0
 42
0.0
  1
(<> TYP)
  3
SLDDIMSTYLE3
100
AcDb2LineAngularDimension
 13
188.9488473139
 23
207.1963430726
 33
0.0
 14
205.2418473139
 24
190.9033430726
 34
0.0
 15
205.2418473139
 25
190.9033430726
 35
0.0
 16
209.7088440352
 26
168.4462340441
 36
0.0
  0
DIMENSION
  5
1B6
100
AcDbEntity
  8
0
390
0
100
AcDbDimension
  2
*D16
 10
220.5542958847
 20
135.6963430726
 30
0.0
 11
220.5542958847
 21
144.6654948259
 31
0.0
 70
       160
 71
         5
 72
         1
 41
1.0
 42
0.0
  3
SLDDIMSTYLE1
100
AcDbAlignedDimension
 13
153.7418473139
 23
155.6963430726
 33
0.0
 14
201.2418473139
 24
135.6963430726
 34
0.0
 50
90.0
100
AcDbRotatedDimension
  0
DIMENSION
  5
1C3
100
AcDbEntity
  8
0
390
0
100
AcDbDimension
  2
*D17
 10
234.1111975234
 20
129.6963430726
 30
0.0
 11
234.1111975234
 21
140.5582525359
 31
0.0
 70
       160
 71
         5
 72
         1
 41
1.0
 42
0.0
  3
SLDDIMSTYLE1
100
AcDbAlignedDimension
 13
153.7418473139
 23
155.6963430726
 33
0.0
 14
201.2418473139
 24
129.6963430726
 34
0.0
 50
90.0
100
AcDbRotatedDimension
  0
DIMENSION
  5
1D0
100
AcDbEntity
  8
0
390
0
100
AcDbDimension
  2
*D18
 10
201.2418473139
 20
162.9068373741
 30
0.0
 11
176.3936032873
 21
162.9068373741
 31
0.0
 70
       160
 71
         5
 72
         1
 41
1.0
 42
0.0
  3
SLDDIMSTYLE1
100
AcDbAlignedDimension
 13
153.7418473139
 23
155.6963430726
 33
0.0
 14
201.2418473139
 24
129.6963430726
 34
0.0
100
AcDbRotatedDimension
  0
DIMENSION
  5
1DD
100
AcDbEntity
  8
0
390
0
100
AcDbDimension
  2
*D19
 10
200.7142674667
 20
130.3551264246
 30
0.0
 11
246.7920438424
 21
95.2733599735
 31
0.0
 70
       163
 71
         5
 72
         1
 41
1.0
 42
0.0
  1
%%c <>\PFOR 1-1/4\PCONDUIT FITTING
  3
SLDDIMSTYLE0
100
AcDbDiametricDimension
 15
201.769427161
 25
129.0375597205
 35
0.0
 40
0.0
  0
DIMENSION
  5
1EA
100
AcDbEntity
  8
0
390
0
100
AcDbDimension
  2
*D20
 10
200.7361640443
 20
135.9035788824
 30
0.0
 11
251.5453449653
 21
122.4509295505
 31
0.0
 70
       163
 71
         5
 72
         1
 41
1.0
 42
0.0
  1
%%c <>\PFOR 3/4\PCONDUIT FITTING
  3
SLDDIMSTYLE0
100
AcDbDiametricDimension
 15
201.7475305834
 25
135.4891072627
 35
0.0
 40
0.0
  0
DIMENSION
  5
1F8
100
AcDbEntity
  8
0
390
0
100
AcDbDimension
  2
*D21
 10
227.4166176852
 20
104.1963430726
 30
0.0
 11
227.4166176852
 21
112.614491761
 31
0.0
 70
       160
 71
         5
 72
         1
 41
1.0
 42
0.0
  1
<> TYP
  3
SLDDIMSTYLE1
100
AcDbAlignedDimension
 13
205.2418473139
 23
120.4893430726
 33
0.0
 14
188.9488473139
 24
104.1963430726
 34
0.0
 50
90.0
100
AcDbRotatedDimension
  0
DIMENSION
  5
205
100
AcDbEntity
  8
0
390
0
100
AcDbDimension
  2
*D22
 10
105.2418473139
 20
163.7593430726
 30
0.0
 11
130.4276934161
 21
168.3559053428
 31
0.0
 70
       164
 71
         5
 72
         1
 41
1.0
 42
0.0
  1
RAD <>\P2 PLACES
  3
SLDDIMSTYLE4
100
AcDbRadialDimension
 15
106.173857747
 25
164.1217745179
 35
0.0
 40
0.0
  0
POLYLINE
  5
206
100
AcDbEntity
  8
0
390
0
  6
Continuous
 62
         7
100
AcDb2dPolyline
 66
         1
 10
0.0
 20
0.0
 30
0.0
 70
       128
 40
0.1299212598
 41
0.1299212598
  0
VERTEX
  5
207
100
AcDbEntity
  8
0
390
0
100
AcDbVertex
100
AcDb2dVertex
 10
317.8549021946
 20
144.5799722867
 30
0.0
  0
VERTEX
  5
208
100
AcDbEntity
  8
0
390
0
100
AcDbVertex
100
AcDb2dVertex
 10
317.9009595843
 20
144.5573561219
 30
0.0
  0
VERTEX
  5
209
100
AcDbEntity
  8
0
390
0
100
AcDbVertex
100
AcDb2dVertex
 10
317.95270491
 20
144.5392979042
 30
0.0
  0
VERTEX
  5
20A
100
AcDbEntity
  8
0
390
0
100
AcDbVertex
100
AcDb2dVertex
 10
318.0087979951
 20
144.526265332
 30
0.0
  0
VERTEX
  5
20B
100
AcDbEntity
  8
0
390
0
100
AcDbVertex
100
AcDb2dVertex
 10
318.067786058
 20
144.518595942
 30
0.0
  0
VERTEX
  5
20C
100
AcDbEntity
  8
0
390
0
100
AcDbVertex
100
AcDb2dVertex
 10
318.1281413391
 20
144.5164883673
 30
0.0
  0
VERTEX
  5
20D
100
AcDbEntity
  8
0
390
0
100
AcDbVertex
100
AcDb2dVertex
 10
318.1883006681
 20
144.5199971932
 30
0.0
  0
VERTEX
  5
20E
100
AcDbEntity
  8
0
390
0
100
AcDbVertex
100
AcDb2dVertex
 10
318.24670595
 20
144.5290315427
 30
0.0
  0
VERTEX
  5
20F
100
AcDbEntity
  8
0
390
0
100
AcDbVertex
100
AcDb2dVertex
 10
318.3018445188
 20
144.5433574311
 30
0.0
  0
VERTEX
  5
210
100
AcDbEntity
  8
0
390
0
100
AcDbVertex
100
AcDb2dVertex
 10
318.3522883145
 20
144.5626038253
 30
0.0
  0
VERTEX
  5
211
100
AcDbEntity
  8
0
390
0
100
AcDbVertex
100
AcDb2dVertex
 10
318.3967308692
 20
144.5862722539
 30
0.0
  0
VERTEX
  5
212
100
AcDbEntity
  8
0
390
0
100
AcDbVertex
100
AcDb2dVertex
 10
318.4340211442
 20
144.6137497169
 30
0.0
  0
VERTEX
  5
213
100
AcDbEntity
  8
0
390
0
100
AcDbVertex
100
AcDb2dVertex
 10
318.4631933409
 20
144.6443245625
 30
0.0
  0
VERTEX
  5
214
100
AcDbEntity
  8
0
390
0
100
AcDbVertex
100
AcDb2dVertex
 10
318.4834919146
 20
144.6772049183
 30
0.0
  0
VERTEX
  5
215
100
AcDbEntity
  8
0
390
0
100
AcDbVertex
100
AcDb2dVertex
 10
318.4943911432
 20
144.7115392003
 30
0.0
  0
VERTEX
  5
216
100
AcDbEntity
  8
0
390
0
100
AcDbVertex
100
AcDb2dVertex
 10
318.4956087421
 20
144.7464381686
 30
0.0
  0
VERTEX
  5
217
100
AcDbEntity
  8
0
390
0
100
AcDbVertex
100
AcDb2dVertex
 10
318.4871131763
 20
144.7809979584
 30
0.0
  0
VERTEX
  5
218
100
AcDbEntity
  8
0
390
0
100
AcDbVertex
100
AcDb2dVertex
 10
318.4691244765
 20
144.8143234891
 30
0.0
  0
VERTEX
  5
219
100
AcDbEntity
  8
0
390
0
100
AcDbVertex
100
AcDb2dVertex
 10
318.4421085405
 20
144.8455516472
 30
0.0
  0
VERTEX
  5
21A
100
AcDbEntity
  8
0
390
0
100
AcDbVertex
100
AcDb2dVertex
 10
318.4067650669
 20
144.8738736395
 30
0.0
  0
VERTEX
  5
21B
100
AcDbEntity
  8
0
390
0
100
AcDbVertex
100
AcDb2dVertex
 10
318.3640094331
 20
144.8985559416
 30
0.0
  0
VERTEX
  5
21C
100
AcDbEntity
  8
0
390
0
100
AcDbVertex
100
AcDb2dVertex
 10
318.3149489875
 20
144.9189592946
 30
0.0
  0
VERTEX
  5
21D
100
AcDbEntity
  8
0
390
0
100
AcDbVertex
100
AcDb2dVertex
 10
318.2608543699
 20
144.9345552625
 30
0.0
  0
VERTEX
  5
21E
100
AcDbEntity
  8
0
390
0
100
AcDbVertex
100
AcDb2dVertex
 10
318.2031266025
 20
144.9449399178
 30
0.0
  0
VERTEX
  5
21F
100
AcDbEntity
  8
0
390
0
100
AcDbVertex
100
AcDb2dVertex
 10
318.1432608042
 20
144.9498443036
 30
0.0
  0
VERTEX
  5
220
100
AcDbEntity
  8
0
390
0
100
AcDbVertex
100
AcDb2dVertex
 10
318.0828074676
 20
144.9491413987
 30
0.0
  0
VERTEX
  5
221
100
AcDbEntity
  8
0
390
0
100
AcDbVertex
100
AcDb2dVertex
 10
318.0233323025
 20
144.942849408
 30
0.0
  0
VERTEX
  5
222
100
AcDbEntity
  8
0
390
0
100
AcDbVertex
100
AcDb2dVertex
 10
317.9663756843
 20
144.9311312908
 30
0.0
  0
VERTEX
  5
223
100
AcDbEntity
  8
0
390
0
100
AcDbVertex
100
AcDb2dVertex
 10
317.9134127597
 20
144.9142905401
 30
0.0
  0
VERTEX
  5
224
100
AcDbEntity
  8
0
390
0
100
AcDbVertex
100
AcDb2dVertex
 10
317.8658152404
 20
144.8927633226
 30
0.0
  0
VERTEX
  5
225
100
AcDbEntity
  8
0
390
0
100
AcDbVertex
100
AcDb2dVertex
 10
317.8248158772
 20
144.8671071818
 30
0.0
  0
VERTEX
  5
226
100
AcDbEntity
  8
0
390
0
100
AcDbVertex
100
AcDb2dVertex
 10
317.7914765322
 20
144.8379865985
 30
0.0
  0
VERTEX
  5
227
100
AcDbEntity
  8
0
390
0
100
AcDbVertex
100
AcDb2dVertex
 10
317.7666606768
 20
144.8061557802
 30
0.0
  0
VERTEX
  5
228
100
AcDbEntity
  8
0
390
0
100
AcDbVertex
100
AcDb2dVertex
 10
317.7510110287
 20
144.7724391286
 30
0.0
  0
VERTEX
  5
229
100
AcDbEntity
  8
0
390
0
100
AcDbVertex
100
AcDb2dVertex
 10
317.7449329055
 20
144.7377098872
 30
0.0
  0
VERTEX
  5
22A
100
AcDbEntity
  8
0
390
0
100
AcDbVertex
100
AcDb2dVertex
 10
317.7485837274
 20
144.7028675251
 30
0.0
  0
VERTEX
  5
22B
100
AcDbEntity
  8
0
390
0
100
AcDbVertex
100
AcDb2dVertex
 10
317.76186894
 20
144.6688144412
 30
0.0
  0
VERTEX
  5
22C
100
AcDbEntity
  8
0
390
0
100
AcDbVertex
100
AcDb2dVertex
 10
317.7844444634
 20
144.6364325925
 30
0.0
  0
VERTEX
  5
22D
100
AcDbEntity
  8
0
390
0
100
AcDbVertex
100
AcDb2dVertex
 10
317.8157256033
 20
144.6065606518
 30
0.0
  0
VERTEX
  5
22E
100
AcDbEntity
  8
0
390
0
100
AcDbVertex
100
AcDb2dVertex
 10
317.8549021946
 20
144.5799722867
 30
0.0
  0
SEQEND
  5
22F
100
AcDbEntity
  8
0
390
0
  0
POLYLINE
  5
230
100
AcDbEntity
  8
0
390
0
  6
Continuous
 62
         7
100
AcDb2dPolyline
 66
         1
 10
0.0
 20
0.0
 30
0.0
 70
       128
 40
0.1299212598
 41
0.1299212598
  0
VERTEX
  5
231
100
AcDbEntity
  8
0
390
0
100
AcDbVertex
100
AcDb2dVertex
 10
286.7648091424
 20
153.2928710017
 30
0.0
  0
VERTEX
  5
232
100
AcDbEntity
  8
0
390
0
100
AcDbVertex
100
AcDb2dVertex
 10
287.2418183696
 20
153.0246158992
 30
0.0
  0
VERTEX
  5
233
100
AcDbEntity
  8
0
390
0
100
AcDbVertex
100
AcDb2dVertex
 10
287.7308280895
 20
152.7636611082
 30
0.0
  0
VERTEX
  5
234
100
AcDbEntity
  8
0
390
0
100
AcDbVertex
100
AcDb2dVertex
 10
288.2315031594
 20
152.5101854742
 30
0.0
  0
VERTEX
  5
235
100
AcDbEntity
  8
0
390
0
100
AcDbVertex
100
AcDb2dVertex
 10
288.7435004415
 20
152.2643627167
 30
0.0
  0
VERTEX
  5
236
100
AcDbEntity
  8
0
390
0
100
AcDbVertex
100
AcDb2dVertex
 10
289.2664690384
 20
152.0263613102
 30
0.0
  0
VERTEX
  5
237
100
AcDbEntity
  8
0
390
0
100
AcDbVertex
100
AcDb2dVertex
 10
289.8000505336
 20
151.7963443692
 30
0.0
  0
VERTEX
  5
238
100
AcDbEntity
  8
0
390
0
100
AcDbVertex
100
AcDb2dVertex
 10
290.343879237
 20
151.5744695356
 30
0.0
  0
VERTEX
  5
239
100
AcDbEntity
  8
0
390
0
100
AcDbVertex
100
AcDb2dVertex
 10
290.8975824356
 20
151.3608888715
 30
0.0
  0
VERTEX
  5
23A
100
AcDbEntity
  8
0
390
0
100
AcDbVertex
100
AcDb2dVertex
 10
291.4607806488
 20
151.1557487544
 30
0.0
  0
VERTEX
  5
23B
100
AcDbEntity
  8
0
390
0
100
AcDbVertex
100
AcDb2dVertex
 10
292.0330878888
 20
150.959189777
 30
0.0
  0
VERTEX
  5
23C
100
AcDbEntity
  8
0
390
0
100
AcDbVertex
100
AcDb2dVertex
 10
292.6141119247
 20
150.7713466511
 30
0.0
  0
VERTEX
  5
23D
100
AcDbEntity
  8
0
390
0
100
AcDbVertex
100
AcDb2dVertex
 10
293.2034545517
 20
150.5923481149
 30
0.0
  0
VERTEX
  5
23E
100
AcDbEntity
  8
0
390
0
100
AcDbVertex
100
AcDb2dVertex
 10
293.8007118637
 20
150.4223168451
 30
0.0
  0
VERTEX
  5
23F
100
AcDbEntity
  8
0
390
0
100
AcDbVertex
100
AcDb2dVertex
 10
294.4054745305
 20
150.2613693726
 30
0.0
  0
VERTEX
  5
240
100
AcDbEntity
  8
0
390
0
100
AcDbVertex
100
AcDb2dVertex
 10
295.017328078
 20
150.1096160029
 30
0.0
  0
VERTEX
  5
241
100
AcDbEntity
  8
0
390
0
100
AcDbVertex
100
AcDb2dVertex
 10
295.6358531722
 20
149.96716074
 30
0.0
  0
VERTEX
  5
242
100
AcDbEntity
  8
0
390
0
100
AcDbVertex
100
AcDb2dVertex
 10
296.260625907
 20
149.8341012157
 30
0.0
  0
VERTEX
  5
243
100
AcDbEntity
  8
0
390
0
100
AcDbVertex
100
AcDb2dVertex
 10
296.8912180944
 20
149.7105286224
 30
0.0
  0
VERTEX
  5
244
100
AcDbEntity
  8
0
390
0
100
AcDbVertex
100
AcDb2dVertex
 10
297.5271975579
 20
149.5965276505
 30
0.0
  0
VERTEX
  5
245
100
AcDbEntity
  8
0
390
0
100
AcDbVertex
100
AcDb2dVertex
 10
298.168128429
 20
149.4921764306
 30
0.0
  0
VERTEX
  5
246
100
AcDbEntity
  8
0
390
0
100
AcDbVertex
100
AcDb2dVertex
 10
298.8135714457
 20
149.3975464799
 30
0.0
  0
VERTEX
  5
247
100
AcDbEntity
  8
0
390
0
100
AcDbVertex
100
AcDb2dVertex
 10
299.4630842536
 20
149.3127026529
 30
0.0
  0
VERTEX
  5
248
100
AcDbEntity
  8
0
390
0
100
AcDbVertex
100
AcDb2dVertex
 10
300.1162217091
 20
149.2377030973
 30
0.0
  0
VERTEX
  5
249
100
AcDbEntity
  8
0
390
0
100
AcDbVertex
100
AcDb2dVertex
 10
300.7725361843
 20
149.1725992143
 30
0.0
  0
VERTEX
  5
24A
100
AcDbEntity
  8
0
390
0
100
AcDbVertex
100
AcDb2dVertex
 10
301.4315778742
 20
149.1174356226
 30
0.0
  0
VERTEX
  5
24B
100
AcDbEntity
  8
0
390
0
100
AcDbVertex
100
AcDb2dVertex
 10
302.0928951044
 20
149.0722501286
 30
0.0
  0
VERTEX
  5
24C
100
AcDbEntity
  8
0
390
0
100
AcDbVertex
100
AcDb2dVertex
 10
302.7560346412
 20
149.0370737003
 30
0.0
  0
VERTEX
  5
24D
100
AcDbEntity
  8
0
390
0
100
AcDbVertex
100
AcDb2dVertex
 10
303.4205420019
 20
149.0119304457
 30
0.0
  0
VERTEX
  5
24E
100
AcDbEntity
  8
0
390
0
100
AcDbVertex
100
AcDb2dVertex
 10
304.0859617662
 20
148.996837597
 30
0.0
  0
VERTEX
  5
24F
100
AcDbEntity
  8
0
390
0
100
AcDbVertex
100
AcDb2dVertex
 10
304.7518378888
 20
148.9918054978
 30
0.0
  0
VERTEX
  5
250
100
AcDbEntity
  8
0
390
0
100
AcDbVertex
100
AcDb2dVertex
 10
305.4177140114
 20
148.996837597
 30
0.0
  0
VERTEX
  5
251
100
AcDbEntity
  8
0
390
0
100
AcDbVertex
100
AcDb2dVertex
 10
306.0831337757
 20
149.0119304457
 30
0.0
  0
VERTEX
  5
252
100
AcDbEntity
  8
0
390
0
100
AcDbVertex
100
AcDb2dVertex
 10
306.7476411364
 20
149.0370737003
 30
0.0
  0
VERTEX
  5
253
100
AcDbEntity
  8
0
390
0
100
AcDbVertex
100
AcDb2dVertex
 10
307.4107806732
 20
149.0722501286
 30
0.0
  0
VERTEX
  5
254
100
AcDbEntity
  8
0
390
0
100
AcDbVertex
100
AcDb2dVertex
 10
308.0720979034
 20
149.1174356226
 30
0.0
  0
VERTEX
  5
255
100
AcDbEntity
  8
0
390
0
100
AcDbVertex
100
AcDb2dVertex
 10
308.7311395932
 20
149.1725992143
 30
0.0
  0
VERTEX
  5
256
100
AcDbEntity
  8
0
390
0
100
AcDbVertex
100
AcDb2dVertex
 10
309.3874540685
 20
149.2377030973
 30
0.0
  0
VERTEX
  5
257
100
AcDbEntity
  8
0
390
0
100
AcDbVertex
100
AcDb2dVertex
 10
310.040591524
 20
149.3127026529
 30
0.0
  0
VERTEX
  5
258
100
AcDbEntity
  8
0
390
0
100
AcDbVertex
100
AcDb2dVertex
 10
310.6901043319
 20
149.3975464799
 30
0.0
  0
VERTEX
  5
259
100
AcDbEntity
  8
0
390
0
100
AcDbVertex
100
AcDb2dVertex
 10
311.3355473486
 20
149.4921764306
 30
0.0
  0
VERTEX
  5
25A
100
AcDbEntity
  8
0
390
0
100
AcDbVertex
100
AcDb2dVertex
 10
311.9764782197
 20
149.5965276505
 30
0.0
  0
VERTEX
  5
25B
100
AcDbEntity
  8
0
390
0
100
AcDbVertex
100
AcDb2dVertex
 10
312.6124576832
 20
149.7105286224
 30
0.0
  0
VERTEX
  5
25C
100
AcDbEntity
  8
0
390
0
100
AcDbVertex
100
AcDb2dVertex
 10
313.2430498705
 20
149.8341012157
 30
0.0
  0
VERTEX
  5
25D
100
AcDbEntity
  8
0
390
0
100
AcDbVertex
100
AcDb2dVertex
 10
313.8678226053
 20
149.96716074
 30
0.0
  0
VERTEX
  5
25E
100
AcDbEntity
  8
0
390
0
100
AcDbVertex
100
AcDb2dVertex
 10
314.4863476996
 20
150.1096160029
 30
0.0
  0
VERTEX
  5
25F
100
AcDbEntity
  8
0
390
0
100
AcDbVertex
100
AcDb2dVertex
 10
315.098201247
 20
150.2613693726
 30
0.0
  0
VERTEX
  5
260
100
AcDbEntity
  8
0
390
0
100
AcDbVertex
100
AcDb2dVertex
 10
315.7029639138
 20
150.4223168451
 30
0.0
  0
VERTEX
  5
261
100
AcDbEntity
  8
0
390
0
100
AcDbVertex
100
AcDb2dVertex
 10
316.3002212259
 20
150.5923481149
 30
0.0
  0
VERTEX
  5
262
100
AcDbEntity
  8
0
390
0
100
AcDbVertex
100
AcDb2dVertex
 10
316.8895638529
 20
150.7713466511
 30
0.0
  0
VERTEX
  5
263
100
AcDbEntity
  8
0
390
0
100
AcDbVertex
100
AcDb2dVertex
 10
317.4705878888
 20
150.959189777
 30
0.0
  0
VERTEX
  5
264
100
AcDbEntity
  8
0
390
0
100
AcDbVertex
100
AcDb2dVertex
 10
318.0428951287
 20
151.1557487544
 30
0.0
  0
VERTEX
  5
265
100
AcDbEntity
  8
0
390
0
100
AcDbVertex
100
AcDb2dVertex
 10
318.606093342
 20
151.3608888715
 30
0.0
  0
VERTEX
  5
266
100
AcDbEntity
  8
0
390
0
100
AcDbVertex
100
AcDb2dVertex
 10
319.1597965406
 20
151.5744695356
 30
0.0
  0
VERTEX
  5
267
100
AcDbEntity
  8
0
390
0
100
AcDbVertex
100
AcDb2dVertex
 10
319.703625244
 20
151.7963443692
 30
0.0
  0
VERTEX
  5
268
100
AcDbEntity
  8
0
390
0
100
AcDbVertex
100
AcDb2dVertex
 10
320.2372067392
 20
152.0263613102
 30
0.0
  0
VERTEX
  5
269
100
AcDbEntity
  8
0
390
0
100
AcDbVertex
100
AcDb2dVertex
 10
320.7601753361
 20
152.2643627167
 30
0.0
  0
VERTEX
  5
26A
100
AcDbEntity
  8
0
390
0
100
AcDbVertex
100
AcDb2dVertex
 10
321.2721726182
 20
152.5101854742
 30
0.0
  0
VERTEX
  5
26B
100
AcDbEntity
  8
0
390
0
100
AcDbVertex
100
AcDb2dVertex
 10
321.772847688
 20
152.7636611082
 30
0.0
  0
VERTEX
  5
26C
100
AcDbEntity
  8
0
390
0
100
AcDbVertex
100
AcDb2dVertex
 10
322.261857408
 20
153.0246158992
 30
0.0
  0
VERTEX
  5
26D
100
AcDbEntity
  8
0
390
0
100
AcDbVertex
100
AcDb2dVertex
 10
322.7388666352
 20
153.2928710017
 30
0.0
  0
VERTEX
  5
26E
100
AcDbEntity
  8
0
390
0
100
AcDbVertex
100
AcDb2dVertex
 10
323.2035484514
 20
153.5682425671
 30
0.0
  0
VERTEX
  5
26F
100
AcDbEntity
  8
0
390
0
100
AcDbVertex
100
AcDb2dVertex
 10
323.6555843869
 20
153.8505418696
 30
0.0
  0
VERTEX
  5
270
100
AcDbEntity
  8
0
390
0
100
AcDbVertex
100
AcDb2dVertex
 10
324.0946646387
 20
154.1395754351
 30
0.0
  0
VERTEX
  5
271
100
AcDbEntity
  8
0
390
0
100
AcDbVertex
100
AcDb2dVertex
 10
324.5204882833
 20
154.4351451747
 30
0.0
  0
VERTEX
  5
272
100
AcDbEntity
  8
0
390
0
100
AcDbVertex
100
AcDb2dVertex
 10
324.9327634824
 20
154.7370485195
 30
0.0
  0
VERTEX
  5
273
100
AcDbEntity
  8
0
390
0
100
AcDbVertex
100
AcDb2dVertex
 10
325.3312076832
 20
155.0450785601
 30
0.0
  0
VERTEX
  5
274
100
AcDbEntity
  8
0
390
0
100
AcDbVertex
100
AcDb2dVertex
 10
325.7155478119
 20
155.359024188
 30
0.0
  0
VERTEX
  5
275
100
AcDbEntity
  8
0
390
0
100
AcDbVertex
100
AcDb2dVertex
 10
326.0855204609
 20
155.6786702407
 30
0.0
  0
VERTEX
  5
276
100
AcDbEntity
  8
0
390
0
100
AcDbVertex
100
AcDb2dVertex
 10
326.4408720695
 20
156.0037976487
 30
0.0
  0
VERTEX
  5
277
100
AcDbEntity
  8
0
390
0
100
AcDbVertex
100
AcDb2dVertex
 10
326.7813590976
 20
156.3341835859
 30
0.0
  0
VERTEX
  5
278
100
AcDbEntity
  8
0
390
0
100
AcDbVertex
100
AcDb2dVertex
 10
327.1067481921
 20
156.6696016222
 30
0.0
  0
VERTEX
  5
279
100
AcDbEntity
  8
0
390
0
100
AcDbVertex
100
AcDb2dVertex
 10
327.4168163478
 20
157.009821879
 30
0.0
  0
VERTEX
  5
27A
100
AcDbEntity
  8
0
390
0
100
AcDbVertex
100
AcDb2dVertex
 10
327.7113510594
 20
157.3546111862
 30
0.0
  0
VERTEX
  5
27B
100
AcDbEntity
  8
0
390
0
100
AcDbVertex
100
AcDb2dVertex
 10
327.9901504676
 20
157.7037332425
 30
0.0
  0
VERTEX
  5
27C
100
AcDbEntity
  8
0
390
0
100
AcDbVertex
100
AcDb2dVertex
 10
328.253023497
 20
158.056948777
 30
0.0
  0
VERTEX
  5
27D
100
AcDbEntity
  8
0
390
0
100
AcDbVertex
100
AcDb2dVertex
 10
328.4997899878
 20
158.4140157135
 30
0.0
  0
VERTEX
  5
27E
100
AcDbEntity
  8
0
390
0
100
AcDbVertex
100
AcDb2dVertex
 10
328.7302808184
 20
158.7746893362
 30
0.0
  0
VERTEX
  5
27F
100
AcDbEntity
  8
0
390
0
100
AcDbVertex
100
AcDb2dVertex
 10
328.944338022
 20
159.1387224573
 30
0.0
  0
VERTEX
  5
280
100
AcDbEntity
  8
0
390
0
100
AcDbVertex
100
AcDb2dVertex
 10
329.1418148945
 20
159.5058655867
 30
0.0
  0
VERTEX
  5
281
100
AcDbEntity
  8
0
390
0
100
AcDbVertex
100
AcDb2dVertex
 10
329.322576095
 20
159.8758671029
 30
0.0
  0
VERTEX
  5
282
100
AcDbEntity
  8
0
390
0
100
AcDbVertex
100
AcDb2dVertex
 10
329.4864977389
 20
160.2484734253
 30
0.0
  0
VERTEX
  5
283
100
AcDbEntity
  8
0
390
0
100
AcDbVertex
100
AcDb2dVertex
 10
329.6334674825
 20
160.6234291881
 30
0.0
  0
VERTEX
  5
284
100
AcDbEntity
  8
0
390
0
100
AcDbVertex
100
AcDb2dVertex
 10
329.7633845999
 20
161.0004774155
 30
0.0
  0
VERTEX
  5
285
100
AcDbEntity
  8
0
390
0
100
AcDbVertex
100
AcDb2dVertex
 10
329.8761600527
 20
161.3793596973
 30
0.0
  0
VERTEX
  5
286
100
AcDbEntity
  8
0
390
0
100
AcDbVertex
100
AcDb2dVertex
 10
329.97171655
 20
161.7598163666
 30
0.0
  0
VERTEX
  5
287
100
AcDbEntity
  8
0
390
0
100
AcDbVertex
100
AcDb2dVertex
 10
330.0499886022
 20
162.1415866774
 30
0.0
  0
VERTEX
  5
288
100
AcDbEntity
  8
0
390
0
100
AcDbVertex
100
AcDb2dVertex
 10
330.1109225656
 20
162.5244089834
 30
0.0
  0
VERTEX
  5
289
100
AcDbEntity
  8
0
390
0
100
AcDbVertex
100
AcDb2dVertex
 10
330.1544766791
 20
162.9080209173
 30
0.0
  0
VERTEX
  5
28A
100
AcDbEntity
  8
0
390
0
100
AcDbVertex
100
AcDb2dVertex
 10
330.1806210928
 20
163.2921595706
 30
0.0
  0
VERTEX
  5
28B
100
AcDbEntity
  8
0
390
0
100
AcDbVertex
100
AcDb2dVertex
 10
330.1893378888
 20
163.6765616739
 30
0.0
  0
VERTEX
  5
28C
100
AcDbEntity
  8
0
390
0
100
AcDbVertex
100
AcDb2dVertex
 10
330.1806210928
 20
164.0609637773
 30
0.0
  0
VERTEX
  5
28D
100
AcDbEntity
  8
0
390
0
100
AcDbVertex
100
AcDb2dVertex
 10
330.1544766791
 20
164.4451024306
 30
0.0
  0
VERTEX
  5
28E
100
AcDbEntity
  8
0
390
0
100
AcDbVertex
100
AcDb2dVertex
 10
330.1109225656
 20
164.8287143645
 30
0.0
  0
VERTEX
  5
28F
100
AcDbEntity
  8
0
390
0
100
AcDbVertex
100
AcDb2dVertex
 10
330.0499886022
 20
165.2115366705
 30
0.0
  0
VERTEX
  5
290
100
AcDbEntity
  8
0
390
0
100
AcDbVertex
100
AcDb2dVertex
 10
329.97171655
 20
165.5933069813
 30
0.0
  0
VERTEX
  5
291
100
AcDbEntity
  8
0
390
0
100
AcDbVertex
100
AcDb2dVertex
 10
329.8761600527
 20
165.9737636506
 30
0.0
  0
VERTEX
  5
292
100
AcDbEntity
  8
0
390
0
100
AcDbVertex
100
AcDb2dVertex
 10
329.7633845999
 20
166.3526459324
 30
0.0
  0
VERTEX
  5
293
100
AcDbEntity
  8
0
390
0
100
AcDbVertex
100
AcDb2dVertex
 10
329.6334674825
 20
166.7296941598
 30
0.0
  0
VERTEX
  5
294
100
AcDbEntity
  8
0
390
0
100
AcDbVertex
100
AcDb2dVertex
 10
329.4864977389
 20
167.1046499226
 30
0.0
  0
VERTEX
  5
295
100
AcDbEntity
  8
0
390
0
100
AcDbVertex
100
AcDb2dVertex
 10
329.322576095
 20
167.477256245
 30
0.0
  0
VERTEX
  5
296
100
AcDbEntity
  8
0
390
0
100
AcDbVertex
100
AcDb2dVertex
 10
329.1418148945
 20
167.8472577612
 30
0.0
  0
VERTEX
  5
297
100
AcDbEntity
  8
0
390
0
100
AcDbVertex
100
AcDb2dVertex
 10
328.944338022
 20
168.2144008906
 30
0.0
  0
VERTEX
  5
298
100
AcDbEntity
  8
0
390
0
100
AcDbVertex
100
AcDb2dVertex
 10
328.7302808184
 20
168.5784340117
 30
0.0
  0
VERTEX
  5
299
100
AcDbEntity
  8
0
390
0
100
AcDbVertex
100
AcDb2dVertex
 10
328.4997899878
 20
168.9391076344
 30
0.0
  0
VERTEX
  5
29A
100
AcDbEntity
  8
0
390
0
100
AcDbVertex
100
AcDb2dVertex
 10
328.253023497
 20
169.2961745709
 30
0.0
  0
VERTEX
  5
29B
100
AcDbEntity
  8
0
390
0
100
AcDbVertex
100
AcDb2dVertex
 10
327.9901504676
 20
169.6493901054
 30
0.0
  0
VERTEX
  5
29C
100
AcDbEntity
  8
0
390
0
100
AcDbVertex
100
AcDb2dVertex
 10
327.7113510594
 20
169.9985121617
 30
0.0
  0
VERTEX
  5
29D
100
AcDbEntity
  8
0
390
0
100
AcDbVertex
100
AcDb2dVertex
 10
327.4168163478
 20
170.3433014689
 30
0.0
  0
VERTEX
  5
29E
100
AcDbEntity
  8
0
390
0
100
AcDbVertex
100
AcDb2dVertex
 10
327.1067481921
 20
170.6835217257
 30
0.0
  0
VERTEX
  5
29F
100
AcDbEntity
  8
0
390
0
100
AcDbVertex
100
AcDb2dVertex
 10
326.7813590976
 20
171.018939762
 30
0.0
  0
VERTEX
  5
2A0
100
AcDbEntity
  8
0
390
0
100
AcDbVertex
100
AcDb2dVertex
 10
326.4408720695
 20
171.3493256992
 30
0.0
  0
VERTEX
  5
2A1
100
AcDbEntity
  8
0
390
0
100
AcDbVertex
100
AcDb2dVertex
 10
326.0855204609
 20
171.6744531072
 30
0.0
  0
VERTEX
  5
2A2
100
AcDbEntity
  8
0
390
0
100
AcDbVertex
100
AcDb2dVertex
 10
325.7155478119
 20
171.9940991599
 30
0.0
  0
VERTEX
  5
2A3
100
AcDbEntity
  8
0
390
0
100
AcDbVertex
100
AcDb2dVertex
 10
325.3312076832
 20
172.3080447878
 30
0.0
  0
VERTEX
  5
2A4
100
AcDbEntity
  8
0
390
0
100
AcDbVertex
100
AcDb2dVertex
 10
324.9327634824
 20
172.6160748284
 30
0.0
  0
VERTEX
  5
2A5
100
AcDbEntity
  8
0
390
0
100
AcDbVertex
100
AcDb2dVertex
 10
324.5204882833
 20
172.9179781732
 30
0.0
  0
VERTEX
  5
2A6
100
AcDbEntity
  8
0
390
0
100
AcDbVertex
100
AcDb2dVertex
 10
324.0946646387
 20
173.2135479128
 30
0.0
  0
VERTEX
  5
2A7
100
AcDbEntity
  8
0
390
0
100
AcDbVertex
100
AcDb2dVertex
 10
323.6555843869
 20
173.5025814783
 30
0.0
  0
VERTEX
  5
2A8
100
AcDbEntity
  8
0
390
0
100
AcDbVertex
100
AcDb2dVertex
 10
323.2035484514
 20
173.7848807808
 30
0.0
  0
VERTEX
  5
2A9
100
AcDbEntity
  8
0
390
0
100
AcDbVertex
100
AcDb2dVertex
 10
322.7388666352
 20
174.0602523462
 30
0.0
  0
VERTEX
  5
2AA
100
AcDbEntity
  8
0
390
0
100
AcDbVertex
100
AcDb2dVertex
 10
322.261857408
 20
174.3285074487
 30
0.0
  0
VERTEX
  5
2AB
100
AcDbEntity
  8
0
390
0
100
AcDbVertex
100
AcDb2dVertex
 10
321.772847688
 20
174.5894622397
 30
0.0
  0
VERTEX
  5
2AC
100
AcDbEntity
  8
0
390
0
100
AcDbVertex
100
AcDb2dVertex
 10
321.2721726182
 20
174.8429378737
 30
0.0
  0
VERTEX
  5
2AD
100
AcDbEntity
  8
0
390
0
100
AcDbVertex
100
AcDb2dVertex
 10
320.7601753361
 20
175.0887606312
 30
0.0
  0
VERTEX
  5
2AE
100
AcDbEntity
  8
0
390
0
100
AcDbVertex
100
AcDb2dVertex
 10
320.2372067392
 20
175.3267620377
 30
0.0
  0
VERTEX
  5
2AF
100
AcDbEntity
  8
0
390
0
100
AcDbVertex
100
AcDb2dVertex
 10
319.703625244
 20
175.5567789787
 30
0.0
  0
VERTEX
  5
2B0
100
AcDbEntity
  8
0
390
0
100
AcDbVertex
100
AcDb2dVertex
 10
319.1597965406
 20
175.7786538123
 30
0.0
  0
VERTEX
  5
2B1
100
AcDbEntity
  8
0
390
0
100
AcDbVertex
100
AcDb2dVertex
 10
318.606093342
 20
175.9922344764
 30
0.0
  0
VERTEX
  5
2B2
100
AcDbEntity
  8
0
390
0
100
AcDbVertex
100
AcDb2dVertex
 10
318.0428951287
 20
176.1973745935
 30
0.0
  0
VERTEX
  5
2B3
100
AcDbEntity
  8
0
390
0
100
AcDbVertex
100
AcDb2dVertex
 10
317.4705878888
 20
176.3939335709
 30
0.0
  0
VERTEX
  5
2B4
100
AcDbEntity
  8
0
390
0
100
AcDbVertex
100
AcDb2dVertex
 10
316.8895638529
 20
176.5817766968
 30
0.0
  0
VERTEX
  5
2B5
100
AcDbEntity
  8
0
390
0
100
AcDbVertex
100
AcDb2dVertex
 10
316.3002212259
 20
176.760775233
 30
0.0
  0
VERTEX
  5
2B6
100
AcDbEntity
  8
0
390
0
100
AcDbVertex
100
AcDb2dVertex
 10
315.7029639138
 20
176.9308065028
 30
0.0
  0
VERTEX
  5
2B7
100
AcDbEntity
  8
0
390
0
100
AcDbVertex
100
AcDb2dVertex
 10
315.098201247
 20
177.0917539753
 30
0.0
  0
VERTEX
  5
2B8
100
AcDbEntity
  8
0
390
0
100
AcDbVertex
100
AcDb2dVertex
 10
314.4863476996
 20
177.243507345
 30
0.0
  0
VERTEX
  5
2B9
100
AcDbEntity
  8
0
390
0
100
AcDbVertex
100
AcDb2dVertex
 10
313.8678226053
 20
177.3859626079
 30
0.0
  0
VERTEX
  5
2BA
100
AcDbEntity
  8
0
390
0
100
AcDbVertex
100
AcDb2dVertex
 10
313.2430498705
 20
177.5190221322
 30
0.0
  0
VERTEX
  5
2BB
100
AcDbEntity
  8
0
390
0
100
AcDbVertex
100
AcDb2dVertex
 10
312.6124576832
 20
177.6425947255
 30
0.0
  0
VERTEX
  5
2BC
100
AcDbEntity
  8
0
390
0
100
AcDbVertex
100
AcDb2dVertex
 10
311.9764782197
 20
177.7565956974
 30
0.0
  0
VERTEX
  5
2BD
100
AcDbEntity
  8
0
390
0
100
AcDbVertex
100
AcDb2dVertex
 10
311.3355473486
 20
177.8609469173
 30
0.0
  0
VERTEX
  5
2BE
100
AcDbEntity
  8
0
390
0
100
AcDbVertex
100
AcDb2dVertex
 10
310.6901043319
 20
177.955576868
 30
0.0
  0
VERTEX
  5
2BF
100
AcDbEntity
  8
0
390
0
100
AcDbVertex
100
AcDb2dVertex
 10
310.040591524
 20
178.040420695
 30
0.0
  0
VERTEX
  5
2C0
100
AcDbEntity
  8
0
390
0
100
AcDbVertex
100
AcDb2dVertex
 10
309.3874540685
 20
178.1154202506
 30
0.0
  0
VERTEX
  5
2C1
100
AcDbEntity
  8
0
390
0
100
AcDbVertex
100
AcDb2dVertex
 10
308.7311395932
 20
178.1805241336
 30
0.0
  0
VERTEX
  5
2C2
100
AcDbEntity
  8
0
390
0
100
AcDbVertex
100
AcDb2dVertex
 10
308.0720979034
 20
178.2356877253
 30
0.0
  0
VERTEX
  5
2C3
100
AcDbEntity
  8
0
390
0
100
AcDbVertex
100
AcDb2dVertex
 10
307.4107806732
 20
178.2808732193
 30
0.0
  0
VERTEX
  5
2C4
100
AcDbEntity
  8
0
390
0
100
AcDbVertex
100
AcDb2dVertex
 10
306.7476411364
 20
178.3160496476
 30
0.0
  0
VERTEX
  5
2C5
100
AcDbEntity
  8
0
390
0
100
AcDbVertex
100
AcDb2dVertex
 10
306.0831337757
 20
178.3411929021
 30
0.0
  0
VERTEX
  5
2C6
100
AcDbEntity
  8
0
390
0
100
AcDbVertex
100
AcDb2dVertex
 10
305.4177140114
 20
178.3562857509
 30
0.0
  0
VERTEX
  5
2C7
100
AcDbEntity
  8
0
390
0
100
AcDbVertex
100
AcDb2dVertex
 10
304.7518378888
 20
178.3613178501
 30
0.0
  0
VERTEX
  5
2C8
100
AcDbEntity
  8
0
390
0
100
AcDbVertex
100
AcDb2dVertex
 10
304.0859617662
 20
178.3562857509
 30
0.0
  0
VERTEX
  5
2C9
100
AcDbEntity
  8
0
390
0
100
AcDbVertex
100
AcDb2dVertex
 10
303.4205420019
 20
178.3411929021
 30
0.0
  0
VERTEX
  5
2CA
100
AcDbEntity
  8
0
390
0
100
AcDbVertex
100
AcDb2dVertex
 10
302.7560346412
 20
178.3160496476
 30
0.0
  0
VERTEX
  5
2CB
100
AcDbEntity
  8
0
390
0
100
AcDbVertex
100
AcDb2dVertex
 10
302.0928951044
 20
178.2808732193
 30
0.0
  0
VERTEX
  5
2CC
100
AcDbEntity
  8
0
390
0
100
AcDbVertex
100
AcDb2dVertex
 10
301.4315778742
 20
178.2356877253
 30
0.0
  0
VERTEX
  5
2CD
100
AcDbEntity
  8
0
390
0
100
AcDbVertex
100
AcDb2dVertex
 10
300.7725361843
 20
178.1805241336
 30
0.0
  0
VERTEX
  5
2CE
100
AcDbEntity
  8
0
390
0
100
AcDbVertex
100
AcDb2dVertex
 10
300.1162217091
 20
178.1154202506
 30
0.0
  0
VERTEX
  5
2CF
100
AcDbEntity
  8
0
390
0
100
AcDbVertex
100
AcDb2dVertex
 10
299.4630842536
 20
178.040420695
 30
0.0
  0
VERTEX
  5
2D0
100
AcDbEntity
  8
0
390
0
100
AcDbVertex
100
AcDb2dVertex
 10
298.8135714457
 20
177.955576868
 30
0.0
  0
VERTEX
  5
2D1
100
AcDbEntity
  8
0
390
0
100
AcDbVertex
100
AcDb2dVertex
 10
298.168128429
 20
177.8609469173
 30
0.0
  0
VERTEX
  5
2D2
100
AcDbEntity
  8
0
390
0
100
AcDbVertex
100
AcDb2dVertex
 10
297.5271975579
 20
177.7565956974
 30
0.0
  0
VERTEX
  5
2D3
100
AcDbEntity
  8
0
390
0
100
AcDbVertex
100
AcDb2dVertex
 10
296.8912180944
 20
177.6425947255
 30
0.0
  0
VERTEX
  5
2D4
100
AcDbEntity
  8
0
390
0
100
AcDbVertex
100
AcDb2dVertex
 10
296.260625907
 20
177.5190221322
 30
0.0
  0
VERTEX
  5
2D5
100
AcDbEntity
  8
0
390
0
100
AcDbVertex
100
AcDb2dVertex
 10
295.6358531722
 20
177.3859626079
 30
0.0
  0
VERTEX
  5
2D6
100
AcDbEntity
  8
0
390
0
100
AcDbVertex
100
AcDb2dVertex
 10
295.017328078
 20
177.243507345
 30
0.0
  0
VERTEX
  5
2D7
100
AcDbEntity
  8
0
390
0
100
AcDbVertex
100
AcDb2dVertex
 10
294.4054745305
 20
177.0917539753
 30
0.0
  0
VERTEX
  5
2D8
100
AcDbEntity
  8
0
390
0
100
AcDbVertex
100
AcDb2dVertex
 10
293.8007118637
 20
176.9308065028
 30
0.0
  0
VERTEX
  5
2D9
100
AcDbEntity
  8
0
390
0
100
AcDbVertex
100
AcDb2dVertex
 10
293.2034545517
 20
176.760775233
 30
0.0
  0
VERTEX
  5
2DA
100
AcDbEntity
  8
0
390
0
100
AcDbVertex
100
AcDb2dVertex
 10
292.6141119247
 20
176.5817766968
 30
0.0
  0
VERTEX
  5
2DB
100
AcDbEntity
  8
0
390
0
100
AcDbVertex
100
AcDb2dVertex
 10
292.0330878888
 20
176.3939335709
 30
0.0
  0
VERTEX
  5
2DC
100
AcDbEntity
  8
0
390
0
100
AcDbVertex
100
AcDb2dVertex
 10
291.4607806488
 20
176.1973745935
 30
0.0
  0
VERTEX
  5
2DD
100
AcDbEntity
  8
0
390
0
100
AcDbVertex
100
AcDb2dVertex
 10
290.8975824356
 20
175.9922344764
 30
0.0
  0
VERTEX
  5
2DE
100
AcDbEntity
  8
0
390
0
100
AcDbVertex
100
AcDb2dVertex
 10
290.343879237
 20
175.7786538123
 30
0.0
  0
VERTEX
  5
2DF
100
AcDbEntity
  8
0
390
0
100
AcDbVertex
100
AcDb2dVertex
 10
289.8000505336
 20
175.5567789787
 30
0.0
  0
VERTEX
  5
2E0
100
AcDbEntity
  8
0
390
0
100
AcDbVertex
100
AcDb2dVertex
 10
289.2664690384
 20
175.3267620377
 30
0.0
  0
VERTEX
  5
2E1
100
AcDbEntity
  8
0
390
0
100
AcDbVertex
100
AcDb2dVertex
 10
288.7435004415
 20
175.0887606312
 30
0.0
  0
VERTEX
  5
2E2
100
AcDbEntity
  8
0
390
0
100
AcDbVertex
100
AcDb2dVertex
 10
288.2315031594
 20
174.8429378737
 30
0.0
  0
VERTEX
  5
2E3
100
AcDbEntity
  8
0
390
0
100
AcDbVertex
100
AcDb2dVertex
 10
287.7308280895
 20
174.5894622397
 30
0.0
  0
VERTEX
  5
2E4
100
AcDbEntity
  8
0
390
0
100
AcDbVertex
100
AcDb2dVertex
 10
287.2418183696
 20
174.3285074487
 30
0.0
  0
VERTEX
  5
2E5
100
AcDbEntity
  8
0
390
0
100
AcDbVertex
100
AcDb2dVertex
 10
286.7648091424
 20
174.0602523462
 30
0.0
  0
VERTEX
  5
2E6
100
AcDbEntity
  8
0
390
0
100
AcDbVertex
100
AcDb2dVertex
 10
286.3001273262
 20
173.7848807808
 30
0.0
  0
VERTEX
  5
2E7
100
AcDbEntity
  8
0
390
0
100
AcDbVertex
100
AcDb2dVertex
 10
285.8480913907
 20
173.5025814783
 30
0.0
  0
VERTEX
  5
2E8
100
AcDbEntity
  8
0
390
0
100
AcDbVertex
100
AcDb2dVertex
 10
285.4090111388
 20
173.2135479128
 30
0.0
  0
VERTEX
  5
2E9
100
AcDbEntity
  8
0
390
0
100
AcDbVertex
100
AcDb2dVertex
 10
284.9831874942
 20
172.9179781732
 30
0.0
  0
VERTEX
  5
2EA
100
AcDbEntity
  8
0
390
0
100
AcDbVertex
100
AcDb2dVertex
 10
284.5709122951
 20
172.6160748284
 30
0.0
  0
VERTEX
  5
2EB
100
AcDbEntity
  8
0
390
0
100
AcDbVertex
100
AcDb2dVertex
 10
284.1724680944
 20
172.3080447878
 30
0.0
  0
VERTEX
  5
2EC
100
AcDbEntity
  8
0
390
0
100
AcDbVertex
100
AcDb2dVertex
 10
283.7881279657
 20
171.9940991599
 30
0.0
  0
VERTEX
  5
2ED
100
AcDbEntity
  8
0
390
0
100
AcDbVertex
100
AcDb2dVertex
 10
283.4181553167
 20
171.6744531072
 30
0.0
  0
VERTEX
  5
2EE
100
AcDbEntity
  8
0
390
0
100
AcDbVertex
100
AcDb2dVertex
 10
283.062803708
 20
171.3493256992
 30
0.0
  0
VERTEX
  5
2EF
100
AcDbEntity
  8
0
390
0
100
AcDbVertex
100
AcDb2dVertex
 10
282.72231668
 20
171.018939762
 30
0.0
  0
VERTEX
  5
2F0
100
AcDbEntity
  8
0
390
0
100
AcDbVertex
100
AcDb2dVertex
 10
282.3969275854
 20
170.6835217257
 30
0.0
  0
VERTEX
  5
2F1
100
AcDbEntity
  8
0
390
0
100
AcDbVertex
100
AcDb2dVertex
 10
282.0868594297
 20
170.3433014689
 30
0.0
  0
VERTEX
  5
2F2
100
AcDbEntity
  8
0
390
0
100
AcDbVertex
100
AcDb2dVertex
 10
281.7923247181
 20
169.9985121617
 30
0.0
  0
VERTEX
  5
2F3
100
AcDbEntity
  8
0
390
0
100
AcDbVertex
100
AcDb2dVertex
 10
281.51352531
 20
169.6493901054
 30
0.0
  0
VERTEX
  5
2F4
100
AcDbEntity
  8
0
390
0
100
AcDbVertex
100
AcDb2dVertex
 10
281.2506522805
 20
169.2961745709
 30
0.0
  0
VERTEX
  5
2F5
100
AcDbEntity
  8
0
390
0
100
AcDbVertex
100
AcDb2dVertex
 10
281.0038857898
 20
168.9391076344
 30
0.0
  0
VERTEX
  5
2F6
100
AcDbEntity
  8
0
390
0
100
AcDbVertex
100
AcDb2dVertex
 10
280.7733949591
 20
168.5784340117
 30
0.0
  0
VERTEX
  5
2F7
100
AcDbEntity
  8
0
390
0
100
AcDbVertex
100
AcDb2dVertex
 10
280.5593377555
 20
168.2144008906
 30
0.0
  0
VERTEX
  5
2F8
100
AcDbEntity
  8
0
390
0
100
AcDbVertex
100
AcDb2dVertex
 10
280.3618608831
 20
167.8472577612
 30
0.0
  0
VERTEX
  5
2F9
100
AcDbEntity
  8
0
390
0
100
AcDbVertex
100
AcDb2dVertex
 10
280.1810996826
 20
167.477256245
 30
0.0
  0
VERTEX
  5
2FA
100
AcDbEntity
  8
0
390
0
100
AcDbVertex
100
AcDb2dVertex
 10
280.0171780387
 20
167.1046499226
 30
0.0
  0
VERTEX
  5
2FB
100
AcDbEntity
  8
0
390
0
100
AcDbVertex
100
AcDb2dVertex
 10
279.8702082951
 20
166.7296941598
 30
0.0
  0
VERTEX
  5
2FC
100
AcDbEntity
  8
0
390
0
100
AcDbVertex
100
AcDb2dVertex
 10
279.7402911776
 20
166.3526459324
 30
0.0
  0
VERTEX
  5
2FD
100
AcDbEntity
  8
0
390
0
100
AcDbVertex
100
AcDb2dVertex
 10
279.6275157249
 20
165.9737636506
 30
0.0
  0
VERTEX
  5
2FE
100
AcDbEntity
  8
0
390
0
100
AcDbVertex
100
AcDb2dVertex
 10
279.5319592276
 20
165.5933069813
 30
0.0
  0
VERTEX
  5
2FF
100
AcDbEntity
  8
0
390
0
100
AcDbVertex
100
AcDb2dVertex
 10
279.4536871754
 20
165.2115366705
 30
0.0
  0
VERTEX
  5
300
100
AcDbEntity
  8
0
390
0
100
AcDbVertex
100
AcDb2dVertex
 10
279.3927532119
 20
164.8287143645
 30
0.0
  0
VERTEX
  5
301
100
AcDbEntity
  8
0
390
0
100
AcDbVertex
100
AcDb2dVertex
 10
279.3491990985
 20
164.4451024306
 30
0.0
  0
VERTEX
  5
302
100
AcDbEntity
  8
0
390
0
100
AcDbVertex
100
AcDb2dVertex
 10
279.3230546847
 20
164.0609637773
 30
0.0
  0
VERTEX
  5
303
100
AcDbEntity
  8
0
390
0
100
AcDbVertex
100
AcDb2dVertex
 10
279.3143378888
 20
163.6765616739
 30
0.0
  0
VERTEX
  5
304
100
AcDbEntity
  8
0
390
0
100
AcDbVertex
100
AcDb2dVertex
 10
279.3230546847
 20
163.2921595706
 30
0.0
  0
VERTEX
  5
305
100
AcDbEntity
  8
0
390
0
100
AcDbVertex
100
AcDb2dVertex
 10
279.3491990985
 20
162.9080209173
 30
0.0
  0
VERTEX
  5
306
100
AcDbEntity
  8
0
390
0
100
AcDbVertex
100
AcDb2dVertex
 10
279.3927532119
 20
162.5244089834
 30
0.0
  0
VERTEX
  5
307
100
AcDbEntity
  8
0
390
0
100
AcDbVertex
100
AcDb2dVertex
 10
279.4536871754
 20
162.1415866774
 30
0.0
  0
VERTEX
  5
308
100
AcDbEntity
  8
0
390
0
100
AcDbVertex
100
AcDb2dVertex
 10
279.5319592276
 20
161.7598163666
 30
0.0
  0
VERTEX
  5
309
100
AcDbEntity
  8
0
390
0
100
AcDbVertex
100
AcDb2dVertex
 10
279.6275157249
 20
161.3793596973
 30
0.0
  0
VERTEX
  5
30A
100
AcDbEntity
  8
0
390
0
100
AcDbVertex
100
AcDb2dVertex
 10
279.7402911776
 20
161.0004774155
 30
0.0
  0
VERTEX
  5
30B
100
AcDbEntity
  8
0
390
0
100
AcDbVertex
100
AcDb2dVertex
 10
279.8702082951
 20
160.6234291881
 30
0.0
  0
VERTEX
  5
30C
100
AcDbEntity
  8
0
390
0
100
AcDbVertex
100
AcDb2dVertex
 10
280.0171780387
 20
160.2484734253
 30
0.0
  0
VERTEX
  5
30D
100
AcDbEntity
  8
0
390
0
100
AcDbVertex
100
AcDb2dVertex
 10
280.1810996826
 20
159.8758671029
 30
0.0
  0
VERTEX
  5
30E
100
AcDbEntity
  8
0
390
0
100
AcDbVertex
100
AcDb2dVertex
 10
280.3618608831
 20
159.5058655867
 30
0.0
  0
VERTEX
  5
30F
100
AcDbEntity
  8
0
390
0
100
AcDbVertex
100
AcDb2dVertex
 10
280.5593377555
 20
159.1387224573
 30
0.0
  0
VERTEX
  5
310
100
AcDbEntity
  8
0
390
0
100
AcDbVertex
100
AcDb2dVertex
 10
280.7733949591
 20
158.7746893362
 30
0.0
  0
VERTEX
  5
311
100
AcDbEntity
  8
0
390
0
100
AcDbVertex
100
AcDb2dVertex
 10
281.0038857898
 20
158.4140157135
 30
0.0
  0
VERTEX
  5
312
100
AcDbEntity
  8
0
390
0
100
AcDbVertex
100
AcDb2dVertex
 10
281.2506522805
 20
158.056948777
 30
0.0
  0
VERTEX
  5
313
100
AcDbEntity
  8
0
390
0
100
AcDbVertex
100
AcDb2dVertex
 10
281.51352531
 20
157.7037332425
 30
0.0
  0
VERTEX
  5
314
100
AcDbEntity
  8
0
390
0
100
AcDbVertex
100
AcDb2dVertex
 10
281.7923247181
 20
157.3546111862
 30
0.0
  0
VERTEX
  5
315
100
AcDbEntity
  8
0
390
0
100
AcDbVertex
100
AcDb2dVertex
 10
282.0868594297
 20
157.009821879
 30
0.0
  0
VERTEX
  5
316
100
AcDbEntity
  8
0
390
0
100
AcDbVertex
100
AcDb2dVertex
 10
282.3969275854
 20
156.6696016222
 30
0.0
  0
VERTEX
  5
317
100
AcDbEntity
  8
0
390
0
100
AcDbVertex
100
AcDb2dVertex
 10
282.72231668
 20
156.3341835859
 30
0.0
  0
VERTEX
  5
318
100
AcDbEntity
  8
0
390
0
100
AcDbVertex
100
AcDb2dVertex
 10
283.062803708
 20
156.0037976487
 30
0.0
  0
VERTEX
  5
319
100
AcDbEntity
  8
0
390
0
100
AcDbVertex
100
AcDb2dVertex
 10
283.4181553167
 20
155.6786702407
 30
0.0
  0
VERTEX
  5
31A
100
AcDbEntity
  8
0
390
0
100
AcDbVertex
100
AcDb2dVertex
 10
283.7881279657
 20
155.359024188
 30
0.0
  0
VERTEX
  5
31B
100
AcDbEntity
  8
0
390
0
100
AcDbVertex
100
AcDb2dVertex
 10
284.1724680944
 20
155.0450785601
 30
0.0
  0
VERTEX
  5
31C
100
AcDbEntity
  8
0
390
0
100
AcDbVertex
100
AcDb2dVertex
 10
284.5709122951
 20
154.7370485195
 30
0.0
  0
VERTEX
  5
31D
100
AcDbEntity
  8
0
390
0
100
AcDbVertex
100
AcDb2dVertex
 10
284.9831874942
 20
154.4351451747
 30
0.0
  0
VERTEX
  5
31E
100
AcDbEntity
  8
0
390
0
100
AcDbVertex
100
AcDb2dVertex
 10
285.4090111388
 20
154.1395754351
 30
0.0
  0
VERTEX
  5
31F
100
AcDbEntity
  8
0
390
0
100
AcDbVertex
100
AcDb2dVertex
 10
285.8480913907
 20
153.8505418696
 30
0.0
  0
VERTEX
  5
320
100
AcDbEntity
  8
0
390
0
100
AcDbVertex
100
AcDb2dVertex
 10
286.3001273262
 20
153.5682425671
 30
0.0
  0
VERTEX
  5
321
100
AcDbEntity
  8
0
390
0
100
AcDbVertex
100
AcDb2dVertex
 10
286.7648091424
 20
153.2928710017
 30
0.0
  0
SEQEND
  5
322
100
AcDbEntity
  8
0
390
0
  0
LINE
  5
323
100
AcDbEntity
  8
0
370
        15
390
0
  6
Continuous
 62
         7
100
AcDbLine
 10
312.6724503041
 20
139.3430841843
 30
0.0
 11
346.9032244163
 21
159.1040894544
 31
0.0
  0
LINE
  5
324
100
AcDbEntity
  8
0
370
        15
390
0
  6
Continuous
 62
         7
100
AcDbLine
 10
296.8312254735
 20
139.3430841843
 30
0.0
 11
312.6724503041
 21
139.3430841843
 31
0.0
  0
LINE
  5
325
100
AcDbEntity
  8
0
370
        15
390
0
  6
Continuous
 62
         7
100
AcDbLine
 10
295.302571098
 20
140.2255575713
 30
0.0
 11
296.8312254735
 21
139.3430841843
 31
0.0
  0
LINE
  5
326
100
AcDbEntity
  8
0
370
        15
390
0
  6
Continuous
 62
         7
100
AcDbLine
 10
298.8270564605
 20
142.2601996624
 30
0.0
 11
295.302571098
 21
140.2255575713
 31
0.0
  0
POLYLINE
  5
327
100
AcDbEntity
  8
0
390
0
  6
Continuous
 62
         7
100
AcDb2dPolyline
 66
         1
 10
0.0
 20
0.0
 30
0.0
 70
       128
 40
0.1299212598
 41
0.1299212598
  0
VERTEX
  5
328
100
AcDbEntity
  8
0
390
0
100
AcDbVertex
100
AcDb2dVertex
 10
298.8270564605
 20
142.5408399509
 30
0.0
  0
VERTEX
  5
329
100
AcDbEntity
  8
0
390
0
100
AcDbVertex
100
AcDb2dVertex
 10
298.8655720197
 20
142.5143418353
 30
0.0
  0
VERTEX
  5
32A
100
AcDbEntity
  8
0
390
0
100
AcDbVertex
100
AcDb2dVertex
 10
298.8955318062
 20
142.4843852949
 30
0.0
  0
VERTEX
  5
32B
100
AcDbEntity
  8
0
390
0
100
AcDbVertex
100
AcDb2dVertex
 10
298.9160255072
 20
142.4518805441
 30
0.0
  0
VERTEX
  5
32C
100
AcDbEntity
  8
0
390
0
100
AcDbVertex
100
AcDb2dVertex
 10
298.9264304319
 20
142.4178152233
 30
0.0
  0
VERTEX
  5
32D
100
AcDbEntity
  8
0
390
0
100
AcDbVertex
100
AcDb2dVertex
 10
298.9264304319
 20
142.38322439
 30
0.0
  0
VERTEX
  5
32E
100
AcDbEntity
  8
0
390
0
100
AcDbVertex
100
AcDb2dVertex
 10
298.9160255072
 20
142.3491590692
 30
0.0
  0
VERTEX
  5
32F
100
AcDbEntity
  8
0
390
0
100
AcDbVertex
100
AcDb2dVertex
 10
298.8955318062
 20
142.3166543184
 30
0.0
  0
VERTEX
  5
330
100
AcDbEntity
  8
0
390
0
100
AcDbVertex
100
AcDb2dVertex
 10
298.8655720197
 20
142.2866977781
 30
0.0
  0
VERTEX
  5
331
100
AcDbEntity
  8
0
390
0
100
AcDbVertex
100
AcDb2dVertex
 10
298.8270564605
 20
142.2601996624
 30
0.0
  0
SEQEND
  5
332
100
AcDbEntity
  8
0
390
0
  0
LINE
  5
333
100
AcDbEntity
  8
0
370
        15
390
0
  6
Continuous
 62
         7
100
AcDbLine
 10
294.9073426015
 20
144.8036425966
 30
0.0
 11
298.8270564605
 21
142.5408399509
 31
0.0
  0
POLYLINE
  5
334
100
AcDbEntity
  8
0
390
0
  6
Continuous
 62
         7
100
AcDb2dPolyline
 66
         1
 10
0.0
 20
0.0
 30
0.0
 70
       128
 40
0.1299212598
 41
0.1299212598
  0
VERTEX
  5
335
100
AcDbEntity
  8
0
390
0
100
AcDbVertex
100
AcDb2dVertex
 10
294.4212066894
 20
144.8036425966
 30
0.0
  0
VERTEX
  5
336
100
AcDbEntity
  8
0
390
0
100
AcDbVertex
100
AcDb2dVertex
 10
294.4671077455
 20
144.8258771556
 30
0.0
  0
VERTEX
  5
337
100
AcDbEntity
  8
0
390
0
100
AcDbVertex
100
AcDb2dVertex
 10
294.518999618
 20
144.8431725723
 30
0.0
  0
VERTEX
  5
338
100
AcDbEntity
  8
0
390
0
100
AcDbVertex
100
AcDb2dVertex
 10
294.5753055987
 20
144.855003334
 30
0.0
  0
VERTEX
  5
339
100
AcDbEntity
  8
0
390
0
100
AcDbVertex
100
AcDb2dVertex
 10
294.6343148589
 20
144.8610099692
 30
0.0
  0
VERTEX
  5
33A
100
AcDbEntity
  8
0
390
0
100
AcDbVertex
100
AcDb2dVertex
 10
294.694234432
 20
144.8610099692
 30
0.0
  0
VERTEX
  5
33B
100
AcDbEntity
  8
0
390
0
100
AcDbVertex
100
AcDb2dVertex
 10
294.7532436922
 20
144.855003334
 30
0.0
  0
VERTEX
  5
33C
100
AcDbEntity
  8
0
390
0
100
AcDbVertex
100
AcDb2dVertex
 10
294.8095496729
 20
144.8431725723
 30
0.0
  0
VERTEX
  5
33D
100
AcDbEntity
  8
0
390
0
100
AcDbVertex
100
AcDb2dVertex
 10
294.8614415455
 20
144.8258771556
 30
0.0
  0
VERTEX
  5
33E
100
AcDbEntity
  8
0
390
0
100
AcDbVertex
100
AcDb2dVertex
 10
294.9073426015
 20
144.8036425966
 30
0.0
  0
SEQEND
  5
33F
100
AcDbEntity
  8
0
390
0
  0
LINE
  5
340
100
AcDbEntity
  8
0
370
        15
390
0
  6
Continuous
 62
         7
100
AcDbLine
 10
290.896721327
 20
142.7690005054
 30
0.0
 11
294.4212066894
 21
144.8036425966
 31
0.0
  0
LINE
  5
341
100
AcDbEntity
  8
0
370
        15
390
0
  6
Continuous
 62
         7
100
AcDbLine
 10
262.6004513613
 20
159.1040894544
 30
0.0
 11
290.896721327
 21
142.7690005054
 31
0.0
  0
LINE
  5
342
100
AcDbEntity
  8
0
370
        15
390
0
  6
Continuous
 62
         7
100
AcDbLine
 10
262.6004513613
 20
168.2490338935
 30
0.0
 11
262.6004513613
 21
159.1040894544
 31
0.0
  0
LINE
  5
343
100
AcDbEntity
  8
0
370
        15
390
0
  6
Continuous
 62
         7
100
AcDbLine
 10
275.3406152088
 20
175.6037739326
 30
0.0
 11
262.6004513613
 21
168.2490338935
 31
0.0
  0
LINE
  5
344
100
AcDbEntity
  8
0
370
        15
390
0
  6
Continuous
 62
         7
100
AcDbLine
 10
276.799022945
 20
174.7618530673
 30
0.0
 11
275.3406152088
 21
175.6037739326
 31
0.0
  0
POLYLINE
  5
345
100
AcDbEntity
  8
0
390
0
  6
Continuous
 62
         7
100
AcDb2dPolyline
 66
         1
 10
0.0
 20
0.0
 30
0.0
 70
       128
 40
0.1299212598
 41
0.1299212598
  0
VERTEX
  5
346
100
AcDbEntity
  8
0
390
0
100
AcDbVertex
100
AcDb2dVertex
 10
277.7712947691
 20
174.7618530673
 30
0.0
  0
VERTEX
  5
347
100
AcDbEntity
  8
0
390
0
100
AcDbVertex
100
AcDb2dVertex
 10
277.709153082
 20
174.7300718023
 30
0.0
  0
VERTEX
  5
348
100
AcDbEntity
  8
0
390
0
100
AcDbVertex
100
AcDb2dVertex
 10
277.6408286043
 20
174.702846347
 30
0.0
  0
VERTEX
  5
349
100
AcDbEntity
  8
0
390
0
100
AcDbVertex
100
AcDb2dVertex
 10
277.5673176608
 20
174.6805737099
 30
0.0
  0
VERTEX
  5
34A
100
AcDbEntity
  8
0
390
0
100
AcDbVertex
100
AcDb2dVertex
 10
277.4896922066
 20
174.6635786762
 30
0.0
  0
VERTEX
  5
34B
100
AcDbEntity
  8
0
390
0
100
AcDbVertex
100
AcDb2dVertex
 10
277.4090841956
 20
174.6521090718
 30
0.0
  0
VERTEX
  5
34C
100
AcDbEntity
  8
0
390
0
100
AcDbVertex
100
AcDb2dVertex
 10
277.326669074
 20
174.6463321494
 30
0.0
  0
VERTEX
  5
34D
100
AcDbEntity
  8
0
390
0
100
AcDbVertex
100
AcDb2dVertex
 10
277.2436486401
 20
174.6463321494
 30
0.0
  0
VERTEX
  5
34E
100
AcDbEntity
  8
0
390
0
100
AcDbVertex
100
AcDb2dVertex
 10
277.1612335186
 20
174.6521090718
 30
0.0
  0
VERTEX
  5
34F
100
AcDbEntity
  8
0
390
0
100
AcDbVertex
100
AcDb2dVertex
 10
277.0806255075
 20
174.6635786762
 30
0.0
  0
VERTEX
  5
350
100
AcDbEntity
  8
0
390
0
100
AcDbVertex
100
AcDb2dVertex
 10
277.0030000533
 20
174.6805737099
 30
0.0
  0
VERTEX
  5
351
100
AcDbEntity
  8
0
390
0
100
AcDbVertex
100
AcDb2dVertex
 10
276.9294891098
 20
174.702846347
 30
0.0
  0
VERTEX
  5
352
100
AcDbEntity
  8
0
390
0
100
AcDbVertex
100
AcDb2dVertex
 10
276.8611646321
 20
174.7300718023
 30
0.0
  0
VERTEX
  5
353
100
AcDbEntity
  8
0
390
0
100
AcDbVertex
100
AcDb2dVertex
 10
276.799022945
 20
174.7618530673
 30
0.0
  0
SEQEND
  5
354
100
AcDbEntity
  8
0
390
0
  0
LINE
  5
355
100
AcDbEntity
  8
0
370
        15
390
0
  6
Continuous
 62
         7
100
AcDbLine
 10
285.5800959246
 20
179.2697780205
 30
0.0
 11
277.7712947691
 21
174.7618530673
 31
0.0
  0
POLYLINE
  5
356
100
AcDbEntity
  8
0
390
0
  6
Continuous
 62
         7
100
AcDb2dPolyline
 66
         1
 10
0.0
 20
0.0
 30
0.0
 70
       128
 40
0.1299212598
 41
0.1299212598
  0
VERTEX
  5
357
100
AcDbEntity
  8
0
390
0
100
AcDbVertex
100
AcDb2dVertex
 10
285.5800959246
 20
179.8310585974
 30
0.0
  0
VERTEX
  5
358
100
AcDbEntity
  8
0
390
0
100
AcDbVertex
100
AcDb2dVertex
 10
285.6351486555
 20
179.795184965
 30
0.0
  0
VERTEX
  5
359
100
AcDbEntity
  8
0
390
0
100
AcDbVertex
100
AcDb2dVertex
 10
285.6823096373
 20
179.7557420836
 30
0.0
  0
VERTEX
  5
35A
100
AcDbEntity
  8
0
390
0
100
AcDbVertex
100
AcDb2dVertex
 10
285.7208911567
 20
179.7133051192
 30
0.0
  0
VERTEX
  5
35B
100
AcDbEntity
  8
0
390
0
100
AcDbVertex
100
AcDb2dVertex
 10
285.7503306083
 20
179.6684928983
 30
0.0
  0
VERTEX
  5
35C
100
AcDbEntity
  8
0
390
0
100
AcDbVertex
100
AcDb2dVertex
 10
285.7701986986
 20
179.6219588841
 30
0.0
  0
VERTEX
  5
35D
100
AcDbEntity
  8
0
390
0
100
AcDbVertex
100
AcDb2dVertex
 10
285.7802057061
 20
179.5743816471
 30
0.0
  0
VERTEX
  5
35E
100
AcDbEntity
  8
0
390
0
100
AcDbVertex
100
AcDb2dVertex
 10
285.7802057061
 20
179.5264549707
 30
0.0
  0
VERTEX
  5
35F
100
AcDbEntity
  8
0
390
0
100
AcDbVertex
100
AcDb2dVertex
 10
285.7701986986
 20
179.4788777338
 30
0.0
  0
VERTEX
  5
360
100
AcDbEntity
  8
0
390
0
100
AcDbVertex
100
AcDb2dVertex
 10
285.7503306083
 20
179.4323437195
 30
0.0
  0
VERTEX
  5
361
100
AcDbEntity
  8
0
390
0
100
AcDbVertex
100
AcDb2dVertex
 10
285.7208911567
 20
179.3875314987
 30
0.0
  0
VERTEX
  5
362
100
AcDbEntity
  8
0
390
0
100
AcDbVertex
100
AcDb2dVertex
 10
285.6823096373
 20
179.3450945343
 30
0.0
  0
VERTEX
  5
363
100
AcDbEntity
  8
0
390
0
100
AcDbVertex
100
AcDb2dVertex
 10
285.6351486555
 20
179.3056516529
 30
0.0
  0
VERTEX
  5
364
100
AcDbEntity
  8
0
390
0
100
AcDbVertex
100
AcDb2dVertex
 10
285.5800959246
 20
179.2697780205
 30
0.0
  0
SEQEND
  5
365
100
AcDbEntity
  8
0
390
0
  0
LINE
  5
366
100
AcDbEntity
  8
0
370
        15
390
0
  6
Continuous
 62
         7
100
AcDbLine
 10
284.1216881884
 20
180.6729794627
 30
0.0
 11
285.5800959246
 21
179.8310585974
 31
0.0
  0
LINE
  5
367
100
AcDbEntity
  8
0
370
        15
390
0
  6
Continuous
 62
         7
100
AcDbLine
 10
296.8312254735
 20
188.0100391636
 30
0.0
 11
284.1216881884
 21
180.6729794627
 31
0.0
  0
LINE
  5
368
100
AcDbEntity
  8
0
370
        15
390
0
  6
Continuous
 62
         7
100
AcDbLine
 10
312.6724503041
 20
188.0100391636
 30
0.0
 11
296.8312254735
 21
188.0100391636
 31
0.0
  0
LINE
  5
369
100
AcDbEntity
  8
0
370
        15
390
0
  6
Continuous
 62
         7
100
AcDbLine
 10
340.9687202697
 20
171.6749502146
 30
0.0
 11
312.6724503041
 21
188.0100391636
 31
0.0
  0
LINE
  5
36A
100
AcDbEntity
  8
0
370
        15
390
0
  6
Continuous
 62
         7
100
AcDbLine
 10
337.4442349072
 20
169.6403081234
 30
0.0
 11
340.9687202697
 21
171.6749502146
 31
0.0
  0
POLYLINE
  5
36B
100
AcDbEntity
  8
0
390
0
  6
Continuous
 62
         7
100
AcDb2dPolyline
 66
         1
 10
0.0
 20
0.0
 30
0.0
 70
       128
 40
0.1299212598
 41
0.1299212598
  0
VERTEX
  5
36C
100
AcDbEntity
  8
0
390
0
100
AcDbVertex
100
AcDb2dVertex
 10
337.4442349072
 20
169.359667835
 30
0.0
  0
VERTEX
  5
36D
100
AcDbEntity
  8
0
390
0
100
AcDbVertex
100
AcDb2dVertex
 10
337.4057193481
 20
169.3861659506
 30
0.0
  0
VERTEX
  5
36E
100
AcDbEntity
  8
0
390
0
100
AcDbVertex
100
AcDb2dVertex
 10
337.3757595615
 20
169.416122491
 30
0.0
  0
VERTEX
  5
36F
100
AcDbEntity
  8
0
390
0
100
AcDbVertex
100
AcDb2dVertex
 10
337.3552658605
 20
169.4486272418
 30
0.0
  0
VERTEX
  5
370
100
AcDbEntity
  8
0
390
0
100
AcDbVertex
100
AcDb2dVertex
 10
337.3448609358
 20
169.4826925626
 30
0.0
  0
VERTEX
  5
371
100
AcDbEntity
  8
0
390
0
100
AcDbVertex
100
AcDb2dVertex
 10
337.3448609358
 20
169.5172833958
 30
0.0
  0
VERTEX
  5
372
100
AcDbEntity
  8
0
390
0
100
AcDbVertex
100
AcDb2dVertex
 10
337.3552658605
 20
169.5513487166
 30
0.0
  0
VERTEX
  5
373
100
AcDbEntity
  8
0
390
0
100
AcDbVertex
100
AcDb2dVertex
 10
337.3757595615
 20
169.5838534674
 30
0.0
  0
VERTEX
  5
374
100
AcDbEntity
  8
0
390
0
100
AcDbVertex
100
AcDb2dVertex
 10
337.4057193481
 20
169.6138100078
 30
0.0
  0
VERTEX
  5
375
100
AcDbEntity
  8
0
390
0
100
AcDbVertex
100
AcDb2dVertex
 10
337.4442349072
 20
169.6403081234
 30
0.0
  0
SEQEND
  5
376
100
AcDbEntity
  8
0
390
0
  0
LINE
  5
377
100
AcDbEntity
  8
0
370
        15
390
0
  6
Continuous
 62
         7
100
AcDbLine
 10
341.3639487662
 20
167.0968651893
 30
0.0
 11
337.4442349072
 21
169.359667835
 31
0.0
  0
POLYLINE
  5
378
100
AcDbEntity
  8
0
390
0
  6
Continuous
 62
         7
100
AcDb2dPolyline
 66
         1
 10
0.0
 20
0.0
 30
0.0
 70
       128
 40
0.1299212598
 41
0.1299212598
  0
VERTEX
  5
379
100
AcDbEntity
  8
0
390
0
100
AcDbVertex
100
AcDb2dVertex
 10
341.8500846783
 20
167.0968651893
 30
0.0
  0
VERTEX
  5
37A
100
AcDbEntity
  8
0
390
0
100
AcDbVertex
100
AcDb2dVertex
 10
341.8041836223
 20
167.0746306303
 30
0.0
  0
VERTEX
  5
37B
100
AcDbEntity
  8
0
390
0
100
AcDbVertex
100
AcDb2dVertex
 10
341.7522917497
 20
167.0573352136
 30
0.0
  0
VERTEX
  5
37C
100
AcDbEntity
  8
0
390
0
100
AcDbVertex
100
AcDb2dVertex
 10
341.695985769
 20
167.0455044519
 30
0.0
  0
VERTEX
  5
37D
100
AcDbEntity
  8
0
390
0
100
AcDbVertex
100
AcDb2dVertex
 10
341.6369765088
 20
167.0394978167
 30
0.0
  0
VERTEX
  5
37E
100
AcDbEntity
  8
0
390
0
100
AcDbVertex
100
AcDb2dVertex
 10
341.5770569357
 20
167.0394978167
 30
0.0
  0
VERTEX
  5
37F
100
AcDbEntity
  8
0
390
0
100
AcDbVertex
100
AcDb2dVertex
 10
341.5180476755
 20
167.0455044519
 30
0.0
  0
VERTEX
  5
380
100
AcDbEntity
  8
0
390
0
100
AcDbVertex
100
AcDb2dVertex
 10
341.4617416948
 20
167.0573352136
 30
0.0
  0
VERTEX
  5
381
100
AcDbEntity
  8
0
390
0
100
AcDbVertex
100
AcDb2dVertex
 10
341.4098498223
 20
167.0746306303
 30
0.0
  0
VERTEX
  5
382
100
AcDbEntity
  8
0
390
0
100
AcDbVertex
100
AcDb2dVertex
 10
341.3639487662
 20
167.0968651893
 30
0.0
  0
SEQEND
  5
383
100
AcDbEntity
  8
0
390
0
  0
LINE
  5
384
100
AcDbEntity
  8
0
370
        15
390
0
  6
Continuous
 62
         7
100
AcDbLine
 10
345.3745700408
 20
169.1315072805
 30
0.0
 11
341.8500846783
 21
167.0968651893
 31
0.0
  0
LINE
  5
385
100
AcDbEntity
  8
0
370
        15
390
0
  6
Continuous
 62
         7
100
AcDbLine
 10
346.9032244163
 20
168.2490338935
 30
0.0
 11
345.3745700408
 21
169.1315072805
 31
0.0
  0
LINE
  5
386
100
AcDbEntity
  8
0
370
        15
390
0
  6
Continuous
 62
         7
100
AcDbLine
 10
346.9032244163
 20
159.1040894544
 30
0.0
 11
346.9032244163
 21
168.2490338935
 31
0.0
  0
POLYLINE
  5
387
100
AcDbEntity
  8
0
390
0
  6
Continuous
 62
         7
100
AcDb2dPolyline
 66
         1
 10
0.0
 20
0.0
 30
0.0
 70
       128
 40
0.1299212598
 41
0.1299212598
  0
VERTEX
  5
388
100
AcDbEntity
  8
0
390
0
100
AcDbVertex
100
AcDb2dVertex
 10
314.7934612884
 20
142.8126400702
 30
0.0
  0
VERTEX
  5
389
100
AcDbEntity
  8
0
390
0
100
AcDbVertex
100
AcDb2dVertex
 10
314.8492976696
 20
142.7842956548
 30
0.0
  0
VERTEX
  5
38A
100
AcDbEntity
  8
0
390
0
100
AcDbVertex
100
AcDb2dVertex
 10
314.9109543124
 20
142.7603058951
 30
0.0
  0
VERTEX
  5
38B
100
AcDbEntity
  8
0
390
0
100
AcDbVertex
100
AcDb2dVertex
 10
314.9774188165
 20
142.7410647024
 30
0.0
  0
VERTEX
  5
38C
100
AcDbEntity
  8
0
390
0
100
AcDbVertex
100
AcDb2dVertex
 10
315.0475998365
 20
142.7268880165
 30
0.0
  0
VERTEX
  5
38D
100
AcDbEntity
  8
0
390
0
100
AcDbVertex
100
AcDb2dVertex
 10
315.1203450021
 20
142.7180086183
 30
0.0
  0
VERTEX
  5
38E
100
AcDbEntity
  8
0
390
0
100
AcDbVertex
100
AcDb2dVertex
 10
315.1944598396
 20
142.7145723072
 30
0.0
  0
VERTEX
  5
38F
100
AcDbEntity
  8
0
390
0
100
AcDbVertex
100
AcDb2dVertex
 10
315.2687273855
 20
142.7166355073
 30
0.0
  0
VERTEX
  5
390
100
AcDbEntity
  8
0
390
0
100
AcDbVertex
100
AcDb2dVertex
 10
315.3419281686
 20
142.724164341
 30
0.0
  0
VERTEX
  5
391
100
AcDbEntity
  8
0
390
0
100
AcDbVertex
100
AcDb2dVertex
 10
315.4128602342
 20
142.7370351849
 30
0.0
  0
VERTEX
  5
392
100
AcDbEntity
  8
0
390
0
100
AcDbVertex
100
AcDb2dVertex
 10
315.4803588797
 20
142.7550367003
 30
0.0
  0
VERTEX
  5
393
100
AcDbEntity
  8
0
390
0
100
AcDbVertex
100
AcDb2dVertex
 10
315.5433157792
 20
142.7778733027
 30
0.0
  0
VERTEX
  5
394
100
AcDbEntity
  8
0
390
0
100
AcDbVertex
100
AcDb2dVertex
 10
315.6006971822
 20
142.8051700157
 30
0.0
  0
VERTEX
  5
395
100
AcDbEntity
  8
0
390
0
100
AcDbVertex
100
AcDb2dVertex
 10
315.6515608876
 20
142.8364786281
 30
0.0
  0
VERTEX
  5
396
100
AcDbEntity
  8
0
390
0
100
AcDbVertex
100
AcDb2dVertex
 10
315.6950717148
 20
142.8712850533
 30
0.0
  0
VERTEX
  5
397
100
AcDbEntity
  8
0
390
0
100
AcDbVertex
100
AcDb2dVertex
 10
315.7305152172
 20
142.9090177707
 30
0.0
  0
VERTEX
  5
398
100
AcDbEntity
  8
0
390
0
100
AcDbVertex
100
AcDb2dVertex
 10
315.7573094134
 20
142.9490572103
 30
0.0
  0
VERTEX
  5
399
100
AcDbEntity
  8
0
390
0
100
AcDbVertex
100
AcDb2dVertex
 10
315.7750143436
 20
142.9907459255
 30
0.0
  0
VERTEX
  5
39A
100
AcDbEntity
  8
0
390
0
100
AcDbVertex
100
AcDb2dVertex
 10
315.7833392931
 20
143.0333993887
 30
0.0
  0
VERTEX
  5
39B
100
AcDbEntity
  8
0
390
0
100
AcDbVertex
100
AcDb2dVertex
 10
315.7821475667
 20
143.0763172313
 30
0.0
  0
VERTEX
  5
39C
100
AcDbEntity
  8
0
390
0
100
AcDbVertex
100
AcDb2dVertex
 10
315.7714587324
 20
143.1187947435
 30
0.0
  0
VERTEX
  5
39D
100
AcDbEntity
  8
0
390
0
100
AcDbVertex
100
AcDb2dVertex
 10
315.7514483006
 20
143.1601344457
 30
0.0
  0
VERTEX
  5
39E
100
AcDbEntity
  8
0
390
0
100
AcDbVertex
100
AcDb2dVertex
 10
315.722444842
 20
143.1996575412
 30
0.0
  0
VERTEX
  5
39F
100
AcDbEntity
  8
0
390
0
100
AcDbVertex
100
AcDb2dVertex
 10
315.6849245926
 20
143.2367150617
 30
0.0
  0
VERTEX
  5
3A0
100
AcDbEntity
  8
0
390
0
100
AcDbVertex
100
AcDb2dVertex
 10
315.6395036339
 20
143.2706985239
 30
0.0
  0
VERTEX
  5
3A1
100
AcDbEntity
  8
0
390
0
100
AcDbVertex
100
AcDb2dVertex
 10
315.5869277767
 20
143.3010499202
 30
0.0
  0
VERTEX
  5
3A2
100
AcDbEntity
  8
0
390
0
100
AcDbVertex
100
AcDb2dVertex
 10
315.5280603152
 20
143.3272708815
 30
0.0
  0
VERTEX
  5
3A3
100
AcDbEntity
  8
0
390
0
100
AcDbVertex
100
AcDb2dVertex
 10
315.4638678514
 20
143.3489308605
 30
0.0
  0
VERTEX
  5
3A4
100
AcDbEntity
  8
0
390
0
100
AcDbVertex
100
AcDb2dVertex
 10
315.3954044239
 20
143.3656742007
 30
0.0
  0
VERTEX
  5
3A5
100
AcDbEntity
  8
0
390
0
100
AcDbVertex
100
AcDb2dVertex
 10
315.3237942002
 20
143.3772259771
 30
0.0
  0
VERTEX
  5
3A6
100
AcDbEntity
  8
0
390
0
100
AcDbVertex
100
AcDb2dVertex
 10
315.2502130182
 20
143.3833965098
 30
0.0
  0
VERTEX
  5
3A7
100
AcDbEntity
  8
0
390
0
100
AcDbVertex
100
AcDb2dVertex
 10
315.175869079
 20
143.3840844788
 30
0.0
  0
VERTEX
  5
3A8
100
AcDbEntity
  8
0
390
0
100
AcDbVertex
100
AcDb2dVertex
 10
315.1019831078
 20
143.3792785877
 30
0.0
  0
VERTEX
  5
3A9
100
AcDbEntity
  8
0
390
0
100
AcDbVertex
100
AcDb2dVertex
 10
315.0297683104
 20
143.3690577491
 30
0.0
  0
VERTEX
  5
3AA
100
AcDbEntity
  8
0
390
0
100
AcDbVertex
100
AcDb2dVertex
 10
314.9604104517
 20
143.3535897889
 30
0.0
  0
VERTEX
  5
3AB
100
AcDbEntity
  8
0
390
0
100
AcDbVertex
100
AcDb2dVertex
 10
314.8950483858
 20
143.3331286905
 30
0.0
  0
VERTEX
  5
3AC
100
AcDbEntity
  8
0
390
0
100
AcDbVertex
100
AcDb2dVertex
 10
314.834755356
 20
143.3080104246
 30
0.0
  0
VERTEX
  5
3AD
100
AcDbEntity
  8
0
390
0
100
AcDbVertex
100
AcDb2dVertex
 10
314.7805213723
 20
143.2786474325
 30
0.0
  0
VERTEX
  5
3AE
100
AcDbEntity
  8
0
390
0
100
AcDbVertex
100
AcDb2dVertex
 10
314.7332369551
 20
143.2455218536
 30
0.0
  0
VERTEX
  5
3AF
100
AcDbEntity
  8
0
390
0
100
AcDbVertex
100
AcDb2dVertex
 10
314.6936785133
 20
143.2091776092
 30
0.0
  0
VERTEX
  5
3B0
100
AcDbEntity
  8
0
390
0
100
AcDbVertex
100
AcDb2dVertex
 10
314.6624955953
 20
143.1702114705
 30
0.0
  0
VERTEX
  5
3B1
100
AcDbEntity
  8
0
390
0
100
AcDbVertex
100
AcDb2dVertex
 10
314.6402002239
 20
143.1292632607
 30
0.0
  0
VERTEX
  5
3B2
100
AcDbEntity
  8
0
390
0
100
AcDbVertex
100
AcDb2dVertex
 10
314.6271584884
 20
143.087005348
 30
0.0
  0
VERTEX
  5
3B3
100
AcDbEntity
  8
0
390
0
100
AcDbVertex
100
AcDb2dVertex
 10
314.6235845337
 20
143.0441316064
 30
0.0
  0
VERTEX
  5
3B4
100
AcDbEntity
  8
0
390
0
100
AcDbVertex
100
AcDb2dVertex
 10
314.6295370442
 20
143.0013460214
 30
0.0
  0
VERTEX
  5
3B5
100
AcDbEntity
  8
0
390
0
100
AcDbVertex
100
AcDb2dVertex
 10
314.6449182796
 20
142.9593511312
 30
0.0
  0
VERTEX
  5
3B6
100
AcDbEntity
  8
0
390
0
100
AcDbVertex
100
AcDb2dVertex
 10
314.6694756807
 20
142.9188364907
 30
0.0
  0
VERTEX
  5
3B7
100
AcDbEntity
  8
0
390
0
100
AcDbVertex
100
AcDb2dVertex
 10
314.7028060154
 20
142.8804673492
 30
0.0
  0
VERTEX
  5
3B8
100
AcDbEntity
  8
0
390
0
100
AcDbVertex
100
AcDb2dVertex
 10
314.7443620007
 20
142.844873727
 30
0.0
  0
VERTEX
  5
3B9
100
AcDbEntity
  8
0
390
0
100
AcDbVertex
100
AcDb2dVertex
 10
314.7934612884
 20
142.8126400702
 30
0.0
  0
SEQEND
  5
3BA
100
AcDbEntity
  8
0
390
0
  0
LINE
  5
3BB
100
AcDbEntity
  8
0
370
        15
390
0
  6
Continuous
 62
         7
100
AcDbLine
 10
296.8312254735
 20
139.3430841843
 30
0.0
 11
296.8312254735
 21
139.2027412322
 31
0.0
  0
LINE
  5
3BC
100
AcDbEntity
  8
0
370
        15
390
0
  6
Continuous
 62
         7
100
AcDbLine
 10
312.6724503041
 20
139.3430841843
 30
0.0
 11
312.6724503041
 21
139.2027412322
 31
0.0
  0
LINE
  5
3BD
100
AcDbEntity
  8
0
370
        15
390
0
  6
Continuous
 62
         7
100
AcDbLine
 10
296.8312254735
 20
139.2027412322
 30
0.0
 11
312.6724503041
 21
139.2027412322
 31
0.0
  0
LINE
  5
3BE
100
AcDbEntity
  8
0
370
        15
390
0
  6
Continuous
 62
         7
100
AcDbLine
 10
346.9032244163
 20
159.1040894544
 30
0.0
 11
346.9032244163
 21
158.9637465024
 31
0.0
  0
LINE
  5
3BF
100
AcDbEntity
  8
0
370
        15
390
0
  6
Continuous
 62
         7
100
AcDbLine
 10
312.6724503041
 20
139.2027412322
 30
0.0
 11
346.9032244163
 21
158.9637465024
 31
0.0
  0
LINE
  5
3C0
100
AcDbEntity
  8
0
370
        15
390
0
  6
Continuous
 62
         7
100
AcDbLine
 10
295.302571098
 20
140.2255575713
 30
0.0
 11
295.302571098
 21
140.0852146192
 31
0.0
  0
LINE
  5
3C1
100
AcDbEntity
  8
0
370
        15
390
0
  6
Continuous
 62
         7
100
AcDbLine
 10
295.302571098
 20
140.0852146192
 30
0.0
 11
296.8312254735
 21
139.2027412322
 31
0.0
  0
LINE
  5
3C2
100
AcDbEntity
  8
0
370
        15
390
0
  6
Continuous
 62
         7
100
AcDbLine
 10
298.8270564605
 20
142.5408399509
 30
0.0
 11
298.8270564605
 21
142.4004969988
 31
0.0
  0
POLYLINE
  5
3C3
100
AcDbEntity
  8
0
390
0
  6
Continuous
 62
         7
100
AcDb2dPolyline
 66
         1
 10
0.0
 20
0.0
 30
0.0
 70
       128
 40
0.1299212598
 41
0.1299212598
  0
VERTEX
  5
3C4
100
AcDbEntity
  8
0
390
0
100
AcDbVertex
100
AcDb2dVertex
 10
298.8270564605
 20
142.4004969988
 30
0.0
  0
VERTEX
  5
3C5
100
AcDbEntity
  8
0
390
0
100
AcDbVertex
100
AcDb2dVertex
 10
298.8655720197
 20
142.3739988832
 30
0.0
  0
VERTEX
  5
3C6
100
AcDbEntity
  8
0
390
0
100
AcDbVertex
100
AcDb2dVertex
 10
298.8955318062
 20
142.3440423429
 30
0.0
  0
VERTEX
  5
3C7
100
AcDbEntity
  8
0
390
0
100
AcDbVertex
100
AcDb2dVertex
 10
298.905529719
 20
142.3303483306
 30
0.0
  0
SEQEND
  5
3C8
100
AcDbEntity
  8
0
390
0
  0
LINE
  5
3C9
100
AcDbEntity
  8
0
370
        15
390
0
  6
Continuous
 62
         7
100
AcDbLine
 10
294.9073426015
 20
144.8036425966
 30
0.0
 11
294.9073426015
 21
144.6632996445
 31
0.0
  0
LINE
  5
3CA
100
AcDbEntity
  8
0
370
        15
390
0
  6
Continuous
 62
         7
100
AcDbLine
 10
294.9073426015
 20
144.6632996445
 30
0.0
 11
298.8270564605
 21
142.4004969988
 31
0.0
  0
POLYLINE
  5
3CB
100
AcDbEntity
  8
0
390
0
  6
Continuous
 62
         7
100
AcDb2dPolyline
 66
         1
 10
0.0
 20
0.0
 30
0.0
 70
       128
 40
0.1299212598
 41
0.1299212598
  0
VERTEX
  5
3CC
100
AcDbEntity
  8
0
390
0
100
AcDbVertex
100
AcDb2dVertex
 10
315.7711353172
 20
142.9793289977
 30
0.0
  0
VERTEX
  5
3CD
100
AcDbEntity
  8
0
390
0
100
AcDbVertex
100
AcDb2dVertex
 10
315.7514483006
 20
143.0197914937
 30
0.0
  0
VERTEX
  5
3CE
100
AcDbEntity
  8
0
390
0
100
AcDbVertex
100
AcDb2dVertex
 10
315.722444842
 20
143.0593145891
 30
0.0
  0
VERTEX
  5
3CF
100
AcDbEntity
  8
0
390
0
100
AcDbVertex
100
AcDb2dVertex
 10
315.6849245926
 20
143.0963721096
 30
0.0
  0
VERTEX
  5
3D0
100
AcDbEntity
  8
0
390
0
100
AcDbVertex
100
AcDb2dVertex
 10
315.6395036339
 20
143.1303555718
 30
0.0
  0
VERTEX
  5
3D1
100
AcDbEntity
  8
0
390
0
100
AcDbVertex
100
AcDb2dVertex
 10
315.5869277767
 20
143.1607069681
 30
0.0
  0
VERTEX
  5
3D2
100
AcDbEntity
  8
0
390
0
100
AcDbVertex
100
AcDb2dVertex
 10
315.5280603152
 20
143.1869279295
 30
0.0
  0
VERTEX
  5
3D3
100
AcDbEntity
  8
0
390
0
100
AcDbVertex
100
AcDb2dVertex
 10
315.4638678514
 20
143.2085879084
 30
0.0
  0
VERTEX
  5
3D4
100
AcDbEntity
  8
0
390
0
100
AcDbVertex
100
AcDb2dVertex
 10
315.3954044239
 20
143.2253312487
 30
0.0
  0
VERTEX
  5
3D5
100
AcDbEntity
  8
0
390
0
100
AcDbVertex
100
AcDb2dVertex
 10
315.3237942002
 20
143.2368830251
 30
0.0
  0
VERTEX
  5
3D6
100
AcDbEntity
  8
0
390
0
100
AcDbVertex
100
AcDb2dVertex
 10
315.2502130182
 20
143.2430535578
 30
0.0
  0
VERTEX
  5
3D7
100
AcDbEntity
  8
0
390
0
100
AcDbVertex
100
AcDb2dVertex
 10
315.175869079
 20
143.2437415268
 30
0.0
  0
VERTEX
  5
3D8
100
AcDbEntity
  8
0
390
0
100
AcDbVertex
100
AcDb2dVertex
 10
315.1019831078
 20
143.2389356357
 30
0.0
  0
VERTEX
  5
3D9
100
AcDbEntity
  8
0
390
0
100
AcDbVertex
100
AcDb2dVertex
 10
315.0297683104
 20
143.2287147971
 30
0.0
  0
VERTEX
  5
3DA
100
AcDbEntity
  8
0
390
0
100
AcDbVertex
100
AcDb2dVertex
 10
314.9604104517
 20
143.2132468368
 30
0.0
  0
VERTEX
  5
3DB
100
AcDbEntity
  8
0
390
0
100
AcDbVertex
100
AcDb2dVertex
 10
314.8950483858
 20
143.1927857384
 30
0.0
  0
VERTEX
  5
3DC
100
AcDbEntity
  8
0
390
0
100
AcDbVertex
100
AcDb2dVertex
 10
314.834755356
 20
143.1676674726
 30
0.0
  0
VERTEX
  5
3DD
100
AcDbEntity
  8
0
390
0
100
AcDbVertex
100
AcDb2dVertex
 10
314.7805213723
 20
143.1383044804
 30
0.0
  0
VERTEX
  5
3DE
100
AcDbEntity
  8
0
390
0
100
AcDbVertex
100
AcDb2dVertex
 10
314.7332369551
 20
143.1051789016
 30
0.0
  0
VERTEX
  5
3DF
100
AcDbEntity
  8
0
390
0
100
AcDbVertex
100
AcDb2dVertex
 10
314.6936785133
 20
143.0688346571
 30
0.0
  0
VERTEX
  5
3E0
100
AcDbEntity
  8
0
390
0
100
AcDbVertex
100
AcDb2dVertex
 10
314.6624955953
 20
143.0298685185
 30
0.0
  0
VERTEX
  5
3E1
100
AcDbEntity
  8
0
390
0
100
AcDbVertex
100
AcDb2dVertex
 10
314.6402002239
 20
142.9889203086
 30
0.0
  0
VERTEX
  5
3E2
100
AcDbEntity
  8
0
390
0
100
AcDbVertex
100
AcDb2dVertex
 10
314.6363846792
 20
142.9793289977
 30
0.0
  0
SEQEND
  5
3E3
100
AcDbEntity
  8
0
390
0
  0
LINE
  5
3E4
100
AcDbEntity
  8
0
370
        15
390
0
  6
Continuous
 62
         7
100
AcDbLine
 10
290.896721327
 20
142.7690005054
 30
0.0
 11
290.896721327
 21
142.6286575533
 31
0.0
  0
LINE
  5
3E5
100
AcDbEntity
  8
0
370
        15
390
0
  6
Continuous
 62
         7
100
AcDbLine
 10
294.4212066894
 20
144.8036425966
 30
0.0
 11
294.4212066894
 21
144.6632996445
 31
0.0
  0
LINE
  5
3E6
100
AcDbEntity
  8
0
370
        15
390
0
  6
Continuous
 62
         7
100
AcDbLine
 10
290.896721327
 20
142.6286575533
 30
0.0
 11
294.4212066894
 21
144.6632996445
 31
0.0
  0
LINE
  5
3E7
100
AcDbEntity
  8
0
370
        15
390
0
  6
Continuous
 62
         7
100
AcDbLine
 10
262.6004513613
 20
159.1040894544
 30
0.0
 11
262.6004513613
 21
158.9637465024
 31
0.0
  0
LINE
  5
3E8
100
AcDbEntity
  8
0
370
        15
390
0
  6
Continuous
 62
         7
100
AcDbLine
 10
262.6004513613
 20
158.9637465024
 30
0.0
 11
290.896721327
 21
142.6286575533
 31
0.0
  0
POLYLINE
  5
3E9
100
AcDbEntity
  8
0
390
0
  6
Continuous
 62
         7
100
AcDb2dPolyline
 66
         1
 10
0.0
 20
0.0
 30
0.0
 70
       128
 40
0.1299212598
 41
0.1299212598
  0
VERTEX
  5
3EA
100
AcDbEntity
  8
0
390
0
100
AcDbVertex
100
AcDb2dVertex
 10
330.1890474633
 20
163.6063901975
 30
0.0
  0
VERTEX
  5
3EB
100
AcDbEntity
  8
0
390
0
100
AcDbVertex
100
AcDb2dVertex
 10
330.1806210928
 20
163.9206208252
 30
0.0
  0
VERTEX
  5
3EC
100
AcDbEntity
  8
0
390
0
100
AcDbVertex
100
AcDb2dVertex
 10
330.1544766791
 20
164.3047594786
 30
0.0
  0
VERTEX
  5
3ED
100
AcDbEntity
  8
0
390
0
100
AcDbVertex
100
AcDb2dVertex
 10
330.1109225656
 20
164.6883714125
 30
0.0
  0
VERTEX
  5
3EE
100
AcDbEntity
  8
0
390
0
100
AcDbVertex
100
AcDb2dVertex
 10
330.0499886022
 20
165.0711937185
 30
0.0
  0
VERTEX
  5
3EF
100
AcDbEntity
  8
0
390
0
100
AcDbVertex
100
AcDb2dVertex
 10
329.97171655
 20
165.4529640293
 30
0.0
  0
VERTEX
  5
3F0
100
AcDbEntity
  8
0
390
0
100
AcDbVertex
100
AcDb2dVertex
 10
329.8761600527
 20
165.8334206986
 30
0.0
  0
VERTEX
  5
3F1
100
AcDbEntity
  8
0
390
0
100
AcDbVertex
100
AcDb2dVertex
 10
329.7633845999
 20
166.2123029804
 30
0.0
  0
VERTEX
  5
3F2
100
AcDbEntity
  8
0
390
0
100
AcDbVertex
100
AcDb2dVertex
 10
329.6334674825
 20
166.5893512077
 30
0.0
  0
VERTEX
  5
3F3
100
AcDbEntity
  8
0
390
0
100
AcDbVertex
100
AcDb2dVertex
 10
329.4864977389
 20
166.9643069706
 30
0.0
  0
VERTEX
  5
3F4
100
AcDbEntity
  8
0
390
0
100
AcDbVertex
100
AcDb2dVertex
 10
329.322576095
 20
167.336913293
 30
0.0
  0
VERTEX
  5
3F5
100
AcDbEntity
  8
0
390
0
100
AcDbVertex
100
AcDb2dVertex
 10
329.1418148945
 20
167.7069148092
 30
0.0
  0
VERTEX
  5
3F6
100
AcDbEntity
  8
0
390
0
100
AcDbVertex
100
AcDb2dVertex
 10
328.944338022
 20
168.0740579386
 30
0.0
  0
VERTEX
  5
3F7
100
AcDbEntity
  8
0
390
0
100
AcDbVertex
100
AcDb2dVertex
 10
328.7302808184
 20
168.4380910597
 30
0.0
  0
VERTEX
  5
3F8
100
AcDbEntity
  8
0
390
0
100
AcDbVertex
100
AcDb2dVertex
 10
328.4997899878
 20
168.7987646823
 30
0.0
  0
VERTEX
  5
3F9
100
AcDbEntity
  8
0
390
0
100
AcDbVertex
100
AcDb2dVertex
 10
328.253023497
 20
169.1558316188
 30
0.0
  0
VERTEX
  5
3FA
100
AcDbEntity
  8
0
390
0
100
AcDbVertex
100
AcDb2dVertex
 10
327.9901504676
 20
169.5090471534
 30
0.0
  0
VERTEX
  5
3FB
100
AcDbEntity
  8
0
390
0
100
AcDbVertex
100
AcDb2dVertex
 10
327.7113510594
 20
169.8581692097
 30
0.0
  0
VERTEX
  5
3FC
100
AcDbEntity
  8
0
390
0
100
AcDbVertex
100
AcDb2dVertex
 10
327.4168163478
 20
170.2029585169
 30
0.0
  0
VERTEX
  5
3FD
100
AcDbEntity
  8
0
390
0
100
AcDbVertex
100
AcDb2dVertex
 10
327.1067481921
 20
170.5431787736
 30
0.0
  0
VERTEX
  5
3FE
100
AcDbEntity
  8
0
390
0
100
AcDbVertex
100
AcDb2dVertex
 10
326.7813590976
 20
170.87859681
 30
0.0
  0
VERTEX
  5
3FF
100
AcDbEntity
  8
0
390
0
100
AcDbVertex
100
AcDb2dVertex
 10
326.4408720695
 20
171.2089827472
 30
0.0
  0
VERTEX
  5
400
100
AcDbEntity
  8
0
390
0
100
AcDbVertex
100
AcDb2dVertex
 10
326.0855204609
 20
171.5341101551
 30
0.0
  0
VERTEX
  5
401
100
AcDbEntity
  8
0
390
0
100
AcDbVertex
100
AcDb2dVertex
 10
325.7155478119
 20
171.8537562078
 30
0.0
  0
VERTEX
  5
402
100
AcDbEntity
  8
0
390
0
100
AcDbVertex
100
AcDb2dVertex
 10
325.3312076832
 20
172.1677018358
 30
0.0
  0
VERTEX
  5
403
100
AcDbEntity
  8
0
390
0
100
AcDbVertex
100
AcDb2dVertex
 10
324.9327634824
 20
172.4757318764
 30
0.0
  0
VERTEX
  5
404
100
AcDbEntity
  8
0
390
0
100
AcDbVertex
100
AcDb2dVertex
 10
324.5204882833
 20
172.7776352212
 30
0.0
  0
VERTEX
  5
405
100
AcDbEntity
  8
0
390
0
100
AcDbVertex
100
AcDb2dVertex
 10
324.0946646387
 20
173.0732049607
 30
0.0
  0
VERTEX
  5
406
100
AcDbEntity
  8
0
390
0
100
AcDbVertex
100
AcDb2dVertex
 10
323.6555843869
 20
173.3622385263
 30
0.0
  0
VERTEX
  5
407
100
AcDbEntity
  8
0
390
0
100
AcDbVertex
100
AcDb2dVertex
 10
323.2035484514
 20
173.6445378287
 30
0.0
  0
VERTEX
  5
408
100
AcDbEntity
  8
0
390
0
100
AcDbVertex
100
AcDb2dVertex
 10
322.7388666352
 20
173.9199093942
 30
0.0
  0
VERTEX
  5
409
100
AcDbEntity
  8
0
390
0
100
AcDbVertex
100
AcDb2dVertex
 10
322.261857408
 20
174.1881644967
 30
0.0
  0
VERTEX
  5
40A
100
AcDbEntity
  8
0
390
0
100
AcDbVertex
100
AcDb2dVertex
 10
321.772847688
 20
174.4491192876
 30
0.0
  0
VERTEX
  5
40B
100
AcDbEntity
  8
0
390
0
100
AcDbVertex
100
AcDb2dVertex
 10
321.2721726182
 20
174.7025949217
 30
0.0
  0
VERTEX
  5
40C
100
AcDbEntity
  8
0
390
0
100
AcDbVertex
100
AcDb2dVertex
 10
320.7601753361
 20
174.9484176792
 30
0.0
  0
VERTEX
  5
40D
100
AcDbEntity
  8
0
390
0
100
AcDbVertex
100
AcDb2dVertex
 10
320.2372067392
 20
175.1864190856
 30
0.0
  0
VERTEX
  5
40E
100
AcDbEntity
  8
0
390
0
100
AcDbVertex
100
AcDb2dVertex
 10
319.703625244
 20
175.4164360267
 30
0.0
  0
VERTEX
  5
40F
100
AcDbEntity
  8
0
390
0
100
AcDbVertex
100
AcDb2dVertex
 10
319.1597965406
 20
175.6383108602
 30
0.0
  0
VERTEX
  5
410
100
AcDbEntity
  8
0
390
0
100
AcDbVertex
100
AcDb2dVertex
 10
318.606093342
 20
175.8518915243
 30
0.0
  0
VERTEX
  5
411
100
AcDbEntity
  8
0
390
0
100
AcDbVertex
100
AcDb2dVertex
 10
318.0428951287
 20
176.0570316415
 30
0.0
  0
VERTEX
  5
412
100
AcDbEntity
  8
0
390
0
100
AcDbVertex
100
AcDb2dVertex
 10
317.4705878888
 20
176.2535906189
 30
0.0
  0
VERTEX
  5
413
100
AcDbEntity
  8
0
390
0
100
AcDbVertex
100
AcDb2dVertex
 10
316.8895638529
 20
176.4414337448
 30
0.0
  0
VERTEX
  5
414
100
AcDbEntity
  8
0
390
0
100
AcDbVertex
100
AcDb2dVertex
 10
316.3002212259
 20
176.620432281
 30
0.0
  0
VERTEX
  5
415
100
AcDbEntity
  8
0
390
0
100
AcDbVertex
100
AcDb2dVertex
 10
315.7029639138
 20
176.7904635508
 30
0.0
  0
VERTEX
  5
416
100
AcDbEntity
  8
0
390
0
100
AcDbVertex
100
AcDb2dVertex
 10
315.098201247
 20
176.9514110232
 30
0.0
  0
VERTEX
  5
417
100
AcDbEntity
  8
0
390
0
100
AcDbVertex
100
AcDb2dVertex
 10
314.4863476996
 20
177.103164393
 30
0.0
  0
VERTEX
  5
418
100
AcDbEntity
  8
0
390
0
100
AcDbVertex
100
AcDb2dVertex
 10
313.8678226053
 20
177.2456196559
 30
0.0
  0
VERTEX
  5
419
100
AcDbEntity
  8
0
390
0
100
AcDbVertex
100
AcDb2dVertex
 10
313.2430498705
 20
177.3786791801
 30
0.0
  0
VERTEX
  5
41A
100
AcDbEntity
  8
0
390
0
100
AcDbVertex
100
AcDb2dVertex
 10
312.6124576832
 20
177.5022517735
 30
0.0
  0
VERTEX
  5
41B
100
AcDbEntity
  8
0
390
0
100
AcDbVertex
100
AcDb2dVertex
 10
311.9764782197
 20
177.6162527454
 30
0.0
  0
VERTEX
  5
41C
100
AcDbEntity
  8
0
390
0
100
AcDbVertex
100
AcDb2dVertex
 10
311.3355473486
 20
177.7206039652
 30
0.0
  0
VERTEX
  5
41D
100
AcDbEntity
  8
0
390
0
100
AcDbVertex
100
AcDb2dVertex
 10
310.6901043319
 20
177.815233916
 30
0.0
  0
VERTEX
  5
41E
100
AcDbEntity
  8
0
390
0
100
AcDbVertex
100
AcDb2dVertex
 10
310.040591524
 20
177.900077743
 30
0.0
  0
VERTEX
  5
41F
100
AcDbEntity
  8
0
390
0
100
AcDbVertex
100
AcDb2dVertex
 10
309.3874540685
 20
177.9750772985
 30
0.0
  0
VERTEX
  5
420
100
AcDbEntity
  8
0
390
0
100
AcDbVertex
100
AcDb2dVertex
 10
308.7311395932
 20
178.0401811816
 30
0.0
  0
VERTEX
  5
421
100
AcDbEntity
  8
0
390
0
100
AcDbVertex
100
AcDb2dVertex
 10
308.0720979034
 20
178.0953447733
 30
0.0
  0
VERTEX
  5
422
100
AcDbEntity
  8
0
390
0
100
AcDbVertex
100
AcDb2dVertex
 10
307.4107806732
 20
178.1405302673
 30
0.0
  0
VERTEX
  5
423
100
AcDbEntity
  8
0
390
0
100
AcDbVertex
100
AcDb2dVertex
 10
306.7476411364
 20
178.1757066956
 30
0.0
  0
VERTEX
  5
424
100
AcDbEntity
  8
0
390
0
100
AcDbVertex
100
AcDb2dVertex
 10
306.0831337757
 20
178.2008499501
 30
0.0
  0
VERTEX
  5
425
100
AcDbEntity
  8
0
390
0
100
AcDbVertex
100
AcDb2dVertex
 10
305.4177140114
 20
178.2159427989
 30
0.0
  0
VERTEX
  5
426
100
AcDbEntity
  8
0
390
0
100
AcDbVertex
100
AcDb2dVertex
 10
304.7518378888
 20
178.2209748981
 30
0.0
  0
VERTEX
  5
427
100
AcDbEntity
  8
0
390
0
100
AcDbVertex
100
AcDb2dVertex
 10
304.0859617662
 20
178.2159427989
 30
0.0
  0
VERTEX
  5
428
100
AcDbEntity
  8
0
390
0
100
AcDbVertex
100
AcDb2dVertex
 10
303.4205420019
 20
178.2008499501
 30
0.0
  0
VERTEX
  5
429
100
AcDbEntity
  8
0
390
0
100
AcDbVertex
100
AcDb2dVertex
 10
302.7560346412
 20
178.1757066956
 30
0.0
  0
VERTEX
  5
42A
100
AcDbEntity
  8
0
390
0
100
AcDbVertex
100
AcDb2dVertex
 10
302.0928951044
 20
178.1405302673
 30
0.0
  0
VERTEX
  5
42B
100
AcDbEntity
  8
0
390
0
100
AcDbVertex
100
AcDb2dVertex
 10
301.4315778742
 20
178.0953447733
 30
0.0
  0
VERTEX
  5
42C
100
AcDbEntity
  8
0
390
0
100
AcDbVertex
100
AcDb2dVertex
 10
300.7725361843
 20
178.0401811816
 30
0.0
  0
VERTEX
  5
42D
100
AcDbEntity
  8
0
390
0
100
AcDbVertex
100
AcDb2dVertex
 10
300.1162217091
 20
177.9750772985
 30
0.0
  0
VERTEX
  5
42E
100
AcDbEntity
  8
0
390
0
100
AcDbVertex
100
AcDb2dVertex
 10
299.4630842536
 20
177.900077743
 30
0.0
  0
VERTEX
  5
42F
100
AcDbEntity
  8
0
390
0
100
AcDbVertex
100
AcDb2dVertex
 10
298.8135714457
 20
177.815233916
 30
0.0
  0
VERTEX
  5
430
100
AcDbEntity
  8
0
390
0
100
AcDbVertex
100
AcDb2dVertex
 10
298.168128429
 20
177.7206039652
 30
0.0
  0
VERTEX
  5
431
100
AcDbEntity
  8
0
390
0
100
AcDbVertex
100
AcDb2dVertex
 10
297.5271975579
 20
177.6162527453
 30
0.0
  0
VERTEX
  5
432
100
AcDbEntity
  8
0
390
0
100
AcDbVertex
100
AcDb2dVertex
 10
296.8912180944
 20
177.5022517735
 30
0.0
  0
VERTEX
  5
433
100
AcDbEntity
  8
0
390
0
100
AcDbVertex
100
AcDb2dVertex
 10
296.260625907
 20
177.3786791801
 30
0.0
  0
VERTEX
  5
434
100
AcDbEntity
  8
0
390
0
100
AcDbVertex
100
AcDb2dVertex
 10
295.6358531722
 20
177.2456196559
 30
0.0
  0
VERTEX
  5
435
100
AcDbEntity
  8
0
390
0
100
AcDbVertex
100
AcDb2dVertex
 10
295.017328078
 20
177.103164393
 30
0.0
  0
VERTEX
  5
436
100
AcDbEntity
  8
0
390
0
100
AcDbVertex
100
AcDb2dVertex
 10
294.4054745305
 20
176.9514110232
 30
0.0
  0
VERTEX
  5
437
100
AcDbEntity
  8
0
390
0
100
AcDbVertex
100
AcDb2dVertex
 10
293.8007118637
 20
176.7904635508
 30
0.0
  0
VERTEX
  5
438
100
AcDbEntity
  8
0
390
0
100
AcDbVertex
100
AcDb2dVertex
 10
293.2034545517
 20
176.620432281
 30
0.0
  0
VERTEX
  5
439
100
AcDbEntity
  8
0
390
0
100
AcDbVertex
100
AcDb2dVertex
 10
292.6141119247
 20
176.4414337448
 30
0.0
  0
VERTEX
  5
43A
100
AcDbEntity
  8
0
390
0
100
AcDbVertex
100
AcDb2dVertex
 10
292.0330878888
 20
176.2535906189
 30
0.0
  0
VERTEX
  5
43B
100
AcDbEntity
  8
0
390
0
100
AcDbVertex
100
AcDb2dVertex
 10
291.4607806488
 20
176.0570316415
 30
0.0
  0
VERTEX
  5
43C
100
AcDbEntity
  8
0
390
0
100
AcDbVertex
100
AcDb2dVertex
 10
290.8975824356
 20
175.8518915243
 30
0.0
  0
VERTEX
  5
43D
100
AcDbEntity
  8
0
390
0
100
AcDbVertex
100
AcDb2dVertex
 10
290.343879237
 20
175.6383108602
 30
0.0
  0
VERTEX
  5
43E
100
AcDbEntity
  8
0
390
0
100
AcDbVertex
100
AcDb2dVertex
 10
289.8000505336
 20
175.4164360267
 30
0.0
  0
VERTEX
  5
43F
100
AcDbEntity
  8
0
390
0
100
AcDbVertex
100
AcDb2dVertex
 10
289.2664690384
 20
175.1864190856
 30
0.0
  0
VERTEX
  5
440
100
AcDbEntity
  8
0
390
0
100
AcDbVertex
100
AcDb2dVertex
 10
288.7435004415
 20
174.9484176792
 30
0.0
  0
VERTEX
  5
441
100
AcDbEntity
  8
0
390
0
100
AcDbVertex
100
AcDb2dVertex
 10
288.2315031594
 20
174.7025949217
 30
0.0
  0
VERTEX
  5
442
100
AcDbEntity
  8
0
390
0
100
AcDbVertex
100
AcDb2dVertex
 10
287.7308280895
 20
174.4491192876
 30
0.0
  0
VERTEX
  5
443
100
AcDbEntity
  8
0
390
0
100
AcDbVertex
100
AcDb2dVertex
 10
287.2418183696
 20
174.1881644967
 30
0.0
  0
VERTEX
  5
444
100
AcDbEntity
  8
0
390
0
100
AcDbVertex
100
AcDb2dVertex
 10
286.7648091424
 20
173.9199093941
 30
0.0
  0
VERTEX
  5
445
100
AcDbEntity
  8
0
390
0
100
AcDbVertex
100
AcDb2dVertex
 10
286.3001273262
 20
173.6445378287
 30
0.0
  0
VERTEX
  5
446
100
AcDbEntity
  8
0
390
0
100
AcDbVertex
100
AcDb2dVertex
 10
285.8480913907
 20
173.3622385263
 30
0.0
  0
VERTEX
  5
447
100
AcDbEntity
  8
0
390
0
100
AcDbVertex
100
AcDb2dVertex
 10
285.4090111388
 20
173.0732049607
 30
0.0
  0
VERTEX
  5
448
100
AcDbEntity
  8
0
390
0
100
AcDbVertex
100
AcDb2dVertex
 10
284.9831874942
 20
172.7776352212
 30
0.0
  0
VERTEX
  5
449
100
AcDbEntity
  8
0
390
0
100
AcDbVertex
100
AcDb2dVertex
 10
284.5709122951
 20
172.4757318764
 30
0.0
  0
VERTEX
  5
44A
100
AcDbEntity
  8
0
390
0
100
AcDbVertex
100
AcDb2dVertex
 10
284.1724680944
 20
172.1677018358
 30
0.0
  0
VERTEX
  5
44B
100
AcDbEntity
  8
0
390
0
100
AcDbVertex
100
AcDb2dVertex
 10
283.7881279657
 20
171.8537562078
 30
0.0
  0
VERTEX
  5
44C
100
AcDbEntity
  8
0
390
0
100
AcDbVertex
100
AcDb2dVertex
 10
283.4181553167
 20
171.5341101551
 30
0.0
  0
VERTEX
  5
44D
100
AcDbEntity
  8
0
390
0
100
AcDbVertex
100
AcDb2dVertex
 10
283.062803708
 20
171.2089827472
 30
0.0
  0
VERTEX
  5
44E
100
AcDbEntity
  8
0
390
0
100
AcDbVertex
100
AcDb2dVertex
 10
282.72231668
 20
170.87859681
 30
0.0
  0
VERTEX
  5
44F
100
AcDbEntity
  8
0
390
0
100
AcDbVertex
100
AcDb2dVertex
 10
282.3969275854
 20
170.5431787736
 30
0.0
  0
VERTEX
  5
450
100
AcDbEntity
  8
0
390
0
100
AcDbVertex
100
AcDb2dVertex
 10
282.0868594297
 20
170.2029585169
 30
0.0
  0
VERTEX
  5
451
100
AcDbEntity
  8
0
390
0
100
AcDbVertex
100
AcDb2dVertex
 10
281.7923247181
 20
169.8581692097
 30
0.0
  0
VERTEX
  5
452
100
AcDbEntity
  8
0
390
0
100
AcDbVertex
100
AcDb2dVertex
 10
281.51352531
 20
169.5090471534
 30
0.0
  0
VERTEX
  5
453
100
AcDbEntity
  8
0
390
0
100
AcDbVertex
100
AcDb2dVertex
 10
281.2506522805
 20
169.1558316188
 30
0.0
  0
VERTEX
  5
454
100
AcDbEntity
  8
0
390
0
100
AcDbVertex
100
AcDb2dVertex
 10
281.0038857898
 20
168.7987646823
 30
0.0
  0
VERTEX
  5
455
100
AcDbEntity
  8
0
390
0
100
AcDbVertex
100
AcDb2dVertex
 10
280.7733949591
 20
168.4380910597
 30
0.0
  0
VERTEX
  5
456
100
AcDbEntity
  8
0
390
0
100
AcDbVertex
100
AcDb2dVertex
 10
280.5593377555
 20
168.0740579386
 30
0.0
  0
VERTEX
  5
457
100
AcDbEntity
  8
0
390
0
100
AcDbVertex
100
AcDb2dVertex
 10
280.3618608831
 20
167.7069148092
 30
0.0
  0
VERTEX
  5
458
100
AcDbEntity
  8
0
390
0
100
AcDbVertex
100
AcDb2dVertex
 10
280.1810996826
 20
167.336913293
 30
0.0
  0
VERTEX
  5
459
100
AcDbEntity
  8
0
390
0
100
AcDbVertex
100
AcDb2dVertex
 10
280.0171780387
 20
166.9643069706
 30
0.0
  0
VERTEX
  5
45A
100
AcDbEntity
  8
0
390
0
100
AcDbVertex
100
AcDb2dVertex
 10
279.8702082951
 20
166.5893512077
 30
0.0
  0
VERTEX
  5
45B
100
AcDbEntity
  8
0
390
0
100
AcDbVertex
100
AcDb2dVertex
 10
279.7402911776
 20
166.2123029804
 30
0.0
  0
VERTEX
  5
45C
100
AcDbEntity
  8
0
390
0
100
AcDbVertex
100
AcDb2dVertex
 10
279.6275157249
 20
165.8334206986
 30
0.0
  0
VERTEX
  5
45D
100
AcDbEntity
  8
0
390
0
100
AcDbVertex
100
AcDb2dVertex
 10
279.5319592276
 20
165.4529640293
 30
0.0
  0
VERTEX
  5
45E
100
AcDbEntity
  8
0
390
0
100
AcDbVertex
100
AcDb2dVertex
 10
279.4536871754
 20
165.0711937185
 30
0.0
  0
VERTEX
  5
45F
100
AcDbEntity
  8
0
390
0
100
AcDbVertex
100
AcDb2dVertex
 10
279.3927532119
 20
164.6883714125
 30
0.0
  0
VERTEX
  5
460
100
AcDbEntity
  8
0
390
0
100
AcDbVertex
100
AcDb2dVertex
 10
279.3491990985
 20
164.3047594786
 30
0.0
  0
VERTEX
  5
461
100
AcDbEntity
  8
0
390
0
100
AcDbVertex
100
AcDb2dVertex
 10
279.3230546847
 20
163.9206208252
 30
0.0
  0
VERTEX
  5
462
100
AcDbEntity
  8
0
390
0
100
AcDbVertex
100
AcDb2dVertex
 10
279.3146283142
 20
163.6063901975
 30
0.0
  0
SEQEND
  5
463
100
AcDbEntity
  8
0
390
0
  0
POLYLINE
  5
464
100
AcDbEntity
  8
0
390
0
  6
Continuous
 62
         7
100
AcDb2dPolyline
 66
         1
 10
0.0
 20
0.0
 30
0.0
 70
       128
 40
0.1299212598
 41
0.1299212598
  0
VERTEX
  5
465
100
AcDbEntity
  8
0
390
0
100
AcDbVertex
100
AcDb2dVertex
 10
318.4760881557
 20
144.6631707283
 30
0.0
  0
VERTEX
  5
466
100
AcDbEntity
  8
0
390
0
100
AcDbVertex
100
AcDb2dVertex
 10
318.4691244765
 20
144.6739805371
 30
0.0
  0
VERTEX
  5
467
100
AcDbEntity
  8
0
390
0
100
AcDbVertex
100
AcDb2dVertex
 10
318.4421085405
 20
144.7052086951
 30
0.0
  0
VERTEX
  5
468
100
AcDbEntity
  8
0
390
0
100
AcDbVertex
100
AcDb2dVertex
 10
318.4067650669
 20
144.7335306875
 30
0.0
  0
VERTEX
  5
469
100
AcDbEntity
  8
0
390
0
100
AcDbVertex
100
AcDb2dVertex
 10
318.3640094331
 20
144.7582129895
 30
0.0
  0
VERTEX
  5
46A
100
AcDbEntity
  8
0
390
0
100
AcDbVertex
100
AcDb2dVertex
 10
318.3149489875
 20
144.7786163426
 30
0.0
  0
VERTEX
  5
46B
100
AcDbEntity
  8
0
390
0
100
AcDbVertex
100
AcDb2dVertex
 10
318.2608543699
 20
144.7942123104
 30
0.0
  0
VERTEX
  5
46C
100
AcDbEntity
  8
0
390
0
100
AcDbVertex
100
AcDb2dVertex
 10
318.2031266025
 20
144.8045969658
 30
0.0
  0
VERTEX
  5
46D
100
AcDbEntity
  8
0
390
0
100
AcDbVertex
100
AcDb2dVertex
 10
318.1432608042
 20
144.8095013515
 30
0.0
  0
VERTEX
  5
46E
100
AcDbEntity
  8
0
390
0
100
AcDbVertex
100
AcDb2dVertex
 10
318.0828074676
 20
144.8087984466
 30
0.0
  0
VERTEX
  5
46F
100
AcDbEntity
  8
0
390
0
100
AcDbVertex
100
AcDb2dVertex
 10
318.0233323025
 20
144.8025064559
 30
0.0
  0
VERTEX
  5
470
100
AcDbEntity
  8
0
390
0
100
AcDbVertex
100
AcDb2dVertex
 10
317.9663756843
 20
144.7907883387
 30
0.0
  0
VERTEX
  5
471
100
AcDbEntity
  8
0
390
0
100
AcDbVertex
100
AcDb2dVertex
 10
317.9134127597
 20
144.773947588
 30
0.0
  0
VERTEX
  5
472
100
AcDbEntity
  8
0
390
0
100
AcDbVertex
100
AcDb2dVertex
 10
317.8658152404
 20
144.7524203705
 30
0.0
  0
VERTEX
  5
473
100
AcDbEntity
  8
0
390
0
100
AcDbVertex
100
AcDb2dVertex
 10
317.8248158772
 20
144.7267642298
 30
0.0
  0
VERTEX
  5
474
100
AcDbEntity
  8
0
390
0
100
AcDbVertex
100
AcDb2dVertex
 10
317.7914765322
 20
144.6976436464
 30
0.0
  0
VERTEX
  5
475
100
AcDbEntity
  8
0
390
0
100
AcDbVertex
100
AcDb2dVertex
 10
317.7666606768
 20
144.6658128282
 30
0.0
  0
VERTEX
  5
476
100
AcDbEntity
  8
0
390
0
100
AcDbVertex
100
AcDb2dVertex
 10
317.7650627855
 20
144.6631707283
 30
0.0
  0
SEQEND
  5
477
100
AcDbEntity
  8
0
390
0
  0
POLYLINE
  5
478
100
AcDbEntity
  8
0
390
0
  6
Continuous
 62
         7
100
AcDb2dPolyline
 66
         1
 10
0.0
 20
0.0
 30
0.0
 70
       128
 40
0.1299212598
 41
0.1299212598
  0
VERTEX
  5
479
100
AcDbEntity
  8
0
390
0
100
AcDbVertex
100
AcDb2dVertex
 10
294.4212066894
 20
144.6632996445
 30
0.0
  0
VERTEX
  5
47A
100
AcDbEntity
  8
0
390
0
100
AcDbVertex
100
AcDb2dVertex
 10
294.4671077455
 20
144.6855342036
 30
0.0
  0
VERTEX
  5
47B
100
AcDbEntity
  8
0
390
0
100
AcDbVertex
100
AcDb2dVertex
 10
294.518999618
 20
144.7028296202
 30
0.0
  0
VERTEX
  5
47C
100
AcDbEntity
  8
0
390
0
100
AcDbVertex
100
AcDb2dVertex
 10
294.5753055987
 20
144.714660382
 30
0.0
  0
VERTEX
  5
47D
100
AcDbEntity
  8
0
390
0
100
AcDbVertex
100
AcDb2dVertex
 10
294.6343148589
 20
144.7206670171
 30
0.0
  0
VERTEX
  5
47E
100
AcDbEntity
  8
0
390
0
100
AcDbVertex
100
AcDb2dVertex
 10
294.694234432
 20
144.7206670171
 30
0.0
  0
VERTEX
  5
47F
100
AcDbEntity
  8
0
390
0
100
AcDbVertex
100
AcDb2dVertex
 10
294.7532436922
 20
144.714660382
 30
0.0
  0
VERTEX
  5
480
100
AcDbEntity
  8
0
390
0
100
AcDbVertex
100
AcDb2dVertex
 10
294.8095496729
 20
144.7028296202
 30
0.0
  0
VERTEX
  5
481
100
AcDbEntity
  8
0
390
0
100
AcDbVertex
100
AcDb2dVertex
 10
294.8614415455
 20
144.6855342036
 30
0.0
  0
VERTEX
  5
482
100
AcDbEntity
  8
0
390
0
100
AcDbVertex
100
AcDb2dVertex
 10
294.9073426015
 20
144.6632996445
 30
0.0
  0
SEQEND
  5
483
100
AcDbEntity
  8
0
390
0
  0
LINE
  5
484
100
AcDbEntity
  8
0
370
        15
390
0
  6
Continuous
 62
         7
100
AcDbLine
 10
337.4442349072
 20
169.6403081234
 30
0.0
 11
337.4442349072
 21
169.4999651714
 31
0.0
  0
POLYLINE
  5
485
100
AcDbEntity
  8
0
390
0
  6
Continuous
 62
         7
100
AcDb2dPolyline
 66
         1
 10
0.0
 20
0.0
 30
0.0
 70
       128
 40
0.1299212598
 41
0.1299212598
  0
VERTEX
  5
486
100
AcDbEntity
  8
0
390
0
100
AcDbVertex
100
AcDb2dVertex
 10
337.3657616487
 20
169.4298165032
 30
0.0
  0
VERTEX
  5
487
100
AcDbEntity
  8
0
390
0
100
AcDbVertex
100
AcDb2dVertex
 10
337.3757595615
 20
169.4435105154
 30
0.0
  0
VERTEX
  5
488
100
AcDbEntity
  8
0
390
0
100
AcDbVertex
100
AcDb2dVertex
 10
337.4057193481
 20
169.4734670558
 30
0.0
  0
VERTEX
  5
489
100
AcDbEntity
  8
0
390
0
100
AcDbVertex
100
AcDb2dVertex
 10
337.4442349072
 20
169.4999651714
 30
0.0
  0
SEQEND
  5
48A
100
AcDbEntity
  8
0
390
0
  0
LINE
  5
48B
100
AcDbEntity
  8
0
370
        15
390
0
  6
Continuous
 62
         7
100
AcDbLine
 10
340.9687202697
 20
171.6749502146
 30
0.0
 11
340.9687202697
 21
171.5346072626
 31
0.0
  0
LINE
  5
48C
100
AcDbEntity
  8
0
370
        15
390
0
  6
Continuous
 62
         7
100
AcDbLine
 10
337.4442349072
 20
169.4999651714
 30
0.0
 11
340.9687202697
 21
171.5346072626
 31
0.0
  0
LINE
  5
48D
100
AcDbEntity
  8
0
370
        15
390
0
  6
Continuous
 62
         7
100
AcDbLine
 10
285.5800959246
 20
179.8310585974
 30
0.0
 11
285.5800959246
 21
179.6907156453
 31
0.0
  0
POLYLINE
  5
48E
100
AcDbEntity
  8
0
390
0
  6
Continuous
 62
         7
100
AcDb2dPolyline
 66
         1
 10
0.0
 20
0.0
 30
0.0
 70
       128
 40
0.1299212598
 41
0.1299212598
  0
VERTEX
  5
48F
100
AcDbEntity
  8
0
390
0
100
AcDbVertex
100
AcDb2dVertex
 10
285.5800959246
 20
179.6907156453
 30
0.0
  0
VERTEX
  5
490
100
AcDbEntity
  8
0
390
0
100
AcDbVertex
100
AcDb2dVertex
 10
285.6351486555
 20
179.6548420129
 30
0.0
  0
VERTEX
  5
491
100
AcDbEntity
  8
0
390
0
100
AcDbVertex
100
AcDb2dVertex
 10
285.6823096373
 20
179.6153991315
 30
0.0
  0
VERTEX
  5
492
100
AcDbEntity
  8
0
390
0
100
AcDbVertex
100
AcDb2dVertex
 10
285.7208911567
 20
179.5729621671
 30
0.0
  0
VERTEX
  5
493
100
AcDbEntity
  8
0
390
0
100
AcDbVertex
100
AcDb2dVertex
 10
285.7503306083
 20
179.5281499463
 30
0.0
  0
VERTEX
  5
494
100
AcDbEntity
  8
0
390
0
100
AcDbVertex
100
AcDb2dVertex
 10
285.7701986986
 20
179.481615932
 30
0.0
  0
VERTEX
  5
495
100
AcDbEntity
  8
0
390
0
100
AcDbVertex
100
AcDb2dVertex
 10
285.770629016
 20
179.4802468329
 30
0.0
  0
SEQEND
  5
496
100
AcDbEntity
  8
0
390
0
  0
LINE
  5
497
100
AcDbEntity
  8
0
370
        15
390
0
  6
Continuous
 62
         7
100
AcDbLine
 10
284.1216881884
 20
180.6729794627
 30
0.0
 11
284.1216881884
 21
180.5326365106
 31
0.0
  0
LINE
  5
498
100
AcDbEntity
  8
0
370
        15
390
0
  6
Continuous
 62
         7
100
AcDbLine
 10
284.1216881884
 20
180.5326365106
 30
0.0
 11
285.5800959246
 21
179.6907156453
 31
0.0
  0
ENDSEC
  0
SECTION
  2
OBJECTS
  0
DICTIONARY
  5
19
100
AcDbDictionary
280
         0
281
         1
  3
ACAD_GROUP
350
1A
  3
ACAD_MLINESTYLE
350
1B
  3
ACAD_LAYOUT
350
1E
  3
ACAD_PLOTSETTINGS
350
22
  3
ACAD_PLOTSTYLENAME
350
1F
  3
ACAD_WIPEOUT_VARS
350
23
  0
DICTIONARY
  5
1A
102
{ACAD_REACTORS
330
19
102
}
100
AcDbDictionary
280
         0
281
         1
  0
DICTIONARY
  5
1B
102
{ACAD_REACTORS
330
19
102
}
100
AcDbDictionary
280
         0
281
         1
  3
Standard
350
1C
  0
MLINESTYLE
  5
1C
102
{ACAD_REACTORS
330
1B
102
}
100
AcDbMlineStyle
  2
Standard
 70
         0
  3

 62
         0
 51
90.0
 52
90.0
 71
         2
 49
0.5
 62
       256
  6
ByLayer
 49
-0.5
 62
       256
  6
ByLayer
  0
ACDBDICTIONARYWDFLT
  5
1F
102
{ACAD_REACTORS
330
19
102
}
100
AcDbDictionary
281
         1
  3
Normal
350
1D
100
AcDbDictionaryWithDefault
340
1D
  0
ACDBPLACEHOLDER
  5
1D
102
{ACAD_REACTORS
330
1F
102
}
  0
LAYOUT
  5
20
102
{ACAD_REACTORS
330
1E
102
}
100
AcDbPlotSettings
  1

  2

  4

  6

 40
0.0
 41
0.0
 42
0.0
 43
0.0
 44
0.0
 45
0.0
 46
0.0
 47
0.0
 48
0.0
 49
0.0
140
0.0
141
0.0
142
1.0
143
1.0
 70
      1024
 72
         0
 73
         0
 74
         0
  7

 75
         0
147
1.0
148
0.0
149
0.0
100
AcDbLayout
  1
Model
 70
         0
 71
         0
 10
0.0
 20
0.0
 11
0.0
 21
0.0
 12
0.0
 22
0.0
 32
0.0
 14
0.0
 24
0.0
 34
0.0
 15
0.0
 25
0.0
 35
0.0
146
0.0
 13
0.0
 23
0.0
 33
0.0
 16
0.0
 26
0.0
 36
0.0
 17
0.0
 27
0.0
 37
0.0
 76
         0
330
A
331
0
345
0
346
0
  0
LAYOUT
  5
21
102
{ACAD_REACTORS
330
1E
102
}
100
AcDbPlotSettings
  1

  2

  4

  6

 40
0.0
 41
0.0
 42
0.0
 43
0.0
 44
0.0
 45
0.0
 46
0.0
 47
0.0
 48
0.0
 49
0.0
140
0.0
141
0.0
142
1.0
143
1.0
 70
         0
 72
         0
 73
         0
 74
         0
  7

 75
         0
147
1.0
148
0.0
149
0.0
100
AcDbLayout
  1
Layout1
 70
         0
 71
         0
 10
0.0
 20
0.0
 11
0.0
 21
0.0
 12
0.0
 22
0.0
 32
0.0
 14
0.0
 24
0.0
 34
0.0
 15
0.0
 25
0.0
 35
0.0
146
0.0
 13
0.0
 23
0.0
 33
0.0
 16
0.0
 26
0.0
 36
0.0
 17
0.0
 27
0.0
 37
0.0
 76
         0
330
B
331
0
345
0
346
0
  0
DICTIONARY
  5
1E
102
{ACAD_REACTORS
330
19
102
}
100
AcDbDictionary
280
         0
281
         1
  3
Layout1
350
21
  3
Model
350
20
  0
DICTIONARY
  5
22
102
{ACAD_REACTORS
330
19
102
}
100
AcDbDictionary
280
         0
281
         1
  0
WIPEOUTVARIABLES
  5
23
100
AcDbWipeoutVariables
 70
         1
  0
ENDSEC
  0
EOF
