  0
SECTION
  2
HEADER
  9
$ACADVER
  1
AC1015
  9
$ACADMAINTVER
 70
    10
  9
$DWGCODEPAGE
  3
ANSI_1252
  9
$INSBASE
 10
0.0
 20
0.0
 30
0.0
  9
$EXTMIN
 10
5.130174757349999
 20
-1.465762675166666
 30
0.0
  9
$EXTMAX
 10
134.0821606362999
 20
86.46951697049999
 30
0.0
  9
$LIMMIN
 10
0.0
 20
0.0
  9
$LIMMAX
 10
0.0
 20
0.0
  9
$ORTHOMODE
 70
     0
  9
$REGENMODE
 70
     1
  9
$FILLMODE
 70
     1
  9
$QTEXTMODE
 70
     0
  9
$MIRRTEXT
 70
     1
  9
$LTSCALE
 40
1.0
  9
$ATTMODE
 70
     1
  9
$TEXTSIZE
 40
0.0
  9
$TRACEWID
 40
0.05
  9
$TEXTSTYLE
  7
Standard
  9
$CLAYER
  8
0
  9
$CELTYPE
  6
Continuous
  9
$CECOLOR
 62
   256
  9
$CELTSCALE
 40
1.0
  9
$DISPSILH
 70
     0
  9
$DIMSCALE
 40
1.0
  9
$DIMASZ
 40
0.0
  9
$DIMEXO
 40
0.0
  9
$DIMDLI
 40
0.38
  9
$DIMRND
 40
0.0
  9
$DIMDLE
 40
0.0
  9
$DIMEXE
 40
0.18
  9
$DIMTP
 40
0.0
  9
$DIMTM
 40
0.0
  9
$DIMTXT
 40
0.8
  9
$DIMCEN
 40
0.09
  9
$DIMTSZ
 40
0.0
  9
$DIMTOL
 70
     0
  9
$DIMLIM
 70
     0
  9
$DIMTIH
 70
     1
  9
$DIMTOH
 70
     1
  9
$DIMSE1
 70
     0
  9
$DIMSE2
 70
     0
  9
$DIMTAD
 70
     0
  9
$DIMZIN
 70
     0
  9
$DIMBLK
  1

  9
$DIMASO
 70
     1
  9
$DIMSHO
 70
     1
  9
$DIMPOST
  1

  9
$DIMAPOST
  1

  9
$DIMALT
 70
     0
  9
$DIMALTD
 70
     2
  9
$DIMALTF
 40
25.4
  9
$DIMLFAC
 40
1.0
  9
$DIMTOFL
 70
     0
  9
$DIMTVP
 40
0.0
  9
$DIMTIX
 70
     0
  9
$DIMSOXD
 70
     0
  9
$DIMSAH
 70
     0
  9
$DIMBLK1
  1

  9
$DIMBLK2
  1

  9
$DIMSTYLE
  2
Standard
  9
$DIMCLRD
 70
     0
  9
$DIMCLRE
 70
     0
  9
$DIMCLRT
 70
     0
  9
$DIMTFAC
 40
1.0
  9
$DIMGAP
 40
0.0
  9
$DIMJUST
 70
     0
  9
$DIMSD1
 70
     0
  9
$DIMSD2
 70
     0
  9
$DIMTOLJ
 70
     1
  9
$DIMTZIN
 70
     0
  9
$DIMALTZ
 70
     0
  9
$DIMALTTZ
 70
     0
  9
$DIMUPT
 70
     0
  9
$DIMDEC
 70
     4
  9
$DIMTDEC
 70
     4
  9
$DIMALTU
 70
     2
  9
$DIMALTTD
 70
     2
  9
$DIMTXSTY
  7
Standard
  9
$DIMAUNIT
 70
     0
  9
$DIMADEC
 70
     0
  9
$DIMALTRND
 40
0.0
  9
$DIMAZIN
 70
     0
  9
$DIMDSEP
 70
     0
  9
$DIMATFIT
 70
     3
  9
$DIMFRAC
 70
     0
  9
$DIMLDRBLK
  1

  9
$DIMLUNIT
 70
     2
  9
$DIMLWD
 70
     0
  9
$DIMLWE
 70
     0
  9
$DIMTMOVE
 70
     0
  9
$LUNITS
 70
     2
  9
$LUPREC
 70
     3
  9
$SKETCHINC
 40
0.1
  9
$FILLETRAD
 40
0.0
  9
$AUNITS
 70
     0
  9
$AUPREC
 70
     2
  9
$MENU
  1
acad
  9
$ELEVATION
 40
0.0
  9
$PELEVATION
 40
0.0
  9
$THICKNESS
 40
0.0
  9
$LIMCHECK
 70
     0
  9
$CHAMFERA
 40
0.0
  9
$CHAMFERB
 40
0.0
  9
$CHAMFERC
 40
0.0
  9
$CHAMFERD
 40
0.0
  9
$SKPOLY
 70
     0
  9
$TDCREATE
 40
2453398.530819039
  9
$TDUCREATE
 40
2453398.864152372
  9
$TDUPDATE
 40
2453398.531821469
  9
$TDUUPDATE
 40
2453398.865154803
  9
$TDINDWG
 40
0.0010069444
  9
$TDUSRTIMER
 40
0.0010067593
  9
$USRTIMER
 70
     1
  9
$ANGBASE
 50
0.0
  9
$ANGDIR
 70
     0
  9
$PDMODE
 70
     0
  9
$PDSIZE
 40
-1.0
  9
$PLINEWID
 40
0.0
  9
$SPLFRAME
 70
     0
  9
$SPLINETYPE
 70
     6
  9
$SPLINESEGS
 70
     8
  9
$HANDSEED
  5
1E0
  9
$SURFTAB1
 70
     6
  9
$SURFTAB2
 70
     6
  9
$SURFTYPE
 70
     6
  9
$SURFU
 70
     6
  9
$SURFV
 70
     6
  9
$UCSBASE
  2

  9
$UCSNAME
  2

  9
$UCSORG
 10
0.0
 20
0.0
 30
0.0
  9
$UCSXDIR
 10
1.0
 20
0.0
 30
0.0
  9
$UCSYDIR
 10
0.0
 20
1.0
 30
0.0
  9
$UCSORTHOREF
  2

  9
$UCSORTHOVIEW
 70
     0
  9
$UCSORGTOP
 10
0.0
 20
0.0
 30
0.0
  9
$UCSORGBOTTOM
 10
0.0
 20
0.0
 30
0.0
  9
$UCSORGLEFT
 10
0.0
 20
0.0
 30
0.0
  9
$UCSORGRIGHT
 10
0.0
 20
0.0
 30
0.0
  9
$UCSORGFRONT
 10
0.0
 20
0.0
 30
0.0
  9
$UCSORGBACK
 10
0.0
 20
0.0
 30
0.0
  9
$PUCSBASE
  2

  9
$PUCSNAME
  2

  9
$PUCSORG
 10
0.0
 20
0.0
 30
0.0
  9
$PUCSXDIR
 10
1.0
 20
0.0
 30
0.0
  9
$PUCSYDIR
 10
0.0
 20
1.0
 30
0.0
  9
$PUCSORTHOREF
  2

  9
$PUCSORTHOVIEW
 70
     0
  9
$PUCSORGTOP
 10
0.0
 20
0.0
 30
0.0
  9
$PUCSORGBOTTOM
 10
0.0
 20
0.0
 30
0.0
  9
$PUCSORGLEFT
 10
0.0
 20
0.0
 30
0.0
  9
$PUCSORGRIGHT
 10
0.0
 20
0.0
 30
0.0
  9
$PUCSORGFRONT
 10
0.0
 20
0.0
 30
0.0
  9
$PUCSORGBACK
 10
0.0
 20
0.0
 30
0.0
  9
$USERI1
 70
     0
  9
$USERI2
 70
     0
  9
$USERI3
 70
     0
  9
$USERI4
 70
     0
  9
$USERI5
 70
     0
  9
$USERR1
 40
0.0
  9
$USERR2
 40
0.0
  9
$USERR3
 40
0.0
  9
$USERR4
 40
0.0
  9
$USERR5
 40
0.0
  9
$WORLDVIEW
 70
     1
  9
$SHADEDGE
 70
     3
  9
$SHADEDIF
 70
    70
  9
$TILEMODE
 70
     1
  9
$MAXACTVP
 70
    16
  9
$PINSBASE
 10
0.0
 20
0.0
 30
0.0
  9
$PLIMCHECK
 70
     0
  9
$PEXTMIN
 10
1.000000000000000E+20
 20
1.000000000000000E+20
 30
1.000000000000000E+20
  9
$PEXTMAX
 10
-1.000000000000000E+20
 20
-1.000000000000000E+20
 30
-1.000000000000000E+20
  9
$PLIMMIN
 10
0.0
 20
0.0
  9
$PLIMMAX
 10
12.0
 20
9.0
  9
$UNITMODE
 70
     0
  9
$VISRETAIN
 70
     0
  9
$PLINEGEN
 70
     1
  9
$PSLTSCALE
 70
     1
  9
$TREEDEPTH
 70
  3020
  9
$CMLSTYLE
  2
Standard
  9
$CMLJUST
 70
     0
  9
$CMLSCALE
 40
1.0
  9
$PROXYGRAPHICS
 70
     0
  9
$MEASUREMENT
 70
     0
  9
$CELWEIGHT
370
     0
  9
$ENDCAPS
280
     0
  9
$JOINSTYLE
280
     0
  9
$LWDISPLAY
290
     1
  9
$INSUNITS
 70
     0
  9
$HYPERLINKBASE
  1

  9
$STYLESHEET
  1

  9
$XEDIT
290
     1
  9
$CEPSNTYPE
380
     0
  9
$PSTYLEMODE
290
     1
  9
$FINGERPRINTGUID
  2

  9
$VERSIONGUID
  2
{0168FB73-500A-44E7-837A-D9724AE1F79E}
  9
$EXTNAMES
290
     1
  9
$PSVPSCALE
 40
0.0
  9
$OLESTARTUP
290
     0
  0
ENDSEC
  0
SECTION
  2
CLASSES
  0
CLASS
  1
LWPOLYLINE
  2
AcDbPolyline
  3
AutoCAD 2000
 90
    32768
280
     0
281
     1
  0
CLASS
  1
IMAGE
  2
AcDbRasterImage
  3
ISM
 90
    32895
280
     0
281
     1
  0
CLASS
  1
OLE2FRAME
  2
AcDbOle2Frame
  3
AutoCAD 2000
 90
    32768
280
     0
281
     1
  0
CLASS
  1
HATCH
  2
AcDbHatch
  3
AutoCAD 2000
 90
    32768
280
     0
281
     1
  0
CLASS
  1
DICTIONARYVAR
  2
AcDbDictionaryVar
  3
AutoCAD 2000
 90
    32768
280
     0
281
     0
  0
CLASS
  1
RASTERVARIABLES
  2
AcDbRasterVariables
  3
ISM
 90
    32768
280
     0
281
     0
  0
CLASS
  1
IMAGEDEF
  2
AcDbRasterImageDef
  3
ISM
 90
    32768
280
     0
281
     0
  0
CLASS
  1
IMAGEDEF_REACTOR
  2
AcDbRasterImageDefReactor
  3
ISM
 90
    32769
280
     0
281
     0
  0
CLASS
  1
IDBUFFER
  2
AcDbIdBuffer
  3
AutoCAD 2000
 90
    32768
280
     0
281
     0
  0
CLASS
  1
SPATIAL_FILTER
  2
AcDbSpatialFilter
  3
AutoCAD 2000
 90
    32768
280
     0
281
     0
  0
CLASS
  1
XRECORD
  2
AcDbXrecord
  3
AutoCAD 2000
 90
    32768
280
     0
281
     0
  0
CLASS
  1
SORTENTSTABLE
  2
AcDbSortentsTable
  3
AutoCAD 2000
 90
    32768
280
     0
281
     0
  0
CLASS
  1
LAYER_INDEX
  2
AcDbLayerIndex
  3
AutoCAD 2000
 90
    32768
280
     0
281
     0
  0
CLASS
  1
SPATIAL_INDEX
  2
AcDbSpatialIndex
  3
AutoCAD 2000
 90
    32768
280
     0
281
     0
  0
CLASS
  1
OBJECT_PTR
  2
CAseDLPNTableRecord
  3
"ASE-LPNTableRecord"
 90
    32769
280
     0
281
     0
  0
CLASS
  1
LAYOUT
  2
AcDbLayout
  3
AutoCAD 2000
 90
        0
280
     0
281
     0
  0
CLASS
  1
PLOTSETTINGS
  2
AcDbPlotSettings
  3
AutoCAD 2000
 90
    32768
280
     0
281
     0
  0
CLASS
  1
ACDBDICTIONARYWDFLT
  2
AcDbDictionaryWithDefault
  3
AutoCAD 2000
 90
        0
280
     0
281
     0
  0
CLASS
  1
ACDBPLACEHOLDER
  2
AcDbPlaceHolder
  3
AutoCAD 2000
 90
        0
280
     0
281
     0
  0
CLASS
  1
VBA_PROJECT
  2
AcDbVbaProject
  3
acadvba
 90
    32768
280
     0
281
     0
  0
CLASS
  1
WIPEOUT
  2
AcDbWipeout
  3
WipeOut|AutoCAD Express Tool|expresstools@autodesk.com
 90
    32895
280
     0
281
     1
  0
CLASS
  1
WIPEOUTVARIABLES
  2
AcDbWipeoutVariables
  3
WipeOut|AutoCAD Express Tool|expresstools@autodesk.com
 90
        0
280
     0
281
     0
  0
CLASS
  1
RTEXT
  2
RText
  3
RText|AutoCAD Express Tool|expresstools@autodesk.com
 90
    32768
280
     0
281
     1
  0
CLASS
  1
ARCALIGNEDTEXT
  2
AcDbArcAlignedText
  3
ATEXT|AutoCAD Express Tool|expresstools@autodesk.com
 90
    32768
280
     0
281
     1
  0
ENDSEC
  0
SECTION
  2
TABLES
  0
TABLE
  2
VPORT
  5
7
330
0
100
AcDbSymbolTable
 70
     6
  0
VPORT
  5
1DF
330
7
100
AcDbSymbolTableRecord
100
AcDbViewportTableRecord
  2
*Active
 70
     0
 10
0.0
 20
0.0
 11
1.0
 21
1.0
 12
64.60941906093984
 22
38.72000094401883
 13
0.0
 23
0.0
 14
1.0
 24
1.0
 15
0.0
 25
0.0
 16
0.0
 26
0.0
 36
1.0
 17
0.0
 27
0.0
 37
0.0
 40
87.99999997502544
 41
1.5
 42
50.0
 43
0.0
 44
0.0
 50
0.0
 51
0.0
 71
     0
 72
  2000
 73
     1
 74
     1
 75
     0
 76
     0
 77
     0
 78
     0
281
     0
 65
     0
110
0.0
120
0.0
130
0.0
111
1.0
121
0.0
131
0.0
112
0.0
122
1.0
132
0.0
 79
     0
146
0.0
  0
ENDTAB
  0
TABLE
  2
LTYPE
  5
4
330
0
100
AcDbSymbolTable
 70
     6
  0
LTYPE
  5
11
330
4
100
AcDbSymbolTableRecord
100
AcDbLinetypeTableRecord
  2
ByBlock
 70
     0
  3

 72
    65
 73
     0
 40
0.0
  0
LTYPE
  5
12
330
4
100
AcDbSymbolTableRecord
100
AcDbLinetypeTableRecord
  2
ByLayer
 70
     0
  3

 72
    65
 73
     0
 40
0.0
  0
LTYPE
  5
13
330
4
100
AcDbSymbolTableRecord
100
AcDbLinetypeTableRecord
  2
Continuous
 70
     0
  3
Solid line
 72
    65
 73
     0
 40
0.0
  0
LTYPE
  5
24
330
4
100
AcDbSymbolTableRecord
100
AcDbLinetypeTableRecord
  2
HIDDEN
 70
     0
  3
Hidden __ __ __ __ __ __ __ __ __ __ __ __ __ __
 72
    65
 73
     2
 40
0.075
 49
0.05
 74
     0
 49
-0.025
 74
     0
  0
LTYPE
  5
25
330
4
100
AcDbSymbolTableRecord
100
AcDbLinetypeTableRecord
  2
PHANTOM
 70
     0
  3
Phantom ______  __  __  ______  __  __  ______
 72
    65
 73
     6
 40
0.5
 49
0.25
 74
     0
 49
-0.05
 74
     0
 49
0.05
 74
     0
 49
-0.05
 74
     0
 49
0.05
 74
     0
 49
-0.05
 74
     0
  0
LTYPE
  5
26
330
4
100
AcDbSymbolTableRecord
100
AcDbLinetypeTableRecord
  2
CENTER
 70
     0
  3
Center ____ _ ____ _ ____ _ ____ _ ____ _ ____
 72
    65
 73
     4
 40
0.4
 49
0.25
 74
     0
 49
-0.05
 74
     0
 49
0.05
 74
     0
 49
-0.05
 74
     0
  0
LTYPE
  5
27
330
4
100
AcDbSymbolTableRecord
100
AcDbLinetypeTableRecord
  2
CENTERX2
 70
     0
  3
Center (2x) ________  __  ________  __  _____
 72
    65
 73
     4
 40
0.8
 49
0.5
 74
     0
 49
-0.1
 74
     0
 49
0.1
 74
     0
 49
-0.1
 74
     0
  0
LTYPE
  5
28
330
4
100
AcDbSymbolTableRecord
100
AcDbLinetypeTableRecord
  2
DOT2
 70
     0
  3
Dot (.5x) ........................................
 72
    65
 73
     2
 40
0.025
 49
0.0
 74
     0
 49
-0.025
 74
     0
  0
ENDTAB
  0
TABLE
  2
LAYER
  5
2
330
0
100
AcDbSymbolTable
 70
     1
  0
LAYER
  5
14
330
2
100
AcDbSymbolTableRecord
100
AcDbLayerTableRecord
  2
0
 70
     0
 62
     7
  6
Continuous
370
    -3
390
1D
  0
ENDTAB
  0
TABLE
  2
STYLE
  5
3
330
0
100
AcDbSymbolTable
 70
     2
  0
STYLE
  5
17
330
3
100
AcDbSymbolTableRecord
100
AcDbTextStyleTableRecord
  2
Standard
 70
     0
 40
0.0
 41
1.0
 50
0.0
 71
     0
 42
0.0
  3
txt
  4

  0
STYLE
  5
75
330
3
100
AcDbSymbolTableRecord
100
AcDbTextStyleTableRecord
  2
SLDTEXTSTYLE0
 70
     0
 40
0.0
 41
0.75
 50
0.0
 71
     0
 42
0.0
  3
txt
  4

  0
ENDTAB
  0
TABLE
  2
VIEW
  5
5
330
0
100
AcDbSymbolTable
 70
     0
  0
ENDTAB
  0
TABLE
  2
UCS
  5
6
330
0
100
AcDbSymbolTable
 70
     0
  0
ENDTAB
  0
TABLE
  2
APPID
  5
8
330
0
100
AcDbSymbolTable
 70
     1
  0
APPID
  5
16
330
8
100
AcDbSymbolTableRecord
100
AcDbRegAppTableRecord
  2
ACAD
 70
     0
  0
ENDTAB
  0
TABLE
  2
DIMSTYLE
  5
9
330
0
100
AcDbSymbolTable
 70
     3
100
AcDbDimStyleTable
 71
     1
340
18
  0
DIMSTYLE
105
18
330
9
100
AcDbSymbolTableRecord
100
AcDbDimStyleTableRecord
  2
Standard
 70
     0
340
17
  0
DIMSTYLE
105
D0
102
{ACAD_REACTORS
330
D4
330
E1
330
EE
330
FB
330
108
330
115
330
132
330
140
330
14E
330
15C
330
16D
102
}
330
9
100
AcDbSymbolTableRecord
100
AcDbDimStyleTableRecord
  2
SLDDIMSTYLE0
 70
     0
 41
1.5
 44
0.9599999999999999
 78
    12
140
0.8
147
0.2
173
     1
176
     7
177
     7
178
     7
271
     3
284
    12
340
17
  0
DIMSTYLE
105
120
102
{ACAD_REACTORS
330
124
102
}
330
9
100
AcDbSymbolTableRecord
100
AcDbDimStyleTableRecord
  2
SLDDIMSTYLE1
 70
     0
 41
1.5
 44
0.9599999999999999
 78
    12
140
0.8
147
0.2
172
     1
173
     1
176
     1
177
     1
178
     1
271
     3
284
    12
340
17
  0
ENDTAB
  0
TABLE
  2
BLOCK_RECORD
  5
1
330
0
100
AcDbSymbolTable
 70
    13
  0
BLOCK_RECORD
  5
A
330
1
100
AcDbSymbolTableRecord
100
AcDbBlockTableRecord
  2
*MODEL_SPACE
340
20
  0
BLOCK_RECORD
  5
B
330
1
100
AcDbSymbolTableRecord
100
AcDbBlockTableRecord
  2
*PAPER_SPACE
340
21
  0
BLOCK_RECORD
  5
A8
330
1
100
AcDbSymbolTableRecord
100
AcDbBlockTableRecord
  2
NOTE50
340
0
102
{BLKREFS
331
AE
102
}
  0
BLOCK_RECORD
  5
C7
330
1
100
AcDbSymbolTableRecord
100
AcDbBlockTableRecord
  2
*D1
340
0
  0
BLOCK_RECORD
  5
D5
330
1
100
AcDbSymbolTableRecord
100
AcDbBlockTableRecord
  2
*D2
340
0
  0
BLOCK_RECORD
  5
E2
330
1
100
AcDbSymbolTableRecord
100
AcDbBlockTableRecord
  2
*D3
340
0
  0
BLOCK_RECORD
  5
EF
330
1
100
AcDbSymbolTableRecord
100
AcDbBlockTableRecord
  2
*D4
340
0
  0
BLOCK_RECORD
  5
FC
330
1
100
AcDbSymbolTableRecord
100
AcDbBlockTableRecord
  2
*D5
340
0
  0
BLOCK_RECORD
  5
109
330
1
100
AcDbSymbolTableRecord
100
AcDbBlockTableRecord
  2
*D6
340
0
  0
BLOCK_RECORD
  5
116
330
1
100
AcDbSymbolTableRecord
100
AcDbBlockTableRecord
  2
*D7
340
0
  0
BLOCK_RECORD
  5
125
330
1
100
AcDbSymbolTableRecord
100
AcDbBlockTableRecord
  2
*D8
340
0
  0
BLOCK_RECORD
  5
133
330
1
100
AcDbSymbolTableRecord
100
AcDbBlockTableRecord
  2
*D9
340
0
  0
BLOCK_RECORD
  5
141
330
1
100
AcDbSymbolTableRecord
100
AcDbBlockTableRecord
  2
*D10
340
0
  0
BLOCK_RECORD
  5
14F
330
1
100
AcDbSymbolTableRecord
100
AcDbBlockTableRecord
  2
*D11
340
0
  0
BLOCK_RECORD
  5
161
330
1
100
AcDbSymbolTableRecord
100
AcDbBlockTableRecord
  2
*D12
340
0
  0
ENDTAB
  0
ENDSEC
  0
SECTION
  2
BLOCKS
  0
BLOCK
  5
D
330
A
100
AcDbEntity
  8
0
100
AcDbBlockBegin
  2
*MODEL_SPACE
 70
     0
 10
0.0
 20
0.0
 30
0.0
  3
*MODEL_SPACE
  1

  0
ENDBLK
  5
E
330
A
100
AcDbEntity
  8
0
100
AcDbBlockEnd
  0
BLOCK
  5
F
330
B
100
AcDbEntity
 67
     1
  8
0
100
AcDbBlockBegin
  2
*PAPER_SPACE
 70
     0
 10
0.0
 20
0.0
 30
0.0
  3
*PAPER_SPACE
  1

  0
ENDBLK
  5
10
330
B
100
AcDbEntity
 67
     1
  8
0
100
AcDbBlockEnd
  0
BLOCK
  5
A9
330
A8
100
AcDbEntity
  8
0
 62
     0
100
AcDbBlockBegin
  2
NOTE50
 70
     0
 10
0.0
 20
0.0
 30
0.0
  3
NOTE50
  1

  0
MTEXT
  5
AA
330
A8
100
AcDbEntity
  8
0
 62
     7
100
AcDbMText
 10
0.0
 20
0.0
 30
0.0
 40
0.72
 41
0.0
 71
     1
 72
     1
  1
BREAK SHARP EDGES 0.010 RAD %%p 0.003
  7
SLDTEXTSTYLE0
 73
     1
 44
1.0
  0
MTEXT
  5
AB
330
A8
100
AcDbEntity
  8
0
 62
     7
100
AcDbMText
 10
0.0
 20
-1.08
 30
0.0
 40
0.72
 41
0.0
 71
     1
 72
     1
  1
MACHINED SURF FINISH  
  7
SLDTEXTSTYLE0
 73
     1
 44
1.0
  0
MTEXT
  5
AC
330
A8
100
AcDbEntity
  8
0
 62
     7
100
AcDbMText
 10
11.088
 20
-1.08
 30
0.0
 40
0.72
 41
0.0
 71
     1
 72
     1
  1
< 125 MICROINCH
  7
SLDTEXTSTYLE0
 73
     1
 44
1.0
  0
ENDBLK
  5
AD
330
A8
100
AcDbEntity
  8
0
100
AcDbBlockEnd
  0
BLOCK
  5
C8
330
C7
100
AcDbEntity
  8
0
 62
     7
100
AcDbBlockBegin
  2
*D1
 70
     1
 10
0.0
 20
0.0
 30
0.0
  3
*D1
  1

  0
MTEXT
  5
C9
330
C7
100
AcDbEntity
  8
0
 62
     7
100
AcDbMText
 10
78.93794113209999
 20
45.14140749600001
 30
0.0
 40
0.8
 41
0.0
 71
     7
 72
     1
  1
46"
  7
SLDTEXTSTYLE0
 73
     1
 44
1.0
  0
LINE
  5
CA
330
C7
100
AcDbEntity
  8
0
 62
     7
100
AcDbLine
 10
63.88046470929999
 20
68.50109579779999
 30
0.0
 11
80.73811320750001
 21
68.50109579779999
 31
0.0
  0
LINE
  5
CB
330
C7
100
AcDbEntity
  8
0
 62
     7
100
AcDbLine
 10
63.88046470929999
 20
22.5010957978
 30
0.0
 11
80.73811320750001
 21
22.5010957978
 31
0.0
  0
LINE
  5
CC
330
C7
100
AcDbEntity
  8
0
 62
     7
100
AcDbLine
 10
79.77811320749999
 20
68.50109579779999
 30
0.0
 11
79.77811320749999
 21
46.2607840997
 31
0.0
  0
LINE
  5
CD
330
C7
100
AcDbEntity
  8
0
 62
     7
100
AcDbLine
 10
79.77811320749999
 20
22.5010957978
 30
0.0
 11
79.77811320749999
 21
44.741407496
 31
0.0
  0
SOLID
  5
CE
330
C7
100
AcDbEntity
  8
0
 62
     7
100
AcDbTrace
 10
79.77811320749999
 20
68.50109579779999
 30
0.0
 11
79.5281132075
 21
67.00109579779999
 31
0.0
 12
80.0281132075
 22
67.00109579779999
 32
0.0
 13
80.0281132075
 23
67.00109579779999
 33
0.0
  0
SOLID
  5
CF
330
C7
100
AcDbEntity
  8
0
 62
     7
100
AcDbTrace
 10
79.77811320749999
 20
22.5010957978
 30
0.0
 11
80.0281132075
 21
24.0010957978
 31
0.0
 12
79.5281132075
 22
24.0010957978
 32
0.0
 13
79.5281132075
 23
24.0010957978
 33
0.0
  0
POINT
  5
D1
330
C7
100
AcDbEntity
  8
0
 62
     7
100
AcDbPoint
 10
63.56046470929999
 20
68.50109579779999
 30
0.0
  0
POINT
  5
D2
330
C7
100
AcDbEntity
  8
0
 62
     7
100
AcDbPoint
 10
63.56046470929999
 20
22.5010957978
 30
0.0
  0
ENDBLK
  5
D3
330
C7
100
AcDbEntity
  8
0
 62
     7
100
AcDbBlockEnd
  0
BLOCK
  5
D6
330
D5
100
AcDbEntity
  8
0
 62
     1
100
AcDbBlockBegin
  2
*D2
 70
     1
 10
0.0
 20
0.0
 30
0.0
  3
*D2
  1

  0
MTEXT
  5
D7
330
D5
100
AcDbEntity
  8
0
100
AcDbMText
 10
47.34003678479999
 20
80.0870286792
 30
0.0
 40
0.8
 41
0.0
 71
     7
 72
     1
  1
31"
  7
SLDTEXTSTYLE0
 73
     1
 44
1.0
  0
LINE
  5
D8
330
D5
100
AcDbEntity
  8
0
100
AcDbLine
 10
63.56046470929999
 20
68.82109579779999
 30
0.0
 11
63.56046470929999
 21
81.40671698109999
 31
0.0
  0
LINE
  5
D9
330
D5
100
AcDbEntity
  8
0
100
AcDbLine
 10
32.5604647093
 20
68.82109579779999
 30
0.0
 11
32.5604647093
 21
81.40671698109999
 31
0.0
  0
LINE
  5
DA
330
D5
100
AcDbEntity
  8
0
100
AcDbLine
 10
63.56046470929999
 20
80.44671698109999
 30
0.0
 11
49.2808926339
 21
80.44671698109999
 31
0.0
  0
LINE
  5
DB
330
D5
100
AcDbEntity
  8
0
100
AcDbLine
 10
32.5604647093
 20
80.44671698109999
 30
0.0
 11
46.84003678479999
 21
80.44671698109999
 31
0.0
  0
SOLID
  5
DC
330
D5
100
AcDbEntity
  8
0
100
AcDbTrace
 10
63.56046470929999
 20
80.44671698109999
 30
0.0
 11
62.0604647093
 21
80.69671698109999
 31
0.0
 12
62.0604647093
 22
80.1967169811
 32
0.0
 13
62.0604647093
 23
80.1967169811
 33
0.0
  0
SOLID
  5
DD
330
D5
100
AcDbEntity
  8
0
100
AcDbTrace
 10
32.5604647093
 20
80.44671698109999
 30
0.0
 11
34.0604647093
 21
80.1967169811
 31
0.0
 12
34.0604647093
 22
80.69671698109999
 32
0.0
 13
34.0604647093
 23
80.69671698109999
 33
0.0
  0
POINT
  5
DE
330
D5
100
AcDbEntity
  8
0
100
AcDbPoint
 10
63.56046470929999
 20
68.50109579779999
 30
0.0
  0
POINT
  5
DF
330
D5
100
AcDbEntity
  8
0
100
AcDbPoint
 10
32.5604647093
 20
68.50109579779999
 30
0.0
  0
ENDBLK
  5
E0
330
D5
100
AcDbEntity
  8
0
 62
     1
100
AcDbBlockEnd
  0
BLOCK
  5
E3
330
E2
100
AcDbEntity
  8
0
 62
     1
100
AcDbBlockBegin
  2
*D3
 70
     1
 10
0.0
 20
0.0
 30
0.0
  3
*D3
  1

  0
MTEXT
  5
E4
330
E2
100
AcDbEntity
  8
0
100
AcDbMText
 10
51.2602073508
 20
75.37578339619999
 30
0.0
 40
0.8
 41
0.0
 71
     7
 72
     1
  1
23"
  7
SLDTEXTSTYLE0
 73
     1
 44
1.0
  0
LINE
  5
E5
330
E2
100
AcDbEntity
  8
0
100
AcDbLine
 10
40.5604647093
 20
59.8210957978
 30
0.0
 11
40.5604647093
 21
76.69547169810001
 31
0.0
  0
LINE
  5
E6
330
E2
100
AcDbEntity
  8
0
100
AcDbLine
 10
63.56046470929999
 20
68.82109579779999
 30
0.0
 11
63.56046470929999
 21
76.69547169810001
 31
0.0
  0
LINE
  5
E7
330
E2
100
AcDbEntity
  8
0
100
AcDbLine
 10
40.5604647093
 20
75.7354716981
 30
0.0
 11
50.7602073508
 21
75.7354716981
 31
0.0
  0
LINE
  5
E8
330
E2
100
AcDbEntity
  8
0
100
AcDbLine
 10
63.56046470929999
 20
75.7354716981
 30
0.0
 11
53.36072206779999
 21
75.7354716981
 31
0.0
  0
SOLID
  5
E9
330
E2
100
AcDbEntity
  8
0
100
AcDbTrace
 10
40.5604647093
 20
75.7354716981
 30
0.0
 11
42.0604647093
 21
75.48547169809999
 31
0.0
 12
42.0604647093
 22
75.9854716981
 32
0.0
 13
42.0604647093
 23
75.9854716981
 33
0.0
  0
SOLID
  5
EA
330
E2
100
AcDbEntity
  8
0
100
AcDbTrace
 10
63.56046470929999
 20
75.7354716981
 30
0.0
 11
62.0604647093
 21
75.9854716981
 31
0.0
 12
62.0604647093
 22
75.48547169809999
 32
0.0
 13
62.0604647093
 23
75.48547169809999
 33
0.0
  0
POINT
  5
EB
330
E2
100
AcDbEntity
  8
0
100
AcDbPoint
 10
40.5604647093
 20
59.5010957978
 30
0.0
  0
POINT
  5
EC
330
E2
100
AcDbEntity
  8
0
100
AcDbPoint
 10
63.56046470929999
 20
68.50109579779999
 30
0.0
  0
ENDBLK
  5
ED
330
E2
100
AcDbEntity
  8
0
 62
     1
100
AcDbBlockEnd
  0
BLOCK
  5
F0
330
EF
100
AcDbEntity
  8
0
 62
     1
100
AcDbBlockBegin
  2
*D4
 70
     1
 10
0.0
 20
0.0
 30
0.0
  3
*D4
  1

  0
MTEXT
  5
F1
330
EF
100
AcDbEntity
  8
0
100
AcDbMText
 10
59.0402647093
 20
72.0859048288
 30
0.0
 40
0.8
 41
0.0
 71
     7
 72
     1
  1
8"
  7
SLDTEXTSTYLE0
 73
     1
 44
1.0
  0
LINE
  5
F2
330
EF
100
AcDbEntity
  8
0
100
AcDbLine
 10
63.56046470929999
 20
68.82109579779999
 30
0.0
 11
63.56046470929999
 21
73.40559313069999
 31
0.0
  0
LINE
  5
F3
330
EF
100
AcDbEntity
  8
0
100
AcDbLine
 10
55.5604647093
 20
59.8210957978
 30
0.0
 11
55.5604647093
 21
73.40559313069999
 31
0.0
  0
LINE
  5
F4
330
EF
100
AcDbEntity
  8
0
100
AcDbLine
 10
63.56046470929999
 20
72.44559313069999
 30
0.0
 11
60.5806647093
 21
72.44559313069999
 31
0.0
  0
LINE
  5
F5
330
EF
100
AcDbEntity
  8
0
100
AcDbLine
 10
55.5604647093
 20
72.44559313069999
 30
0.0
 11
58.5402647093
 21
72.44559313069999
 31
0.0
  0
SOLID
  5
F6
330
EF
100
AcDbEntity
  8
0
100
AcDbTrace
 10
63.56046470929999
 20
72.44559313069999
 30
0.0
 11
62.0604647093
 21
72.69559313069999
 31
0.0
 12
62.0604647093
 22
72.19559313069999
 32
0.0
 13
62.0604647093
 23
72.19559313069999
 33
0.0
  0
SOLID
  5
F7
330
EF
100
AcDbEntity
  8
0
100
AcDbTrace
 10
55.5604647093
 20
72.44559313069999
 30
0.0
 11
57.0604647093
 21
72.19559313069999
 31
0.0
 12
57.0604647093
 22
72.69559313069999
 32
0.0
 13
57.0604647093
 23
72.69559313069999
 33
0.0
  0
POINT
  5
F8
330
EF
100
AcDbEntity
  8
0
100
AcDbPoint
 10
63.56046470929999
 20
68.50109579779999
 30
0.0
  0
POINT
  5
F9
330
EF
100
AcDbEntity
  8
0
100
AcDbPoint
 10
55.5604647093
 20
59.5010957978
 30
0.0
  0
ENDBLK
  5
FA
330
EF
100
AcDbEntity
  8
0
 62
     1
100
AcDbBlockEnd
  0
BLOCK
  5
FD
330
FC
100
AcDbEntity
  8
0
 62
     1
100
AcDbBlockBegin
  2
*D5
 70
     1
 10
0.0
 20
0.0
 30
0.0
  3
*D5
  1

  0
MTEXT
  5
FE
330
FC
100
AcDbEntity
  8
0
100
AcDbMText
 10
67.61066792449999
 20
63.641407496
 30
0.0
 40
0.8
 41
0.0
 71
     7
 72
     1
  1
9"
  7
SLDTEXTSTYLE0
 73
     1
 44
1.0
  0
LINE
  5
FF
330
FC
100
AcDbEntity
  8
0
100
AcDbLine
 10
63.88046470929999
 20
68.50109579779999
 30
0.0
 11
69.09086792450001
 21
68.50109579779999
 31
0.0
  0
LINE
  5
100
330
FC
100
AcDbEntity
  8
0
100
AcDbLine
 10
55.8804647093
 20
59.5010957978
 30
0.0
 11
69.09086792450001
 21
59.5010957978
 31
0.0
  0
LINE
  5
101
330
FC
100
AcDbEntity
  8
0
100
AcDbLine
 10
68.1308679245
 20
68.50109579779999
 30
0.0
 11
68.1308679245
 21
64.7607840997
 31
0.0
  0
LINE
  5
102
330
FC
100
AcDbEntity
  8
0
100
AcDbLine
 10
68.1308679245
 20
59.5010957978
 30
0.0
 11
68.1308679245
 21
63.241407496
 31
0.0
  0
SOLID
  5
103
330
FC
100
AcDbEntity
  8
0
100
AcDbTrace
 10
68.1308679245
 20
68.50109579779999
 30
0.0
 11
67.88086792449999
 21
67.00109579779999
 31
0.0
 12
68.38086792449999
 22
67.00109579779999
 32
0.0
 13
68.38086792449999
 23
67.00109579779999
 33
0.0
  0
SOLID
  5
104
330
FC
100
AcDbEntity
  8
0
100
AcDbTrace
 10
68.1308679245
 20
59.5010957978
 30
0.0
 11
68.38086792449999
 21
61.00109579779999
 31
0.0
 12
67.88086792449999
 22
61.00109579779999
 32
0.0
 13
67.88086792449999
 23
61.00109579779999
 33
0.0
  0
POINT
  5
105
330
FC
100
AcDbEntity
  8
0
100
AcDbPoint
 10
63.56046470929999
 20
68.50109579779999
 30
0.0
  0
POINT
  5
106
330
FC
100
AcDbEntity
  8
0
100
AcDbPoint
 10
55.5604647093
 20
59.5010957978
 30
0.0
  0
ENDBLK
  5
107
330
FC
100
AcDbEntity
  8
0
 62
     1
100
AcDbBlockEnd
  0
BLOCK
  5
10A
330
109
100
AcDbEntity
  8
0
 62
     1
100
AcDbBlockBegin
  2
*D6
 70
     1
 10
0.0
 20
0.0
 30
0.0
  3
*D6
  1

  0
MTEXT
  5
10B
330
109
100
AcDbEntity
  8
0
100
AcDbMText
 10
72.1727237736
 20
49.64140749600001
 30
0.0
 40
0.8
 41
0.0
 71
     7
 72
     1
  1
37"
  7
SLDTEXTSTYLE0
 73
     1
 44
1.0
  0
LINE
  5
10C
330
109
100
AcDbEntity
  8
0
100
AcDbLine
 10
63.88046470929999
 20
68.50109579779999
 30
0.0
 11
73.9329811321
 21
68.50109579779999
 31
0.0
  0
LINE
  5
10D
330
109
100
AcDbEntity
  8
0
100
AcDbLine
 10
55.8804647093
 20
31.5010957978
 30
0.0
 11
73.9329811321
 21
31.5010957978
 31
0.0
  0
LINE
  5
10E
330
109
100
AcDbEntity
  8
0
100
AcDbLine
 10
72.9729811321
 20
68.50109579779999
 30
0.0
 11
72.9729811321
 21
50.7607840997
 31
0.0
  0
LINE
  5
10F
330
109
100
AcDbEntity
  8
0
100
AcDbLine
 10
72.9729811321
 20
31.5010957978
 30
0.0
 11
72.9729811321
 21
49.241407496
 31
0.0
  0
SOLID
  5
110
330
109
100
AcDbEntity
  8
0
100
AcDbTrace
 10
72.9729811321
 20
68.50109579779999
 30
0.0
 11
72.7229811321
 21
67.00109579779999
 31
0.0
 12
73.2229811321
 22
67.00109579779999
 32
0.0
 13
73.2229811321
 23
67.00109579779999
 33
0.0
  0
SOLID
  5
111
330
109
100
AcDbEntity
  8
0
100
AcDbTrace
 10
72.9729811321
 20
31.5010957978
 30
0.0
 11
73.2229811321
 21
33.0010957978
 31
0.0
 12
72.7229811321
 22
33.0010957978
 32
0.0
 13
72.7229811321
 23
33.0010957978
 33
0.0
  0
POINT
  5
112
330
109
100
AcDbEntity
  8
0
100
AcDbPoint
 10
63.56046470929999
 20
68.50109579779999
 30
0.0
  0
POINT
  5
113
330
109
100
AcDbEntity
  8
0
100
AcDbPoint
 10
55.5604647093
 20
31.5010957978
 30
0.0
  0
ENDBLK
  5
114
330
109
100
AcDbEntity
  8
0
 62
     1
100
AcDbBlockEnd
  0
BLOCK
  5
117
330
116
100
AcDbEntity
  8
0
 62
     1
100
AcDbBlockBegin
  2
*D7
 70
     1
 10
0.0
 20
0.0
 30
0.0
  3
*D7
  1

  0
MTEXT
  5
118
330
116
100
AcDbEntity
  8
0
 62
     7
100
AcDbMText
 10
18.6981659745
 20
66.2111770873
 30
0.0
 40
0.8
 41
0.0
 71
     7
 72
     1
  1
%%c
  7
SLDTEXTSTYLE0
 73
     1
 44
1.0
  0
MTEXT
  5
119
330
116
100
AcDbEntity
  8
0
 62
     7
100
AcDbMText
 10
20.0644271065
 20
66.2111770873
 30
0.0
 40
0.8
 41
0.0
 71
     7
 72
     1
  1
5/16"
  7
SLDTEXTSTYLE0
 73
     1
 44
1.0
  0
MTEXT
  5
11A
330
116
100
AcDbEntity
  8
0
 62
     7
100
AcDbMText
 10
22.62551238959999
 20
66.2111770873
 30
0.0
 40
0.8
 41
0.0
 71
     7
 72
     1
  1
 DRILL THRU
  7
SLDTEXTSTYLE0
 73
     1
 44
1.0
  0
MTEXT
  5
11B
330
116
100
AcDbEntity
  8
0
 62
     7
100
AcDbMText
 10
21.4666980499
 20
64.69180048359999
 30
0.0
 40
0.8
 41
0.0
 71
     7
 72
     1
  1
4 PLACES
  7
SLDTEXTSTYLE0
 73
     1
 44
1.0
  0
MTEXT
  5
11C
330
116
100
AcDbEntity
  8
0
 62
     7
100
AcDbMText
 10
21.98689804989999
 20
61.653047276
 30
0.0
 40
0.8
 41
0.0
 71
     7
 72
     1
  1
DEBURR
  7
SLDTEXTSTYLE0
 73
     1
 44
1.0
  0
LINE
  5
11D
330
116
100
AcDbEntity
  8
0
 62
     7
100
AcDbLine
 10
40.4214176301
 20
59.5729161275
 30
0.0
 11
31.2854655971
 21
64.2918004836
 31
0.0
  0
LINE
  5
11E
330
116
100
AcDbEntity
  8
0
 62
     7
100
AcDbLine
 10
31.2854655971
 20
64.2918004836
 30
0.0
 11
29.28546559709999
 21
64.2918004836
 31
0.0
  0
SOLID
  5
11F
330
116
100
AcDbEntity
  8
0
 62
     7
100
AcDbTrace
 10
40.4214176301
 20
59.5729161275
 30
0.0
 11
39.2034269819
 21
60.4834098293
 31
0.0
 12
38.9739690596
 22
60.0391699596
 32
0.0
 13
38.9739690596
 23
60.0391699596
 33
0.0
  0
POINT
  5
121
330
116
100
AcDbEntity
  8
0
 62
     7
100
AcDbPoint
 10
40.4214176301
 20
59.5729161275
 30
0.0
  0
POINT
  5
122
330
116
100
AcDbEntity
  8
0
 62
     7
100
AcDbPoint
 10
40.6995117886
 20
59.4292754682
 30
0.0
  0
ENDBLK
  5
123
330
116
100
AcDbEntity
  8
0
100
AcDbBlockEnd
  0
BLOCK
  5
126
330
125
100
AcDbEntity
  8
0
 62
     7
100
AcDbBlockBegin
  2
*D8
 70
     1
 10
0.0
 20
0.0
 30
0.0
  3
*D8
  1

  0
MTEXT
  5
127
330
125
100
AcDbEntity
  8
0
 62
     7
100
AcDbMText
 10
47.7522197326
 20
72.79604421390001
 30
0.0
 40
0.8
 41
0.0
 71
     7
 72
     1
  1
15"
  7
SLDTEXTSTYLE0
 73
     1
 44
1.0
  0
MTEXT
  5
128
330
125
100
AcDbEntity
  8
0
 62
     7
100
AcDbMText
 10
47.7175608646
 20
71.27666761010001
 30
0.0
 40
0.8
 41
0.0
 71
     7
 72
     1
  1
REF
  7
SLDTEXTSTYLE0
 73
     1
 44
1.0
  0
LINE
  5
129
330
125
100
AcDbEntity
  8
0
 62
     7
100
AcDbLine
 10
55.5604647093
 20
59.8210957978
 30
0.0
 11
55.5604647093
 21
73.35604421390001
 31
0.0
  0
LINE
  5
12A
330
125
100
AcDbEntity
  8
0
 62
     7
100
AcDbLine
 10
40.5604647093
 20
59.8210957978
 30
0.0
 11
40.5604647093
 21
73.35604421390001
 31
0.0
  0
LINE
  5
12B
330
125
100
AcDbEntity
  8
0
 62
     7
100
AcDbLine
 10
55.5604647093
 20
72.3960442139
 30
0.0
 11
49.85273444949999
 21
72.3960442139
 31
0.0
  0
LINE
  5
12C
330
125
100
AcDbEntity
  8
0
 62
     7
100
AcDbLine
 10
40.5604647093
 20
72.3960442139
 30
0.0
 11
47.0925608646
 21
72.3960442139
 31
0.0
  0
SOLID
  5
12D
330
125
100
AcDbEntity
  8
0
 62
     7
100
AcDbTrace
 10
55.5604647093
 20
72.3960442139
 30
0.0
 11
54.0604647093
 21
72.6460442139
 31
0.0
 12
54.0604647093
 22
72.14604421389999
 32
0.0
 13
54.0604647093
 23
72.14604421389999
 33
0.0
  0
SOLID
  5
12E
330
125
100
AcDbEntity
  8
0
 62
     7
100
AcDbTrace
 10
40.5604647093
 20
72.3960442139
 30
0.0
 11
42.0604647093
 21
72.14604421389999
 31
0.0
 12
42.0604647093
 22
72.6460442139
 32
0.0
 13
42.0604647093
 23
72.6460442139
 33
0.0
  0
POINT
  5
12F
330
125
100
AcDbEntity
  8
0
 62
     7
100
AcDbPoint
 10
55.5604647093
 20
59.5010957978
 30
0.0
  0
POINT
  5
130
330
125
100
AcDbEntity
  8
0
 62
     7
100
AcDbPoint
 10
40.5604647093
 20
59.5010957978
 30
0.0
  0
ENDBLK
  5
131
330
125
100
AcDbEntity
  8
0
 62
     7
100
AcDbBlockEnd
  0
BLOCK
  5
134
330
133
100
AcDbEntity
  8
0
 62
     7
100
AcDbBlockBegin
  2
*D9
 70
     1
 10
0.0
 20
0.0
 30
0.0
  3
*D9
  1

  0
MTEXT
  5
135
330
133
100
AcDbEntity
  8
0
 62
     7
100
AcDbMText
 10
36.040022975
 20
72.79604421390001
 30
0.0
 40
0.8
 41
0.0
 71
     7
 72
     1
  1
8"
  7
SLDTEXTSTYLE0
 73
     1
 44
1.0
  0
MTEXT
  5
136
330
133
100
AcDbEntity
  8
0
 62
     7
100
AcDbMText
 10
35.8051361825
 20
71.27666761010001
 30
0.0
 40
0.8
 41
0.0
 71
     7
 72
     1
  1
REF
  7
SLDTEXTSTYLE0
 73
     1
 44
1.0
  0
LINE
  5
137
330
133
100
AcDbEntity
  8
0
 62
     7
100
AcDbLine
 10
40.5604647093
 20
59.8210957978
 30
0.0
 11
40.5604647093
 21
73.35604421390001
 31
0.0
  0
LINE
  5
138
330
133
100
AcDbEntity
  8
0
 62
     7
100
AcDbLine
 10
32.5604647093
 20
68.82109579779999
 30
0.0
 11
32.5604647093
 21
73.35604421390001
 31
0.0
  0
LINE
  5
139
330
133
100
AcDbEntity
  8
0
 62
     7
100
AcDbLine
 10
40.5604647093
 20
72.3960442139
 30
0.0
 11
37.94030976739999
 21
72.3960442139
 31
0.0
  0
LINE
  5
13A
330
133
100
AcDbEntity
  8
0
 62
     7
100
AcDbLine
 10
32.5604647093
 20
72.3960442139
 30
0.0
 11
35.1801361825
 21
72.3960442139
 31
0.0
  0
SOLID
  5
13B
330
133
100
AcDbEntity
  8
0
 62
     7
100
AcDbTrace
 10
40.5604647093
 20
72.3960442139
 30
0.0
 11
39.0604647093
 21
72.6460442139
 31
0.0
 12
39.0604647093
 22
72.14604421389999
 32
0.0
 13
39.0604647093
 23
72.14604421389999
 33
0.0
  0
SOLID
  5
13C
330
133
100
AcDbEntity
  8
0
 62
     7
100
AcDbTrace
 10
32.5604647093
 20
72.3960442139
 30
0.0
 11
34.0604647093
 21
72.14604421389999
 31
0.0
 12
34.0604647093
 22
72.6460442139
 32
0.0
 13
34.0604647093
 23
72.6460442139
 33
0.0
  0
POINT
  5
13D
330
133
100
AcDbEntity
  8
0
 62
     7
100
AcDbPoint
 10
40.5604647093
 20
59.5010957978
 30
0.0
  0
POINT
  5
13E
330
133
100
AcDbEntity
  8
0
 62
     7
100
AcDbPoint
 10
32.5604647093
 20
68.50109579779999
 30
0.0
  0
ENDBLK
  5
13F
330
133
100
AcDbEntity
  8
0
 62
     7
100
AcDbBlockEnd
  0
BLOCK
  5
142
330
141
100
AcDbEntity
  8
0
 62
     7
100
AcDbBlockBegin
  2
*D10
 70
     1
 10
0.0
 20
0.0
 30
0.0
  3
*D10
  1

  0
MTEXT
  5
143
330
141
100
AcDbEntity
  8
0
 62
     7
100
AcDbMText
 10
67.37799000639999
 20
46.2435835906
 30
0.0
 40
0.8
 41
0.0
 71
     7
 72
     1
  1
28"
  7
SLDTEXTSTYLE0
 73
     1
 44
1.0
  0
MTEXT
  5
144
330
141
100
AcDbEntity
  8
0
 62
     7
100
AcDbMText
 10
67.4231605725
 20
44.72420698689999
 30
0.0
 40
0.8
 41
0.0
 71
     7
 72
     1
  1
REF
  7
SLDTEXTSTYLE0
 73
     1
 44
1.0
  0
LINE
  5
145
330
141
100
AcDbEntity
  8
0
 62
     7
100
AcDbLine
 10
55.8804647093
 20
59.5010957978
 30
0.0
 11
69.13824736489999
 21
59.5010957978
 31
0.0
  0
LINE
  5
146
330
141
100
AcDbEntity
  8
0
 62
     7
100
AcDbLine
 10
55.8804647093
 20
31.5010957978
 30
0.0
 11
69.13824736489999
 21
31.5010957978
 31
0.0
  0
LINE
  5
147
330
141
100
AcDbEntity
  8
0
 62
     7
100
AcDbLine
 10
68.1782473649
 20
59.5010957978
 30
0.0
 11
68.1782473649
 21
47.3629601944
 31
0.0
  0
LINE
  5
148
330
141
100
AcDbEntity
  8
0
 62
     7
100
AcDbLine
 10
68.1782473649
 20
31.5010957978
 30
0.0
 11
68.1782473649
 21
44.32420698689999
 31
0.0
  0
SOLID
  5
149
330
141
100
AcDbEntity
  8
0
 62
     7
100
AcDbTrace
 10
68.1782473649
 20
59.5010957978
 30
0.0
 11
67.9282473649
 21
58.00109579779999
 31
0.0
 12
68.4282473649
 22
58.00109579779999
 32
0.0
 13
68.4282473649
 23
58.00109579779999
 33
0.0
  0
SOLID
  5
14A
330
141
100
AcDbEntity
  8
0
 62
     7
100
AcDbTrace
 10
68.1782473649
 20
31.5010957978
 30
0.0
 11
68.4282473649
 21
33.0010957978
 31
0.0
 12
67.9282473649
 22
33.0010957978
 32
0.0
 13
67.9282473649
 23
33.0010957978
 33
0.0
  0
POINT
  5
14B
330
141
100
AcDbEntity
  8
0
 62
     7
100
AcDbPoint
 10
55.5604647093
 20
59.5010957978
 30
0.0
  0
POINT
  5
14C
330
141
100
AcDbEntity
  8
0
 62
     7
100
AcDbPoint
 10
55.5604647093
 20
31.5010957978
 30
0.0
  0
ENDBLK
  5
14D
330
141
100
AcDbEntity
  8
0
 62
     7
100
AcDbBlockEnd
  0
BLOCK
  5
150
330
14F
100
AcDbEntity
  8
0
 62
     7
100
AcDbBlockBegin
  2
*D11
 70
     1
 10
0.0
 20
0.0
 30
0.0
  3
*D11
  1

  0
MTEXT
  5
151
330
14F
100
AcDbEntity
  8
0
 62
     7
100
AcDbMText
 10
67.602381829
 20
28.2079499598
 30
0.0
 40
0.8
 41
0.0
 71
     7
 72
     1
  1
9"
  7
SLDTEXTSTYLE0
 73
     1
 44
1.0
  0
MTEXT
  5
152
330
14F
100
AcDbEntity
  8
0
 62
     7
100
AcDbMText
 10
67.3674950366
 20
26.688573356
 30
0.0
 40
0.8
 41
0.0
 71
     7
 72
     1
  1
REF
  7
SLDTEXTSTYLE0
 73
     1
 44
1.0
  0
LINE
  5
153
330
14F
100
AcDbEntity
  8
0
 62
     7
100
AcDbLine
 10
55.8804647093
 20
31.5010957978
 30
0.0
 11
69.08258182899999
 21
31.5010957978
 31
0.0
  0
LINE
  5
154
330
14F
100
AcDbEntity
  8
0
 62
     7
100
AcDbLine
 10
63.88046470929999
 20
22.5010957978
 30
0.0
 11
69.08258182899999
 21
22.5010957978
 31
0.0
  0
LINE
  5
155
330
14F
100
AcDbEntity
  8
0
 62
     7
100
AcDbLine
 10
68.12258182899999
 20
31.5010957978
 30
0.0
 11
68.12258182899999
 21
29.32732656349999
 31
0.0
  0
LINE
  5
156
330
14F
100
AcDbEntity
  8
0
 62
     7
100
AcDbLine
 10
68.12258182899999
 20
22.5010957978
 30
0.0
 11
68.12258182899999
 21
26.288573356
 31
0.0
  0
SOLID
  5
157
330
14F
100
AcDbEntity
  8
0
 62
     7
100
AcDbTrace
 10
68.12258182899999
 20
31.5010957978
 30
0.0
 11
67.872581829
 21
30.0010957978
 31
0.0
 12
68.372581829
 22
30.0010957978
 32
0.0
 13
68.372581829
 23
30.0010957978
 33
0.0
  0
SOLID
  5
158
330
14F
100
AcDbEntity
  8
0
 62
     7
100
AcDbTrace
 10
68.12258182899999
 20
22.5010957978
 30
0.0
 11
68.372581829
 21
24.0010957978
 31
0.0
 12
67.872581829
 22
24.0010957978
 32
0.0
 13
67.872581829
 23
24.0010957978
 33
0.0
  0
POINT
  5
159
330
14F
100
AcDbEntity
  8
0
 62
     7
100
AcDbPoint
 10
55.5604647093
 20
31.5010957978
 30
0.0
  0
POINT
  5
15A
330
14F
100
AcDbEntity
  8
0
 62
     7
100
AcDbPoint
 10
63.56046470929999
 20
22.5010957978
 30
0.0
  0
ENDBLK
  5
15B
330
14F
100
AcDbEntity
  8
0
 62
     7
100
AcDbBlockEnd
  0
BLOCK
  5
162
330
161
100
AcDbEntity
  8
0
 62
     1
100
AcDbBlockBegin
  2
*D12
 70
     1
 10
0.0
 20
0.0
 30
0.0
  3
*D12
  1

  0
MTEXT
  5
163
330
161
100
AcDbEntity
  8
0
100
AcDbMText
 10
96.48749672120001
 20
69.84327711039999
 30
0.0
 40
0.8
 41
0.0
 71
     7
 72
     1
  1
1/4"
  7
SLDTEXTSTYLE0
 73
     1
 44
1.0
  0
LINE
  5
164
330
161
100
AcDbEntity
  8
0
100
AcDbLine
 10
89.64754964169999
 20
68.82109579779999
 30
0.0
 11
89.64754964169999
 21
71.16296541229999
 31
0.0
  0
LINE
  5
165
330
161
100
AcDbEntity
  8
0
100
AcDbLine
 10
89.8975496417
 20
68.82109579779999
 30
0.0
 11
89.8975496417
 21
71.16296541229999
 31
0.0
  0
LINE
  5
166
330
161
100
AcDbEntity
  8
0
100
AcDbLine
 10
89.64754964169999
 20
70.20296541229999
 30
0.0
 11
85.64754964169999
 21
70.20296541229999
 31
0.0
  0
LINE
  5
167
330
161
100
AcDbEntity
  8
0
100
AcDbLine
 10
89.8975496417
 20
70.20296541229999
 30
0.0
 11
95.9874967212
 21
70.20296541229999
 31
0.0
  0
SOLID
  5
168
330
161
100
AcDbEntity
  8
0
100
AcDbTrace
 10
89.64754964169999
 20
70.20296541229999
 30
0.0
 11
88.14754964169999
 21
70.45296541229999
 31
0.0
 12
88.14754964169999
 22
69.95296541229999
 32
0.0
 13
88.14754964169999
 23
69.95296541229999
 33
0.0
  0
SOLID
  5
169
330
161
100
AcDbEntity
  8
0
100
AcDbTrace
 10
89.8975496417
 20
70.20296541229999
 30
0.0
 11
91.3975496417
 21
69.95296541229999
 31
0.0
 12
91.3975496417
 22
70.45296541229999
 32
0.0
 13
91.3975496417
 23
70.45296541229999
 33
0.0
  0
POINT
  5
16A
330
161
100
AcDbEntity
  8
0
100
AcDbPoint
 10
89.64754964169999
 20
68.50109579779999
 30
0.0
  0
POINT
  5
16B
330
161
100
AcDbEntity
  8
0
100
AcDbPoint
 10
89.8975496417
 20
68.50109579779999
 30
0.0
  0
ENDBLK
  5
16C
330
161
100
AcDbEntity
  8
0
 62
     1
100
AcDbBlockEnd
  0
ENDSEC
  0
SECTION
  2
ENTITIES
  0
LINE
  5
2A
330
A
100
AcDbEntity
  8
0
  6
Continuous
 62
     7
370
     0
100
AcDbLine
 10
27.0
 20
85.0
 30
0.0
 11
12.0
 21
85.0
 31
0.0
  0
LINE
  5
2B
330
A
100
AcDbEntity
  8
0
  6
Continuous
 62
     7
370
     0
100
AcDbLine
 10
42.0
 20
85.0
 30
0.0
 11
27.0
 21
85.0
 31
0.0
  0
LINE
  5
2C
330
A
100
AcDbEntity
  8
0
  6
Continuous
 62
     7
370
     0
100
AcDbLine
 10
132.0
 20
3.0
 30
0.0
 11
117.0
 21
3.0
 31
0.0
  0
LINE
  5
2D
330
A
100
AcDbEntity
  8
0
  6
Continuous
 62
     7
370
     0
100
AcDbLine
 10
132.0
 20
3.0
 30
0.0
 11
132.0
 21
23.5
 31
0.0
  0
LINE
  5
2E
330
A
100
AcDbEntity
  8
0
  6
Continuous
 62
     7
370
     0
100
AcDbLine
 10
132.0
 20
64.5
 30
0.0
 11
133.0
 21
64.5
 31
0.0
  0
LINE
  5
2F
330
A
100
AcDbEntity
  8
0
  6
Continuous
 62
     7
370
     0
100
AcDbLine
 10
132.0
 20
44.0
 30
0.0
 11
133.0
 21
44.0
 31
0.0
  0
LINE
  5
30
330
A
100
AcDbEntity
  8
0
  6
Continuous
 62
     7
370
     0
100
AcDbLine
 10
57.0
 20
85.0
 30
0.0
 11
42.0
 21
85.0
 31
0.0
  0
LINE
  5
31
330
A
100
AcDbEntity
  8
0
  6
Continuous
 62
     7
370
     0
100
AcDbLine
 10
72.0
 20
85.0
 30
0.0
 11
57.0
 21
85.0
 31
0.0
  0
LINE
  5
32
330
A
100
AcDbEntity
  8
0
  6
Continuous
 62
     7
370
     0
100
AcDbLine
 10
87.0
 20
85.0
 30
0.0
 11
72.0
 21
85.0
 31
0.0
  0
LINE
  5
33
330
A
100
AcDbEntity
  8
0
  6
Continuous
 62
     7
370
     0
100
AcDbLine
 10
102.0
 20
85.0
 30
0.0
 11
87.0
 21
85.0
 31
0.0
  0
LINE
  5
34
330
A
100
AcDbEntity
  8
0
  6
Continuous
 62
     7
370
     0
100
AcDbLine
 10
117.0
 20
85.0
 30
0.0
 11
102.0
 21
85.0
 31
0.0
  0
LINE
  5
35
330
A
100
AcDbEntity
  8
0
  6
Continuous
 62
     7
370
     0
100
AcDbLine
 10
132.0
 20
23.5
 30
0.0
 11
133.0
 21
23.5
 31
0.0
  0
LINE
  5
36
330
A
100
AcDbEntity
  8
0
  6
Continuous
 62
     7
370
     0
100
AcDbLine
 10
132.0
 20
85.0
 30
0.0
 11
117.0
 21
85.0
 31
0.0
  0
LINE
  5
37
330
A
100
AcDbEntity
  8
0
  6
Continuous
 62
     7
370
     0
100
AcDbLine
 10
117.0
 20
85.0
 30
0.0
 11
117.0
 21
86.0
 31
0.0
  0
LINE
  5
38
330
A
100
AcDbEntity
  8
0
  6
Continuous
 62
     7
370
     0
100
AcDbLine
 10
102.0
 20
85.0
 30
0.0
 11
102.0
 21
86.0
 31
0.0
  0
LINE
  5
39
330
A
100
AcDbEntity
  8
0
  6
Continuous
 62
     7
370
     0
100
AcDbLine
 10
87.0
 20
85.0
 30
0.0
 11
87.0
 21
86.0
 31
0.0
  0
LINE
  5
3A
330
A
100
AcDbEntity
  8
0
  6
Continuous
 62
     7
370
     0
100
AcDbLine
 10
72.0
 20
85.0
 30
0.0
 11
72.0
 21
86.0
 31
0.0
  0
LINE
  5
3B
330
A
100
AcDbEntity
  8
0
  6
Continuous
 62
     7
370
     0
100
AcDbLine
 10
57.0
 20
85.0
 30
0.0
 11
57.0
 21
86.0
 31
0.0
  0
LINE
  5
3C
330
A
100
AcDbEntity
  8
0
  6
Continuous
 62
     7
370
     0
100
AcDbLine
 10
42.0
 20
85.0
 30
0.0
 11
42.0
 21
86.0
 31
0.0
  0
LINE
  5
3D
330
A
100
AcDbEntity
  8
0
  6
Continuous
 62
     7
370
     0
100
AcDbLine
 10
27.0
 20
85.0
 30
0.0
 11
27.0
 21
86.0
 31
0.0
  0
LINE
  5
3E
330
A
100
AcDbEntity
  8
0
  6
Continuous
 62
     7
370
     0
100
AcDbLine
 10
70.0
 20
13.52
 30
0.0
 11
70.0
 21
3.008
 31
0.0
  0
LINE
  5
3F
330
A
100
AcDbEntity
  8
0
  6
Continuous
 62
     7
370
     0
100
AcDbLine
 10
88.0
 20
19.0
 30
0.0
 11
132.0
 21
19.0
 31
0.0
  0
LINE
  5
40
330
A
100
AcDbEntity
  8
0
  6
Continuous
 62
     7
370
     0
100
AcDbLine
 10
88.0
 20
19.0
 30
0.0
 11
88.0
 21
3.0
 31
0.0
  0
LINE
  5
41
330
A
100
AcDbEntity
  8
0
  6
Continuous
 62
     7
370
     0
100
AcDbLine
 10
108.0
 20
19.0
 30
0.0
 11
108.0
 21
3.0
 31
0.0
  0
LINE
  5
42
330
A
100
AcDbEntity
  8
0
  6
Continuous
 62
     7
370
     0
100
AcDbLine
 10
108.0
 20
4.503999999999999
 30
0.0
 11
132.0
 21
4.503999999999999
 31
0.0
  0
LINE
  5
43
330
A
100
AcDbEntity
  8
0
  6
Continuous
 62
     7
370
     0
100
AcDbLine
 10
108.0
 20
7.503999999999999
 30
0.0
 11
132.0
 21
7.503999999999999
 31
0.0
  0
LINE
  5
44
330
A
100
AcDbEntity
  8
0
  6
Continuous
 62
     7
370
     0
100
AcDbLine
 10
108.0
 20
13.504
 30
0.0
 11
132.0
 21
13.504
 31
0.0
  0
LINE
  5
45
330
A
100
AcDbEntity
  8
0
  6
Continuous
 62
     7
370
     0
100
AcDbLine
 10
111.0
 20
7.503999999999999
 30
0.0
 11
111.0
 21
3.0
 31
0.0
  0
LINE
  5
46
330
A
100
AcDbEntity
  8
0
  6
Continuous
 62
     7
370
     0
100
AcDbLine
 10
70.0
 20
6.007999999999999
 30
0.0
 11
108.0
 21
6.007999999999999
 31
0.0
  0
LINE
  5
47
330
A
100
AcDbEntity
  8
0
  6
Continuous
 62
     7
370
     0
100
AcDbLine
 10
129.0
 20
7.503999999999999
 30
0.0
 11
129.0
 21
3.0
 31
0.0
  0
LINE
  5
48
330
A
100
AcDbEntity
  8
0
  6
Continuous
 62
     7
370
     0
100
AcDbLine
 10
108.0
 20
16.0
 30
0.0
 11
88.0
 21
16.0
 31
0.0
  0
LINE
  5
49
330
A
100
AcDbEntity
  8
0
  6
Continuous
 62
     7
370
     0
100
AcDbLine
 10
88.0
 20
9.496
 30
0.0
 11
108.0
 21
9.496
 31
0.0
  0
LINE
  5
4A
330
A
100
AcDbEntity
  8
0
  6
Continuous
 62
     7
370
     0
100
AcDbLine
 10
88.0
 20
4.503999999999999
 30
0.0
 11
108.0
 21
4.503999999999999
 31
0.0
  0
LINE
  5
4B
330
A
100
AcDbEntity
  8
0
  6
Continuous
 62
     7
370
     0
100
AcDbLine
 10
70.0
 20
10.512
 30
0.0
 11
88.0
 21
10.512
 31
0.0
  0
LINE
  5
4C
330
A
100
AcDbEntity
  8
0
  6
Continuous
 62
     7
370
     0
100
AcDbLine
 10
132.0
 20
23.5
 30
0.0
 11
132.0
 21
44.0
 31
0.0
  0
LINE
  5
4D
330
A
100
AcDbEntity
  8
0
  6
Continuous
 62
     7
370
     0
100
AcDbLine
 10
132.0
 20
44.0
 30
0.0
 11
132.0
 21
64.5
 31
0.0
  0
LINE
  5
4E
330
A
100
AcDbEntity
  8
0
  6
Continuous
 62
     7
370
     0
100
AcDbLine
 10
132.0
 20
64.5
 30
0.0
 11
132.0
 21
85.0
 31
0.0
  0
LINE
  5
4F
330
A
100
AcDbEntity
  8
0
  6
Continuous
 62
     7
370
     0
100
AcDbLine
 10
117.0
 20
3.0
 30
0.0
 11
102.0
 21
3.0
 31
0.0
  0
LINE
  5
50
330
A
100
AcDbEntity
  8
0
  6
Continuous
 62
     7
370
     0
100
AcDbLine
 10
102.0
 20
3.0
 30
0.0
 11
87.0
 21
3.0
 31
0.0
  0
LINE
  5
51
330
A
100
AcDbEntity
  8
0
  6
Continuous
 62
     7
370
     0
100
AcDbLine
 10
70.0
 20
12.016
 30
0.0
 11
88.0
 21
12.016
 31
0.0
  0
LINE
  5
52
330
A
100
AcDbEntity
  8
0
  6
Continuous
 62
     7
370
     0
100
AcDbLine
 10
70.0
 20
7.5
 30
0.0
 11
40.0
 21
7.5
 31
0.0
  0
LINE
  5
53
330
A
100
AcDbEntity
  8
0
  6
Continuous
 62
     7
370
     0
100
AcDbLine
 10
88.0
 20
13.52
 30
0.0
 11
70.0
 21
13.52
 31
0.0
  0
LINE
  5
54
330
A
100
AcDbEntity
  8
0
  6
Continuous
 62
     7
370
     0
100
AcDbLine
 10
82.0
 20
13.52
 30
0.0
 11
82.0
 21
9.007999999999999
 31
0.0
  0
LINE
  5
55
330
A
100
AcDbEntity
  8
0
  6
Continuous
 62
     7
370
     0
100
AcDbLine
 10
88.0
 20
14.496
 30
0.0
 11
108.0
 21
14.496
 31
0.0
  0
LINE
  5
56
330
A
100
AcDbEntity
  8
0
  6
Continuous
 62
     7
370
     0
100
AcDbLine
 10
70.0
 20
9.007999999999999
 30
0.0
 11
88.0
 21
9.007999999999999
 31
0.0
  0
LINE
  5
57
330
A
100
AcDbEntity
  8
0
  6
Continuous
 62
     7
370
     0
100
AcDbLine
 10
98.0
 20
16.0
 30
0.0
 11
98.0
 21
9.496
 31
0.0
  0
LINE
  5
58
330
A
100
AcDbEntity
  8
0
  6
Continuous
 62
     7
370
     0
100
AcDbLine
 10
87.0
 20
3.0
 30
0.0
 11
72.0
 21
3.0
 31
0.0
  0
LINE
  5
59
330
A
100
AcDbEntity
  8
0
  6
Continuous
 62
     7
370
     0
100
AcDbLine
 10
72.0
 20
3.0
 30
0.0
 11
57.0
 21
3.0
 31
0.0
  0
LINE
  5
5A
330
A
100
AcDbEntity
  8
0
  6
Continuous
 62
     7
370
     0
100
AcDbLine
 10
57.0
 20
3.0
 30
0.0
 11
42.0
 21
3.0
 31
0.0
  0
LINE
  5
5B
330
A
100
AcDbEntity
  8
0
  6
Continuous
 62
     7
370
     0
100
AcDbLine
 10
42.0
 20
3.0
 30
0.0
 11
27.0
 21
3.0
 31
0.0
  0
LINE
  5
5C
330
A
100
AcDbEntity
  8
0
  6
Continuous
 62
     7
370
     0
100
AcDbLine
 10
103.0
 20
16.0
 30
0.0
 11
103.0
 21
9.496
 31
0.0
  0
LINE
  5
5D
330
A
100
AcDbEntity
  8
0
  6
Continuous
 62
     7
370
     0
100
AcDbLine
 10
27.0
 20
3.0
 30
0.0
 11
12.0
 21
3.0
 31
0.0
  0
LINE
  5
5E
330
A
100
AcDbEntity
  8
0
  6
Continuous
 62
     7
370
     0
100
AcDbLine
 10
6.0
 20
85.0
 30
0.0
 11
6.0
 21
3.0
 31
0.0
  0
LINE
  5
5F
330
A
100
AcDbEntity
  8
0
  6
Continuous
 62
     7
370
     0
100
AcDbLine
 10
12.0
 20
23.5
 30
0.0
 11
12.0
 21
44.0
 31
0.0
  0
LINE
  5
60
330
A
100
AcDbEntity
  8
0
  6
Continuous
 62
     7
370
     0
100
AcDbLine
 10
12.0
 20
44.0
 30
0.0
 11
12.0
 21
64.5
 31
0.0
  0
LINE
  5
61
330
A
100
AcDbEntity
  8
0
  6
Continuous
 62
     7
370
     0
100
AcDbLine
 10
12.0
 20
64.5
 30
0.0
 11
12.0
 21
85.0
 31
0.0
  0
LINE
  5
62
330
A
100
AcDbEntity
  8
0
  6
Continuous
 62
     7
370
     0
100
AcDbLine
 10
12.0
 20
64.5
 30
0.0
 11
11.0
 21
64.5
 31
0.0
  0
LINE
  5
63
330
A
100
AcDbEntity
  8
0
  6
Continuous
 62
     7
370
     0
100
AcDbLine
 10
117.0
 20
3.0
 30
0.0
 11
117.0
 21
2.0
 31
0.0
  0
LINE
  5
64
330
A
100
AcDbEntity
  8
0
  6
Continuous
 62
     7
370
     0
100
AcDbLine
 10
102.0
 20
3.0
 30
0.0
 11
102.0
 21
2.0
 31
0.0
  0
LINE
  5
65
330
A
100
AcDbEntity
  8
0
  6
Continuous
 62
     7
370
     0
100
AcDbLine
 10
87.0
 20
3.0
 30
0.0
 11
87.0
 21
2.0
 31
0.0
  0
LINE
  5
66
330
A
100
AcDbEntity
  8
0
  6
CENTERX2
 62
     7
370
     0
100
AcDbLine
 10
72.0
 20
3.0
 30
0.0
 11
72.0
 21
2.0
 31
0.0
  0
LINE
  5
67
330
A
100
AcDbEntity
  8
0
  6
Continuous
 62
     7
370
     0
100
AcDbLine
 10
57.0
 20
3.0
 30
0.0
 11
57.0
 21
2.0
 31
0.0
  0
LINE
  5
68
330
A
100
AcDbEntity
  8
0
  6
Continuous
 62
     7
370
     0
100
AcDbLine
 10
42.0
 20
3.0
 30
0.0
 11
42.0
 21
2.0
 31
0.0
  0
LINE
  5
69
330
A
100
AcDbEntity
  8
0
  6
Continuous
 62
     7
370
     0
100
AcDbLine
 10
27.0
 20
3.0
 30
0.0
 11
27.0
 21
2.0
 31
0.0
  0
LINE
  5
6A
330
A
100
AcDbEntity
  8
0
  6
Continuous
 62
     7
370
     0
100
AcDbLine
 10
12.0
 20
44.0
 30
0.0
 11
11.0
 21
44.0
 31
0.0
  0
LINE
  5
6B
330
A
100
AcDbEntity
  8
0
  6
Continuous
 62
     7
370
     0
100
AcDbLine
 10
12.0
 20
23.5
 30
0.0
 11
11.0
 21
23.5
 31
0.0
  0
LINE
  5
6C
330
A
100
AcDbEntity
  8
0
  6
Continuous
 62
     7
370
     0
100
AcDbLine
 10
12.0
 20
3.0
 30
0.0
 11
12.0
 21
23.5
 31
0.0
  0
LINE
  5
6D
330
A
100
AcDbEntity
  8
0
  6
Continuous
 62
     7
370
     0
100
AcDbLine
 10
40.0
 20
7.5
 30
0.0
 11
40.0
 21
3.0
 31
0.0
  0
LINE
  5
6E
330
A
100
AcDbEntity
  8
0
  6
Continuous
 62
     7
370
     0
100
AcDbLine
 10
132.0
 20
83.496
 30
0.0
 11
100.0
 21
83.496
 31
0.0
  0
LINE
  5
6F
330
A
100
AcDbEntity
  8
0
  6
Continuous
 62
     7
370
     0
100
AcDbLine
 10
132.0
 20
81.99200000000001
 30
0.0
 11
100.0
 21
81.99200000000001
 31
0.0
  0
LINE
  5
70
330
A
100
AcDbEntity
  8
0
  6
Continuous
 62
     7
370
     0
100
AcDbLine
 10
132.0
 20
80.48799999999999
 30
0.0
 11
100.0
 21
80.48799999999999
 31
0.0
  0
LINE
  5
71
330
A
100
AcDbEntity
  8
0
  6
Continuous
 62
     7
370
     0
100
AcDbLine
 10
100.0
 20
85.0
 30
0.0
 11
100.0
 21
80.48799999999999
 31
0.0
  0
LINE
  5
72
330
A
100
AcDbEntity
  8
0
  6
Continuous
 62
     7
370
     0
100
AcDbLine
 10
103.0
 20
83.496
 30
0.0
 11
103.0
 21
80.48799999999999
 31
0.0
  0
LINE
  5
73
330
A
100
AcDbEntity
  8
0
  6
Continuous
 62
     7
370
     0
100
AcDbLine
 10
126.0
 20
83.496
 30
0.0
 11
126.0
 21
80.48799999999999
 31
0.0
  0
LINE
  5
74
330
A
100
AcDbEntity
  8
0
  6
Continuous
 62
     7
370
     0
100
AcDbLine
 10
121.0
 20
83.496
 30
0.0
 11
121.0
 21
80.48799999999999
 31
0.0
  0
MTEXT
  5
76
330
A
100
AcDbEntity
  8
0
 62
     1
100
AcDbMText
 10
92.56766391395277
 20
5.587647478066307
 30
0.0
 40
0.8
 41
0.0
 71
     1
 72
     1
  1
101.0 lbs
  7
SLDTEXTSTYLE0
 73
     1
 44
1.0
  0
MTEXT
  5
77
330
A
100
AcDbEntity
  8
0
 62
     1
100
AcDbMText
 10
70.86756741550026
 20
7.499411785955898
 30
0.0
 40
0.8
 41
0.0
 71
     1
 72
     1
  1
STEEL, A-36, 1/4" THICK BURNED
  7
SLDTEXTSTYLE0
 73
     1
 44
1.0
  0
MTEXT
  5
78
330
A
100
AcDbEntity
  8
0
 62
     7
100
AcDbMText
 10
121.4806097517415
 20
25.393702231329
 30
0.0
 40
1.333333333299999
 41
0.0
 71
     2
 72
     1
  1
2 REQUIRED\PPER ASSEM
  7
SLDTEXTSTYLE0
 73
     1
 44
1.0
  0
MTEXT
  5
79
330
A
100
AcDbEntity
  8
0
 62
     7
100
AcDbMText
 10
133.7071606362999
 20
72.7093023403
 30
0.0
 40
0.75
 41
0.0
 71
     1
 72
     1
  1
D
  7
SLDTEXTSTYLE0
 73
     1
 44
1.0
  0
MTEXT
  5
7A
330
A
100
AcDbEntity
  8
0
 62
     7
100
AcDbMText
 10
133.5608467974999
 20
52.369691798
 30
0.0
 40
0.75
 41
0.0
 71
     1
 72
     1
  1
C
  7
SLDTEXTSTYLE0
 73
     1
 44
1.0
  0
MTEXT
  5
7B
330
A
100
AcDbEntity
  8
0
 62
     7
100
AcDbMText
 10
133.6489664012
 20
33.7505212773
 30
0.0
 40
0.75
 41
0.0
 71
     1
 72
     1
  1
B
  7
SLDTEXTSTYLE0
 73
     1
 44
1.0
  0
MTEXT
  5
7C
330
A
100
AcDbEntity
  8
0
 62
     7
100
AcDbMText
 10
133.6444132807999
 20
13.7101456663
 30
0.0
 40
0.75
 41
0.0
 71
     1
 72
     1
  1
A
  7
SLDTEXTSTYLE0
 73
     1
 44
1.0
  0
MTEXT
  5
7D
330
A
100
AcDbEntity
  8
0
 62
     7
100
AcDbMText
 10
7.7148207894
 20
13.54731494839999
 30
0.0
 40
0.75
 41
0.0
 71
     1
 72
     1
  1
A
  7
SLDTEXTSTYLE0
 73
     1
 44
1.0
  0
MTEXT
  5
7E
330
A
100
AcDbEntity
  8
0
 62
     7
100
AcDbMText
 10
7.6892760513
 20
34.2223622451
 30
0.0
 40
0.75
 41
0.0
 71
     1
 72
     1
  1
B
  7
SLDTEXTSTYLE0
 73
     1
 44
1.0
  0
MTEXT
  5
7F
330
A
100
AcDbEntity
  8
0
 62
     7
100
AcDbMText
 10
7.5906232435
 20
54.9939200527
 30
0.0
 40
0.75
 41
0.0
 71
     1
 72
     1
  1
C
  7
SLDTEXTSTYLE0
 73
     1
 44
1.0
  0
MTEXT
  5
80
330
A
100
AcDbEntity
  8
0
 62
     7
100
AcDbMText
 10
7.564391697
 20
74.4517470685
 30
0.0
 40
0.75
 41
0.0
 71
     1
 72
     1
  1
D
  7
SLDTEXTSTYLE0
 73
     1
 44
1.0
  0
MTEXT
  5
81
330
A
100
AcDbEntity
  8
0
 62
     7
100
AcDbMText
 10
129.4864464922999
 20
4.1574284717
 30
0.0
 40
0.72
 41
0.0
 71
     1
 72
     1
  1
REV.
  7
SLDTEXTSTYLE0
 73
     1
 44
1.0
  0
MTEXT
  5
82
330
A
100
AcDbEntity
  8
0
 62
     7
100
AcDbMText
 10
98.79261609469999
 20
14.0695277957
 30
0.0
 40
0.72
 41
0.0
 71
     1
 72
     1
  1
%%p\P%%p\P%%p\P%%p
  7
SLDTEXTSTYLE0
 73
     1
 44
1.0
  0
MTEXT
  5
83
330
A
100
AcDbEntity
  8
0
 62
     7
100
AcDbMText
 10
70.4955321987
 20
8.7798767997
 30
0.0
 40
0.72
 41
0.0
 71
     1
 72
     1
  1
MATERIAL
  7
SLDTEXTSTYLE0
 73
     1
 44
1.0
  0
MTEXT
  5
84
330
A
100
AcDbEntity
  8
0
 62
     7
100
AcDbMText
 10
70.4772272517
 20
5.853390455
 30
0.0
 40
0.72
 41
0.0
 71
     1
 72
     1
  1
FINISH
  7
SLDTEXTSTYLE0
 73
     1
 44
1.0
  0
MTEXT
  5
85
330
A
100
AcDbEntity
  8
0
 62
     7
100
AcDbMText
 10
126.4034640266
 20
2.574147047799999
 30
0.0
 40
0.75
 41
0.0
 71
     1
 72
     1
  1
1
  7
SLDTEXTSTYLE0
 73
     1
 44
1.0
  0
MTEXT
  5
86
330
A
100
AcDbEntity
  8
0
 62
     7
100
AcDbMText
 10
108.7550900321999
 20
2.6520863584
 30
0.0
 40
0.75
 41
0.0
 71
     1
 72
     1
  1
2
  7
SLDTEXTSTYLE0
 73
     1
 44
1.0
  0
MTEXT
  5
87
330
A
100
AcDbEntity
  8
0
 62
     7
100
AcDbMText
 10
92.29017344739999
 20
2.6780661286
 30
0.0
 40
0.75
 41
0.0
 71
     1
 72
     1
  1
3
  7
SLDTEXTSTYLE0
 73
     1
 44
1.0
  0
MTEXT
  5
88
330
A
100
AcDbEntity
  8
0
 62
     7
100
AcDbMText
 10
77.45342064589999
 20
2.6939590187
 30
0.0
 40
0.75
 41
0.0
 71
     1
 72
     1
  1
4
  7
SLDTEXTSTYLE0
 73
     1
 44
1.0
  0
MTEXT
  5
89
330
A
100
AcDbEntity
  8
0
 62
     7
100
AcDbMText
 10
61.8501173481
 20
2.719938788999999
 30
0.0
 40
0.75
 41
0.0
 71
     1
 72
     1
  1
5
  7
SLDTEXTSTYLE0
 73
     1
 44
1.0
  0
MTEXT
  5
8A
330
A
100
AcDbEntity
  8
0
 62
     7
100
AcDbMText
 10
47.2817239888
 20
2.590039937899999
 30
0.0
 40
0.75
 41
0.0
 71
     1
 72
     1
  1
6
  7
SLDTEXTSTYLE0
 73
     1
 44
1.0
  0
MTEXT
  5
8B
330
A
100
AcDbEntity
  8
0
 62
     7
100
AcDbMText
 10
31.4418470291
 20
2.7040458988
 30
0.0
 40
0.75
 41
0.0
 71
     1
 72
     1
  1
7
  7
SLDTEXTSTYLE0
 73
     1
 44
1.0
  0
MTEXT
  5
8C
330
A
100
AcDbEntity
  8
0
 62
     7
100
AcDbMText
 10
17.18521091239999
 20
2.719938788999999
 30
0.0
 40
0.75
 41
0.0
 71
     1
 72
     1
  1
8
  7
SLDTEXTSTYLE0
 73
     1
 44
1.0
  0
MTEXT
  5
8D
330
A
100
AcDbEntity
  8
0
 62
     7
100
AcDbMText
 10
16.9382316246
 20
86.46951697049999
 30
0.0
 40
0.75
 41
0.0
 71
     1
 72
     1
  1
8
  7
SLDTEXTSTYLE0
 73
     1
 44
1.0
  0
MTEXT
  5
8E
330
A
100
AcDbEntity
  8
0
 62
     7
100
AcDbMText
 10
32.5636559821
 20
86.29121875
 30
0.0
 40
0.75
 41
0.0
 71
     1
 72
     1
  1
7
  7
SLDTEXTSTYLE0
 73
     1
 44
1.0
  0
MTEXT
  5
8F
330
A
100
AcDbEntity
  8
0
 62
     7
100
AcDbMText
 10
47.61371791770001
 20
86.23894965279999
 30
0.0
 40
0.75
 41
0.0
 71
     1
 72
     1
  1
6
  7
SLDTEXTSTYLE0
 73
     1
 44
1.0
  0
MTEXT
  5
90
330
A
100
AcDbEntity
  8
0
 62
     7
100
AcDbMText
 10
63.2495534472
 20
86.1440871961
 30
0.0
 40
0.75
 41
0.0
 71
     1
 72
     1
  1
5
  7
SLDTEXTSTYLE0
 73
     1
 44
1.0
  0
MTEXT
  5
91
330
A
100
AcDbEntity
  8
0
 62
     7
100
AcDbMText
 10
78.7905265201
 20
86.37465451389999
 30
0.0
 40
0.75
 41
0.0
 71
     1
 72
     1
  1
4
  7
SLDTEXTSTYLE0
 73
     1
 44
1.0
  0
MTEXT
  5
92
330
A
100
AcDbEntity
  8
0
 62
     7
100
AcDbMText
 10
94.41041792629999
 20
86.20917315099999
 30
0.0
 40
0.75
 41
0.0
 71
     1
 72
     1
  1
3
  7
SLDTEXTSTYLE0
 73
     1
 44
1.0
  0
MTEXT
  5
93
330
A
100
AcDbEntity
  8
0
 62
     7
100
AcDbMText
 10
109.3683838808999
 20
86.3068020833
 30
0.0
 40
0.75
 41
0.0
 71
     1
 72
     1
  1
2
  7
SLDTEXTSTYLE0
 73
     1
 44
1.0
  0
MTEXT
  5
94
330
A
100
AcDbEntity
  8
0
 62
     7
100
AcDbMText
 10
125.3351821362
 20
86.17386369790001
 30
0.0
 40
0.75
 41
0.0
 71
     1
 72
     1
  1
1
  7
SLDTEXTSTYLE0
 73
     1
 44
1.0
  0
MTEXT
  5
95
330
A
100
AcDbEntity
  8
0
 62
     7
100
AcDbMText
 10
109.243472093
 20
18.4057390878
 30
0.0
 40
1.333333333299999
 41
0.0
 71
     1
 72
     1
  1
RADIO  ASTRONOMY  LAB
  7
SLDTEXTSTYLE0
 73
     1
 44
1.0
  0
MTEXT
  5
96
330
A
100
AcDbEntity
  8
0
 62
     7
100
AcDbMText
 10
120.1820630037
 20
16.1563928723
 30
0.0
 40
0.8
 41
0.0
 71
     2
 72
     1
  1
University of California - Berkeley\PTel: 510-642-5040    Fax: 510-642-3411
  7
SLDTEXTSTYLE0
 73
     1
 44
1.0
  0
MTEXT
  5
97
330
A
100
AcDbEntity
  8
0
 62
     7
100
AcDbMText
 10
75.0718795251
 20
13.1020750892
 30
0.0
 40
0.72
 41
0.0
 71
     1
 72
     1
  1
NAME
  7
SLDTEXTSTYLE0
 73
     1
 44
1.0
  0
MTEXT
  5
98
330
A
100
AcDbEntity
  8
0
 62
     7
100
AcDbMText
 10
83.93551378839999
 20
13.0666274159
 30
0.0
 40
0.72
 41
0.0
 71
     1
 72
     1
  1
DATE
  7
SLDTEXTSTYLE0
 73
     1
 44
1.0
  0
MTEXT
  5
99
330
A
100
AcDbEntity
  8
0
 62
     7
100
AcDbMText
 10
108.6346434591
 20
4.193222905599999
 30
0.0
 40
0.72
 41
0.0
 71
     1
 72
     1
  1
SIZE
  7
SLDTEXTSTYLE0
 73
     1
 44
1.0
  0
MTEXT
  5
9A
330
A
100
AcDbEntity
  8
0
 62
     7
100
AcDbMText
 10
109.0759990447
 20
6.753055737999999
 30
0.0
 40
1.5
 41
0.0
 71
     1
 72
     1
  1
B
  7
SLDTEXTSTYLE0
 73
     1
 44
1.0
  0
MTEXT
  5
9B
330
A
100
AcDbEntity
  8
0
 62
     7
100
AcDbMText
 10
88.6337028089
 20
4.1029293655
 30
0.0
 40
0.72
 41
0.0
 71
     1
 72
     1
  1
SCALE:
  7
SLDTEXTSTYLE0
 73
     1
 44
1.0
  0
MTEXT
  5
9C
330
A
100
AcDbEntity
  8
0
 62
     7
100
AcDbMText
 10
111.3951246244
 20
4.160002249499999
 30
0.0
 40
0.72
 41
0.0
 71
     1
 72
     1
  1
DWG NUM:      SHEET             OF
  7
SLDTEXTSTYLE0
 73
     1
 44
1.0
  0
MTEXT
  5
9D
330
A
100
AcDbEntity
  8
0
 62
     7
100
AcDbMText
 10
127.9902518354
 20
83.0824214821
 30
0.0
 40
0.72
 41
0.0
 71
     1
 72
     1
  1
DATE
  7
SLDTEXTSTYLE0
 73
     1
 44
1.0
  0
MTEXT
  5
9E
330
A
100
AcDbEntity
  8
0
 62
     7
100
AcDbMText
 10
122.4199086342
 20
83.07899648279999
 30
0.0
 40
0.72
 41
0.0
 71
     1
 72
     1
  1
NAME
  7
SLDTEXTSTYLE0
 73
     1
 44
1.0
  0
MTEXT
  5
9F
330
A
100
AcDbEntity
  8
0
 62
     7
100
AcDbMText
 10
112.2645908059999
 20
84.57571736549999
 30
0.0
 40
0.72
 41
0.0
 71
     1
 72
     1
  1
REVISIONS
  7
SLDTEXTSTYLE0
 73
     1
 44
1.0
  0
MTEXT
  5
A0
330
A
100
AcDbEntity
  8
0
 62
     7
100
AcDbMText
 10
100.6575886950999
 20
83.06746593200001
 30
0.0
 40
0.72
 41
0.0
 71
     1
 72
     1
  1
REV
  7
SLDTEXTSTYLE0
 73
     1
 44
1.0
  0
MTEXT
  5
A1
330
A
100
AcDbEntity
  8
0
 62
     7
100
AcDbMText
 10
103.6996455327
 20
83.063125402
 30
0.0
 40
0.72
 41
0.0
 71
     1
 72
     1
  1
DESCRIPTION
  7
SLDTEXTSTYLE0
 73
     1
 44
1.0
  0
MTEXT
  5
A2
330
A
100
AcDbEntity
  8
0
 62
     7
100
AcDbMText
 10
88.59215742209999
 20
5.5875665187
 30
0.0
 40
0.72
 41
0.0
 71
     1
 72
     1
  1
WEIGHT:
  7
SLDTEXTSTYLE0
 73
     1
 44
1.0
  0
MTEXT
  5
A3
330
A
100
AcDbEntity
  8
0
 62
     7
100
AcDbMText
 10
70.486112941
 20
11.580355705
 30
0.0
 40
0.72
 41
0.0
 71
     1
 72
     1
  1
DRAWN
  7
SLDTEXTSTYLE0
 73
     1
 44
1.0
  0
MTEXT
  5
A4
330
A
100
AcDbEntity
  8
0
 62
     7
100
AcDbMText
 10
70.4842936054
 20
10.0906433909
 30
0.0
 40
0.72
 41
0.0
 71
     1
 72
     1
  1
CHECKED
  7
SLDTEXTSTYLE0
 73
     1
 44
1.0
  0
MTEXT
  5
A5
330
A
100
AcDbEntity
  8
0
 62
     7
100
AcDbMText
 10
97.32223433940001
 20
14.03136407759999
 30
0.0
 40
0.72
 41
0.0
 71
     3
 72
     1
  1
WHOLE & FRACTION\PDECIMAL   X.X\PDECIMAL   X.XX\PDECIMAL   X.XXX
  7
SLDTEXTSTYLE0
 73
     1
 44
1.0
  0
MTEXT
  5
A6
330
A
100
AcDbEntity
  8
0
 62
     7
100
AcDbMText
 10
100.6983805621999
 20
15.7178882085
 30
0.0
 40
0.72
 41
0.0
 71
     2
 72
     1
  1
LINEAR
  7
SLDTEXTSTYLE0
 73
     1
 44
1.0
  0
MTEXT
  5
A7
330
A
100
AcDbEntity
  8
0
 62
     7
100
AcDbMText
 10
105.342436411
 20
15.7660301251
 30
0.0
 40
0.72
 41
0.0
 71
     2
 72
     1
  1
ANGLE
  7
SLDTEXTSTYLE0
 73
     1
 44
1.0
  0
INSERT
  5
AE
330
A
100
AcDbEntity
  8
0
100
AcDbBlockReference
  2
NOTE50
 10
89.3359734859
 20
8.7523580209
 30
0.0
  0
MTEXT
  5
AF
330
A
100
AcDbEntity
  8
0
 62
     7
100
AcDbMText
 10
97.9900279047
 20
18.47122277249999
 30
0.0
 40
0.72
 41
0.0
 71
     2
 72
     1
  1
UNLESS OTHERWISE SPECIFIED\PDIMENSIONS ARE INCHES & DEGREES
  7
SLDTEXTSTYLE0
 73
     1
 44
1.0
  0
MTEXT
  5
B0
330
A
100
AcDbEntity
  8
0
 62
     7
100
AcDbMText
 10
89.61040087200002
 20
15.6669476239
 30
0.0
 40
0.72
 41
0.0
 71
     1
 72
     1
  1
TOLERANCES:
  7
SLDTEXTSTYLE0
 73
     1
 44
1.0
  0
MTEXT
  5
B1
330
A
100
AcDbEntity
  8
0
 62
     7
100
AcDbMText
 10
103.6436948099999
 20
14.0624973421
 30
0.0
 40
0.72
 41
0.0
 71
     1
 72
     1
  1
%%p\P%%p\P%%p\P%%p
  7
SLDTEXTSTYLE0
 73
     1
 44
1.0
  0
MTEXT
  5
B2
330
A
100
AcDbEntity
  8
0
 62
     7
100
AcDbMText
 10
117.3072023482999
 20
83.0898114823
 30
0.0
 40
0.72
 41
0.0
 71
     1
 72
     1
  1
ZONE
  7
SLDTEXTSTYLE0
 73
     1
 44
1.0
  0
MTEXT
  5
B3
330
A
100
AcDbEntity
  8
0
 62
     7
100
AcDbMText
 10
40.7617414555
 20
6.916533337399999
 30
0.0
 40
0.6400000000000001
 41
0.0
 71
     1
 72
     1
  1
THIS DRAWING IS THE PROPERTY OF AND CONTAINS CONFIDENTIAL\PINFORMATION PROPRIETARY TO THE UNIVERSITY OF CALIFORNIA AND\PSHALL BE USED ONLY FOR THE PURPOSE FOR WHICH IT WAS PROVIDED\PAND SHALL NOT BE REPRODUCED OR DISCLOSED TO OTHERS.
  7
SLDTEXTSTYLE0
 73
     1
 44
1.0
  0
MTEXT
  5
B4
330
A
100
AcDbEntity
  8
0
 62
     7
100
AcDbMText
 10
101.1116689033999
 20
81.63919340879999
 30
0.0
 40
0.72
 41
0.0
 71
     1
 72
     1
  1
A
  7
SLDTEXTSTYLE0
 73
     1
 44
1.0
  0
MTEXT
  5
B5
330
A
100
AcDbEntity
  8
0
 62
     7
100
AcDbMText
 10
103.8239673112999
 20
81.637212067
 30
0.0
 40
0.72
 41
0.0
 71
     1
 72
     1
  1
RELEASED
  7
SLDTEXTSTYLE0
 73
     1
 44
1.0
  0
MTEXT
  5
B6
330
A
100
AcDbEntity
  8
0
 62
     7
100
AcDbMText
 10
74.9533933852
 20
11.6810151146
 30
0.0
 40
0.8333333333
 41
0.0
 71
     1
 72
     1
  1
M. C. FLEMING
  7
SLDTEXTSTYLE0
 73
     1
 44
1.0
  0
MTEXT
  5
B7
330
A
100
AcDbEntity
  8
0
 62
     7
100
AcDbMText
 10
130.0168351041999
 20
6.6165635824
 30
0.0
 40
1.5
 41
0.0
 71
     1
 72
     1
  1
A
  7
SLDTEXTSTYLE0
 73
     1
 44
1.0
  0
MTEXT
  5
B8
330
A
100
AcDbEntity
  8
0
 62
     7
100
AcDbMText
 10
82.5771222158
 20
11.6672334094
 30
0.0
 40
0.8333333333
 41
0.0
 71
     1
 72
     1
  1
2004-12-23
  7
SLDTEXTSTYLE0
 73
     1
 44
1.0
  0
MTEXT
  5
B9
330
A
100
AcDbEntity
  8
0
 62
     7
100
AcDbMText
 10
100.099287306
 20
14.0786137913
 30
0.0
 40
0.72
 41
0.0
 71
     1
 72
     1
  1
1/16\P0.1\P0.01\P0.005
  7
SLDTEXTSTYLE0
 73
     1
 44
1.0
  0
MTEXT
  5
BA
330
A
100
AcDbEntity
  8
0
 62
     7
100
AcDbMText
 10
104.8198737557999
 20
14.06300081799999
 30
0.0
 40
0.72
 41
0.0
 71
     1
 72
     1
  1
1%%d\P0.1%%d\P0.01%%d\P0.001%%d
  7
SLDTEXTSTYLE0
 73
     1
 44
1.0
  0
MTEXT
  5
BB
330
A
100
AcDbEntity
  8
0
 62
     7
100
AcDbMText
 10
112.6536240881
 20
6.7612960901
 30
0.0
 40
1.5
 41
0.0
 71
     1
 72
     1
  1
24-09-213    1 of 1
  7
SLDTEXTSTYLE0
 73
     1
 44
1.0
  0
MTEXT
  5
BC
330
A
100
AcDbEntity
  8
0
 62
     7
100
AcDbMText
 10
122.3678259955
 20
81.6406892064
 30
0.0
 40
0.8333333333
 41
0.0
 71
     1
 72
     1
  1
M.C.F.
  7
SLDTEXTSTYLE0
 73
     1
 44
1.0
  0
MTEXT
  5
BD
330
A
100
AcDbEntity
  8
0
 62
     7
100
AcDbMText
 10
126.7357920780999
 20
81.63321917180001
 30
0.0
 40
0.8333333333
 41
0.0
 71
     1
 72
     1
  1
2004-12-23
  7
SLDTEXTSTYLE0
 73
     1
 44
1.0
  0
MTEXT
  5
BE
330
A
100
AcDbEntity
  8
0
 62
     7
100
AcDbMText
 10
119.509435212
 20
12.2606905871
 30
0.0
 40
1.5
 41
0.0
 71
     2
 72
     1
  1
CARMA 6m Base\PSide Plate West
  7
SLDTEXTSTYLE0
 73
     1
 44
1.0
  0
CIRCLE
  5
BF
330
A
100
AcDbEntity
  8
0
  6
Continuous
 62
     7
370
    15
100
AcDbCircle
 10
55.5604647093
 20
59.5010957978
 30
0.0
 40
0.1565
  0
CIRCLE
  5
C0
330
A
100
AcDbEntity
  8
0
  6
Continuous
 62
     7
370
    15
100
AcDbCircle
 10
55.5604647093
 20
31.5010957978
 30
0.0
 40
0.1565
  0
CIRCLE
  5
C1
330
A
100
AcDbEntity
  8
0
  6
Continuous
 62
     7
370
    15
100
AcDbCircle
 10
40.5604647093
 20
31.5010957978
 30
0.0
 40
0.1565
  0
CIRCLE
  5
C2
330
A
100
AcDbEntity
  8
0
  6
Continuous
 62
     7
370
    15
100
AcDbCircle
 10
40.5604647093
 20
59.5010957978
 30
0.0
 40
0.1565
  0
LINE
  5
C3
330
A
100
AcDbEntity
  8
0
  6
Continuous
 62
     7
370
    15
100
AcDbLine
 10
63.560464653
 20
22.5010957978
 30
0.0
 11
63.560464653
 21
68.5010977352
 31
0.0
  0
LINE
  5
C4
330
A
100
AcDbEntity
  8
0
  6
Continuous
 62
     7
370
    15
100
AcDbLine
 10
63.560464653
 20
68.5010977352
 30
0.0
 11
32.56046466099999
 21
68.5010977352
 31
0.0
  0
LINE
  5
C5
330
A
100
AcDbEntity
  8
0
  6
Continuous
 62
     7
370
    15
100
AcDbLine
 10
32.56046466099999
 20
68.5010977352
 30
0.0
 11
32.56046466099999
 21
22.5010957978
 31
0.0
  0
LINE
  5
C6
330
A
100
AcDbEntity
  8
0
  6
Continuous
 62
     7
370
    15
100
AcDbLine
 10
32.56046466099999
 20
22.5010957978
 30
0.0
 11
63.560464653
 21
22.5010957978
 31
0.0
  0
DIMENSION
  5
D4
330
A
100
AcDbEntity
  8
0
 62
     7
100
AcDbDimension
  2
*D1
 10
79.77811320749999
 20
22.5010957978
 30
0.0
 11
79.77811320749999
 21
45.50109579779999
 31
0.0
 70
   160
 71
     5
 42
0.0
  3
SLDDIMSTYLE0
100
AcDbAlignedDimension
 13
63.56046470929999
 23
68.50109579779999
 33
0.0
 14
63.56046470929999
 24
22.5010957978
 34
0.0
 50
90.0
100
AcDbRotatedDimension
  0
DIMENSION
  5
E1
330
A
100
AcDbEntity
  8
0
100
AcDbDimension
  2
*D2
 10
32.5604647093
 20
80.44671698109999
 30
0.0
 11
48.0604647093
 21
80.44671698109999
 31
0.0
 70
   160
 71
     5
 42
0.0
  3
SLDDIMSTYLE0
100
AcDbAlignedDimension
 13
63.56046470929999
 23
68.50109579779999
 33
0.0
 14
32.5604647093
 24
68.50109579779999
 34
0.0
100
AcDbRotatedDimension
  0
DIMENSION
  5
EE
330
A
100
AcDbEntity
  8
0
100
AcDbDimension
  2
*D3
 10
63.56046470929999
 20
75.7354716981
 30
0.0
 11
52.0604647093
 21
75.7354716981
 31
0.0
 70
   160
 71
     5
 42
0.0
  3
SLDDIMSTYLE0
100
AcDbAlignedDimension
 13
40.5604647093
 23
59.5010957978
 33
0.0
 14
63.56046470929999
 24
68.50109579779999
 34
0.0
100
AcDbRotatedDimension
  0
DIMENSION
  5
FB
330
A
100
AcDbEntity
  8
0
100
AcDbDimension
  2
*D4
 10
55.5604647093
 20
72.44559313069999
 30
0.0
 11
59.5604647093
 21
72.44559313069999
 31
0.0
 70
   160
 71
     5
 42
0.0
  3
SLDDIMSTYLE0
100
AcDbAlignedDimension
 13
63.56046470929999
 23
68.50109579779999
 33
0.0
 14
55.5604647093
 24
59.5010957978
 34
0.0
100
AcDbRotatedDimension
  0
DIMENSION
  5
108
330
A
100
AcDbEntity
  8
0
100
AcDbDimension
  2
*D5
 10
68.1308679245
 20
59.5010957978
 30
0.0
 11
68.1308679245
 21
64.00109579779999
 31
0.0
 70
   160
 71
     5
 42
0.0
  3
SLDDIMSTYLE0
100
AcDbAlignedDimension
 13
63.56046470929999
 23
68.50109579779999
 33
0.0
 14
55.5604647093
 24
59.5010957978
 34
0.0
 50
90.0
100
AcDbRotatedDimension
  0
DIMENSION
  5
115
330
A
100
AcDbEntity
  8
0
100
AcDbDimension
  2
*D6
 10
72.9729811321
 20
31.5010957978
 30
0.0
 11
72.9729811321
 21
50.0010957978
 31
0.0
 70
   160
 71
     5
 42
0.0
  3
SLDDIMSTYLE0
100
AcDbAlignedDimension
 13
63.56046470929999
 23
68.50109579779999
 33
0.0
 14
55.5604647093
 24
31.5010957978
 34
0.0
 50
90.0
100
AcDbRotatedDimension
  0
DIMENSION
  5
124
330
A
100
AcDbEntity
  8
0
100
AcDbDimension
  2
*D7
 10
40.6995117886
 20
59.4292754682
 30
0.0
 11
23.7418157858
 21
64.2918004836
 31
0.0
 70
   163
  1
<> DRILL THRU\P4 PLACES\P\PDEBURR
 71
     5
 42
0.0
  3
SLDDIMSTYLE1
100
AcDbDiametricDimension
 15
40.4214176301
 25
59.5729161275
 35
0.0
 40
0.0
  0
DIMENSION
  5
132
330
A
100
AcDbEntity
  8
0
 62
     7
100
AcDbDimension
  2
*D8
 10
40.5604647093
 20
72.3960442139
 30
0.0
 11
48.4726476571
 21
72.3960442139
 31
0.0
 70
   160
  1
<>\PREF
 71
     5
 42
0.0
  3
SLDDIMSTYLE0
100
AcDbAlignedDimension
 13
55.5604647093
 23
59.5010957978
 33
0.0
 14
40.5604647093
 24
59.5010957978
 34
0.0
100
AcDbRotatedDimension
  0
DIMENSION
  5
140
330
A
100
AcDbEntity
  8
0
 62
     7
100
AcDbDimension
  2
*D9
 10
32.5604647093
 20
72.3960442139
 30
0.0
 11
36.560222975
 21
72.3960442139
 31
0.0
 70
   160
  1
<>\PREF
 71
     5
 42
0.0
  3
SLDDIMSTYLE0
100
AcDbAlignedDimension
 13
40.5604647093
 23
59.5010957978
 33
0.0
 14
32.5604647093
 24
68.50109579779999
 34
0.0
100
AcDbRotatedDimension
  0
DIMENSION
  5
14E
330
A
100
AcDbEntity
  8
0
 62
     7
100
AcDbDimension
  2
*D10
 10
68.1782473649
 20
31.5010957978
 30
0.0
 11
68.1782473649
 21
45.8435835906
 31
0.0
 70
   160
  1
<>\PREF
 71
     5
 42
0.0
  3
SLDDIMSTYLE0
100
AcDbAlignedDimension
 13
55.5604647093
 23
59.5010957978
 33
0.0
 14
55.5604647093
 24
31.5010957978
 34
0.0
 50
90.0
100
AcDbRotatedDimension
  0
DIMENSION
  5
15C
330
A
100
AcDbEntity
  8
0
 62
     7
100
AcDbDimension
  2
*D11
 10
68.12258182899999
 20
22.5010957978
 30
0.0
 11
68.12258182899999
 21
27.8079499598
 31
0.0
 70
   160
  1
<>\PREF
 71
     5
 42
0.0
  3
SLDDIMSTYLE0
100
AcDbAlignedDimension
 13
55.5604647093
 23
31.5010957978
 33
0.0
 14
63.56046470929999
 24
22.5010957978
 34
0.0
 50
90.0
100
AcDbRotatedDimension
  0
LINE
  5
15D
330
A
100
AcDbEntity
  8
0
  6
Continuous
 62
     7
370
    15
100
AcDbLine
 10
89.89754963860001
 20
68.5010977352
 30
0.0
 11
89.64754964169999
 21
68.5010977352
 31
0.0
  0
LINE
  5
15E
330
A
100
AcDbEntity
  8
0
  6
Continuous
 62
     7
370
    15
100
AcDbLine
 10
89.89754963860001
 20
22.5010957978
 30
0.0
 11
89.89754963860001
 21
68.5010977352
 31
0.0
  0
LINE
  5
15F
330
A
100
AcDbEntity
  8
0
  6
Continuous
 62
     7
370
    15
100
AcDbLine
 10
89.64754964169999
 20
22.5010957978
 30
0.0
 11
89.64754964169999
 21
68.5010977352
 31
0.0
  0
LINE
  5
160
330
A
100
AcDbEntity
  8
0
  6
Continuous
 62
     7
370
    15
100
AcDbLine
 10
89.89754963860001
 20
22.5010957978
 30
0.0
 11
89.64754964169999
 21
22.5010957978
 31
0.0
  0
DIMENSION
  5
16D
330
A
100
AcDbEntity
  8
0
100
AcDbDimension
  2
*D12
 10
89.8975496417
 20
70.20296541229999
 30
0.0
 11
97.52789672120002
 21
70.20296541229999
 31
0.0
 70
   160
 71
     5
 42
0.0
  3
SLDDIMSTYLE0
100
AcDbAlignedDimension
 13
89.64754964169999
 23
68.50109579779999
 33
0.0
 14
89.8975496417
 24
68.50109579779999
 34
0.0
100
AcDbRotatedDimension
  0
LINE
  5
16E
330
A
100
AcDbEntity
  8
0
  6
Continuous
 62
     7
370
    15
100
AcDbLine
 10
108.2946390166999
 20
66.6326987279
 30
0.0
 11
108.2946390166999
 21
41.59211383
 31
0.0
  0
LINE
  5
16F
330
A
100
AcDbEntity
  8
0
  6
Continuous
 62
     7
370
    15
100
AcDbLine
 10
122.9081791612
 20
58.19648157239999
 30
0.0
 11
108.2946390166999
 21
66.6326987279
 31
0.0
  0
LINE
  5
170
330
A
100
AcDbEntity
  8
0
  6
Continuous
 62
     7
370
    15
100
AcDbLine
 10
122.9081791612
 20
33.1558966745
 30
0.0
 11
122.9081791612
 21
58.19648157239999
 31
0.0
  0
LINE
  5
171
330
A
100
AcDbEntity
  8
0
  6
Continuous
 62
     7
370
    15
100
AcDbLine
 10
108.2946390166999
 20
41.59211383
 30
0.0
 11
122.9081791612
 21
33.1558966745
 31
0.0
  0
POLYLINE
  5
172
330
A
100
AcDbEntity
  8
0
  6
Continuous
 62
     7
100
AcDb2dPolyline
 66
     1
 10
0.0
 20
0.0
 30
0.0
 70
   128
 40
0.0472440945
 41
0.0472440945
  0
VERTEX
  5
173
330
172
100
AcDbEntity
  8
0
100
AcDbVertex
100
AcDb2dVertex
 10
119.2107178024
 20
55.43173570939999
 30
0.0
  0
VERTEX
  5
174
330
172
100
AcDbEntity
  8
0
100
AcDbVertex
100
AcDb2dVertex
 10
119.2074401946999
 20
55.4587387401
 30
0.0
  0
VERTEX
  5
175
330
172
100
AcDbEntity
  8
0
100
AcDbVertex
100
AcDb2dVertex
 10
119.1978986013999
 20
55.4871266782
 30
0.0
  0
VERTEX
  5
176
330
172
100
AcDbEntity
  8
0
100
AcDbVertex
100
AcDb2dVertex
 10
119.182940835
 20
55.5143771311
 30
0.0
  0
VERTEX
  5
177
330
172
100
AcDbEntity
  8
0
100
AcDbVertex
100
AcDb2dVertex
 10
119.1638959586
 20
55.5380687762
 30
0.0
  0
VERTEX
  5
178
330
172
100
AcDbEntity
  8
0
100
AcDbVertex
100
AcDb2dVertex
 10
119.1424561931999
 20
55.556096507
 30
0.0
  0
VERTEX
  5
179
330
172
100
AcDbEntity
  8
0
100
AcDbVertex
100
AcDb2dVertex
 10
119.1205265558
 20
55.5668584805
 30
0.0
  0
VERTEX
  5
17A
330
172
100
AcDbEntity
  8
0
100
AcDbVertex
100
AcDb2dVertex
 10
119.1000555910999
 20
55.5693984482
 30
0.0
  0
VERTEX
  5
17B
330
172
100
AcDbEntity
  8
0
100
AcDbVertex
100
AcDb2dVertex
 10
119.0828622342
 20
55.5634907226
 30
0.0
  0
VERTEX
  5
17C
330
172
100
AcDbEntity
  8
0
100
AcDbVertex
100
AcDb2dVertex
 10
119.0704741900999
 20
55.5496602313
 30
0.0
  0
VERTEX
  5
17D
330
172
100
AcDbEntity
  8
0
100
AcDbVertex
100
AcDb2dVertex
 10
119.0639921909999
 20
55.5291358739
 30
0.0
  0
VERTEX
  5
17E
330
172
100
AcDbEntity
  8
0
100
AcDbVertex
100
AcDb2dVertex
 10
119.0639921909999
 20
55.5037413299
 30
0.0
  0
VERTEX
  5
17F
330
172
100
AcDbEntity
  8
0
100
AcDbVertex
100
AcDb2dVertex
 10
119.0704741900999
 20
55.47573301569999
 30
0.0
  0
VERTEX
  5
180
330
172
100
AcDbEntity
  8
0
100
AcDbVertex
100
AcDb2dVertex
 10
119.0828622342
 20
55.4475995931
 30
0.0
  0
VERTEX
  5
181
330
172
100
AcDbEntity
  8
0
100
AcDbVertex
100
AcDb2dVertex
 10
119.1000555910999
 20
55.4218408402
 30
0.0
  0
VERTEX
  5
182
330
172
100
AcDbEntity
  8
0
100
AcDbVertex
100
AcDb2dVertex
 10
119.1205265558
 20
55.400745535
 30
0.0
  0
VERTEX
  5
183
330
172
100
AcDbEntity
  8
0
100
AcDbVertex
100
AcDb2dVertex
 10
119.1424561931999
 20
55.38618808819999
 30
0.0
  0
VERTEX
  5
184
330
172
100
AcDbEntity
  8
0
100
AcDbVertex
100
AcDb2dVertex
 10
119.1638959586
 20
55.3794619927
 30
0.0
  0
VERTEX
  5
185
330
172
100
AcDbEntity
  8
0
100
AcDbVertex
100
AcDb2dVertex
 10
119.182940835
 20
55.3811648917
 30
0.0
  0
VERTEX
  5
186
330
172
100
AcDbEntity
  8
0
100
AcDbVertex
100
AcDb2dVertex
 10
119.1978986013999
 20
55.391145475
 30
0.0
  0
VERTEX
  5
187
330
172
100
AcDbEntity
  8
0
100
AcDbVertex
100
AcDb2dVertex
 10
119.2074401946999
 20
55.4085169241
 30
0.0
  0
VERTEX
  5
188
330
172
100
AcDbEntity
  8
0
100
AcDbVertex
100
AcDb2dVertex
 10
119.2107178024
 20
55.43173570939999
 30
0.0
  0
SEQEND
  5
189
330
172
100
AcDbEntity
  8
0
  0
POLYLINE
  5
18A
330
A
100
AcDbEntity
  8
0
  6
Continuous
 62
     7
100
AcDb2dPolyline
 66
     1
 10
0.0
 20
0.0
 30
0.0
 70
   128
 40
0.0472440945
 41
0.0472440945
  0
VERTEX
  5
18B
330
18A
100
AcDbEntity
  8
0
100
AcDbVertex
100
AcDb2dVertex
 10
119.2107178024
 20
40.1896405542
 30
0.0
  0
VERTEX
  5
18C
330
18A
100
AcDbEntity
  8
0
100
AcDbVertex
100
AcDb2dVertex
 10
119.2074401946999
 20
40.21664358489999
 30
0.0
  0
VERTEX
  5
18D
330
18A
100
AcDbEntity
  8
0
100
AcDbVertex
100
AcDb2dVertex
 10
119.1978986013999
 20
40.245031523
 30
0.0
  0
VERTEX
  5
18E
330
18A
100
AcDbEntity
  8
0
100
AcDbVertex
100
AcDb2dVertex
 10
119.182940835
 20
40.2722819759
 30
0.0
  0
VERTEX
  5
18F
330
18A
100
AcDbEntity
  8
0
100
AcDbVertex
100
AcDb2dVertex
 10
119.1638959586
 20
40.295973621
 30
0.0
  0
VERTEX
  5
190
330
18A
100
AcDbEntity
  8
0
100
AcDbVertex
100
AcDb2dVertex
 10
119.1424561931999
 20
40.3140013518
 30
0.0
  0
VERTEX
  5
191
330
18A
100
AcDbEntity
  8
0
100
AcDbVertex
100
AcDb2dVertex
 10
119.1205265558
 20
40.3247633253
 30
0.0
  0
VERTEX
  5
192
330
18A
100
AcDbEntity
  8
0
100
AcDbVertex
100
AcDb2dVertex
 10
119.1000555910999
 20
40.327303293
 30
0.0
  0
VERTEX
  5
193
330
18A
100
AcDbEntity
  8
0
100
AcDbVertex
100
AcDb2dVertex
 10
119.0828622342
 20
40.32139556739999
 30
0.0
  0
VERTEX
  5
194
330
18A
100
AcDbEntity
  8
0
100
AcDbVertex
100
AcDb2dVertex
 10
119.0704741900999
 20
40.3075650761
 30
0.0
  0
VERTEX
  5
195
330
18A
100
AcDbEntity
  8
0
100
AcDbVertex
100
AcDb2dVertex
 10
119.0639921909999
 20
40.2870407187
 30
0.0
  0
VERTEX
  5
196
330
18A
100
AcDbEntity
  8
0
100
AcDbVertex
100
AcDb2dVertex
 10
119.0639921909999
 20
40.2616461747
 30
0.0
  0
VERTEX
  5
197
330
18A
100
AcDbEntity
  8
0
100
AcDbVertex
100
AcDb2dVertex
 10
119.0704741900999
 20
40.2336378605
 30
0.0
  0
VERTEX
  5
198
330
18A
100
AcDbEntity
  8
0
100
AcDbVertex
100
AcDb2dVertex
 10
119.0828622342
 20
40.20550443789999
 30
0.0
  0
VERTEX
  5
199
330
18A
100
AcDbEntity
  8
0
100
AcDbVertex
100
AcDb2dVertex
 10
119.1000555910999
 20
40.17974568489999
 30
0.0
  0
VERTEX
  5
19A
330
18A
100
AcDbEntity
  8
0
100
AcDbVertex
100
AcDb2dVertex
 10
119.1205265558
 20
40.1586503798
 30
0.0
  0
VERTEX
  5
19B
330
18A
100
AcDbEntity
  8
0
100
AcDbVertex
100
AcDb2dVertex
 10
119.1424561931999
 20
40.144092933
 30
0.0
  0
VERTEX
  5
19C
330
18A
100
AcDbEntity
  8
0
100
AcDbVertex
100
AcDb2dVertex
 10
119.1638959586
 20
40.13736683749999
 30
0.0
  0
VERTEX
  5
19D
330
18A
100
AcDbEntity
  8
0
100
AcDbVertex
100
AcDb2dVertex
 10
119.182940835
 20
40.1390697365
 30
0.0
  0
VERTEX
  5
19E
330
18A
100
AcDbEntity
  8
0
100
AcDbVertex
100
AcDb2dVertex
 10
119.1978986013999
 20
40.14905031979999
 30
0.0
  0
VERTEX
  5
19F
330
18A
100
AcDbEntity
  8
0
100
AcDbVertex
100
AcDb2dVertex
 10
119.2074401946999
 20
40.1664217689
 30
0.0
  0
VERTEX
  5
1A0
330
18A
100
AcDbEntity
  8
0
100
AcDbVertex
100
AcDb2dVertex
 10
119.2107178024
 20
40.1896405542
 30
0.0
  0
SEQEND
  5
1A1
330
18A
100
AcDbEntity
  8
0
  0
POLYLINE
  5
1A2
330
A
100
AcDbEntity
  8
0
  6
Continuous
 62
     7
100
AcDb2dPolyline
 66
     1
 10
0.0
 20
0.0
 30
0.0
 70
   128
 40
0.0472440945
 41
0.0472440945
  0
VERTEX
  5
1A3
330
1A2
100
AcDbEntity
  8
0
100
AcDbVertex
100
AcDb2dVertex
 10
112.1396499904999
 20
44.2716811133
 30
0.0
  0
VERTEX
  5
1A4
330
1A2
100
AcDbEntity
  8
0
100
AcDbVertex
100
AcDb2dVertex
 10
112.1363723828
 20
44.298684144
 30
0.0
  0
VERTEX
  5
1A5
330
1A2
100
AcDbEntity
  8
0
100
AcDbVertex
100
AcDb2dVertex
 10
112.1268307895999
 20
44.3270720822
 30
0.0
  0
VERTEX
  5
1A6
330
1A2
100
AcDbEntity
  8
0
100
AcDbVertex
100
AcDb2dVertex
 10
112.1118730230999
 20
44.354322535
 30
0.0
  0
VERTEX
  5
1A7
330
1A2
100
AcDbEntity
  8
0
100
AcDbVertex
100
AcDb2dVertex
 10
112.0928281467999
 20
44.3780141801
 30
0.0
  0
VERTEX
  5
1A8
330
1A2
100
AcDbEntity
  8
0
100
AcDbVertex
100
AcDb2dVertex
 10
112.0713883812999
 20
44.3960419109
 30
0.0
  0
VERTEX
  5
1A9
330
1A2
100
AcDbEntity
  8
0
100
AcDbVertex
100
AcDb2dVertex
 10
112.0494587439999
 20
44.4068038845
 30
0.0
  0
VERTEX
  5
1AA
330
1A2
100
AcDbEntity
  8
0
100
AcDbVertex
100
AcDb2dVertex
 10
112.0289877792999
 20
44.4093438521
 30
0.0
  0
VERTEX
  5
1AB
330
1A2
100
AcDbEntity
  8
0
100
AcDbVertex
100
AcDb2dVertex
 10
112.0117944223
 20
44.40343612649999
 30
0.0
  0
VERTEX
  5
1AC
330
1A2
100
AcDbEntity
  8
0
100
AcDbVertex
100
AcDb2dVertex
 10
111.9994063782
 20
44.38960563520001
 30
0.0
  0
VERTEX
  5
1AD
330
1A2
100
AcDbEntity
  8
0
100
AcDbVertex
100
AcDb2dVertex
 10
111.9929243792
 20
44.36908127779999
 30
0.0
  0
VERTEX
  5
1AE
330
1A2
100
AcDbEntity
  8
0
100
AcDbVertex
100
AcDb2dVertex
 10
111.9929243792
 20
44.34368673379999
 30
0.0
  0
VERTEX
  5
1AF
330
1A2
100
AcDbEntity
  8
0
100
AcDbVertex
100
AcDb2dVertex
 10
111.9994063782
 20
44.31567841959999
 30
0.0
  0
VERTEX
  5
1B0
330
1A2
100
AcDbEntity
  8
0
100
AcDbVertex
100
AcDb2dVertex
 10
112.0117944223
 20
44.287544997
 30
0.0
  0
VERTEX
  5
1B1
330
1A2
100
AcDbEntity
  8
0
100
AcDbVertex
100
AcDb2dVertex
 10
112.0289877792999
 20
44.2617862441
 30
0.0
  0
VERTEX
  5
1B2
330
1A2
100
AcDbEntity
  8
0
100
AcDbVertex
100
AcDb2dVertex
 10
112.0494587439999
 20
44.2406909389
 30
0.0
  0
VERTEX
  5
1B3
330
1A2
100
AcDbEntity
  8
0
100
AcDbVertex
100
AcDb2dVertex
 10
112.0713883812999
 20
44.22613349209999
 30
0.0
  0
VERTEX
  5
1B4
330
1A2
100
AcDbEntity
  8
0
100
AcDbVertex
100
AcDb2dVertex
 10
112.0928281467999
 20
44.2194073966
 30
0.0
  0
VERTEX
  5
1B5
330
1A2
100
AcDbEntity
  8
0
100
AcDbVertex
100
AcDb2dVertex
 10
112.1118730230999
 20
44.2211102956
 30
0.0
  0
VERTEX
  5
1B6
330
1A2
100
AcDbEntity
  8
0
100
AcDbVertex
100
AcDb2dVertex
 10
112.1268307895999
 20
44.2310908789
 30
0.0
  0
VERTEX
  5
1B7
330
1A2
100
AcDbEntity
  8
0
100
AcDbVertex
100
AcDb2dVertex
 10
112.1363723828
 20
44.248462328
 30
0.0
  0
VERTEX
  5
1B8
330
1A2
100
AcDbEntity
  8
0
100
AcDbVertex
100
AcDb2dVertex
 10
112.1396499904999
 20
44.2716811133
 30
0.0
  0
SEQEND
  5
1B9
330
1A2
100
AcDbEntity
  8
0
  0
POLYLINE
  5
1BA
330
A
100
AcDbEntity
  8
0
  6
Continuous
 62
     7
100
AcDb2dPolyline
 66
     1
 10
0.0
 20
0.0
 30
0.0
 70
   128
 40
0.0472440945
 41
0.0472440945
  0
VERTEX
  5
1BB
330
1BA
100
AcDbEntity
  8
0
100
AcDbVertex
100
AcDb2dVertex
 10
112.1396499904999
 20
59.5137762685
 30
0.0
  0
VERTEX
  5
1BC
330
1BA
100
AcDbEntity
  8
0
100
AcDbVertex
100
AcDb2dVertex
 10
112.1363723828
 20
59.5407792992
 30
0.0
  0
VERTEX
  5
1BD
330
1BA
100
AcDbEntity
  8
0
100
AcDbVertex
100
AcDb2dVertex
 10
112.1268307895999
 20
59.5691672374
 30
0.0
  0
VERTEX
  5
1BE
330
1BA
100
AcDbEntity
  8
0
100
AcDbVertex
100
AcDb2dVertex
 10
112.1118730230999
 20
59.5964176902
 30
0.0
  0
VERTEX
  5
1BF
330
1BA
100
AcDbEntity
  8
0
100
AcDbVertex
100
AcDb2dVertex
 10
112.0928281467999
 20
59.6201093353
 30
0.0
  0
VERTEX
  5
1C0
330
1BA
100
AcDbEntity
  8
0
100
AcDbVertex
100
AcDb2dVertex
 10
112.0713883812999
 20
59.63813706609999
 30
0.0
  0
VERTEX
  5
1C1
330
1BA
100
AcDbEntity
  8
0
100
AcDbVertex
100
AcDb2dVertex
 10
112.0494587439999
 20
59.6488990397
 30
0.0
  0
VERTEX
  5
1C2
330
1BA
100
AcDbEntity
  8
0
100
AcDbVertex
100
AcDb2dVertex
 10
112.0289877792999
 20
59.6514390073
 30
0.0
  0
VERTEX
  5
1C3
330
1BA
100
AcDbEntity
  8
0
100
AcDbVertex
100
AcDb2dVertex
 10
112.0117944223
 20
59.6455312817
 30
0.0
  0
VERTEX
  5
1C4
330
1BA
100
AcDbEntity
  8
0
100
AcDbVertex
100
AcDb2dVertex
 10
111.9994063782
 20
59.6317007904
 30
0.0
  0
VERTEX
  5
1C5
330
1BA
100
AcDbEntity
  8
0
100
AcDbVertex
100
AcDb2dVertex
 10
111.9929243792
 20
59.611176433
 30
0.0
  0
VERTEX
  5
1C6
330
1BA
100
AcDbEntity
  8
0
100
AcDbVertex
100
AcDb2dVertex
 10
111.9929243792
 20
59.58578188899999
 30
0.0
  0
VERTEX
  5
1C7
330
1BA
100
AcDbEntity
  8
0
100
AcDbVertex
100
AcDb2dVertex
 10
111.9994063782
 20
59.55777357479999
 30
0.0
  0
VERTEX
  5
1C8
330
1BA
100
AcDbEntity
  8
0
100
AcDbVertex
100
AcDb2dVertex
 10
112.0117944223
 20
59.5296401522
 30
0.0
  0
VERTEX
  5
1C9
330
1BA
100
AcDbEntity
  8
0
100
AcDbVertex
100
AcDb2dVertex
 10
112.0289877792999
 20
59.50388139930001
 30
0.0
  0
VERTEX
  5
1CA
330
1BA
100
AcDbEntity
  8
0
100
AcDbVertex
100
AcDb2dVertex
 10
112.0494587439999
 20
59.4827860942
 30
0.0
  0
VERTEX
  5
1CB
330
1BA
100
AcDbEntity
  8
0
100
AcDbVertex
100
AcDb2dVertex
 10
112.0713883812999
 20
59.46822864729999
 30
0.0
  0
VERTEX
  5
1CC
330
1BA
100
AcDbEntity
  8
0
100
AcDbVertex
100
AcDb2dVertex
 10
112.0928281467999
 20
59.4615025518
 30
0.0
  0
VERTEX
  5
1CD
330
1BA
100
AcDbEntity
  8
0
100
AcDbVertex
100
AcDb2dVertex
 10
112.1118730230999
 20
59.46320545079999
 30
0.0
  0
VERTEX
  5
1CE
330
1BA
100
AcDbEntity
  8
0
100
AcDbVertex
100
AcDb2dVertex
 10
112.1268307895999
 20
59.4731860341
 30
0.0
  0
VERTEX
  5
1CF
330
1BA
100
AcDbEntity
  8
0
100
AcDbVertex
100
AcDb2dVertex
 10
112.1363723828
 20
59.4905574832
 30
0.0
  0
VERTEX
  5
1D0
330
1BA
100
AcDbEntity
  8
0
100
AcDbVertex
100
AcDb2dVertex
 10
112.1396499904999
 20
59.5137762685
 30
0.0
  0
SEQEND
  5
1D1
330
1BA
100
AcDbEntity
  8
0
  0
LINE
  5
1D2
330
A
100
AcDbEntity
  8
0
  6
Continuous
 62
     7
370
    15
100
AcDbLine
 10
123.0260302914
 20
58.2645155817
 30
0.0
 11
122.9081791612
 21
58.19648157239999
 31
0.0
  0
LINE
  5
1D3
330
A
100
AcDbEntity
  8
0
  6
Continuous
 62
     7
370
    15
100
AcDbLine
 10
123.0260302914
 20
33.2239306838
 30
0.0
 11
123.0260302914
 21
58.2645155817
 31
0.0
  0
LINE
  5
1D4
330
A
100
AcDbEntity
  8
0
  6
Continuous
 62
     7
370
    15
100
AcDbLine
 10
123.0260302914
 20
33.2239306838
 30
0.0
 11
122.9081791612
 21
33.1558966745
 31
0.0
  0
LINE
  5
1D5
330
A
100
AcDbEntity
  8
0
  6
Continuous
 62
     7
370
    15
100
AcDbLine
 10
108.4124901469
 20
66.70073273719999
 30
0.0
 11
108.2946390166999
 21
66.6326987279
 31
0.0
  0
LINE
  5
1D6
330
A
100
AcDbEntity
  8
0
  6
Continuous
 62
     7
370
    15
100
AcDbLine
 10
123.0260302914
 20
58.2645155817
 30
0.0
 11
108.4124901469
 21
66.70073273719999
 31
0.0
  0
ENDSEC
  0
SECTION
  2
OBJECTS
  0
DICTIONARY
  5
19
330
0
100
AcDbDictionary
281
     1
  3
ACAD_GROUP
350
1A
  3
ACAD_LAYOUT
350
1E
  3
ACAD_MLINESTYLE
350
1B
  3
ACAD_PLOTSETTINGS
350
22
  3
ACAD_PLOTSTYLENAME
350
1F
  3
ACAD_WIPEOUT_VARS
350
23
  0
DICTIONARY
  5
1A
102
{ACAD_REACTORS
330
19
102
}
330
19
100
AcDbDictionary
281
     1
  0
DICTIONARY
  5
1E
102
{ACAD_REACTORS
330
19
102
}
330
19
100
AcDbDictionary
281
     1
  3
Layout1
350
21
  3
Model
350
20
  0
DICTIONARY
  5
1B
102
{ACAD_REACTORS
330
19
102
}
330
19
100
AcDbDictionary
281
     1
  3
Standard
350
1C
  0
DICTIONARY
  5
22
102
{ACAD_REACTORS
330
19
102
}
330
19
100
AcDbDictionary
281
     1
  0
ACDBDICTIONARYWDFLT
  5
1F
102
{ACAD_REACTORS
330
19
102
}
330
19
100
AcDbDictionary
281
     1
  3
Normal
350
1D
100
AcDbDictionaryWithDefault
340
1D
  0
WIPEOUTVARIABLES
  5
23
330
19
100
AcDbWipeoutVariables
 70
     1
  0
LAYOUT
  5
21
102
{ACAD_REACTORS
330
1E
102
}
330
1E
100
AcDbPlotSettings
  1

  2

  4

  6

 40
0.0
 41
0.0
 42
0.0
 43
0.0
 44
0.0
 45
0.0
 46
0.0
 47
0.0
 48
0.0
 49
0.0
140
0.0
141
0.0
142
1.0
143
1.0
 70
     0
 72
     0
 73
     0
 74
     0
  7

 75
     0
147
1.0
148
0.0
149
0.0
100
AcDbLayout
  1
Layout1
 70
     1
 71
     1
 10
0.0
 20
0.0
 11
12.0
 21
9.0
 12
0.0
 22
0.0
 32
0.0
 14
1.000000000000000E+20
 24
1.000000000000000E+20
 34
1.000000000000000E+20
 15
-1.000000000000000E+20
 25
-1.000000000000000E+20
 35
-1.000000000000000E+20
146
0.0
 13
0.0
 23
0.0
 33
0.0
 16
1.0
 26
0.0
 36
0.0
 17
0.0
 27
1.0
 37
0.0
 76
     0
330
B
  0
LAYOUT
  5
20
102
{ACAD_REACTORS
330
1E
102
}
330
1E
100
AcDbPlotSettings
  1

  2

  4

  6

 40
0.0
 41
0.0
 42
0.0
 43
0.0
 44
0.0
 45
0.0
 46
0.0
 47
0.0
 48
0.0
 49
0.0
140
0.0
141
0.0
142
1.0
143
1.0
 70
  1024
 72
     0
 73
     0
 74
     0
  7

 75
     0
147
1.0
148
0.0
149
0.0
100
AcDbLayout
  1
Model
 70
     0
 71
     0
 10
0.0
 20
0.0
 11
0.0
 21
0.0
 12
0.0
 22
0.0
 32
0.0
 14
0.0
 24
0.0
 34
0.0
 15
0.0
 25
0.0
 35
0.0
146
0.0
 13
0.0
 23
0.0
 33
0.0
 16
0.0
 26
0.0
 36
0.0
 17
0.0
 27
0.0
 37
0.0
 76
     0
330
A
  0
MLINESTYLE
  5
1C
102
{ACAD_REACTORS
330
1B
102
}
330
1B
100
AcDbMlineStyle
  2
STANDARD
 70
     0
  3

 62
     0
 51
90.0
 52
90.0
 71
     2
 49
0.5
 62
   256
  6
BYLAYER
 49
-0.5
 62
   256
  6
BYLAYER
  0
ACDBPLACEHOLDER
  5
1D
102
{ACAD_REACTORS
330
1F
102
}
330
1F
  0
ENDSEC
  0
EOF
