  0
SECTION
  2
HEADER
  9
$ACADVER
  1
AC1015
  9
$ACADMAINTVER
 70
    10
  9
$DWGCODEPAGE
  3
ANSI_1252
  9
$INSBASE
 10
0.0
 20
0.0
 30
0.0
  9
$EXTMIN
 10
3.25184355335
 20
-2.545664963433332
 30
0.0
  9
$EXTMAX
 10
169.3119207715291
 20
108.0868962132
 30
0.0
  9
$LIMMIN
 10
0.0
 20
0.0
  9
$LIMMAX
 10
0.0
 20
0.0
  9
$ORTHOMODE
 70
     0
  9
$REGENMODE
 70
     1
  9
$FILLMODE
 70
     1
  9
$QTEXTMODE
 70
     0
  9
$MIRRTEXT
 70
     1
  9
$LTSCALE
 40
1.0
  9
$ATTMODE
 70
     1
  9
$TEXTSIZE
 40
0.0
  9
$TRACEWID
 40
0.05
  9
$TEXTSTYLE
  7
Standard
  9
$CLAYER
  8
0
  9
$CELTYPE
  6
Continuous
  9
$CECOLOR
 62
   256
  9
$CELTSCALE
 40
1.0
  9
$DISPSILH
 70
     0
  9
$DIMSCALE
 40
1.0
  9
$DIMASZ
 40
0.0
  9
$DIMEXO
 40
0.0
  9
$DIMDLI
 40
0.38
  9
$DIMRND
 40
0.0
  9
$DIMDLE
 40
0.0
  9
$DIMEXE
 40
0.18
  9
$DIMTP
 40
0.0
  9
$DIMTM
 40
0.0
  9
$DIMTXT
 40
1.0
  9
$DIMCEN
 40
0.09
  9
$DIMTSZ
 40
0.0
  9
$DIMTOL
 70
     0
  9
$DIMLIM
 70
     0
  9
$DIMTIH
 70
     1
  9
$DIMTOH
 70
     1
  9
$DIMSE1
 70
     0
  9
$DIMSE2
 70
     0
  9
$DIMTAD
 70
     1
  9
$DIMZIN
 70
     0
  9
$DIMBLK
  1

  9
$DIMASO
 70
     1
  9
$DIMSHO
 70
     1
  9
$DIMPOST
  1

  9
$DIMAPOST
  1

  9
$DIMALT
 70
     0
  9
$DIMALTD
 70
     2
  9
$DIMALTF
 40
25.4
  9
$DIMLFAC
 40
1.0
  9
$DIMTOFL
 70
     0
  9
$DIMTVP
 40
0.0
  9
$DIMTIX
 70
     0
  9
$DIMSOXD
 70
     0
  9
$DIMSAH
 70
     0
  9
$DIMBLK1
  1

  9
$DIMBLK2
  1

  9
$DIMSTYLE
  2
Standard
  9
$DIMCLRD
 70
     0
  9
$DIMCLRE
 70
     0
  9
$DIMCLRT
 70
     0
  9
$DIMTFAC
 40
1.0
  9
$DIMGAP
 40
0.0
  9
$DIMJUST
 70
     0
  9
$DIMSD1
 70
     0
  9
$DIMSD2
 70
     0
  9
$DIMTOLJ
 70
     1
  9
$DIMTZIN
 70
     0
  9
$DIMALTZ
 70
     0
  9
$DIMALTTZ
 70
     0
  9
$DIMUPT
 70
     0
  9
$DIMDEC
 70
     4
  9
$DIMTDEC
 70
     4
  9
$DIMALTU
 70
     2
  9
$DIMALTTD
 70
     2
  9
$DIMTXSTY
  7
Standard
  9
$DIMAUNIT
 70
     0
  9
$DIMADEC
 70
     0
  9
$DIMALTRND
 40
0.0
  9
$DIMAZIN
 70
     0
  9
$DIMDSEP
 70
     0
  9
$DIMATFIT
 70
     3
  9
$DIMFRAC
 70
     0
  9
$DIMLDRBLK
  1

  9
$DIMLUNIT
 70
     2
  9
$DIMLWD
 70
     0
  9
$DIMLWE
 70
     0
  9
$DIMTMOVE
 70
     0
  9
$LUNITS
 70
     2
  9
$LUPREC
 70
     3
  9
$SKETCHINC
 40
0.1
  9
$FILLETRAD
 40
0.0
  9
$AUNITS
 70
     0
  9
$AUPREC
 70
     2
  9
$MENU
  1
acad
  9
$ELEVATION
 40
0.0
  9
$PELEVATION
 40
0.0
  9
$THICKNESS
 40
0.0
  9
$LIMCHECK
 70
     0
  9
$CHAMFERA
 40
0.0
  9
$CHAMFERB
 40
0.0
  9
$CHAMFERC
 40
0.0
  9
$CHAMFERD
 40
0.0
  9
$SKPOLY
 70
     0
  9
$TDCREATE
 40
2453398.531902662
  9
$TDUCREATE
 40
2453398.865235995
  9
$TDUPDATE
 40
2453398.532339942
  9
$TDUUPDATE
 40
2453398.865673275
  9
$TDINDWG
 40
0.0004416204
  9
$TDUSRTIMER
 40
0.0004416204
  9
$USRTIMER
 70
     1
  9
$ANGBASE
 50
0.0
  9
$ANGDIR
 70
     0
  9
$PDMODE
 70
     0
  9
$PDSIZE
 40
-1.0
  9
$PLINEWID
 40
0.0
  9
$SPLFRAME
 70
     0
  9
$SPLINETYPE
 70
     6
  9
$SPLINESEGS
 70
     8
  9
$HANDSEED
  5
220
  9
$SURFTAB1
 70
     6
  9
$SURFTAB2
 70
     6
  9
$SURFTYPE
 70
     6
  9
$SURFU
 70
     6
  9
$SURFV
 70
     6
  9
$UCSBASE
  2

  9
$UCSNAME
  2

  9
$UCSORG
 10
0.0
 20
0.0
 30
0.0
  9
$UCSXDIR
 10
1.0
 20
0.0
 30
0.0
  9
$UCSYDIR
 10
0.0
 20
1.0
 30
0.0
  9
$UCSORTHOREF
  2

  9
$UCSORTHOVIEW
 70
     0
  9
$UCSORGTOP
 10
0.0
 20
0.0
 30
0.0
  9
$UCSORGBOTTOM
 10
0.0
 20
0.0
 30
0.0
  9
$UCSORGLEFT
 10
0.0
 20
0.0
 30
0.0
  9
$UCSORGRIGHT
 10
0.0
 20
0.0
 30
0.0
  9
$UCSORGFRONT
 10
0.0
 20
0.0
 30
0.0
  9
$UCSORGBACK
 10
0.0
 20
0.0
 30
0.0
  9
$PUCSBASE
  2

  9
$PUCSNAME
  2

  9
$PUCSORG
 10
0.0
 20
0.0
 30
0.0
  9
$PUCSXDIR
 10
1.0
 20
0.0
 30
0.0
  9
$PUCSYDIR
 10
0.0
 20
1.0
 30
0.0
  9
$PUCSORTHOREF
  2

  9
$PUCSORTHOVIEW
 70
     0
  9
$PUCSORGTOP
 10
0.0
 20
0.0
 30
0.0
  9
$PUCSORGBOTTOM
 10
0.0
 20
0.0
 30
0.0
  9
$PUCSORGLEFT
 10
0.0
 20
0.0
 30
0.0
  9
$PUCSORGRIGHT
 10
0.0
 20
0.0
 30
0.0
  9
$PUCSORGFRONT
 10
0.0
 20
0.0
 30
0.0
  9
$PUCSORGBACK
 10
0.0
 20
0.0
 30
0.0
  9
$USERI1
 70
     0
  9
$USERI2
 70
     0
  9
$USERI3
 70
     0
  9
$USERI4
 70
     0
  9
$USERI5
 70
     0
  9
$USERR1
 40
0.0
  9
$USERR2
 40
0.0
  9
$USERR3
 40
0.0
  9
$USERR4
 40
0.0
  9
$USERR5
 40
0.0
  9
$WORLDVIEW
 70
     1
  9
$SHADEDGE
 70
     3
  9
$SHADEDIF
 70
    70
  9
$TILEMODE
 70
     1
  9
$MAXACTVP
 70
    16
  9
$PINSBASE
 10
0.0
 20
0.0
 30
0.0
  9
$PLIMCHECK
 70
     0
  9
$PEXTMIN
 10
1.000000000000000E+20
 20
1.000000000000000E+20
 30
1.000000000000000E+20
  9
$PEXTMAX
 10
-1.000000000000000E+20
 20
-1.000000000000000E+20
 30
-1.000000000000000E+20
  9
$PLIMMIN
 10
0.0
 20
0.0
  9
$PLIMMAX
 10
12.0
 20
9.0
  9
$UNITMODE
 70
     0
  9
$VISRETAIN
 70
     0
  9
$PLINEGEN
 70
     1
  9
$PSLTSCALE
 70
     1
  9
$TREEDEPTH
 70
  3020
  9
$CMLSTYLE
  2
Standard
  9
$CMLJUST
 70
     0
  9
$CMLSCALE
 40
1.0
  9
$PROXYGRAPHICS
 70
     0
  9
$MEASUREMENT
 70
     0
  9
$CELWEIGHT
370
     0
  9
$ENDCAPS
280
     0
  9
$JOINSTYLE
280
     0
  9
$LWDISPLAY
290
     1
  9
$INSUNITS
 70
     0
  9
$HYPERLINKBASE
  1

  9
$STYLESHEET
  1

  9
$XEDIT
290
     1
  9
$CEPSNTYPE
380
     0
  9
$PSTYLEMODE
290
     1
  9
$FINGERPRINTGUID
  2

  9
$VERSIONGUID
  2
{345E1A79-3A09-45C2-A1C1-FAE66E98937F}
  9
$EXTNAMES
290
     1
  9
$PSVPSCALE
 40
0.0
  9
$OLESTARTUP
290
     0
  0
ENDSEC
  0
SECTION
  2
CLASSES
  0
CLASS
  1
LWPOLYLINE
  2
AcDbPolyline
  3
AutoCAD 2000
 90
    32768
280
     0
281
     1
  0
CLASS
  1
IMAGE
  2
AcDbRasterImage
  3
ISM
 90
    32895
280
     0
281
     1
  0
CLASS
  1
OLE2FRAME
  2
AcDbOle2Frame
  3
AutoCAD 2000
 90
    32768
280
     0
281
     1
  0
CLASS
  1
HATCH
  2
AcDbHatch
  3
AutoCAD 2000
 90
    32768
280
     0
281
     1
  0
CLASS
  1
DICTIONARYVAR
  2
AcDbDictionaryVar
  3
AutoCAD 2000
 90
    32768
280
     0
281
     0
  0
CLASS
  1
RASTERVARIABLES
  2
AcDbRasterVariables
  3
ISM
 90
    32768
280
     0
281
     0
  0
CLASS
  1
IMAGEDEF
  2
AcDbRasterImageDef
  3
ISM
 90
    32768
280
     0
281
     0
  0
CLASS
  1
IMAGEDEF_REACTOR
  2
AcDbRasterImageDefReactor
  3
ISM
 90
    32769
280
     0
281
     0
  0
CLASS
  1
IDBUFFER
  2
AcDbIdBuffer
  3
AutoCAD 2000
 90
    32768
280
     0
281
     0
  0
CLASS
  1
SPATIAL_FILTER
  2
AcDbSpatialFilter
  3
AutoCAD 2000
 90
    32768
280
     0
281
     0
  0
CLASS
  1
XRECORD
  2
AcDbXrecord
  3
AutoCAD 2000
 90
    32768
280
     0
281
     0
  0
CLASS
  1
SORTENTSTABLE
  2
AcDbSortentsTable
  3
AutoCAD 2000
 90
    32768
280
     0
281
     0
  0
CLASS
  1
LAYER_INDEX
  2
AcDbLayerIndex
  3
AutoCAD 2000
 90
    32768
280
     0
281
     0
  0
CLASS
  1
SPATIAL_INDEX
  2
AcDbSpatialIndex
  3
AutoCAD 2000
 90
    32768
280
     0
281
     0
  0
CLASS
  1
OBJECT_PTR
  2
CAseDLPNTableRecord
  3
"ASE-LPNTableRecord"
 90
    32769
280
     0
281
     0
  0
CLASS
  1
LAYOUT
  2
AcDbLayout
  3
AutoCAD 2000
 90
        0
280
     0
281
     0
  0
CLASS
  1
PLOTSETTINGS
  2
AcDbPlotSettings
  3
AutoCAD 2000
 90
    32768
280
     0
281
     0
  0
CLASS
  1
ACDBDICTIONARYWDFLT
  2
AcDbDictionaryWithDefault
  3
AutoCAD 2000
 90
        0
280
     0
281
     0
  0
CLASS
  1
ACDBPLACEHOLDER
  2
AcDbPlaceHolder
  3
AutoCAD 2000
 90
        0
280
     0
281
     0
  0
CLASS
  1
VBA_PROJECT
  2
AcDbVbaProject
  3
acadvba
 90
    32768
280
     0
281
     0
  0
CLASS
  1
WIPEOUT
  2
AcDbWipeout
  3
WipeOut|AutoCAD Express Tool|expresstools@autodesk.com
 90
    32895
280
     0
281
     1
  0
CLASS
  1
WIPEOUTVARIABLES
  2
AcDbWipeoutVariables
  3
WipeOut|AutoCAD Express Tool|expresstools@autodesk.com
 90
        0
280
     0
281
     0
  0
CLASS
  1
RTEXT
  2
RText
  3
RText|AutoCAD Express Tool|expresstools@autodesk.com
 90
    32768
280
     0
281
     1
  0
CLASS
  1
ARCALIGNEDTEXT
  2
AcDbArcAlignedText
  3
ATEXT|AutoCAD Express Tool|expresstools@autodesk.com
 90
    32768
280
     0
281
     1
  0
ENDSEC
  0
SECTION
  2
TABLES
  0
TABLE
  2
VPORT
  5
7
330
0
100
AcDbSymbolTable
 70
     3
  0
VPORT
  5
21F
330
7
100
AcDbSymbolTableRecord
100
AcDbViewportTableRecord
  2
*Active
 70
     0
 10
0.0
 20
0.0
 11
1.0
 21
1.0
 12
97.26177087611596
 22
55.00000000000003
 13
0.0
 23
0.0
 14
1.0
 24
1.0
 15
0.0
 25
0.0
 16
0.0
 26
0.0
 36
1.0
 17
0.0
 27
0.0
 37
0.0
 40
109.9999999687817
 41
1.5
 42
50.0
 43
0.0
 44
0.0
 50
0.0
 51
0.0
 71
     0
 72
  2000
 73
     1
 74
     1
 75
     0
 76
     0
 77
     0
 78
     0
281
     0
 65
     0
110
0.0
120
0.0
130
0.0
111
1.0
121
0.0
131
0.0
112
0.0
122
1.0
132
0.0
 79
     0
146
0.0
  0
ENDTAB
  0
TABLE
  2
LTYPE
  5
4
330
0
100
AcDbSymbolTable
 70
     6
  0
LTYPE
  5
11
330
4
100
AcDbSymbolTableRecord
100
AcDbLinetypeTableRecord
  2
ByBlock
 70
     0
  3

 72
    65
 73
     0
 40
0.0
  0
LTYPE
  5
12
330
4
100
AcDbSymbolTableRecord
100
AcDbLinetypeTableRecord
  2
ByLayer
 70
     0
  3

 72
    65
 73
     0
 40
0.0
  0
LTYPE
  5
13
330
4
100
AcDbSymbolTableRecord
100
AcDbLinetypeTableRecord
  2
Continuous
 70
     0
  3
Solid line
 72
    65
 73
     0
 40
0.0
  0
LTYPE
  5
24
330
4
100
AcDbSymbolTableRecord
100
AcDbLinetypeTableRecord
  2
HIDDEN
 70
     0
  3
Hidden __ __ __ __ __ __ __ __ __ __ __ __ __ __
 72
    65
 73
     2
 40
0.075
 49
0.05
 74
     0
 49
-0.025
 74
     0
  0
LTYPE
  5
25
330
4
100
AcDbSymbolTableRecord
100
AcDbLinetypeTableRecord
  2
PHANTOM
 70
     0
  3
Phantom ______  __  __  ______  __  __  ______
 72
    65
 73
     6
 40
0.5
 49
0.25
 74
     0
 49
-0.05
 74
     0
 49
0.05
 74
     0
 49
-0.05
 74
     0
 49
0.05
 74
     0
 49
-0.05
 74
     0
  0
LTYPE
  5
26
330
4
100
AcDbSymbolTableRecord
100
AcDbLinetypeTableRecord
  2
CENTER
 70
     0
  3
Center ____ _ ____ _ ____ _ ____ _ ____ _ ____
 72
    65
 73
     4
 40
0.4
 49
0.25
 74
     0
 49
-0.05
 74
     0
 49
0.05
 74
     0
 49
-0.05
 74
     0
  0
LTYPE
  5
27
330
4
100
AcDbSymbolTableRecord
100
AcDbLinetypeTableRecord
  2
CENTERX2
 70
     0
  3
Center (2x) ________  __  ________  __  _____
 72
    65
 73
     4
 40
0.8
 49
0.5
 74
     0
 49
-0.1
 74
     0
 49
0.1
 74
     0
 49
-0.1
 74
     0
  0
LTYPE
  5
28
330
4
100
AcDbSymbolTableRecord
100
AcDbLinetypeTableRecord
  2
DOT2
 70
     0
  3
Dot (.5x) ........................................
 72
    65
 73
     2
 40
0.025
 49
0.0
 74
     0
 49
-0.025
 74
     0
  0
ENDTAB
  0
TABLE
  2
LAYER
  5
2
330
0
100
AcDbSymbolTable
 70
     1
  0
LAYER
  5
14
330
2
100
AcDbSymbolTableRecord
100
AcDbLayerTableRecord
  2
0
 70
     0
 62
     7
  6
Continuous
370
    -3
390
1D
  0
ENDTAB
  0
TABLE
  2
STYLE
  5
3
330
0
100
AcDbSymbolTable
 70
     2
  0
STYLE
  5
17
330
3
100
AcDbSymbolTableRecord
100
AcDbTextStyleTableRecord
  2
Standard
 70
     0
 40
0.0
 41
1.0
 50
0.0
 71
     0
 42
0.0
  3
txt
  4

  0
STYLE
  5
75
330
3
100
AcDbSymbolTableRecord
100
AcDbTextStyleTableRecord
  2
SLDTEXTSTYLE0
 70
     0
 40
0.0
 41
0.75
 50
0.0
 71
     0
 42
0.0
  3
txt
  4

  0
ENDTAB
  0
TABLE
  2
VIEW
  5
5
330
0
100
AcDbSymbolTable
 70
     0
  0
ENDTAB
  0
TABLE
  2
UCS
  5
6
330
0
100
AcDbSymbolTable
 70
     0
  0
ENDTAB
  0
TABLE
  2
APPID
  5
8
330
0
100
AcDbSymbolTable
 70
     1
  0
APPID
  5
16
330
8
100
AcDbSymbolTableRecord
100
AcDbRegAppTableRecord
  2
ACAD
 70
     0
  0
ENDTAB
  0
TABLE
  2
DIMSTYLE
  5
9
330
0
100
AcDbSymbolTable
 70
     3
100
AcDbDimStyleTable
 71
     1
340
18
  0
DIMSTYLE
105
18
330
9
100
AcDbSymbolTableRecord
100
AcDbDimStyleTableRecord
  2
Standard
 70
     0
340
17
  0
DIMSTYLE
105
D0
102
{ACAD_REACTORS
330
D4
330
E1
330
EE
330
FB
330
108
330
115
330
122
330
140
330
14F
330
15E
330
16D
330
218
102
}
330
9
100
AcDbSymbolTableRecord
100
AcDbDimStyleTableRecord
  2
SLDDIMSTYLE0
 70
     0
 41
1.875
 44
1.199999999999999
 78
    12
140
1.0
147
0.25
173
     1
176
     7
177
     7
178
     7
271
     3
284
    12
340
17
  0
DIMSTYLE
105
12D
102
{ACAD_REACTORS
330
131
102
}
330
9
100
AcDbSymbolTableRecord
100
AcDbDimStyleTableRecord
  2
SLDDIMSTYLE1
 70
     0
 41
1.875
 44
1.199999999999999
 78
    12
140
1.0
147
0.25
172
     1
173
     1
176
     1
177
     1
178
     1
271
     3
284
    12
340
17
  0
ENDTAB
  0
TABLE
  2
BLOCK_RECORD
  5
1
330
0
100
AcDbSymbolTable
 70
    14
  0
BLOCK_RECORD
  5
A
330
1
100
AcDbSymbolTableRecord
100
AcDbBlockTableRecord
  2
*MODEL_SPACE
340
20
  0
BLOCK_RECORD
  5
B
330
1
100
AcDbSymbolTableRecord
100
AcDbBlockTableRecord
  2
*PAPER_SPACE
340
21
  0
BLOCK_RECORD
  5
A6
330
1
100
AcDbSymbolTableRecord
100
AcDbBlockTableRecord
  2
NOTE48
340
0
102
{BLKREFS
331
AC
102
}
  0
BLOCK_RECORD
  5
C7
330
1
100
AcDbSymbolTableRecord
100
AcDbBlockTableRecord
  2
*D1
340
0
  0
BLOCK_RECORD
  5
D5
330
1
100
AcDbSymbolTableRecord
100
AcDbBlockTableRecord
  2
*D2
340
0
  0
BLOCK_RECORD
  5
E2
330
1
100
AcDbSymbolTableRecord
100
AcDbBlockTableRecord
  2
*D3
340
0
  0
BLOCK_RECORD
  5
EF
330
1
100
AcDbSymbolTableRecord
100
AcDbBlockTableRecord
  2
*D4
340
0
  0
BLOCK_RECORD
  5
FC
330
1
100
AcDbSymbolTableRecord
100
AcDbBlockTableRecord
  2
*D5
340
0
  0
BLOCK_RECORD
  5
109
330
1
100
AcDbSymbolTableRecord
100
AcDbBlockTableRecord
  2
*D6
340
0
  0
BLOCK_RECORD
  5
116
330
1
100
AcDbSymbolTableRecord
100
AcDbBlockTableRecord
  2
*D7
340
0
  0
BLOCK_RECORD
  5
123
330
1
100
AcDbSymbolTableRecord
100
AcDbBlockTableRecord
  2
*D8
340
0
  0
BLOCK_RECORD
  5
132
330
1
100
AcDbSymbolTableRecord
100
AcDbBlockTableRecord
  2
*D9
340
0
  0
BLOCK_RECORD
  5
141
330
1
100
AcDbSymbolTableRecord
100
AcDbBlockTableRecord
  2
*D10
340
0
  0
BLOCK_RECORD
  5
150
330
1
100
AcDbSymbolTableRecord
100
AcDbBlockTableRecord
  2
*D11
340
0
  0
BLOCK_RECORD
  5
15F
330
1
100
AcDbSymbolTableRecord
100
AcDbBlockTableRecord
  2
*D12
340
0
  0
BLOCK_RECORD
  5
20C
330
1
100
AcDbSymbolTableRecord
100
AcDbBlockTableRecord
  2
*D13
340
0
  0
ENDTAB
  0
ENDSEC
  0
SECTION
  2
BLOCKS
  0
BLOCK
  5
D
330
A
100
AcDbEntity
  8
0
100
AcDbBlockBegin
  2
*MODEL_SPACE
 70
     0
 10
0.0
 20
0.0
 30
0.0
  3
*MODEL_SPACE
  1

  0
ENDBLK
  5
E
330
A
100
AcDbEntity
  8
0
100
AcDbBlockEnd
  0
BLOCK
  5
F
330
B
100
AcDbEntity
 67
     1
  8
0
100
AcDbBlockBegin
  2
*PAPER_SPACE
 70
     0
 10
0.0
 20
0.0
 30
0.0
  3
*PAPER_SPACE
  1

  0
ENDBLK
  5
10
330
B
100
AcDbEntity
 67
     1
  8
0
100
AcDbBlockEnd
  0
BLOCK
  5
A7
330
A6
100
AcDbEntity
  8
0
 62
     0
100
AcDbBlockBegin
  2
NOTE48
 70
     0
 10
0.0
 20
0.0
 30
0.0
  3
NOTE48
  1

  0
MTEXT
  5
A8
330
A6
100
AcDbEntity
  8
0
 62
     7
100
AcDbMText
 10
0.0
 20
0.0
 30
0.0
 40
0.9
 41
0.0
 71
     1
 72
     1
  1
BREAK SHARP EDGES 0.010 RAD %%p 0.003
  7
SLDTEXTSTYLE0
 73
     1
 44
1.0
  0
MTEXT
  5
A9
330
A6
100
AcDbEntity
  8
0
 62
     7
100
AcDbMText
 10
0.0
 20
-1.35
 30
0.0
 40
0.9
 41
0.0
 71
     1
 72
     1
  1
MACHINED SURF FINISH  
  7
SLDTEXTSTYLE0
 73
     1
 44
1.0
  0
MTEXT
  5
AA
330
A6
100
AcDbEntity
  8
0
 62
     7
100
AcDbMText
 10
13.86
 20
-1.35
 30
0.0
 40
0.9
 41
0.0
 71
     1
 72
     1
  1
< 125 MICROINCH
  7
SLDTEXTSTYLE0
 73
     1
 44
1.0
  0
ENDBLK
  5
AB
330
A6
100
AcDbEntity
  8
0
100
AcDbBlockEnd
  0
BLOCK
  5
C8
330
C7
100
AcDbEntity
  8
0
 62
     7
100
AcDbBlockBegin
  2
*D1
 70
     1
 10
0.0
 20
0.0
 30
0.0
  3
*D1
  1

  0
MTEXT
  5
C9
330
C7
100
AcDbEntity
  8
0
 62
     7
100
AcDbMText
 10
20.095543464
 20
53.3191087022
 30
0.0
 40
1.0
 41
0.0
 71
     7
 72
     1
  1
46"
  7
SLDTEXTSTYLE0
 73
     1
 44
1.0
  0
LINE
  5
CA
330
C7
100
AcDbEntity
  8
0
 62
     7
100
AcDbLine
 10
41.6748432415
 20
30.7687190795
 30
0.0
 11
19.94575855839999
 21
30.7687190795
 31
0.0
  0
LINE
  5
CB
330
C7
100
AcDbEntity
  8
0
 62
     7
100
AcDbLine
 10
41.6748432415
 20
76.7687190795
 30
0.0
 11
19.94575855839999
 21
76.7687190795
 31
0.0
  0
LINE
  5
CC
330
C7
100
AcDbEntity
  8
0
 62
     7
100
AcDbLine
 10
21.1457585584
 20
30.7687190795
 30
0.0
 11
21.1457585584
 21
52.8191087022
 31
0.0
  0
LINE
  5
CD
330
C7
100
AcDbEntity
  8
0
 62
     7
100
AcDbLine
 10
21.1457585584
 20
76.7687190795
 30
0.0
 11
21.1457585584
 21
54.7183294569
 31
0.0
  0
SOLID
  5
CE
330
C7
100
AcDbEntity
  8
0
 62
     7
100
AcDbTrace
 10
21.1457585584
 20
30.7687190795
 30
0.0
 11
21.4582585584
 21
32.64371907949999
 31
0.0
 12
20.8332585584
 22
32.64371907949999
 32
0.0
 13
20.8332585584
 23
32.64371907949999
 33
0.0
  0
SOLID
  5
CF
330
C7
100
AcDbEntity
  8
0
 62
     7
100
AcDbTrace
 10
21.1457585584
 20
76.7687190795
 30
0.0
 11
20.8332585584
 21
74.8937190795
 31
0.0
 12
21.4582585584
 22
74.8937190795
 32
0.0
 13
21.4582585584
 23
74.8937190795
 33
0.0
  0
POINT
  5
D1
330
C7
100
AcDbEntity
  8
0
 62
     7
100
AcDbPoint
 10
42.0748432415
 20
30.7687190795
 30
0.0
  0
POINT
  5
D2
330
C7
100
AcDbEntity
  8
0
 62
     7
100
AcDbPoint
 10
42.0748432415
 20
76.7687190795
 30
0.0
  0
ENDBLK
  5
D3
330
C7
100
AcDbEntity
  8
0
 62
     7
100
AcDbBlockEnd
  0
BLOCK
  5
D6
330
D5
100
AcDbEntity
  8
0
 62
     1
100
AcDbBlockBegin
  2
*D2
 70
     1
 10
0.0
 20
0.0
 30
0.0
  3
*D2
  1

  0
MTEXT
  5
D7
330
D5
100
AcDbEntity
  8
0
100
AcDbMText
 10
76.07452154339999
 20
98.96369150940001
 30
0.0
 40
1.0
 41
0.0
 71
     7
 72
     1
  1
70"
  7
SLDTEXTSTYLE0
 73
     1
 44
1.0
  0
LINE
  5
D8
330
D5
100
AcDbEntity
  8
0
100
AcDbLine
 10
112.0748432414999
 20
77.16871907949999
 30
0.0
 11
112.0748432414999
 21
100.6133018867999
 31
0.0
  0
LINE
  5
D9
330
D5
100
AcDbEntity
  8
0
100
AcDbLine
 10
42.0748432415
 20
77.16871907949999
 30
0.0
 11
42.0748432415
 21
100.6133018867999
 31
0.0
  0
LINE
  5
DA
330
D5
100
AcDbEntity
  8
0
100
AcDbLine
 10
112.0748432414999
 20
99.4133018868
 30
0.0
 11
78.7001649396
 21
99.4133018868
 31
0.0
  0
LINE
  5
DB
330
D5
100
AcDbEntity
  8
0
100
AcDbLine
 10
42.0748432415
 20
99.4133018868
 30
0.0
 11
75.44952154339999
 21
99.4133018868
 31
0.0
  0
SOLID
  5
DC
330
D5
100
AcDbEntity
  8
0
100
AcDbTrace
 10
112.0748432414999
 20
99.4133018868
 30
0.0
 11
110.1998432414999
 21
99.7258018868
 31
0.0
 12
110.1998432414999
 22
99.1008018868
 32
0.0
 13
110.1998432414999
 23
99.1008018868
 33
0.0
  0
SOLID
  5
DD
330
D5
100
AcDbEntity
  8
0
100
AcDbTrace
 10
42.0748432415
 20
99.4133018868
 30
0.0
 11
43.9498432415
 21
99.1008018868
 31
0.0
 12
43.9498432415
 22
99.7258018868
 32
0.0
 13
43.9498432415
 23
99.7258018868
 33
0.0
  0
POINT
  5
DE
330
D5
100
AcDbEntity
  8
0
100
AcDbPoint
 10
112.0748432414999
 20
76.7687190795
 30
0.0
  0
POINT
  5
DF
330
D5
100
AcDbEntity
  8
0
100
AcDbPoint
 10
42.0748432415
 20
76.7687190795
 30
0.0
  0
ENDBLK
  5
E0
330
D5
100
AcDbEntity
  8
0
 62
     1
100
AcDbBlockEnd
  0
BLOCK
  5
E3
330
E2
100
AcDbEntity
  8
0
 62
     1
100
AcDbBlockBegin
  2
*D3
 70
     1
 10
0.0
 20
0.0
 30
0.0
  3
*D3
  1

  0
MTEXT
  5
E4
330
E2
100
AcDbEntity
  8
0
100
AcDbMText
 10
37.26697754489999
 20
80.9975629364
 30
0.0
 40
1.0
 41
0.0
 71
     7
 72
     1
  1
8"
  7
SLDTEXTSTYLE0
 73
     1
 44
1.0
  0
LINE
  5
E5
330
E2
100
AcDbEntity
  8
0
100
AcDbLine
 10
42.0748432415
 20
77.16871907949999
 30
0.0
 11
42.0748432415
 21
82.64717331369999
 31
0.0
  0
LINE
  5
E6
330
E2
100
AcDbEntity
  8
0
100
AcDbLine
 10
50.07484324149999
 20
68.16871907949999
 30
0.0
 11
50.07484324149999
 21
82.64717331369999
 31
0.0
  0
LINE
  5
E7
330
E2
100
AcDbEntity
  8
0
100
AcDbLine
 10
42.0748432415
 20
81.44717331370001
 30
0.0
 11
39.1924775449
 21
81.44717331370001
 31
0.0
  0
LINE
  5
E8
330
E2
100
AcDbEntity
  8
0
100
AcDbLine
 10
50.07484324149999
 20
81.44717331370001
 30
0.0
 11
42.0748432415
 21
81.44717331370001
 31
0.0
  0
SOLID
  5
E9
330
E2
100
AcDbEntity
  8
0
100
AcDbTrace
 10
42.0748432415
 20
81.44717331370001
 30
0.0
 11
43.9498432415
 21
81.13467331370001
 31
0.0
 12
43.9498432415
 22
81.75967331370001
 32
0.0
 13
43.9498432415
 23
81.75967331370001
 33
0.0
  0
SOLID
  5
EA
330
E2
100
AcDbEntity
  8
0
100
AcDbTrace
 10
50.07484324149999
 20
81.44717331370001
 30
0.0
 11
48.19984324149999
 21
81.75967331370001
 31
0.0
 12
48.19984324149999
 22
81.13467331370001
 32
0.0
 13
48.19984324149999
 23
81.13467331370001
 33
0.0
  0
POINT
  5
EB
330
E2
100
AcDbEntity
  8
0
100
AcDbPoint
 10
42.0748432415
 20
76.7687190795
 30
0.0
  0
POINT
  5
EC
330
E2
100
AcDbEntity
  8
0
100
AcDbPoint
 10
50.07484324149999
 20
67.7687190795
 30
0.0
  0
ENDBLK
  5
ED
330
E2
100
AcDbEntity
  8
0
 62
     1
100
AcDbBlockEnd
  0
BLOCK
  5
F0
330
EF
100
AcDbEntity
  8
0
 62
     1
100
AcDbBlockBegin
  2
*D4
 70
     1
 10
0.0
 20
0.0
 30
0.0
  3
*D4
  1

  0
MTEXT
  5
F1
330
EF
100
AcDbEntity
  8
0
100
AcDbMText
 10
58.5745215434
 20
85.7133141509
 30
0.0
 40
1.0
 41
0.0
 71
     7
 72
     1
  1
35"
  7
SLDTEXTSTYLE0
 73
     1
 44
1.0
  0
LINE
  5
F2
330
EF
100
AcDbEntity
  8
0
100
AcDbLine
 10
42.0748432415
 20
77.16871907949999
 30
0.0
 11
42.0748432415
 21
87.36292452829999
 31
0.0
  0
LINE
  5
F3
330
EF
100
AcDbEntity
  8
0
100
AcDbLine
 10
77.07484324149999
 20
68.16871907949999
 30
0.0
 11
77.07484324149999
 21
87.36292452829999
 31
0.0
  0
LINE
  5
F4
330
EF
100
AcDbEntity
  8
0
100
AcDbLine
 10
42.0748432415
 20
86.1629245283
 30
0.0
 11
57.9495215434
 21
86.1629245283
 31
0.0
  0
LINE
  5
F5
330
EF
100
AcDbEntity
  8
0
100
AcDbLine
 10
77.07484324149999
 20
86.1629245283
 30
0.0
 11
61.2001649396
 21
86.1629245283
 31
0.0
  0
SOLID
  5
F6
330
EF
100
AcDbEntity
  8
0
100
AcDbTrace
 10
42.0748432415
 20
86.1629245283
 30
0.0
 11
43.9498432415
 21
85.8504245283
 31
0.0
 12
43.9498432415
 22
86.4754245283
 32
0.0
 13
43.9498432415
 23
86.4754245283
 33
0.0
  0
SOLID
  5
F7
330
EF
100
AcDbEntity
  8
0
100
AcDbTrace
 10
77.07484324149999
 20
86.1629245283
 30
0.0
 11
75.19984324149999
 21
86.4754245283
 31
0.0
 12
75.19984324149999
 22
85.8504245283
 32
0.0
 13
75.19984324149999
 23
85.8504245283
 33
0.0
  0
POINT
  5
F8
330
EF
100
AcDbEntity
  8
0
100
AcDbPoint
 10
42.0748432415
 20
76.7687190795
 30
0.0
  0
POINT
  5
F9
330
EF
100
AcDbEntity
  8
0
100
AcDbPoint
 10
77.07484324149999
 20
67.7687190795
 30
0.0
  0
ENDBLK
  5
FA
330
EF
100
AcDbEntity
  8
0
 62
     1
100
AcDbBlockEnd
  0
BLOCK
  5
FD
330
FC
100
AcDbEntity
  8
0
 62
     1
100
AcDbBlockBegin
  2
*D5
 70
     1
 10
0.0
 20
0.0
 30
0.0
  3
*D5
  1

  0
MTEXT
  5
FE
330
FC
100
AcDbEntity
  8
0
100
AcDbMText
 10
72.0745215434
 20
91.76595566040001
 30
0.0
 40
1.0
 41
0.0
 71
     7
 72
     1
  1
62"
  7
SLDTEXTSTYLE0
 73
     1
 44
1.0
  0
LINE
  5
FF
330
FC
100
AcDbEntity
  8
0
100
AcDbLine
 10
42.0748432415
 20
77.16871907949999
 30
0.0
 11
42.0748432415
 21
93.41556603769999
 31
0.0
  0
LINE
  5
100
330
FC
100
AcDbEntity
  8
0
100
AcDbLine
 10
104.0748432415
 20
68.16871907949999
 30
0.0
 11
104.0748432415
 21
93.41556603769999
 31
0.0
  0
LINE
  5
101
330
FC
100
AcDbEntity
  8
0
100
AcDbLine
 10
42.0748432415
 20
92.2155660377
 30
0.0
 11
71.4495215434
 21
92.2155660377
 31
0.0
  0
LINE
  5
102
330
FC
100
AcDbEntity
  8
0
100
AcDbLine
 10
104.0748432415
 20
92.2155660377
 30
0.0
 11
74.7001649396
 21
92.2155660377
 31
0.0
  0
SOLID
  5
103
330
FC
100
AcDbEntity
  8
0
100
AcDbTrace
 10
42.0748432415
 20
92.2155660377
 30
0.0
 11
43.9498432415
 21
91.9030660377
 31
0.0
 12
43.9498432415
 22
92.5280660377
 32
0.0
 13
43.9498432415
 23
92.5280660377
 33
0.0
  0
SOLID
  5
104
330
FC
100
AcDbEntity
  8
0
100
AcDbTrace
 10
104.0748432415
 20
92.2155660377
 30
0.0
 11
102.1998432414999
 21
92.5280660377
 31
0.0
 12
102.1998432414999
 22
91.9030660377
 32
0.0
 13
102.1998432414999
 23
91.9030660377
 33
0.0
  0
POINT
  5
105
330
FC
100
AcDbEntity
  8
0
100
AcDbPoint
 10
42.0748432415
 20
76.7687190795
 30
0.0
  0
POINT
  5
106
330
FC
100
AcDbEntity
  8
0
100
AcDbPoint
 10
104.0748432415
 20
67.7687190795
 30
0.0
  0
ENDBLK
  5
107
330
FC
100
AcDbEntity
  8
0
 62
     1
100
AcDbBlockEnd
  0
BLOCK
  5
10A
330
109
100
AcDbEntity
  8
0
 62
     1
100
AcDbBlockBegin
  2
*D6
 70
     1
 10
0.0
 20
0.0
 30
0.0
  3
*D6
  1

  0
MTEXT
  5
10B
330
109
100
AcDbEntity
  8
0
100
AcDbMText
 10
34.76089597219999
 20
71.8191087022
 30
0.0
 40
1.0
 41
0.0
 71
     7
 72
     1
  1
9"
  7
SLDTEXTSTYLE0
 73
     1
 44
1.0
  0
LINE
  5
10C
330
109
100
AcDbEntity
  8
0
100
AcDbLine
 10
41.6748432415
 20
76.7687190795
 30
0.0
 11
34.2111459722
 21
76.7687190795
 31
0.0
  0
LINE
  5
10D
330
109
100
AcDbEntity
  8
0
100
AcDbLine
 10
49.67484324149999
 20
67.7687190795
 30
0.0
 11
34.2111459722
 21
67.7687190795
 31
0.0
  0
LINE
  5
10E
330
109
100
AcDbEntity
  8
0
100
AcDbLine
 10
35.41114597219999
 20
76.7687190795
 30
0.0
 11
35.41114597219999
 21
73.21832945689999
 31
0.0
  0
LINE
  5
10F
330
109
100
AcDbEntity
  8
0
100
AcDbLine
 10
35.41114597219999
 20
67.7687190795
 30
0.0
 11
35.41114597219999
 21
71.3191087022
 31
0.0
  0
SOLID
  5
110
330
109
100
AcDbEntity
  8
0
100
AcDbTrace
 10
35.41114597219999
 20
76.7687190795
 30
0.0
 11
35.09864597219999
 21
74.8937190795
 31
0.0
 12
35.72364597219999
 22
74.8937190795
 32
0.0
 13
35.72364597219999
 23
74.8937190795
 33
0.0
  0
SOLID
  5
111
330
109
100
AcDbEntity
  8
0
100
AcDbTrace
 10
35.41114597219999
 20
67.7687190795
 30
0.0
 11
35.72364597219999
 21
69.6437190795
 31
0.0
 12
35.09864597219999
 22
69.6437190795
 32
0.0
 13
35.09864597219999
 23
69.6437190795
 33
0.0
  0
POINT
  5
112
330
109
100
AcDbEntity
  8
0
100
AcDbPoint
 10
42.0748432415
 20
76.7687190795
 30
0.0
  0
POINT
  5
113
330
109
100
AcDbEntity
  8
0
100
AcDbPoint
 10
50.07484324149999
 20
67.7687190795
 30
0.0
  0
ENDBLK
  5
114
330
109
100
AcDbEntity
  8
0
 62
     1
100
AcDbBlockEnd
  0
BLOCK
  5
117
330
116
100
AcDbEntity
  8
0
 62
     1
100
AcDbBlockBegin
  2
*D7
 70
     1
 10
0.0
 20
0.0
 30
0.0
  3
*D7
  1

  0
MTEXT
  5
118
330
116
100
AcDbEntity
  8
0
100
AcDbMText
 10
26.3142530392
 20
57.8191087022
 30
0.0
 40
1.0
 41
0.0
 71
     7
 72
     1
  1
37"
  7
SLDTEXTSTYLE0
 73
     1
 44
1.0
  0
LINE
  5
119
330
116
100
AcDbEntity
  8
0
100
AcDbLine
 10
41.6748432415
 20
76.7687190795
 30
0.0
 11
26.1145747373
 21
76.7687190795
 31
0.0
  0
LINE
  5
11A
330
116
100
AcDbEntity
  8
0
100
AcDbLine
 10
49.67484324149999
 20
39.76871907949999
 30
0.0
 11
26.1145747373
 21
39.76871907949999
 31
0.0
  0
LINE
  5
11B
330
116
100
AcDbEntity
  8
0
100
AcDbLine
 10
27.31457473729999
 20
76.7687190795
 30
0.0
 11
27.31457473729999
 21
59.21832945689999
 31
0.0
  0
LINE
  5
11C
330
116
100
AcDbEntity
  8
0
100
AcDbLine
 10
27.31457473729999
 20
39.76871907949999
 30
0.0
 11
27.31457473729999
 21
57.31910870220001
 31
0.0
  0
SOLID
  5
11D
330
116
100
AcDbEntity
  8
0
100
AcDbTrace
 10
27.31457473729999
 20
76.7687190795
 30
0.0
 11
27.00207473729999
 21
74.8937190795
 31
0.0
 12
27.62707473729999
 22
74.8937190795
 32
0.0
 13
27.62707473729999
 23
74.8937190795
 33
0.0
  0
SOLID
  5
11E
330
116
100
AcDbEntity
  8
0
100
AcDbTrace
 10
27.31457473729999
 20
39.76871907949999
 30
0.0
 11
27.62707473729999
 21
41.64371907949999
 31
0.0
 12
27.00207473729999
 22
41.64371907949999
 32
0.0
 13
27.00207473729999
 23
41.64371907949999
 33
0.0
  0
POINT
  5
11F
330
116
100
AcDbEntity
  8
0
100
AcDbPoint
 10
42.0748432415
 20
76.7687190795
 30
0.0
  0
POINT
  5
120
330
116
100
AcDbEntity
  8
0
100
AcDbPoint
 10
50.07484324149999
 20
39.76871907949999
 30
0.0
  0
ENDBLK
  5
121
330
116
100
AcDbEntity
  8
0
 62
     1
100
AcDbBlockEnd
  0
BLOCK
  5
124
330
123
100
AcDbEntity
  8
0
 62
     1
100
AcDbBlockBegin
  2
*D8
 70
     1
 10
0.0
 20
0.0
 30
0.0
  3
*D8
  1

  0
MTEXT
  5
125
330
123
100
AcDbEntity
  8
0
 62
     7
100
AcDbMText
 10
56.1507669619
 20
21.6091803235
 30
0.0
 40
1.0
 41
0.0
 71
     7
 72
     1
  1
%%c
  7
SLDTEXTSTYLE0
 73
     1
 44
1.0
  0
MTEXT
  5
126
330
123
100
AcDbEntity
  8
0
 62
     7
100
AcDbMText
 10
57.85859337699999
 20
21.6091803235
 30
0.0
 40
1.0
 41
0.0
 71
     7
 72
     1
  1
5/16"
  7
SLDTEXTSTYLE0
 73
     1
 44
1.0
  0
MTEXT
  5
127
330
123
100
AcDbEntity
  8
0
 62
     7
100
AcDbMText
 10
61.05994998069999
 20
21.6091803235
 30
0.0
 40
1.0
 41
0.0
 71
     7
 72
     1
  1
 DRILL THRU
  7
SLDTEXTSTYLE0
 73
     1
 44
1.0
  0
MTEXT
  5
128
330
123
100
AcDbEntity
  8
0
 62
     7
100
AcDbMText
 10
59.6613254524
 20
19.7099595687
 30
0.0
 40
1.0
 41
0.0
 71
     7
 72
     1
  1
6 PLACES
  7
SLDTEXTSTYLE0
 73
     1
 44
1.0
  0
MTEXT
  5
129
330
123
100
AcDbEntity
  8
0
 62
     7
100
AcDbMText
 10
60.2616820562
 20
15.9115180593
 30
0.0
 40
1.0
 41
0.0
 71
     7
 72
     1
  1
DEBURR
  7
SLDTEXTSTYLE0
 73
     1
 44
1.0
  0
LINE
  5
12A
330
123
100
AcDbEntity
  8
0
 62
     7
100
AcDbLine
 10
77.0365373668
 20
39.61697946719999
 30
0.0
 11
71.8848914902
 21
19.2099595687
 31
0.0
  0
LINE
  5
12B
330
123
100
AcDbEntity
  8
0
 62
     7
100
AcDbLine
 10
71.8848914902
 20
19.2099595687
 30
0.0
 11
69.3848914902
 21
19.2099595687
 31
0.0
  0
SOLID
  5
12C
330
123
100
AcDbEntity
  8
0
 62
     7
100
AcDbTrace
 10
77.0365373668
 20
39.61697946719999
 30
0.0
 11
76.274606734
 21
37.8755022319
 31
0.0
 12
76.8805956013
 22
37.72252349889999
 32
0.0
 13
76.8805956013
 23
37.72252349889999
 33
0.0
  0
POINT
  5
12E
330
123
100
AcDbEntity
  8
0
 62
     7
100
AcDbPoint
 10
77.0365373668
 20
39.61697946719999
 30
0.0
  0
POINT
  5
12F
330
123
100
AcDbEntity
  8
0
 62
     7
100
AcDbPoint
 10
77.11314911630001
 20
39.9204586919
 30
0.0
  0
ENDBLK
  5
130
330
123
100
AcDbEntity
  8
0
100
AcDbBlockEnd
  0
BLOCK
  5
133
330
132
100
AcDbEntity
  8
0
 62
     1
100
AcDbBlockBegin
  2
*D9
 70
     1
 10
0.0
 20
0.0
 30
0.0
  3
*D9
  1

  0
MTEXT
  5
134
330
132
100
AcDbEntity
  8
0
100
AcDbMText
 10
34.4108242741
 20
53.3191087022
 30
0.0
 40
1.0
 41
0.0
 71
     7
 72
     1
  1
28"
  7
SLDTEXTSTYLE0
 73
     1
 44
1.0
  0
LINE
  5
135
330
132
100
AcDbEntity
  8
0
100
AcDbLine
 10
49.67484324149999
 20
67.7687190795
 30
0.0
 11
34.2111459722
 21
67.7687190795
 31
0.0
  0
LINE
  5
136
330
132
100
AcDbEntity
  8
0
100
AcDbLine
 10
49.67484324149999
 20
39.76871907949999
 30
0.0
 11
34.2111459722
 21
39.76871907949999
 31
0.0
  0
LINE
  5
137
330
132
100
AcDbEntity
  8
0
100
AcDbLine
 10
35.41114597219999
 20
67.7687190795
 30
0.0
 11
35.41114597219999
 21
54.7183294569
 31
0.0
  0
LINE
  5
138
330
132
100
AcDbEntity
  8
0
100
AcDbLine
 10
35.41114597219999
 20
39.76871907949999
 30
0.0
 11
35.41114597219999
 21
52.8191087022
 31
0.0
  0
ARC
  5
139
330
132
100
AcDbEntity
  8
0
100
AcDbCircle
 10
35.68504502879999
 20
53.7687190795
 30
0.0
 40
2.1233933559
100
AcDbArc
 50
153.4349488229
 51
206.5650511771
  0
ARC
  5
13A
330
132
100
AcDbEntity
  8
0
100
AcDbCircle
 10
35.1372469156
 20
53.7687190795
 30
0.0
 40
2.1233933559
100
AcDbArc
 50
333.4349488229
 51
26.5650511771
  0
SOLID
  5
13B
330
132
100
AcDbEntity
  8
0
100
AcDbTrace
 10
35.41114597219999
 20
67.7687190795
 30
0.0
 11
35.09864597219999
 21
65.8937190795
 31
0.0
 12
35.72364597219999
 22
65.8937190795
 32
0.0
 13
35.72364597219999
 23
65.8937190795
 33
0.0
  0
SOLID
  5
13C
330
132
100
AcDbEntity
  8
0
100
AcDbTrace
 10
35.41114597219999
 20
39.76871907949999
 30
0.0
 11
35.72364597219999
 21
41.64371907949999
 31
0.0
 12
35.09864597219999
 22
41.64371907949999
 32
0.0
 13
35.09864597219999
 23
41.64371907949999
 33
0.0
  0
POINT
  5
13D
330
132
100
AcDbEntity
  8
0
100
AcDbPoint
 10
50.07484324149999
 20
67.7687190795
 30
0.0
  0
POINT
  5
13E
330
132
100
AcDbEntity
  8
0
100
AcDbPoint
 10
50.07484324149999
 20
39.76871907949999
 30
0.0
  0
ENDBLK
  5
13F
330
132
100
AcDbEntity
  8
0
 62
     1
100
AcDbBlockEnd
  0
BLOCK
  5
142
330
141
100
AcDbEntity
  8
0
 62
     1
100
AcDbBlockBegin
  2
*D10
 70
     1
 10
0.0
 20
0.0
 30
0.0
  3
*D10
  1

  0
MTEXT
  5
143
330
141
100
AcDbEntity
  8
0
100
AcDbMText
 10
34.6645082194
 20
34.8191087022
 30
0.0
 40
1.0
 41
0.0
 71
     7
 72
     1
  1
9"
  7
SLDTEXTSTYLE0
 73
     1
 44
1.0
  0
LINE
  5
144
330
141
100
AcDbEntity
  8
0
100
AcDbLine
 10
49.67484324149999
 20
39.76871907949999
 30
0.0
 11
34.1147582194
 21
39.76871907949999
 31
0.0
  0
LINE
  5
145
330
141
100
AcDbEntity
  8
0
100
AcDbLine
 10
41.6748432415
 20
30.7687190795
 30
0.0
 11
34.1147582194
 21
30.7687190795
 31
0.0
  0
LINE
  5
146
330
141
100
AcDbEntity
  8
0
100
AcDbLine
 10
35.31475821939999
 20
39.76871907949999
 30
0.0
 11
35.31475821939999
 21
36.2183294569
 31
0.0
  0
LINE
  5
147
330
141
100
AcDbEntity
  8
0
100
AcDbLine
 10
35.31475821939999
 20
30.7687190795
 30
0.0
 11
35.31475821939999
 21
34.31910870219999
 31
0.0
  0
ARC
  5
148
330
141
100
AcDbEntity
  8
0
100
AcDbCircle
 10
35.9387289741
 20
35.26871907949999
 30
0.0
 40
2.1233933559
100
AcDbArc
 50
153.4349488229
 51
206.5650511771
  0
ARC
  5
149
330
141
100
AcDbEntity
  8
0
100
AcDbCircle
 10
34.6907874647
 20
35.26871907949999
 30
0.0
 40
2.1233933559
100
AcDbArc
 50
333.4349488229
 51
26.5650511771
  0
SOLID
  5
14A
330
141
100
AcDbEntity
  8
0
100
AcDbTrace
 10
35.31475821939999
 20
39.76871907949999
 30
0.0
 11
35.00225821939999
 21
37.89371907949999
 31
0.0
 12
35.62725821939999
 22
37.89371907949999
 32
0.0
 13
35.62725821939999
 23
37.89371907949999
 33
0.0
  0
SOLID
  5
14B
330
141
100
AcDbEntity
  8
0
100
AcDbTrace
 10
35.31475821939999
 20
30.7687190795
 30
0.0
 11
35.62725821939999
 21
32.64371907949999
 31
0.0
 12
35.00225821939999
 22
32.64371907949999
 32
0.0
 13
35.00225821939999
 23
32.64371907949999
 33
0.0
  0
POINT
  5
14C
330
141
100
AcDbEntity
  8
0
100
AcDbPoint
 10
50.07484324149999
 20
39.76871907949999
 30
0.0
  0
POINT
  5
14D
330
141
100
AcDbEntity
  8
0
100
AcDbPoint
 10
42.0748432415
 20
30.7687190795
 30
0.0
  0
ENDBLK
  5
14E
330
141
100
AcDbEntity
  8
0
 62
     1
100
AcDbBlockEnd
  0
BLOCK
  5
151
330
150
100
AcDbEntity
  8
0
 62
     1
100
AcDbBlockBegin
  2
*D11
 70
     1
 10
0.0
 20
0.0
 30
0.0
  3
*D11
  1

  0
MTEXT
  5
152
330
150
100
AcDbEntity
  8
0
100
AcDbMText
 10
62.57452154340001
 20
80.9975629364
 30
0.0
 40
1.0
 41
0.0
 71
     7
 72
     1
  1
27"
  7
SLDTEXTSTYLE0
 73
     1
 44
1.0
  0
LINE
  5
153
330
150
100
AcDbEntity
  8
0
100
AcDbLine
 10
50.07484324149999
 20
68.16871907949999
 30
0.0
 11
50.07484324149999
 21
82.64717331369999
 31
0.0
  0
LINE
  5
154
330
150
100
AcDbEntity
  8
0
100
AcDbLine
 10
77.07484324149999
 20
68.16871907949999
 30
0.0
 11
77.07484324149999
 21
82.64717331369999
 31
0.0
  0
LINE
  5
155
330
150
100
AcDbEntity
  8
0
100
AcDbLine
 10
50.07484324149999
 20
81.44717331370001
 30
0.0
 11
61.32452154340001
 21
81.44717331370001
 31
0.0
  0
LINE
  5
156
330
150
100
AcDbEntity
  8
0
100
AcDbLine
 10
77.07484324149999
 20
81.44717331370001
 30
0.0
 11
65.8251649396
 21
81.44717331370001
 31
0.0
  0
ARC
  5
157
330
150
100
AcDbEntity
  8
0
100
AcDbCircle
 10
63.84874229810001
 20
81.44717331370001
 30
0.0
 40
2.1233933559
100
AcDbArc
 50
153.4349488229
 51
206.5650511771
  0
ARC
  5
158
330
150
100
AcDbEntity
  8
0
100
AcDbCircle
 10
63.30094418489999
 20
81.44717331370001
 30
0.0
 40
2.1233933559
100
AcDbArc
 50
333.4349488229
 51
26.5650511771
  0
SOLID
  5
159
330
150
100
AcDbEntity
  8
0
100
AcDbTrace
 10
50.07484324149999
 20
81.44717331370001
 30
0.0
 11
51.94984324149999
 21
81.13467331370001
 31
0.0
 12
51.94984324149999
 22
81.75967331370001
 32
0.0
 13
51.94984324149999
 23
81.75967331370001
 33
0.0
  0
SOLID
  5
15A
330
150
100
AcDbEntity
  8
0
100
AcDbTrace
 10
77.07484324149999
 20
81.44717331370001
 30
0.0
 11
75.19984324149999
 21
81.75967331370001
 31
0.0
 12
75.19984324149999
 22
81.13467331370001
 32
0.0
 13
75.19984324149999
 23
81.13467331370001
 33
0.0
  0
POINT
  5
15B
330
150
100
AcDbEntity
  8
0
100
AcDbPoint
 10
50.07484324149999
 20
67.7687190795
 30
0.0
  0
POINT
  5
15C
330
150
100
AcDbEntity
  8
0
100
AcDbPoint
 10
77.07484324149999
 20
67.7687190795
 30
0.0
  0
ENDBLK
  5
15D
330
150
100
AcDbEntity
  8
0
 62
     1
100
AcDbBlockEnd
  0
BLOCK
  5
160
330
15F
100
AcDbEntity
  8
0
 62
     1
100
AcDbBlockBegin
  2
*D12
 70
     1
 10
0.0
 20
0.0
 30
0.0
  3
*D12
  1

  0
MTEXT
  5
161
330
15F
100
AcDbEntity
  8
0
100
AcDbMText
 10
89.5745215434
 20
80.90117518360001
 30
0.0
 40
1.0
 41
0.0
 71
     7
 72
     1
  1
27"
  7
SLDTEXTSTYLE0
 73
     1
 44
1.0
  0
LINE
  5
162
330
15F
100
AcDbEntity
  8
0
100
AcDbLine
 10
77.07484324149999
 20
68.16871907949999
 30
0.0
 11
77.07484324149999
 21
82.550785561
 31
0.0
  0
LINE
  5
163
330
15F
100
AcDbEntity
  8
0
100
AcDbLine
 10
104.0748432415
 20
68.16871907949999
 30
0.0
 11
104.0748432415
 21
82.550785561
 31
0.0
  0
LINE
  5
164
330
15F
100
AcDbEntity
  8
0
100
AcDbLine
 10
77.07484324149999
 20
81.35078556100001
 30
0.0
 11
88.3245215434
 21
81.35078556100001
 31
0.0
  0
LINE
  5
165
330
15F
100
AcDbEntity
  8
0
100
AcDbLine
 10
104.0748432415
 20
81.35078556100001
 30
0.0
 11
92.82516493959999
 21
81.35078556100001
 31
0.0
  0
ARC
  5
166
330
15F
100
AcDbEntity
  8
0
100
AcDbCircle
 10
90.84874229809999
 20
81.35078556100001
 30
0.0
 40
2.1233933559
100
AcDbArc
 50
153.4349488229
 51
206.5650511771
  0
ARC
  5
167
330
15F
100
AcDbEntity
  8
0
100
AcDbCircle
 10
90.3009441849
 20
81.35078556100001
 30
0.0
 40
2.1233933559
100
AcDbArc
 50
333.4349488229
 51
26.5650511771
  0
SOLID
  5
168
330
15F
100
AcDbEntity
  8
0
100
AcDbTrace
 10
77.07484324149999
 20
81.35078556100001
 30
0.0
 11
78.94984324149999
 21
81.03828556100001
 31
0.0
 12
78.94984324149999
 22
81.66328556100001
 32
0.0
 13
78.94984324149999
 23
81.66328556100001
 33
0.0
  0
SOLID
  5
169
330
15F
100
AcDbEntity
  8
0
100
AcDbTrace
 10
104.0748432415
 20
81.35078556100001
 30
0.0
 11
102.1998432414999
 21
81.66328556100001
 31
0.0
 12
102.1998432414999
 22
81.03828556100001
 32
0.0
 13
102.1998432414999
 23
81.03828556100001
 33
0.0
  0
POINT
  5
16A
330
15F
100
AcDbEntity
  8
0
100
AcDbPoint
 10
77.07484324149999
 20
67.7687190795
 30
0.0
  0
POINT
  5
16B
330
15F
100
AcDbEntity
  8
0
100
AcDbPoint
 10
104.0748432415
 20
67.7687190795
 30
0.0
  0
ENDBLK
  5
16C
330
15F
100
AcDbEntity
  8
0
 62
     1
100
AcDbBlockEnd
  0
BLOCK
  5
20D
330
20C
100
AcDbEntity
  8
0
 62
     1
100
AcDbBlockBegin
  2
*D13
 70
     1
 10
0.0
 20
0.0
 30
0.0
  3
*D13
  1

  0
MTEXT
  5
20E
330
20C
100
AcDbEntity
  8
0
100
AcDbMText
 10
127.616146581
 20
78.25672042009999
 30
0.0
 40
1.0
 41
0.0
 71
     7
 72
     1
  1
1/4"
  7
SLDTEXTSTYLE0
 73
     1
 44
1.0
  0
LINE
  5
20F
330
20C
100
AcDbEntity
  8
0
100
AcDbLine
 10
119.6040292177
 20
77.16871907949999
 30
0.0
 11
119.6040292177
 21
79.90633079750001
 31
0.0
  0
LINE
  5
210
330
20C
100
AcDbEntity
  8
0
100
AcDbLine
 10
119.8540292177
 20
77.16871907949999
 30
0.0
 11
119.8540292177
 21
79.90633079750001
 31
0.0
  0
LINE
  5
211
330
20C
100
AcDbEntity
  8
0
100
AcDbLine
 10
119.6040292177
 20
78.7063307975
 30
0.0
 11
114.6040292177
 21
78.7063307975
 31
0.0
  0
LINE
  5
212
330
20C
100
AcDbEntity
  8
0
100
AcDbLine
 10
119.8540292177
 20
78.7063307975
 30
0.0
 11
126.991146581
 21
78.7063307975
 31
0.0
  0
SOLID
  5
213
330
20C
100
AcDbEntity
  8
0
100
AcDbTrace
 10
119.6040292177
 20
78.7063307975
 30
0.0
 11
117.7290292177
 21
79.0188307975
 31
0.0
 12
117.7290292177
 22
78.3938307975
 32
0.0
 13
117.7290292177
 23
78.3938307975
 33
0.0
  0
SOLID
  5
214
330
20C
100
AcDbEntity
  8
0
100
AcDbTrace
 10
119.8540292177
 20
78.7063307975
 30
0.0
 11
121.7290292177
 21
78.3938307975
 31
0.0
 12
121.7290292177
 22
79.0188307975
 32
0.0
 13
121.7290292177
 23
79.0188307975
 33
0.0
  0
POINT
  5
215
330
20C
100
AcDbEntity
  8
0
100
AcDbPoint
 10
119.6040292177
 20
76.7687190795
 30
0.0
  0
POINT
  5
216
330
20C
100
AcDbEntity
  8
0
100
AcDbPoint
 10
119.8540292177
 20
76.7687190795
 30
0.0
  0
ENDBLK
  5
217
330
20C
100
AcDbEntity
  8
0
 62
     1
100
AcDbBlockEnd
  0
ENDSEC
  0
SECTION
  2
ENTITIES
  0
LINE
  5
2A
330
A
100
AcDbEntity
  8
0
  6
Continuous
 62
     7
370
     0
100
AcDbLine
 10
33.75
 20
106.25
 30
0.0
 11
15.0
 21
106.25
 31
0.0
  0
LINE
  5
2B
330
A
100
AcDbEntity
  8
0
  6
Continuous
 62
     7
370
     0
100
AcDbLine
 10
52.5
 20
106.25
 30
0.0
 11
33.75
 21
106.25
 31
0.0
  0
LINE
  5
2C
330
A
100
AcDbEntity
  8
0
  6
Continuous
 62
     7
370
     0
100
AcDbLine
 10
165.0
 20
3.75
 30
0.0
 11
146.25
 21
3.75
 31
0.0
  0
LINE
  5
2D
330
A
100
AcDbEntity
  8
0
  6
Continuous
 62
     7
370
     0
100
AcDbLine
 10
165.0
 20
3.75
 30
0.0
 11
165.0
 21
29.375
 31
0.0
  0
LINE
  5
2E
330
A
100
AcDbEntity
  8
0
  6
Continuous
 62
     7
370
     0
100
AcDbLine
 10
165.0
 20
80.625
 30
0.0
 11
166.25
 21
80.625
 31
0.0
  0
LINE
  5
2F
330
A
100
AcDbEntity
  8
0
  6
Continuous
 62
     7
370
     0
100
AcDbLine
 10
165.0
 20
55.0
 30
0.0
 11
166.25
 21
55.0
 31
0.0
  0
LINE
  5
30
330
A
100
AcDbEntity
  8
0
  6
Continuous
 62
     7
370
     0
100
AcDbLine
 10
71.25
 20
106.25
 30
0.0
 11
52.5
 21
106.25
 31
0.0
  0
LINE
  5
31
330
A
100
AcDbEntity
  8
0
  6
Continuous
 62
     7
370
     0
100
AcDbLine
 10
90.0
 20
106.25
 30
0.0
 11
71.25
 21
106.25
 31
0.0
  0
LINE
  5
32
330
A
100
AcDbEntity
  8
0
  6
Continuous
 62
     7
370
     0
100
AcDbLine
 10
108.75
 20
106.25
 30
0.0
 11
90.0
 21
106.25
 31
0.0
  0
LINE
  5
33
330
A
100
AcDbEntity
  8
0
  6
Continuous
 62
     7
370
     0
100
AcDbLine
 10
127.5
 20
106.25
 30
0.0
 11
108.75
 21
106.25
 31
0.0
  0
LINE
  5
34
330
A
100
AcDbEntity
  8
0
  6
Continuous
 62
     7
370
     0
100
AcDbLine
 10
146.25
 20
106.25
 30
0.0
 11
127.5
 21
106.25
 31
0.0
  0
LINE
  5
35
330
A
100
AcDbEntity
  8
0
  6
Continuous
 62
     7
370
     0
100
AcDbLine
 10
165.0
 20
29.375
 30
0.0
 11
166.25
 21
29.375
 31
0.0
  0
LINE
  5
36
330
A
100
AcDbEntity
  8
0
  6
Continuous
 62
     7
370
     0
100
AcDbLine
 10
165.0
 20
106.25
 30
0.0
 11
146.25
 21
106.25
 31
0.0
  0
LINE
  5
37
330
A
100
AcDbEntity
  8
0
  6
Continuous
 62
     7
370
     0
100
AcDbLine
 10
146.25
 20
106.25
 30
0.0
 11
146.25
 21
107.4999999999999
 31
0.0
  0
LINE
  5
38
330
A
100
AcDbEntity
  8
0
  6
Continuous
 62
     7
370
     0
100
AcDbLine
 10
127.5
 20
106.25
 30
0.0
 11
127.5
 21
107.4999999999999
 31
0.0
  0
LINE
  5
39
330
A
100
AcDbEntity
  8
0
  6
Continuous
 62
     7
370
     0
100
AcDbLine
 10
108.75
 20
106.25
 30
0.0
 11
108.75
 21
107.4999999999999
 31
0.0
  0
LINE
  5
3A
330
A
100
AcDbEntity
  8
0
  6
Continuous
 62
     7
370
     0
100
AcDbLine
 10
90.0
 20
106.25
 30
0.0
 11
90.0
 21
107.4999999999999
 31
0.0
  0
LINE
  5
3B
330
A
100
AcDbEntity
  8
0
  6
Continuous
 62
     7
370
     0
100
AcDbLine
 10
71.25
 20
106.25
 30
0.0
 11
71.25
 21
107.4999999999999
 31
0.0
  0
LINE
  5
3C
330
A
100
AcDbEntity
  8
0
  6
Continuous
 62
     7
370
     0
100
AcDbLine
 10
52.5
 20
106.25
 30
0.0
 11
52.5
 21
107.4999999999999
 31
0.0
  0
LINE
  5
3D
330
A
100
AcDbEntity
  8
0
  6
Continuous
 62
     7
370
     0
100
AcDbLine
 10
33.75
 20
106.25
 30
0.0
 11
33.75
 21
107.4999999999999
 31
0.0
  0
LINE
  5
3E
330
A
100
AcDbEntity
  8
0
  6
Continuous
 62
     7
370
     0
100
AcDbLine
 10
87.5
 20
16.89999999999999
 30
0.0
 11
87.5
 21
3.759999999999999
 31
0.0
  0
LINE
  5
3F
330
A
100
AcDbEntity
  8
0
  6
Continuous
 62
     7
370
     0
100
AcDbLine
 10
110.0
 20
23.75
 30
0.0
 11
165.0
 21
23.75
 31
0.0
  0
LINE
  5
40
330
A
100
AcDbEntity
  8
0
  6
Continuous
 62
     7
370
     0
100
AcDbLine
 10
110.0
 20
23.75
 30
0.0
 11
110.0
 21
3.75
 31
0.0
  0
LINE
  5
41
330
A
100
AcDbEntity
  8
0
  6
Continuous
 62
     7
370
     0
100
AcDbLine
 10
135.0
 20
23.75
 30
0.0
 11
135.0
 21
3.75
 31
0.0
  0
LINE
  5
42
330
A
100
AcDbEntity
  8
0
  6
Continuous
 62
     7
370
     0
100
AcDbLine
 10
135.0
 20
5.629999999999999
 30
0.0
 11
165.0
 21
5.629999999999999
 31
0.0
  0
LINE
  5
43
330
A
100
AcDbEntity
  8
0
  6
Continuous
 62
     7
370
     0
100
AcDbLine
 10
135.0
 20
9.38
 30
0.0
 11
165.0
 21
9.38
 31
0.0
  0
LINE
  5
44
330
A
100
AcDbEntity
  8
0
  6
Continuous
 62
     7
370
     0
100
AcDbLine
 10
135.0
 20
16.87999999999999
 30
0.0
 11
165.0
 21
16.87999999999999
 31
0.0
  0
LINE
  5
45
330
A
100
AcDbEntity
  8
0
  6
Continuous
 62
     7
370
     0
100
AcDbLine
 10
138.7499999999999
 20
9.38
 30
0.0
 11
138.7499999999999
 21
3.75
 31
0.0
  0
LINE
  5
46
330
A
100
AcDbEntity
  8
0
  6
Continuous
 62
     7
370
     0
100
AcDbLine
 10
87.5
 20
7.509999999999999
 30
0.0
 11
135.0
 21
7.509999999999999
 31
0.0
  0
LINE
  5
47
330
A
100
AcDbEntity
  8
0
  6
Continuous
 62
     7
370
     0
100
AcDbLine
 10
161.25
 20
9.38
 30
0.0
 11
161.25
 21
3.75
 31
0.0
  0
LINE
  5
48
330
A
100
AcDbEntity
  8
0
  6
Continuous
 62
     7
370
     0
100
AcDbLine
 10
135.0
 20
20.0
 30
0.0
 11
110.0
 21
20.0
 31
0.0
  0
LINE
  5
49
330
A
100
AcDbEntity
  8
0
  6
Continuous
 62
     7
370
     0
100
AcDbLine
 10
110.0
 20
11.87
 30
0.0
 11
135.0
 21
11.87
 31
0.0
  0
LINE
  5
4A
330
A
100
AcDbEntity
  8
0
  6
Continuous
 62
     7
370
     0
100
AcDbLine
 10
110.0
 20
5.629999999999999
 30
0.0
 11
135.0
 21
5.629999999999999
 31
0.0
  0
LINE
  5
4B
330
A
100
AcDbEntity
  8
0
  6
Continuous
 62
     7
370
     0
100
AcDbLine
 10
87.5
 20
13.14
 30
0.0
 11
110.0
 21
13.14
 31
0.0
  0
LINE
  5
4C
330
A
100
AcDbEntity
  8
0
  6
Continuous
 62
     7
370
     0
100
AcDbLine
 10
165.0
 20
29.375
 30
0.0
 11
165.0
 21
55.0
 31
0.0
  0
LINE
  5
4D
330
A
100
AcDbEntity
  8
0
  6
Continuous
 62
     7
370
     0
100
AcDbLine
 10
165.0
 20
55.0
 30
0.0
 11
165.0
 21
80.625
 31
0.0
  0
LINE
  5
4E
330
A
100
AcDbEntity
  8
0
  6
Continuous
 62
     7
370
     0
100
AcDbLine
 10
165.0
 20
80.625
 30
0.0
 11
165.0
 21
106.25
 31
0.0
  0
LINE
  5
4F
330
A
100
AcDbEntity
  8
0
  6
Continuous
 62
     7
370
     0
100
AcDbLine
 10
146.25
 20
3.75
 30
0.0
 11
127.5
 21
3.75
 31
0.0
  0
LINE
  5
50
330
A
100
AcDbEntity
  8
0
  6
Continuous
 62
     7
370
     0
100
AcDbLine
 10
127.5
 20
3.75
 30
0.0
 11
108.75
 21
3.75
 31
0.0
  0
LINE
  5
51
330
A
100
AcDbEntity
  8
0
  6
Continuous
 62
     7
370
     0
100
AcDbLine
 10
87.5
 20
15.01999999999999
 30
0.0
 11
110.0
 21
15.01999999999999
 31
0.0
  0
LINE
  5
52
330
A
100
AcDbEntity
  8
0
  6
Continuous
 62
     7
370
     0
100
AcDbLine
 10
87.5
 20
9.375
 30
0.0
 11
50.0
 21
9.375
 31
0.0
  0
LINE
  5
53
330
A
100
AcDbEntity
  8
0
  6
Continuous
 62
     7
370
     0
100
AcDbLine
 10
110.0
 20
16.89999999999999
 30
0.0
 11
87.5
 21
16.89999999999999
 31
0.0
  0
LINE
  5
54
330
A
100
AcDbEntity
  8
0
  6
Continuous
 62
     7
370
     0
100
AcDbLine
 10
102.4999999999999
 20
16.89999999999999
 30
0.0
 11
102.4999999999999
 21
11.26
 31
0.0
  0
LINE
  5
55
330
A
100
AcDbEntity
  8
0
  6
Continuous
 62
     7
370
     0
100
AcDbLine
 10
110.0
 20
18.12
 30
0.0
 11
135.0
 21
18.12
 31
0.0
  0
LINE
  5
56
330
A
100
AcDbEntity
  8
0
  6
Continuous
 62
     7
370
     0
100
AcDbLine
 10
87.5
 20
11.26
 30
0.0
 11
110.0
 21
11.26
 31
0.0
  0
LINE
  5
57
330
A
100
AcDbEntity
  8
0
  6
Continuous
 62
     7
370
     0
100
AcDbLine
 10
122.5
 20
20.0
 30
0.0
 11
122.5
 21
11.87
 31
0.0
  0
LINE
  5
58
330
A
100
AcDbEntity
  8
0
  6
Continuous
 62
     7
370
     0
100
AcDbLine
 10
108.75
 20
3.75
 30
0.0
 11
90.0
 21
3.75
 31
0.0
  0
LINE
  5
59
330
A
100
AcDbEntity
  8
0
  6
Continuous
 62
     7
370
     0
100
AcDbLine
 10
90.0
 20
3.75
 30
0.0
 11
71.25
 21
3.75
 31
0.0
  0
LINE
  5
5A
330
A
100
AcDbEntity
  8
0
  6
Continuous
 62
     7
370
     0
100
AcDbLine
 10
71.25
 20
3.75
 30
0.0
 11
52.5
 21
3.75
 31
0.0
  0
LINE
  5
5B
330
A
100
AcDbEntity
  8
0
  6
Continuous
 62
     7
370
     0
100
AcDbLine
 10
52.5
 20
3.75
 30
0.0
 11
33.75
 21
3.75
 31
0.0
  0
LINE
  5
5C
330
A
100
AcDbEntity
  8
0
  6
Continuous
 62
     7
370
     0
100
AcDbLine
 10
128.75
 20
20.0
 30
0.0
 11
128.75
 21
11.87
 31
0.0
  0
LINE
  5
5D
330
A
100
AcDbEntity
  8
0
  6
Continuous
 62
     7
370
     0
100
AcDbLine
 10
33.75
 20
3.75
 30
0.0
 11
15.0
 21
3.75
 31
0.0
  0
LINE
  5
5E
330
A
100
AcDbEntity
  8
0
  6
Continuous
 62
     7
370
     0
100
AcDbLine
 10
7.5
 20
106.25
 30
0.0
 11
7.5
 21
3.75
 31
0.0
  0
LINE
  5
5F
330
A
100
AcDbEntity
  8
0
  6
Continuous
 62
     7
370
     0
100
AcDbLine
 10
15.0
 20
29.375
 30
0.0
 11
15.0
 21
55.0
 31
0.0
  0
LINE
  5
60
330
A
100
AcDbEntity
  8
0
  6
Continuous
 62
     7
370
     0
100
AcDbLine
 10
15.0
 20
55.0
 30
0.0
 11
15.0
 21
80.625
 31
0.0
  0
LINE
  5
61
330
A
100
AcDbEntity
  8
0
  6
Continuous
 62
     7
370
     0
100
AcDbLine
 10
15.0
 20
80.625
 30
0.0
 11
15.0
 21
106.25
 31
0.0
  0
LINE
  5
62
330
A
100
AcDbEntity
  8
0
  6
Continuous
 62
     7
370
     0
100
AcDbLine
 10
15.0
 20
80.625
 30
0.0
 11
13.75
 21
80.625
 31
0.0
  0
LINE
  5
63
330
A
100
AcDbEntity
  8
0
  6
Continuous
 62
     7
370
     0
100
AcDbLine
 10
146.25
 20
3.75
 30
0.0
 11
146.25
 21
2.5
 31
0.0
  0
LINE
  5
64
330
A
100
AcDbEntity
  8
0
  6
Continuous
 62
     7
370
     0
100
AcDbLine
 10
127.5
 20
3.75
 30
0.0
 11
127.5
 21
2.5
 31
0.0
  0
LINE
  5
65
330
A
100
AcDbEntity
  8
0
  6
Continuous
 62
     7
370
     0
100
AcDbLine
 10
108.75
 20
3.75
 30
0.0
 11
108.75
 21
2.5
 31
0.0
  0
LINE
  5
66
330
A
100
AcDbEntity
  8
0
  6
CENTERX2
 62
     7
370
     0
100
AcDbLine
 10
90.0
 20
3.75
 30
0.0
 11
90.0
 21
2.5
 31
0.0
  0
LINE
  5
67
330
A
100
AcDbEntity
  8
0
  6
Continuous
 62
     7
370
     0
100
AcDbLine
 10
71.25
 20
3.75
 30
0.0
 11
71.25
 21
2.5
 31
0.0
  0
LINE
  5
68
330
A
100
AcDbEntity
  8
0
  6
Continuous
 62
     7
370
     0
100
AcDbLine
 10
52.5
 20
3.75
 30
0.0
 11
52.5
 21
2.5
 31
0.0
  0
LINE
  5
69
330
A
100
AcDbEntity
  8
0
  6
Continuous
 62
     7
370
     0
100
AcDbLine
 10
33.75
 20
3.75
 30
0.0
 11
33.75
 21
2.5
 31
0.0
  0
LINE
  5
6A
330
A
100
AcDbEntity
  8
0
  6
Continuous
 62
     7
370
     0
100
AcDbLine
 10
15.0
 20
55.0
 30
0.0
 11
13.75
 21
55.0
 31
0.0
  0
LINE
  5
6B
330
A
100
AcDbEntity
  8
0
  6
Continuous
 62
     7
370
     0
100
AcDbLine
 10
15.0
 20
29.375
 30
0.0
 11
13.75
 21
29.375
 31
0.0
  0
LINE
  5
6C
330
A
100
AcDbEntity
  8
0
  6
Continuous
 62
     7
370
     0
100
AcDbLine
 10
15.0
 20
3.75
 30
0.0
 11
15.0
 21
29.375
 31
0.0
  0
LINE
  5
6D
330
A
100
AcDbEntity
  8
0
  6
Continuous
 62
     7
370
     0
100
AcDbLine
 10
50.0
 20
9.375
 30
0.0
 11
50.0
 21
3.75
 31
0.0
  0
LINE
  5
6E
330
A
100
AcDbEntity
  8
0
  6
Continuous
 62
     7
370
     0
100
AcDbLine
 10
165.0
 20
104.37
 30
0.0
 11
125.0
 21
104.37
 31
0.0
  0
LINE
  5
6F
330
A
100
AcDbEntity
  8
0
  6
Continuous
 62
     7
370
     0
100
AcDbLine
 10
165.0
 20
102.4899999999999
 30
0.0
 11
125.0
 21
102.4899999999999
 31
0.0
  0
LINE
  5
70
330
A
100
AcDbEntity
  8
0
  6
Continuous
 62
     7
370
     0
100
AcDbLine
 10
165.0
 20
100.6099999999999
 30
0.0
 11
125.0
 21
100.6099999999999
 31
0.0
  0
LINE
  5
71
330
A
100
AcDbEntity
  8
0
  6
Continuous
 62
     7
370
     0
100
AcDbLine
 10
125.0
 20
106.25
 30
0.0
 11
125.0
 21
100.6099999999999
 31
0.0
  0
LINE
  5
72
330
A
100
AcDbEntity
  8
0
  6
Continuous
 62
     7
370
     0
100
AcDbLine
 10
128.75
 20
104.37
 30
0.0
 11
128.75
 21
100.6099999999999
 31
0.0
  0
LINE
  5
73
330
A
100
AcDbEntity
  8
0
  6
Continuous
 62
     7
370
     0
100
AcDbLine
 10
157.5
 20
104.37
 30
0.0
 11
157.5
 21
100.6099999999999
 31
0.0
  0
LINE
  5
74
330
A
100
AcDbEntity
  8
0
  6
Continuous
 62
     7
370
     0
100
AcDbLine
 10
151.25
 20
104.37
 30
0.0
 11
151.25
 21
100.6099999999999
 31
0.0
  0
MTEXT
  5
76
330
A
100
AcDbEntity
  8
0
 62
     1
100
AcDbMText
 10
9.085176886799999
 20
1.8987794811
 30
0.0
 40
1.666666666699999
 41
0.0
 71
     2
 72
     1
  1
2 REQUIRED\PPER ASSEM
  7
SLDTEXTSTYLE0
 73
     1
 44
1.0
  0
MTEXT
  5
77
330
A
100
AcDbEntity
  8
0
 62
     7
100
AcDbMText
 10
167.1339507954
 20
90.8866279254
 30
0.0
 40
0.9375
 41
0.0
 71
     1
 72
     1
  1
D
  7
SLDTEXTSTYLE0
 73
     1
 44
1.0
  0
MTEXT
  5
78
330
A
100
AcDbEntity
  8
0
 62
     7
100
AcDbMText
 10
166.9510584969
 20
65.46211474749999
 30
0.0
 40
0.9375
 41
0.0
 71
     1
 72
     1
  1
C
  7
SLDTEXTSTYLE0
 73
     1
 44
1.0
  0
MTEXT
  5
79
330
A
100
AcDbEntity
  8
0
 62
     7
100
AcDbMText
 10
167.0612080015
 20
42.1881515966
 30
0.0
 40
0.9375
 41
0.0
 71
     1
 72
     1
  1
B
  7
SLDTEXTSTYLE0
 73
     1
 44
1.0
  0
MTEXT
  5
7A
330
A
100
AcDbEntity
  8
0
 62
     7
100
AcDbMText
 10
167.0555166009999
 20
17.1376820829
 30
0.0
 40
0.9375
 41
0.0
 71
     1
 72
     1
  1
A
  7
SLDTEXTSTYLE0
 73
     1
 44
1.0
  0
MTEXT
  5
7B
330
A
100
AcDbEntity
  8
0
 62
     7
100
AcDbMText
 10
9.6435259867
 20
16.9341436855
 30
0.0
 40
0.9375
 41
0.0
 71
     1
 72
     1
  1
A
  7
SLDTEXTSTYLE0
 73
     1
 44
1.0
  0
MTEXT
  5
7C
330
A
100
AcDbEntity
  8
0
 62
     7
100
AcDbMText
 10
9.611595064099999
 20
42.7779528063
 30
0.0
 40
0.9375
 41
0.0
 71
     1
 72
     1
  1
B
  7
SLDTEXTSTYLE0
 73
     1
 44
1.0
  0
MTEXT
  5
7D
330
A
100
AcDbEntity
  8
0
 62
     7
100
AcDbMText
 10
9.488279054299999
 20
68.7424000659
 30
0.0
 40
0.9375
 41
0.0
 71
     1
 72
     1
  1
C
  7
SLDTEXTSTYLE0
 73
     1
 44
1.0
  0
MTEXT
  5
7E
330
A
100
AcDbEntity
  8
0
 62
     7
100
AcDbMText
 10
9.455489621299999
 20
93.06468383569999
 30
0.0
 40
0.9375
 41
0.0
 71
     1
 72
     1
  1
D
  7
SLDTEXTSTYLE0
 73
     1
 44
1.0
  0
MTEXT
  5
7F
330
A
100
AcDbEntity
  8
0
 62
     7
100
AcDbMText
 10
161.8580581154
 20
5.1967855896
 30
0.0
 40
0.9
 41
0.0
 71
     1
 72
     1
  1
REV.
  7
SLDTEXTSTYLE0
 73
     1
 44
1.0
  0
MTEXT
  5
80
330
A
100
AcDbEntity
  8
0
 62
     7
100
AcDbMText
 10
123.4907701184
 20
17.5869097446
 30
0.0
 40
0.9
 41
0.0
 71
     1
 72
     1
  1
%%p\P%%p\P%%p\P%%p
  7
SLDTEXTSTYLE0
 73
     1
 44
1.0
  0
MTEXT
  5
81
330
A
100
AcDbEntity
  8
0
 62
     7
100
AcDbMText
 10
88.11941524839999
 20
10.9748459997
 30
0.0
 40
0.9
 41
0.0
 71
     1
 72
     1
  1
MATERIAL
  7
SLDTEXTSTYLE0
 73
     1
 44
1.0
  0
MTEXT
  5
82
330
A
100
AcDbEntity
  8
0
 62
     7
100
AcDbMText
 10
88.09653406459998
 20
7.3167380687
 30
0.0
 40
0.9
 41
0.0
 71
     1
 72
     1
  1
FINISH
  7
SLDTEXTSTYLE0
 73
     1
 44
1.0
  0
MTEXT
  5
83
330
A
100
AcDbEntity
  8
0
 62
     7
100
AcDbMText
 10
158.0043300332999
 20
3.2176838097
 30
0.0
 40
0.9375
 41
0.0
 71
     1
 72
     1
  1
1
  7
SLDTEXTSTYLE0
 73
     1
 44
1.0
  0
MTEXT
  5
84
330
A
100
AcDbEntity
  8
0
 62
     7
100
AcDbMText
 10
135.9438625402
 20
3.315107948
 30
0.0
 40
0.9375
 41
0.0
 71
     1
 72
     1
  1
2
  7
SLDTEXTSTYLE0
 73
     1
 44
1.0
  0
MTEXT
  5
85
330
A
100
AcDbEntity
  8
0
 62
     7
100
AcDbMText
 10
115.3627168092
 20
3.347582660799999
 30
0.0
 40
0.9375
 41
0.0
 71
     1
 72
     1
  1
3
  7
SLDTEXTSTYLE0
 73
     1
 44
1.0
  0
MTEXT
  5
86
330
A
100
AcDbEntity
  8
0
 62
     7
100
AcDbMText
 10
96.8167758074
 20
3.367448773399999
 30
0.0
 40
0.9375
 41
0.0
 71
     1
 72
     1
  1
4
  7
SLDTEXTSTYLE0
 73
     1
 44
1.0
  0
MTEXT
  5
87
330
A
100
AcDbEntity
  8
0
 62
     7
100
AcDbMText
 10
77.31264668520001
 20
3.3999234862
 30
0.0
 40
0.9375
 41
0.0
 71
     1
 72
     1
  1
5
  7
SLDTEXTSTYLE0
 73
     1
 44
1.0
  0
MTEXT
  5
88
330
A
100
AcDbEntity
  8
0
 62
     7
100
AcDbMText
 10
59.102154986
 20
3.237549922399999
 30
0.0
 40
0.9375
 41
0.0
 71
     1
 72
     1
  1
6
  7
SLDTEXTSTYLE0
 73
     1
 44
1.0
  0
MTEXT
  5
89
330
A
100
AcDbEntity
  8
0
 62
     7
100
AcDbMText
 10
39.30230878639999
 20
3.3800573735
 30
0.0
 40
0.9375
 41
0.0
 71
     1
 72
     1
  1
7
  7
SLDTEXTSTYLE0
 73
     1
 44
1.0
  0
MTEXT
  5
8A
330
A
100
AcDbEntity
  8
0
 62
     7
100
AcDbMText
 10
21.4815136405
 20
3.3999234862
 30
0.0
 40
0.9375
 41
0.0
 71
     1
 72
     1
  1
8
  7
SLDTEXTSTYLE0
 73
     1
 44
1.0
  0
MTEXT
  5
8B
330
A
100
AcDbEntity
  8
0
 62
     7
100
AcDbMText
 10
21.1727895307
 20
108.0868962132
 30
0.0
 40
0.9375
 41
0.0
 71
     1
 72
     1
  1
8
  7
SLDTEXTSTYLE0
 73
     1
 44
1.0
  0
MTEXT
  5
8C
330
A
100
AcDbEntity
  8
0
 62
     7
100
AcDbMText
 10
40.7045699776
 20
107.8640234374999
 30
0.0
 40
0.9375
 41
0.0
 71
     1
 72
     1
  1
7
  7
SLDTEXTSTYLE0
 73
     1
 44
1.0
  0
MTEXT
  5
8D
330
A
100
AcDbEntity
  8
0
 62
     7
100
AcDbMText
 10
59.51714739709999
 20
107.7986870659999
 30
0.0
 40
0.9375
 41
0.0
 71
     1
 72
     1
  1
6
  7
SLDTEXTSTYLE0
 73
     1
 44
1.0
  0
MTEXT
  5
8E
330
A
100
AcDbEntity
  8
0
 62
     7
100
AcDbMText
 10
79.06194180909999
 20
107.6801089951999
 30
0.0
 40
0.9375
 41
0.0
 71
     1
 72
     1
  1
5
  7
SLDTEXTSTYLE0
 73
     1
 44
1.0
  0
MTEXT
  5
8F
330
A
100
AcDbEntity
  8
0
 62
     7
100
AcDbMText
 10
98.48815815020001
 20
107.9683181423999
 30
0.0
 40
0.9375
 41
0.0
 71
     1
 72
     1
  1
4
  7
SLDTEXTSTYLE0
 73
     1
 44
1.0
  0
MTEXT
  5
90
330
A
100
AcDbEntity
  8
0
 62
     7
100
AcDbMText
 10
118.0130224079
 20
107.7614664387999
 30
0.0
 40
0.9375
 41
0.0
 71
     1
 72
     1
  1
3
  7
SLDTEXTSTYLE0
 73
     1
 44
1.0
  0
MTEXT
  5
91
330
A
100
AcDbEntity
  8
0
 62
     7
100
AcDbMText
 10
136.7104798512
 20
107.8835026042
 30
0.0
 40
0.9375
 41
0.0
 71
     1
 72
     1
  1
2
  7
SLDTEXTSTYLE0
 73
     1
 44
1.0
  0
MTEXT
  5
92
330
A
100
AcDbEntity
  8
0
 62
     7
100
AcDbMText
 10
156.6689776702999
 20
107.7173296223999
 30
0.0
 40
0.9375
 41
0.0
 71
     1
 72
     1
  1
1
  7
SLDTEXTSTYLE0
 73
     1
 44
1.0
  0
MTEXT
  5
93
330
A
100
AcDbEntity
  8
0
 62
     7
100
AcDbMText
 10
136.5543401162999
 20
23.0071738598
 30
0.0
 40
1.666666666699999
 41
0.0
 71
     1
 72
     1
  1
RADIO  ASTRONOMY  LAB
  7
SLDTEXTSTYLE0
 73
     1
 44
1.0
  0
MTEXT
  5
94
330
A
100
AcDbEntity
  8
0
 62
     7
100
AcDbMText
 10
150.2275787547
 20
20.1954910904
 30
0.0
 40
1.0
 41
0.0
 71
     2
 72
     1
  1
University of California - Berkeley\PTel: 510-642-5040    Fax: 510-642-3411
  7
SLDTEXTSTYLE0
 73
     1
 44
1.0
  0
MTEXT
  5
95
330
A
100
AcDbEntity
  8
0
 62
     7
100
AcDbMText
 10
93.83984940639999
 20
16.37759386149999
 30
0.0
 40
0.9
 41
0.0
 71
     1
 72
     1
  1
NAME
  7
SLDTEXTSTYLE0
 73
     1
 44
1.0
  0
MTEXT
  5
96
330
A
100
AcDbEntity
  8
0
 62
     7
100
AcDbMText
 10
104.9193922354
 20
16.3332842699
 30
0.0
 40
0.9
 41
0.0
 71
     1
 72
     1
  1
DATE
  7
SLDTEXTSTYLE0
 73
     1
 44
1.0
  0
MTEXT
  5
97
330
A
100
AcDbEntity
  8
0
 62
     7
100
AcDbMText
 10
135.7933043238999
 20
5.241528631999999
 30
0.0
 40
0.9
 41
0.0
 71
     1
 72
     1
  1
SIZE
  7
SLDTEXTSTYLE0
 73
     1
 44
1.0
  0
MTEXT
  5
98
330
A
100
AcDbEntity
  8
0
 62
     7
100
AcDbMText
 10
136.3449988058999
 20
8.4413196725
 30
0.0
 40
1.875
 41
0.0
 71
     1
 72
     1
  1
B
  7
SLDTEXTSTYLE0
 73
     1
 44
1.0
  0
MTEXT
  5
99
330
A
100
AcDbEntity
  8
0
 62
     7
100
AcDbMText
 10
110.7921285112
 20
5.128661706799999
 30
0.0
 40
0.9
 41
0.0
 71
     1
 72
     1
  1
SCALE:
  7
SLDTEXTSTYLE0
 73
     1
 44
1.0
  0
MTEXT
  5
9A
330
A
100
AcDbEntity
  8
0
 62
     7
100
AcDbMText
 10
139.2439057805
 20
5.2000028119
 30
0.0
 40
0.9
 41
0.0
 71
     1
 72
     1
  1
DWG NUM:      SHEET             OF
  7
SLDTEXTSTYLE0
 73
     1
 44
1.0
  0
MTEXT
  5
9B
330
A
100
AcDbEntity
  8
0
 62
     7
100
AcDbMText
 10
159.9878147942
 20
103.8530268526999
 30
0.0
 40
0.9
 41
0.0
 71
     1
 72
     1
  1
DATE
  7
SLDTEXTSTYLE0
 73
     1
 44
1.0
  0
MTEXT
  5
9C
330
A
100
AcDbEntity
  8
0
 62
     7
100
AcDbMText
 10
153.0248857927
 20
103.8487456034
 30
0.0
 40
0.9
 41
0.0
 71
     1
 72
     1
  1
NAME
  7
SLDTEXTSTYLE0
 73
     1
 44
1.0
  0
MTEXT
  5
9D
330
A
100
AcDbEntity
  8
0
 62
     7
100
AcDbMText
 10
140.3307385073999
 20
105.7196467068
 30
0.0
 40
0.9
 41
0.0
 71
     1
 72
     1
  1
REVISIONS
  7
SLDTEXTSTYLE0
 73
     1
 44
1.0
  0
MTEXT
  5
9E
330
A
100
AcDbEntity
  8
0
 62
     7
100
AcDbMText
 10
125.8219858689
 20
103.8343324149999
 30
0.0
 40
0.9
 41
0.0
 71
     1
 72
     1
  1
REV
  7
SLDTEXTSTYLE0
 73
     1
 44
1.0
  0
MTEXT
  5
9F
330
A
100
AcDbEntity
  8
0
 62
     7
100
AcDbMText
 10
129.6245569157999
 20
103.8289067525
 30
0.0
 40
0.9
 41
0.0
 71
     1
 72
     1
  1
DESCRIPTION
  7
SLDTEXTSTYLE0
 73
     1
 44
1.0
  0
MTEXT
  5
A0
330
A
100
AcDbEntity
  8
0
 62
     7
100
AcDbMText
 10
110.7401967776
 20
6.9844581483
 30
0.0
 40
0.9
 41
0.0
 71
     1
 72
     1
  1
WEIGHT:
  7
SLDTEXTSTYLE0
 73
     1
 44
1.0
  0
MTEXT
  5
A1
330
A
100
AcDbEntity
  8
0
 62
     7
100
AcDbMText
 10
88.10764117620001
 20
14.4754446313
 30
0.0
 40
0.9
 41
0.0
 71
     1
 72
     1
  1
DRAWN
  7
SLDTEXTSTYLE0
 73
     1
 44
1.0
  0
MTEXT
  5
A2
330
A
100
AcDbEntity
  8
0
 62
     7
100
AcDbMText
 10
88.10536700670001
 20
12.6133042386
 30
0.0
 40
0.9
 41
0.0
 71
     1
 72
     1
  1
CHECKED
  7
SLDTEXTSTYLE0
 73
     1
 44
1.0
  0
MTEXT
  5
A3
330
A
100
AcDbEntity
  8
0
 62
     7
100
AcDbMText
 10
121.6527929243
 20
17.539205097
 30
0.0
 40
0.9
 41
0.0
 71
     3
 72
     1
  1
WHOLE & FRACTION\PDECIMAL   X.X\PDECIMAL   X.XX\PDECIMAL   X.XXX
  7
SLDTEXTSTYLE0
 73
     1
 44
1.0
  0
MTEXT
  5
A4
330
A
100
AcDbEntity
  8
0
 62
     7
100
AcDbMText
 10
125.8729757028
 20
19.6473602607
 30
0.0
 40
0.9
 41
0.0
 71
     2
 72
     1
  1
LINEAR
  7
SLDTEXTSTYLE0
 73
     1
 44
1.0
  0
MTEXT
  5
A5
330
A
100
AcDbEntity
  8
0
 62
     7
100
AcDbMText
 10
131.6780455136999
 20
19.70753765639999
 30
0.0
 40
0.9
 41
0.0
 71
     2
 72
     1
  1
ANGLE
  7
SLDTEXTSTYLE0
 73
     1
 44
1.0
  0
INSERT
  5
AC
330
A
100
AcDbEntity
  8
0
100
AcDbBlockReference
  2
NOTE48
 10
111.6699668574
 20
10.9404475261
 30
0.0
  0
MTEXT
  5
AD
330
A
100
AcDbEntity
  8
0
 62
     7
100
AcDbMText
 10
122.4875348809
 20
23.0890284657
 30
0.0
 40
0.9
 41
0.0
 71
     2
 72
     1
  1
UNLESS OTHERWISE SPECIFIED\PDIMENSIONS ARE INCHES & DEGREES
  7
SLDTEXTSTYLE0
 73
     1
 44
1.0
  0
MTEXT
  5
AE
330
A
100
AcDbEntity
  8
0
 62
     7
100
AcDbMText
 10
112.0130010901
 20
19.5836845299
 30
0.0
 40
0.9
 41
0.0
 71
     1
 72
     1
  1
TOLERANCES:
  7
SLDTEXTSTYLE0
 73
     1
 44
1.0
  0
MTEXT
  5
AF
330
A
100
AcDbEntity
  8
0
 62
     7
100
AcDbMText
 10
129.5546185125
 20
17.5781216777
 30
0.0
 40
0.9
 41
0.0
 71
     1
 72
     1
  1
%%p\P%%p\P%%p\P%%p
  7
SLDTEXTSTYLE0
 73
     1
 44
1.0
  0
MTEXT
  5
B0
330
A
100
AcDbEntity
  8
0
 62
     7
100
AcDbMText
 10
146.6340029354
 20
103.8622643529
 30
0.0
 40
0.9
 41
0.0
 71
     1
 72
     1
  1
ZONE
  7
SLDTEXTSTYLE0
 73
     1
 44
1.0
  0
MTEXT
  5
B1
330
A
100
AcDbEntity
  8
0
 62
     7
100
AcDbMText
 10
50.9521768193
 20
8.645666671799999
 30
0.0
 40
0.8
 41
0.0
 71
     1
 72
     1
  1
THIS DRAWING IS THE PROPERTY OF AND CONTAINS CONFIDENTIAL\PINFORMATION PROPRIETARY TO THE UNIVERSITY OF CALIFORNIA AND\PSHALL BE USED ONLY FOR THE PURPOSE FOR WHICH IT WAS PROVIDED\PAND SHALL NOT BE REPRODUCED OR DISCLOSED TO OTHERS.
  7
SLDTEXTSTYLE0
 73
     1
 44
1.0
  0
MTEXT
  5
B2
330
A
100
AcDbEntity
  8
0
 62
     7
100
AcDbMText
 10
126.3895861291999
 20
102.048991761
 30
0.0
 40
0.9
 41
0.0
 71
     1
 72
     1
  1
A
  7
SLDTEXTSTYLE0
 73
     1
 44
1.0
  0
MTEXT
  5
B3
330
A
100
AcDbEntity
  8
0
 62
     7
100
AcDbMText
 10
129.7799591390999
 20
102.0465150837
 30
0.0
 40
0.9
 41
0.0
 71
     1
 72
     1
  1
RELEASED
  7
SLDTEXTSTYLE0
 73
     1
 44
1.0
  0
MTEXT
  5
B4
330
A
100
AcDbEntity
  8
0
 62
     7
100
AcDbMText
 10
93.6917417315
 20
14.60126889319999
 30
0.0
 40
1.0416666667
 41
0.0
 71
     1
 72
     1
  1
M. C. FLEMING
  7
SLDTEXTSTYLE0
 73
     1
 44
1.0
  0
MTEXT
  5
B5
330
A
100
AcDbEntity
  8
0
 62
     7
100
AcDbMText
 10
162.5210438802
 20
8.270704477999998
 30
0.0
 40
1.875
 41
0.0
 71
     1
 72
     1
  1
A
  7
SLDTEXTSTYLE0
 73
     1
 44
1.0
  0
MTEXT
  5
B6
330
A
100
AcDbEntity
  8
0
 62
     7
100
AcDbMText
 10
103.2214027696999
 20
14.5840417617
 30
0.0
 40
1.0416666667
 41
0.0
 71
     1
 72
     1
  1
2004-12-23
  7
SLDTEXTSTYLE0
 73
     1
 44
1.0
  0
MTEXT
  5
B7
330
A
100
AcDbEntity
  8
0
 62
     7
100
AcDbMText
 10
125.1241091325
 20
17.5982672391
 30
0.0
 40
0.9
 41
0.0
 71
     1
 72
     1
  1
1/16\P0.1\P0.01\P0.005
  7
SLDTEXTSTYLE0
 73
     1
 44
1.0
  0
MTEXT
  5
B8
330
A
100
AcDbEntity
  8
0
 62
     7
100
AcDbMText
 10
131.0248421947
 20
17.57875102239999
 30
0.0
 40
0.9
 41
0.0
 71
     1
 72
     1
  1
1%%d\P0.1%%d\P0.01%%d\P0.001%%d
  7
SLDTEXTSTYLE0
 73
     1
 44
1.0
  0
MTEXT
  5
B9
330
A
100
AcDbEntity
  8
0
 62
     7
100
AcDbMText
 10
140.8170301101999
 20
8.4516201127
 30
0.0
 40
1.875
 41
0.0
 71
     1
 72
     1
  1
24-09-214    1 of 1
  7
SLDTEXTSTYLE0
 73
     1
 44
1.0
  0
MTEXT
  5
BA
330
A
100
AcDbEntity
  8
0
 62
     7
100
AcDbMText
 10
152.9597824944
 20
102.050861508
 30
0.0
 40
1.0416666667
 41
0.0
 71
     1
 72
     1
  1
M.C.F.
  7
SLDTEXTSTYLE0
 73
     1
 44
1.0
  0
MTEXT
  5
BB
330
A
100
AcDbEntity
  8
0
 62
     7
100
AcDbMText
 10
158.4197400976
 20
102.0415239646999
 30
0.0
 40
1.0416666667
 41
0.0
 71
     1
 72
     1
  1
2004-12-23
  7
SLDTEXTSTYLE0
 73
     1
 44
1.0
  0
MTEXT
  5
BC
330
A
100
AcDbEntity
  8
0
 62
     7
100
AcDbMText
 10
153.4916082715291
 20
15.63015696582276
 30
0.0
 40
1.875
 41
0.0
 71
     2
 72
     1
  1
CARMA 6m Base,\PSide Plate North & South
  7
SLDTEXTSTYLE0
 73
     1
 44
1.0
  0
CIRCLE
  5
BD
330
A
100
AcDbEntity
  8
0
  6
Continuous
 62
     7
370
    15
100
AcDbCircle
 10
104.0748432415
 20
39.76871907949999
 30
0.0
 40
0.1565
  0
CIRCLE
  5
BE
330
A
100
AcDbEntity
  8
0
  6
Continuous
 62
     7
370
    15
100
AcDbCircle
 10
104.0748432415
 20
67.7687190795
 30
0.0
 40
0.1565
  0
CIRCLE
  5
BF
330
A
100
AcDbEntity
  8
0
  6
Continuous
 62
     7
370
    15
100
AcDbCircle
 10
50.07484324149999
 20
67.7687190795
 30
0.0
 40
0.1565
  0
CIRCLE
  5
C0
330
A
100
AcDbEntity
  8
0
  6
Continuous
 62
     7
370
    15
100
AcDbCircle
 10
50.07484324149999
 20
39.76871907949999
 30
0.0
 40
0.1565
  0
CIRCLE
  5
C1
330
A
100
AcDbEntity
  8
0
  6
Continuous
 62
     7
370
    15
100
AcDbCircle
 10
77.07484324149999
 20
67.7687190795
 30
0.0
 40
0.1565
  0
CIRCLE
  5
C2
330
A
100
AcDbEntity
  8
0
  6
Continuous
 62
     7
370
    15
100
AcDbCircle
 10
77.07484324149999
 20
39.76871907949999
 30
0.0
 40
0.1565
  0
LINE
  5
C3
330
A
100
AcDbEntity
  8
0
  6
Continuous
 62
     7
370
    15
100
AcDbLine
 10
42.0748432978
 20
30.7687190795
 30
0.0
 11
112.0748431852
 21
30.7687190795
 31
0.0
  0
LINE
  5
C4
330
A
100
AcDbEntity
  8
0
  6
Continuous
 62
     7
370
    15
100
AcDbLine
 10
112.0748431852
 20
30.7687190795
 30
0.0
 11
112.0748431852
 21
76.7687210169
 31
0.0
  0
LINE
  5
C5
330
A
100
AcDbEntity
  8
0
  6
Continuous
 62
     7
370
    15
100
AcDbLine
 10
112.0748431852
 20
76.7687210169
 30
0.0
 11
42.0748432978
 21
76.7687210169
 31
0.0
  0
LINE
  5
C6
330
A
100
AcDbEntity
  8
0
  6
Continuous
 62
     7
370
    15
100
AcDbLine
 10
42.0748432978
 20
76.7687210169
 30
0.0
 11
42.0748432978
 21
30.7687190795
 31
0.0
  0
DIMENSION
  5
D4
330
A
100
AcDbEntity
  8
0
 62
     7
100
AcDbDimension
  2
*D1
 10
21.1457585584
 20
76.7687190795
 30
0.0
 11
21.1457585584
 21
53.7687190795
 31
0.0
 70
   160
 71
     5
 42
0.0
  3
SLDDIMSTYLE0
100
AcDbAlignedDimension
 13
42.0748432415
 23
30.7687190795
 33
0.0
 14
42.0748432415
 24
76.7687190795
 34
0.0
 50
90.0
100
AcDbRotatedDimension
  0
DIMENSION
  5
E1
330
A
100
AcDbEntity
  8
0
100
AcDbDimension
  2
*D2
 10
42.0748432415
 20
99.4133018868
 30
0.0
 11
77.07484324149999
 21
99.4133018868
 31
0.0
 70
   160
 71
     5
 42
0.0
  3
SLDDIMSTYLE0
100
AcDbAlignedDimension
 13
112.0748432414999
 23
76.7687190795
 33
0.0
 14
42.0748432415
 24
76.7687190795
 34
0.0
100
AcDbRotatedDimension
  0
DIMENSION
  5
EE
330
A
100
AcDbEntity
  8
0
100
AcDbDimension
  2
*D3
 10
50.07484324149999
 20
81.44717331370001
 30
0.0
 11
37.9172275449
 21
81.44717331370001
 31
0.0
 70
   160
 71
     5
 42
0.0
  3
SLDDIMSTYLE0
100
AcDbAlignedDimension
 13
42.0748432415
 23
76.7687190795
 33
0.0
 14
50.07484324149999
 24
67.7687190795
 34
0.0
100
AcDbRotatedDimension
  0
DIMENSION
  5
FB
330
A
100
AcDbEntity
  8
0
100
AcDbDimension
  2
*D4
 10
77.07484324149999
 20
86.1629245283
 30
0.0
 11
59.5748432415
 21
86.1629245283
 31
0.0
 70
   160
 71
     5
 42
0.0
  3
SLDDIMSTYLE0
100
AcDbAlignedDimension
 13
42.0748432415
 23
76.7687190795
 33
0.0
 14
77.07484324149999
 24
67.7687190795
 34
0.0
100
AcDbRotatedDimension
  0
DIMENSION
  5
108
330
A
100
AcDbEntity
  8
0
100
AcDbDimension
  2
*D5
 10
104.0748432415
 20
92.2155660377
 30
0.0
 11
73.07484324149999
 21
92.2155660377
 31
0.0
 70
   160
 71
     5
 42
0.0
  3
SLDDIMSTYLE0
100
AcDbAlignedDimension
 13
42.0748432415
 23
76.7687190795
 33
0.0
 14
104.0748432415
 24
67.7687190795
 34
0.0
100
AcDbRotatedDimension
  0
DIMENSION
  5
115
330
A
100
AcDbEntity
  8
0
100
AcDbDimension
  2
*D6
 10
35.41114597219999
 20
67.7687190795
 30
0.0
 11
35.41114597219999
 21
72.2687190795
 31
0.0
 70
   160
 71
     5
 42
0.0
  3
SLDDIMSTYLE0
100
AcDbAlignedDimension
 13
42.0748432415
 23
76.7687190795
 33
0.0
 14
50.07484324149999
 24
67.7687190795
 34
0.0
 50
90.0
100
AcDbRotatedDimension
  0
DIMENSION
  5
122
330
A
100
AcDbEntity
  8
0
100
AcDbDimension
  2
*D7
 10
27.31457473729999
 20
39.76871907949999
 30
0.0
 11
27.31457473729999
 21
58.2687190795
 31
0.0
 70
   160
 71
     5
 42
0.0
  3
SLDDIMSTYLE0
100
AcDbAlignedDimension
 13
42.0748432415
 23
76.7687190795
 33
0.0
 14
50.07484324149999
 24
39.76871907949999
 34
0.0
 50
90.0
100
AcDbRotatedDimension
  0
DIMENSION
  5
131
330
A
100
AcDbEntity
  8
0
100
AcDbDimension
  2
*D8
 10
77.11314911630001
 20
39.9204586919
 30
0.0
 11
62.455329226
 21
19.2099595687
 31
0.0
 70
   163
  1
<> DRILL THRU\P6 PLACES\P\PDEBURR
 71
     5
 42
0.0
  3
SLDDIMSTYLE1
100
AcDbDiametricDimension
 15
77.0365373668
 25
39.61697946719999
 35
0.0
 40
0.0
  0
DIMENSION
  5
140
330
A
100
AcDbEntity
  8
0
100
AcDbDimension
  2
*D9
 10
35.41114597219999
 20
39.76871907949999
 30
0.0
 11
35.41114597219999
 21
53.7687190795
 31
0.0
 70
   160
  1
(<>)
 71
     5
 42
0.0
  3
SLDDIMSTYLE0
100
AcDbAlignedDimension
 13
50.07484324149999
 23
67.7687190795
 33
0.0
 14
50.07484324149999
 24
39.76871907949999
 34
0.0
 50
90.0
100
AcDbRotatedDimension
  0
DIMENSION
  5
14F
330
A
100
AcDbEntity
  8
0
100
AcDbDimension
  2
*D10
 10
35.31475821939999
 20
30.7687190795
 30
0.0
 11
35.31475821939999
 21
35.26871907949999
 31
0.0
 70
   160
  1
(<>)
 71
     5
 42
0.0
  3
SLDDIMSTYLE0
100
AcDbAlignedDimension
 13
50.07484324149999
 23
39.76871907949999
 33
0.0
 14
42.0748432415
 24
30.7687190795
 34
0.0
 50
90.0
100
AcDbRotatedDimension
  0
DIMENSION
  5
15E
330
A
100
AcDbEntity
  8
0
100
AcDbDimension
  2
*D11
 10
77.07484324149999
 20
81.44717331370001
 30
0.0
 11
63.5748432415
 21
81.44717331370001
 31
0.0
 70
   160
  1
(<>)
 71
     5
 42
0.0
  3
SLDDIMSTYLE0
100
AcDbAlignedDimension
 13
50.07484324149999
 23
67.7687190795
 33
0.0
 14
77.07484324149999
 24
67.7687190795
 34
0.0
100
AcDbRotatedDimension
  0
DIMENSION
  5
16D
330
A
100
AcDbEntity
  8
0
100
AcDbDimension
  2
*D12
 10
104.0748432415
 20
81.35078556100001
 30
0.0
 11
90.57484324149999
 21
81.35078556100001
 31
0.0
 70
   160
  1
(<>)
 71
     5
 42
0.0
  3
SLDDIMSTYLE0
100
AcDbAlignedDimension
 13
77.07484324149999
 23
67.7687190795
 33
0.0
 14
104.0748432415
 24
67.7687190795
 34
0.0
100
AcDbRotatedDimension
  0
MTEXT
  5
16E
330
A
100
AcDbEntity
  8
0
 62
     1
100
AcDbMText
 10
88.93640232979999
 20
9.413185424799999
 30
0.0
 40
1.0
 41
0.0
 71
     1
 72
     1
  1
STEEL, A-36 1/4" THICK BURNED
  7
SLDTEXTSTYLE0
 73
     1
 44
1.0
  0
LINE
  5
16F
330
A
100
AcDbEntity
  8
0
  6
Continuous
 62
     7
370
    15
100
AcDbLine
 10
135.0211142480999
 20
71.64379367020001
 30
0.0
 11
134.9327259005
 21
71.59276816319999
 31
0.0
  0
LINE
  5
170
330
A
100
AcDbEntity
  8
0
  6
Continuous
 62
     7
370
    15
100
AcDbLine
 10
159.7698515895999
 20
57.35665171329999
 30
0.0
 11
135.0211142480999
 21
71.64379367020001
 31
0.0
  0
LINE
  5
171
330
A
100
AcDbEntity
  8
0
  6
Continuous
 62
     7
370
    15
100
AcDbLine
 10
159.7698515895999
 20
57.35665171329999
 30
0.0
 11
159.681463242
 21
57.30562620629999
 31
0.0
  0
LINE
  5
172
330
A
100
AcDbEntity
  8
0
  6
Continuous
 62
     7
370
    15
100
AcDbLine
 10
159.681463242
 20
57.30562620629999
 30
0.0
 11
134.9327259005
 21
71.59276816319999
 31
0.0
  0
LINE
  5
173
330
A
100
AcDbEntity
  8
0
  6
Continuous
 62
     7
370
    15
100
AcDbLine
 10
159.7698515895999
 20
38.57621304
 30
0.0
 11
159.7698515895999
 21
57.35665171329999
 31
0.0
  0
LINE
  5
174
330
A
100
AcDbEntity
  8
0
  6
Continuous
 62
     7
370
    15
100
AcDbLine
 10
159.7698515895999
 20
38.57621304
 30
0.0
 11
159.681463242
 21
38.525187533
 31
0.0
  0
LINE
  5
175
330
A
100
AcDbEntity
  8
0
  6
Continuous
 62
     7
370
    15
100
AcDbLine
 10
159.681463242
 20
38.525187533
 30
0.0
 11
159.681463242
 21
57.30562620629999
 31
0.0
  0
LINE
  5
176
330
A
100
AcDbEntity
  8
0
  6
Continuous
 62
     7
370
    15
100
AcDbLine
 10
134.9327259005
 20
52.81232948989999
 30
0.0
 11
159.681463242
 21
38.525187533
 31
0.0
  0
LINE
  5
177
330
A
100
AcDbEntity
  8
0
  6
Continuous
 62
     7
370
    15
100
AcDbLine
 10
134.9327259005
 20
71.59276816319999
 30
0.0
 11
134.9327259005
 21
52.81232948989999
 31
0.0
  0
POLYLINE
  5
178
330
A
100
AcDbEntity
  8
0
  6
Continuous
 62
     7
100
AcDb2dPolyline
 66
     1
 10
0.0
 20
0.0
 30
0.0
 70
   128
 40
0.0590551181
 41
0.0590551181
  0
VERTEX
  5
179
330
178
100
AcDbEntity
  8
0
100
AcDbVertex
100
AcDb2dVertex
 10
156.9083672229
 20
43.8004954427
 30
0.0
  0
VERTEX
  5
17A
330
178
100
AcDbEntity
  8
0
100
AcDbVertex
100
AcDb2dVertex
 10
156.9059090170999
 20
43.82074771569999
 30
0.0
  0
VERTEX
  5
17B
330
178
100
AcDbEntity
  8
0
100
AcDbVertex
100
AcDb2dVertex
 10
156.8987528221
 20
43.8420386694
 30
0.0
  0
VERTEX
  5
17C
330
178
100
AcDbEntity
  8
0
100
AcDbVertex
100
AcDb2dVertex
 10
156.8875344972999
 20
43.86247650899999
 30
0.0
  0
VERTEX
  5
17D
330
178
100
AcDbEntity
  8
0
100
AcDbVertex
100
AcDb2dVertex
 10
156.87325084
 20
43.88024524279999
 30
0.0
  0
VERTEX
  5
17E
330
178
100
AcDbEntity
  8
0
100
AcDbVertex
100
AcDb2dVertex
 10
156.8571710159
 20
43.893766041
 30
0.0
  0
VERTEX
  5
17F
330
178
100
AcDbEntity
  8
0
100
AcDbVertex
100
AcDb2dVertex
 10
156.8407237879
 20
43.9018375211
 30
0.0
  0
VERTEX
  5
180
330
178
100
AcDbEntity
  8
0
100
AcDbVertex
100
AcDb2dVertex
 10
156.8253705644
 20
43.90374249679999
 30
0.0
  0
VERTEX
  5
181
330
178
100
AcDbEntity
  8
0
100
AcDbVertex
100
AcDb2dVertex
 10
156.8124755467
 20
43.8993117026
 30
0.0
  0
VERTEX
  5
182
330
178
100
AcDbEntity
  8
0
100
AcDbVertex
100
AcDb2dVertex
 10
156.8031845135999
 20
43.88893883409999
 30
0.0
  0
VERTEX
  5
183
330
178
100
AcDbEntity
  8
0
100
AcDbVertex
100
AcDb2dVertex
 10
156.7983230142999
 20
43.8735455661
 30
0.0
  0
VERTEX
  5
184
330
178
100
AcDbEntity
  8
0
100
AcDbVertex
100
AcDb2dVertex
 10
156.7983230142999
 20
43.8544996581
 30
0.0
  0
VERTEX
  5
185
330
178
100
AcDbEntity
  8
0
100
AcDbVertex
100
AcDb2dVertex
 10
156.8031845135999
 20
43.83349342249999
 30
0.0
  0
VERTEX
  5
186
330
178
100
AcDbEntity
  8
0
100
AcDbVertex
100
AcDb2dVertex
 10
156.8124755467
 20
43.8123933555
 30
0.0
  0
VERTEX
  5
187
330
178
100
AcDbEntity
  8
0
100
AcDbVertex
100
AcDb2dVertex
 10
156.8253705644
 20
43.79307429079999
 30
0.0
  0
VERTEX
  5
188
330
178
100
AcDbEntity
  8
0
100
AcDbVertex
100
AcDb2dVertex
 10
156.8407237879
 20
43.777252812
 30
0.0
  0
VERTEX
  5
189
330
178
100
AcDbEntity
  8
0
100
AcDbVertex
100
AcDb2dVertex
 10
156.8571710159
 20
43.7663347268
 30
0.0
  0
VERTEX
  5
18A
330
178
100
AcDbEntity
  8
0
100
AcDbVertex
100
AcDb2dVertex
 10
156.87325084
 20
43.7612901552
 30
0.0
  0
VERTEX
  5
18B
330
178
100
AcDbEntity
  8
0
100
AcDbVertex
100
AcDb2dVertex
 10
156.8875344972999
 20
43.76256732939999
 30
0.0
  0
VERTEX
  5
18C
330
178
100
AcDbEntity
  8
0
100
AcDbVertex
100
AcDb2dVertex
 10
156.8987528221
 20
43.77005276689999
 30
0.0
  0
VERTEX
  5
18D
330
178
100
AcDbEntity
  8
0
100
AcDbVertex
100
AcDb2dVertex
 10
156.9059090170999
 20
43.7830813537
 30
0.0
  0
VERTEX
  5
18E
330
178
100
AcDbEntity
  8
0
100
AcDbVertex
100
AcDb2dVertex
 10
156.9083672229
 20
43.8004954427
 30
0.0
  0
SEQEND
  5
18F
330
178
100
AcDbEntity
  8
0
  0
POLYLINE
  5
190
330
A
100
AcDbEntity
  8
0
  6
Continuous
 62
     7
100
AcDb2dPolyline
 66
     1
 10
0.0
 20
0.0
 30
0.0
 70
   128
 40
0.0590551181
 41
0.0590551181
  0
VERTEX
  5
191
330
190
100
AcDbEntity
  8
0
100
AcDbVertex
100
AcDb2dVertex
 10
156.9083672229
 20
55.2320668091
 30
0.0
  0
VERTEX
  5
192
330
190
100
AcDbEntity
  8
0
100
AcDbVertex
100
AcDb2dVertex
 10
156.9059090170999
 20
55.2523190821
 30
0.0
  0
VERTEX
  5
193
330
190
100
AcDbEntity
  8
0
100
AcDbVertex
100
AcDb2dVertex
 10
156.8987528221
 20
55.2736100358
 30
0.0
  0
VERTEX
  5
194
330
190
100
AcDbEntity
  8
0
100
AcDbVertex
100
AcDb2dVertex
 10
156.8875344972999
 20
55.29404787539999
 30
0.0
  0
VERTEX
  5
195
330
190
100
AcDbEntity
  8
0
100
AcDbVertex
100
AcDb2dVertex
 10
156.87325084
 20
55.3118166092
 30
0.0
  0
VERTEX
  5
196
330
190
100
AcDbEntity
  8
0
100
AcDbVertex
100
AcDb2dVertex
 10
156.8571710159
 20
55.32533740739999
 30
0.0
  0
VERTEX
  5
197
330
190
100
AcDbEntity
  8
0
100
AcDbVertex
100
AcDb2dVertex
 10
156.8407237879
 20
55.3334088875
 30
0.0
  0
VERTEX
  5
198
330
190
100
AcDbEntity
  8
0
100
AcDbVertex
100
AcDb2dVertex
 10
156.8253705644
 20
55.33531386319999
 30
0.0
  0
VERTEX
  5
199
330
190
100
AcDbEntity
  8
0
100
AcDbVertex
100
AcDb2dVertex
 10
156.8124755467
 20
55.33088306899999
 30
0.0
  0
VERTEX
  5
19A
330
190
100
AcDbEntity
  8
0
100
AcDbVertex
100
AcDb2dVertex
 10
156.8031845135999
 20
55.3205102005
 30
0.0
  0
VERTEX
  5
19B
330
190
100
AcDbEntity
  8
0
100
AcDbVertex
100
AcDb2dVertex
 10
156.7983230142999
 20
55.3051169325
 30
0.0
  0
VERTEX
  5
19C
330
190
100
AcDbEntity
  8
0
100
AcDbVertex
100
AcDb2dVertex
 10
156.7983230142999
 20
55.28607102449999
 30
0.0
  0
VERTEX
  5
19D
330
190
100
AcDbEntity
  8
0
100
AcDbVertex
100
AcDb2dVertex
 10
156.8031845135999
 20
55.2650647889
 30
0.0
  0
VERTEX
  5
19E
330
190
100
AcDbEntity
  8
0
100
AcDbVertex
100
AcDb2dVertex
 10
156.8124755467
 20
55.24396472189999
 30
0.0
  0
VERTEX
  5
19F
330
190
100
AcDbEntity
  8
0
100
AcDbVertex
100
AcDb2dVertex
 10
156.8253705644
 20
55.22464565719999
 30
0.0
  0
VERTEX
  5
1A0
330
190
100
AcDbEntity
  8
0
100
AcDbVertex
100
AcDb2dVertex
 10
156.8407237879
 20
55.2088241784
 30
0.0
  0
VERTEX
  5
1A1
330
190
100
AcDbEntity
  8
0
100
AcDbVertex
100
AcDb2dVertex
 10
156.8571710159
 20
55.1979060932
 30
0.0
  0
VERTEX
  5
1A2
330
190
100
AcDbEntity
  8
0
100
AcDbVertex
100
AcDb2dVertex
 10
156.87325084
 20
55.1928615216
 30
0.0
  0
VERTEX
  5
1A3
330
190
100
AcDbEntity
  8
0
100
AcDbVertex
100
AcDb2dVertex
 10
156.8875344972999
 20
55.1941386958
 30
0.0
  0
VERTEX
  5
1A4
330
190
100
AcDbEntity
  8
0
100
AcDbVertex
100
AcDb2dVertex
 10
156.8987528221
 20
55.2016241333
 30
0.0
  0
VERTEX
  5
1A5
330
190
100
AcDbEntity
  8
0
100
AcDbVertex
100
AcDb2dVertex
 10
156.9059090170999
 20
55.21465272010001
 30
0.0
  0
VERTEX
  5
1A6
330
190
100
AcDbEntity
  8
0
100
AcDbVertex
100
AcDb2dVertex
 10
156.9083672229
 20
55.2320668091
 30
0.0
  0
SEQEND
  5
1A7
330
190
100
AcDbEntity
  8
0
  0
POLYLINE
  5
1A8
330
A
100
AcDbEntity
  8
0
  6
Continuous
 62
     7
100
AcDb2dPolyline
 66
     1
 10
0.0
 20
0.0
 30
0.0
 70
   128
 40
0.0590551181
 41
0.0590551181
  0
VERTEX
  5
1A9
330
1A8
100
AcDbEntity
  8
0
100
AcDbVertex
100
AcDb2dVertex
 10
137.7058219195999
 20
66.3174602535
 30
0.0
  0
VERTEX
  5
1AA
330
1A8
100
AcDbEntity
  8
0
100
AcDbVertex
100
AcDb2dVertex
 10
137.7082801253
 20
66.29720798050001
 30
0.0
  0
VERTEX
  5
1AB
330
1A8
100
AcDbEntity
  8
0
100
AcDbVertex
100
AcDb2dVertex
 10
137.7154363203
 20
66.27591702689999
 30
0.0
  0
VERTEX
  5
1AC
330
1A8
100
AcDbEntity
  8
0
100
AcDbVertex
100
AcDb2dVertex
 10
137.7266546451
 20
66.25547918720001
 30
0.0
  0
VERTEX
  5
1AD
330
1A8
100
AcDbEntity
  8
0
100
AcDbVertex
100
AcDb2dVertex
 10
137.7409383023999
 20
66.23771045339999
 30
0.0
  0
VERTEX
  5
1AE
330
1A8
100
AcDbEntity
  8
0
100
AcDbVertex
100
AcDb2dVertex
 10
137.7570181264999
 20
66.22418965529999
 30
0.0
  0
VERTEX
  5
1AF
330
1A8
100
AcDbEntity
  8
0
100
AcDbVertex
100
AcDb2dVertex
 10
137.7734653545
 20
66.2161181751
 30
0.0
  0
VERTEX
  5
1B0
330
1A8
100
AcDbEntity
  8
0
100
AcDbVertex
100
AcDb2dVertex
 10
137.7888185779999
 20
66.21421319939999
 30
0.0
  0
VERTEX
  5
1B1
330
1A8
100
AcDbEntity
  8
0
100
AcDbVertex
100
AcDb2dVertex
 10
137.8017135958
 20
66.21864399359999
 30
0.0
  0
VERTEX
  5
1B2
330
1A8
100
AcDbEntity
  8
0
100
AcDbVertex
100
AcDb2dVertex
 10
137.8110046288
 20
66.22901686209999
 30
0.0
  0
VERTEX
  5
1B3
330
1A8
100
AcDbEntity
  8
0
100
AcDbVertex
100
AcDb2dVertex
 10
137.8158661280999
 20
66.24441013010001
 30
0.0
  0
VERTEX
  5
1B4
330
1A8
100
AcDbEntity
  8
0
100
AcDbVertex
100
AcDb2dVertex
 10
137.8158661280999
 20
66.26345603819999
 30
0.0
  0
VERTEX
  5
1B5
330
1A8
100
AcDbEntity
  8
0
100
AcDbVertex
100
AcDb2dVertex
 10
137.8110046288
 20
66.2844622738
 30
0.0
  0
VERTEX
  5
1B6
330
1A8
100
AcDbEntity
  8
0
100
AcDbVertex
100
AcDb2dVertex
 10
137.8017135958
 20
66.30556234069999
 30
0.0
  0
VERTEX
  5
1B7
330
1A8
100
AcDbEntity
  8
0
100
AcDbVertex
100
AcDb2dVertex
 10
137.7888185779999
 20
66.32488140540001
 30
0.0
  0
VERTEX
  5
1B8
330
1A8
100
AcDbEntity
  8
0
100
AcDbVertex
100
AcDb2dVertex
 10
137.7734653545
 20
66.3407028843
 30
0.0
  0
VERTEX
  5
1B9
330
1A8
100
AcDbEntity
  8
0
100
AcDbVertex
100
AcDb2dVertex
 10
137.7570181264999
 20
66.3516209694
 30
0.0
  0
VERTEX
  5
1BA
330
1A8
100
AcDbEntity
  8
0
100
AcDbVertex
100
AcDb2dVertex
 10
137.7409383023999
 20
66.356665541
 30
0.0
  0
VERTEX
  5
1BB
330
1A8
100
AcDbEntity
  8
0
100
AcDbVertex
100
AcDb2dVertex
 10
137.7266546451
 20
66.3553883668
 30
0.0
  0
VERTEX
  5
1BC
330
1A8
100
AcDbEntity
  8
0
100
AcDbVertex
100
AcDb2dVertex
 10
137.7154363203
 20
66.3479029293
 30
0.0
  0
VERTEX
  5
1BD
330
1A8
100
AcDbEntity
  8
0
100
AcDbVertex
100
AcDb2dVertex
 10
137.7082801253
 20
66.3348743425
 30
0.0
  0
VERTEX
  5
1BE
330
1A8
100
AcDbEntity
  8
0
100
AcDbVertex
100
AcDb2dVertex
 10
137.7058219195999
 20
66.3174602535
 30
0.0
  0
SEQEND
  5
1BF
330
1A8
100
AcDbEntity
  8
0
  0
POLYLINE
  5
1C0
330
A
100
AcDbEntity
  8
0
  6
Continuous
 62
     7
100
AcDb2dPolyline
 66
     1
 10
0.0
 20
0.0
 30
0.0
 70
   128
 40
0.0590551181
 41
0.0590551181
  0
VERTEX
  5
1C1
330
1C0
100
AcDbEntity
  8
0
100
AcDbVertex
100
AcDb2dVertex
 10
137.7058219195999
 20
54.8858888871
 30
0.0
  0
VERTEX
  5
1C2
330
1C0
100
AcDbEntity
  8
0
100
AcDbVertex
100
AcDb2dVertex
 10
137.7082801253
 20
54.86563661409999
 30
0.0
  0
VERTEX
  5
1C3
330
1C0
100
AcDbEntity
  8
0
100
AcDbVertex
100
AcDb2dVertex
 10
137.7154363203
 20
54.8443456605
 30
0.0
  0
VERTEX
  5
1C4
330
1C0
100
AcDbEntity
  8
0
100
AcDbVertex
100
AcDb2dVertex
 10
137.7266546451
 20
54.8239078208
 30
0.0
  0
VERTEX
  5
1C5
330
1C0
100
AcDbEntity
  8
0
100
AcDbVertex
100
AcDb2dVertex
 10
137.7409383023999
 20
54.806139087
 30
0.0
  0
VERTEX
  5
1C6
330
1C0
100
AcDbEntity
  8
0
100
AcDbVertex
100
AcDb2dVertex
 10
137.7570181264999
 20
54.7926182889
 30
0.0
  0
VERTEX
  5
1C7
330
1C0
100
AcDbEntity
  8
0
100
AcDbVertex
100
AcDb2dVertex
 10
137.7734653545
 20
54.7845468087
 30
0.0
  0
VERTEX
  5
1C8
330
1C0
100
AcDbEntity
  8
0
100
AcDbVertex
100
AcDb2dVertex
 10
137.7888185779999
 20
54.782641833
 30
0.0
  0
VERTEX
  5
1C9
330
1C0
100
AcDbEntity
  8
0
100
AcDbVertex
100
AcDb2dVertex
 10
137.8017135958
 20
54.7870726272
 30
0.0
  0
VERTEX
  5
1CA
330
1C0
100
AcDbEntity
  8
0
100
AcDbVertex
100
AcDb2dVertex
 10
137.8110046288
 20
54.7974454957
 30
0.0
  0
VERTEX
  5
1CB
330
1C0
100
AcDbEntity
  8
0
100
AcDbVertex
100
AcDb2dVertex
 10
137.8158661280999
 20
54.8128387637
 30
0.0
  0
VERTEX
  5
1CC
330
1C0
100
AcDbEntity
  8
0
100
AcDbVertex
100
AcDb2dVertex
 10
137.8158661280999
 20
54.8318846718
 30
0.0
  0
VERTEX
  5
1CD
330
1C0
100
AcDbEntity
  8
0
100
AcDbVertex
100
AcDb2dVertex
 10
137.8110046288
 20
54.8528909074
 30
0.0
  0
VERTEX
  5
1CE
330
1C0
100
AcDbEntity
  8
0
100
AcDbVertex
100
AcDb2dVertex
 10
137.8017135958
 20
54.87399097429999
 30
0.0
  0
VERTEX
  5
1CF
330
1C0
100
AcDbEntity
  8
0
100
AcDbVertex
100
AcDb2dVertex
 10
137.7888185779999
 20
54.893310039
 30
0.0
  0
VERTEX
  5
1D0
330
1C0
100
AcDbEntity
  8
0
100
AcDbVertex
100
AcDb2dVertex
 10
137.7734653545
 20
54.9091315179
 30
0.0
  0
VERTEX
  5
1D1
330
1C0
100
AcDbEntity
  8
0
100
AcDbVertex
100
AcDb2dVertex
 10
137.7570181264999
 20
54.920049603
 30
0.0
  0
VERTEX
  5
1D2
330
1C0
100
AcDbEntity
  8
0
100
AcDbVertex
100
AcDb2dVertex
 10
137.7409383023999
 20
54.92509417459999
 30
0.0
  0
VERTEX
  5
1D3
330
1C0
100
AcDbEntity
  8
0
100
AcDbVertex
100
AcDb2dVertex
 10
137.7266546451
 20
54.9238170004
 30
0.0
  0
VERTEX
  5
1D4
330
1C0
100
AcDbEntity
  8
0
100
AcDbVertex
100
AcDb2dVertex
 10
137.7154363203
 20
54.91633156289999
 30
0.0
  0
VERTEX
  5
1D5
330
1C0
100
AcDbEntity
  8
0
100
AcDbVertex
100
AcDb2dVertex
 10
137.7082801253
 20
54.90330297609999
 30
0.0
  0
VERTEX
  5
1D6
330
1C0
100
AcDbEntity
  8
0
100
AcDbVertex
100
AcDb2dVertex
 10
137.7058219195999
 20
54.8858888871
 30
0.0
  0
SEQEND
  5
1D7
330
1C0
100
AcDbEntity
  8
0
  0
POLYLINE
  5
1D8
330
A
100
AcDbEntity
  8
0
  6
Continuous
 62
     7
100
AcDb2dPolyline
 66
     1
 10
0.0
 20
0.0
 30
0.0
 70
   128
 40
0.0590551181
 41
0.0590551181
  0
VERTEX
  5
1D9
330
1D8
100
AcDbEntity
  8
0
100
AcDbVertex
100
AcDb2dVertex
 10
147.3624256767999
 20
49.3112501975
 30
0.0
  0
VERTEX
  5
1DA
330
1D8
100
AcDbEntity
  8
0
100
AcDbVertex
100
AcDb2dVertex
 10
147.3599674710999
 20
49.3315024705
 30
0.0
  0
VERTEX
  5
1DB
330
1D8
100
AcDbEntity
  8
0
100
AcDbVertex
100
AcDb2dVertex
 10
147.3528112761
 20
49.3527934242
 30
0.0
  0
VERTEX
  5
1DC
330
1D8
100
AcDbEntity
  8
0
100
AcDbVertex
100
AcDb2dVertex
 10
147.3415929512999
 20
49.3732312638
 30
0.0
  0
VERTEX
  5
1DD
330
1D8
100
AcDbEntity
  8
0
100
AcDbVertex
100
AcDb2dVertex
 10
147.3273092939999
 20
49.3909999976
 30
0.0
  0
VERTEX
  5
1DE
330
1D8
100
AcDbEntity
  8
0
100
AcDbVertex
100
AcDb2dVertex
 10
147.3112294698999
 20
49.40452079579999
 30
0.0
  0
VERTEX
  5
1DF
330
1D8
100
AcDbEntity
  8
0
100
AcDbVertex
100
AcDb2dVertex
 10
147.2947822419
 20
49.4125922759
 30
0.0
  0
VERTEX
  5
1E0
330
1D8
100
AcDbEntity
  8
0
100
AcDbVertex
100
AcDb2dVertex
 10
147.2794290184
 20
49.4144972516
 30
0.0
  0
VERTEX
  5
1E1
330
1D8
100
AcDbEntity
  8
0
100
AcDbVertex
100
AcDb2dVertex
 10
147.2665340007
 20
49.41006645739999
 30
0.0
  0
VERTEX
  5
1E2
330
1D8
100
AcDbEntity
  8
0
100
AcDbVertex
100
AcDb2dVertex
 10
147.2572429676
 20
49.39969358889999
 30
0.0
  0
VERTEX
  5
1E3
330
1D8
100
AcDbEntity
  8
0
100
AcDbVertex
100
AcDb2dVertex
 10
147.2523814682999
 20
49.3843003209
 30
0.0
  0
VERTEX
  5
1E4
330
1D8
100
AcDbEntity
  8
0
100
AcDbVertex
100
AcDb2dVertex
 10
147.2523814682999
 20
49.3652544129
 30
0.0
  0
VERTEX
  5
1E5
330
1D8
100
AcDbEntity
  8
0
100
AcDbVertex
100
AcDb2dVertex
 10
147.2572429676
 20
49.3442481773
 30
0.0
  0
VERTEX
  5
1E6
330
1D8
100
AcDbEntity
  8
0
100
AcDbVertex
100
AcDb2dVertex
 10
147.2665340007
 20
49.3231481103
 30
0.0
  0
VERTEX
  5
1E7
330
1D8
100
AcDbEntity
  8
0
100
AcDbVertex
100
AcDb2dVertex
 10
147.2794290184
 20
49.3038290456
 30
0.0
  0
VERTEX
  5
1E8
330
1D8
100
AcDbEntity
  8
0
100
AcDbVertex
100
AcDb2dVertex
 10
147.2947822419
 20
49.28800756680001
 30
0.0
  0
VERTEX
  5
1E9
330
1D8
100
AcDbEntity
  8
0
100
AcDbVertex
100
AcDb2dVertex
 10
147.3112294698999
 20
49.2770894816
 30
0.0
  0
VERTEX
  5
1EA
330
1D8
100
AcDbEntity
  8
0
100
AcDbVertex
100
AcDb2dVertex
 10
147.3273092939999
 20
49.27204491
 30
0.0
  0
VERTEX
  5
1EB
330
1D8
100
AcDbEntity
  8
0
100
AcDbVertex
100
AcDb2dVertex
 10
147.3415929512999
 20
49.27332208420001
 30
0.0
  0
VERTEX
  5
1EC
330
1D8
100
AcDbEntity
  8
0
100
AcDbVertex
100
AcDb2dVertex
 10
147.3528112761
 20
49.2808075217
 30
0.0
  0
VERTEX
  5
1ED
330
1D8
100
AcDbEntity
  8
0
100
AcDbVertex
100
AcDb2dVertex
 10
147.3599674710999
 20
49.2938361085
 30
0.0
  0
VERTEX
  5
1EE
330
1D8
100
AcDbEntity
  8
0
100
AcDbVertex
100
AcDb2dVertex
 10
147.3624256767999
 20
49.3112501975
 30
0.0
  0
SEQEND
  5
1EF
330
1D8
100
AcDbEntity
  8
0
  0
POLYLINE
  5
1F0
330
A
100
AcDbEntity
  8
0
  6
Continuous
 62
     7
100
AcDb2dPolyline
 66
     1
 10
0.0
 20
0.0
 30
0.0
 70
   128
 40
0.0590551181
 41
0.0590551181
  0
VERTEX
  5
1F1
330
1F0
100
AcDbEntity
  8
0
100
AcDbVertex
100
AcDb2dVertex
 10
147.3624256767999
 20
60.7428215639
 30
0.0
  0
VERTEX
  5
1F2
330
1F0
100
AcDbEntity
  8
0
100
AcDbVertex
100
AcDb2dVertex
 10
147.3599674710999
 20
60.7630738369
 30
0.0
  0
VERTEX
  5
1F3
330
1F0
100
AcDbEntity
  8
0
100
AcDbVertex
100
AcDb2dVertex
 10
147.3528112761
 20
60.7843647906
 30
0.0
  0
VERTEX
  5
1F4
330
1F0
100
AcDbEntity
  8
0
100
AcDbVertex
100
AcDb2dVertex
 10
147.3415929512999
 20
60.8048026302
 30
0.0
  0
VERTEX
  5
1F5
330
1F0
100
AcDbEntity
  8
0
100
AcDbVertex
100
AcDb2dVertex
 10
147.3273092939999
 20
60.82257136399999
 30
0.0
  0
VERTEX
  5
1F6
330
1F0
100
AcDbEntity
  8
0
100
AcDbVertex
100
AcDb2dVertex
 10
147.3112294698999
 20
60.83609216220001
 30
0.0
  0
VERTEX
  5
1F7
330
1F0
100
AcDbEntity
  8
0
100
AcDbVertex
100
AcDb2dVertex
 10
147.2947822419
 20
60.84416364229999
 30
0.0
  0
VERTEX
  5
1F8
330
1F0
100
AcDbEntity
  8
0
100
AcDbVertex
100
AcDb2dVertex
 10
147.2794290184
 20
60.84606861800001
 30
0.0
  0
VERTEX
  5
1F9
330
1F0
100
AcDbEntity
  8
0
100
AcDbVertex
100
AcDb2dVertex
 10
147.2665340007
 20
60.8416378238
 30
0.0
  0
VERTEX
  5
1FA
330
1F0
100
AcDbEntity
  8
0
100
AcDbVertex
100
AcDb2dVertex
 10
147.2572429676
 20
60.8312649553
 30
0.0
  0
VERTEX
  5
1FB
330
1F0
100
AcDbEntity
  8
0
100
AcDbVertex
100
AcDb2dVertex
 10
147.2523814682999
 20
60.81587168729999
 30
0.0
  0
VERTEX
  5
1FC
330
1F0
100
AcDbEntity
  8
0
100
AcDbVertex
100
AcDb2dVertex
 10
147.2523814682999
 20
60.7968257793
 30
0.0
  0
VERTEX
  5
1FD
330
1F0
100
AcDbEntity
  8
0
100
AcDbVertex
100
AcDb2dVertex
 10
147.2572429676
 20
60.7758195437
 30
0.0
  0
VERTEX
  5
1FE
330
1F0
100
AcDbEntity
  8
0
100
AcDbVertex
100
AcDb2dVertex
 10
147.2665340007
 20
60.7547194767
 30
0.0
  0
VERTEX
  5
1FF
330
1F0
100
AcDbEntity
  8
0
100
AcDbVertex
100
AcDb2dVertex
 10
147.2794290184
 20
60.735400412
 30
0.0
  0
VERTEX
  5
200
330
1F0
100
AcDbEntity
  8
0
100
AcDbVertex
100
AcDb2dVertex
 10
147.2947822419
 20
60.7195789332
 30
0.0
  0
VERTEX
  5
201
330
1F0
100
AcDbEntity
  8
0
100
AcDbVertex
100
AcDb2dVertex
 10
147.3112294698999
 20
60.708660848
 30
0.0
  0
VERTEX
  5
202
330
1F0
100
AcDbEntity
  8
0
100
AcDbVertex
100
AcDb2dVertex
 10
147.3273092939999
 20
60.7036162764
 30
0.0
  0
VERTEX
  5
203
330
1F0
100
AcDbEntity
  8
0
100
AcDbVertex
100
AcDb2dVertex
 10
147.3415929512999
 20
60.7048934506
 30
0.0
  0
VERTEX
  5
204
330
1F0
100
AcDbEntity
  8
0
100
AcDbVertex
100
AcDb2dVertex
 10
147.3528112761
 20
60.7123788881
 30
0.0
  0
VERTEX
  5
205
330
1F0
100
AcDbEntity
  8
0
100
AcDbVertex
100
AcDb2dVertex
 10
147.3599674710999
 20
60.72540747489999
 30
0.0
  0
VERTEX
  5
206
330
1F0
100
AcDbEntity
  8
0
100
AcDbVertex
100
AcDb2dVertex
 10
147.3624256767999
 20
60.7428215639
 30
0.0
  0
SEQEND
  5
207
330
1F0
100
AcDbEntity
  8
0
  0
LINE
  5
208
330
A
100
AcDbEntity
  8
0
  6
Continuous
 62
     7
370
    15
100
AcDbLine
 10
119.8540292146999
 20
30.7687190795
 30
0.0
 11
119.8540292146999
 21
76.7687210169
 31
0.0
  0
LINE
  5
209
330
A
100
AcDbEntity
  8
0
  6
Continuous
 62
     7
370
    15
100
AcDbLine
 10
119.8540292146999
 20
30.7687190795
 30
0.0
 11
119.6040292177
 21
30.7687190795
 31
0.0
  0
LINE
  5
20A
330
A
100
AcDbEntity
  8
0
  6
Continuous
 62
     7
370
    15
100
AcDbLine
 10
119.6040292177
 20
30.7687190795
 30
0.0
 11
119.6040292177
 21
76.7687210169
 31
0.0
  0
LINE
  5
20B
330
A
100
AcDbEntity
  8
0
  6
Continuous
 62
     7
370
    15
100
AcDbLine
 10
119.8540292146999
 20
76.7687210169
 30
0.0
 11
119.6040292177
 21
76.7687210169
 31
0.0
  0
DIMENSION
  5
218
330
A
100
AcDbEntity
  8
0
100
AcDbDimension
  2
*D13
 10
119.8540292177
 20
78.7063307975
 30
0.0
 11
128.916646581
 21
78.7063307975
 31
0.0
 70
   160
 71
     5
 42
0.0
  3
SLDDIMSTYLE0
100
AcDbAlignedDimension
 13
119.6040292177
 23
76.7687190795
 33
0.0
 14
119.8540292177
 24
76.7687190795
 34
0.0
100
AcDbRotatedDimension
  0
MTEXT
  5
219
330
A
100
AcDbEntity
  8
0
 62
     1
100
AcDbMText
 10
115.9678108442
 20
7.1214208494
 30
0.0
 40
1.0
 41
0.0
 71
     1
 72
     1
  1
203.0 LBS
  7
SLDTEXTSTYLE0
 73
     1
 44
1.0
  0
ENDSEC
  0
SECTION
  2
OBJECTS
  0
DICTIONARY
  5
19
330
0
100
AcDbDictionary
281
     1
  3
ACAD_GROUP
350
1A
  3
ACAD_LAYOUT
350
1E
  3
ACAD_MLINESTYLE
350
1B
  3
ACAD_PLOTSETTINGS
350
22
  3
ACAD_PLOTSTYLENAME
350
1F
  3
ACAD_WIPEOUT_VARS
350
23
  0
DICTIONARY
  5
1A
102
{ACAD_REACTORS
330
19
102
}
330
19
100
AcDbDictionary
281
     1
  0
DICTIONARY
  5
1E
102
{ACAD_REACTORS
330
19
102
}
330
19
100
AcDbDictionary
281
     1
  3
Layout1
350
21
  3
Model
350
20
  0
DICTIONARY
  5
1B
102
{ACAD_REACTORS
330
19
102
}
330
19
100
AcDbDictionary
281
     1
  3
Standard
350
1C
  0
DICTIONARY
  5
22
102
{ACAD_REACTORS
330
19
102
}
330
19
100
AcDbDictionary
281
     1
  0
ACDBDICTIONARYWDFLT
  5
1F
102
{ACAD_REACTORS
330
19
102
}
330
19
100
AcDbDictionary
281
     1
  3
Normal
350
1D
100
AcDbDictionaryWithDefault
340
1D
  0
WIPEOUTVARIABLES
  5
23
330
19
100
AcDbWipeoutVariables
 70
     1
  0
LAYOUT
  5
21
102
{ACAD_REACTORS
330
1E
102
}
330
1E
100
AcDbPlotSettings
  1

  2

  4

  6

 40
0.0
 41
0.0
 42
0.0
 43
0.0
 44
0.0
 45
0.0
 46
0.0
 47
0.0
 48
0.0
 49
0.0
140
0.0
141
0.0
142
1.0
143
1.0
 70
     0
 72
     0
 73
     0
 74
     0
  7

 75
     0
147
1.0
148
0.0
149
0.0
100
AcDbLayout
  1
Layout1
 70
     1
 71
     1
 10
0.0
 20
0.0
 11
12.0
 21
9.0
 12
0.0
 22
0.0
 32
0.0
 14
1.000000000000000E+20
 24
1.000000000000000E+20
 34
1.000000000000000E+20
 15
-1.000000000000000E+20
 25
-1.000000000000000E+20
 35
-1.000000000000000E+20
146
0.0
 13
0.0
 23
0.0
 33
0.0
 16
1.0
 26
0.0
 36
0.0
 17
0.0
 27
1.0
 37
0.0
 76
     0
330
B
  0
LAYOUT
  5
20
102
{ACAD_REACTORS
330
1E
102
}
330
1E
100
AcDbPlotSettings
  1

  2

  4

  6

 40
0.0
 41
0.0
 42
0.0
 43
0.0
 44
0.0
 45
0.0
 46
0.0
 47
0.0
 48
0.0
 49
0.0
140
0.0
141
0.0
142
1.0
143
1.0
 70
  1024
 72
     0
 73
     0
 74
     0
  7

 75
     0
147
1.0
148
0.0
149
0.0
100
AcDbLayout
  1
Model
 70
     0
 71
     0
 10
0.0
 20
0.0
 11
0.0
 21
0.0
 12
0.0
 22
0.0
 32
0.0
 14
0.0
 24
0.0
 34
0.0
 15
0.0
 25
0.0
 35
0.0
146
0.0
 13
0.0
 23
0.0
 33
0.0
 16
0.0
 26
0.0
 36
0.0
 17
0.0
 27
0.0
 37
0.0
 76
     0
330
A
  0
MLINESTYLE
  5
1C
102
{ACAD_REACTORS
330
1B
102
}
330
1B
100
AcDbMlineStyle
  2
STANDARD
 70
     0
  3

 62
     0
 51
90.0
 52
90.0
 71
     2
 49
0.5
 62
   256
  6
BYLAYER
 49
-0.5
 62
   256
  6
BYLAYER
  0
ACDBPLACEHOLDER
  5
1D
102
{ACAD_REACTORS
330
1F
102
}
330
1F
  0
ENDSEC
  0
EOF
