  0
SECTION
  2
HEADER
  9
$ACADVER
  1
AC1015
  9
$ACADMAINTVER
 70
         6
  9
$DWGCODEPAGE
  3
ANSI_1252
  9
$INSBASE
 10
0.0
 20
0.0
 30
0.0
  9
$EXTMIN
 10
0.0
 20
0.0
 30
0.0
  9
$EXTMAX
 10
136.0
 20
88.0
 30
0.0
  9
$LIMMIN
 10
0.0
 20
0.0
  9
$LIMMAX
 10
0.0
 20
0.0
  9
$ORTHOMODE
 70
         0
  9
$REGENMODE
 70
         1
  9
$FILLMODE
 70
         1
  9
$QTEXTMODE
 70
         0
  9
$MIRRTEXT
 70
         1
  9
$LTSCALE
 40
1.0
  9
$ATTMODE
 70
         1
  9
$TEXTSIZE
 40
0.8
  9
$TRACEWID
 40
0.05
  9
$TEXTSTYLE
  7
Standard
  9
$CLAYER
  8
0
  9
$CELTYPE
  6
Continuous
  9
$CECOLOR
 62
       256
  9
$CELTSCALE
 40
1.0
  9
$DISPSILH
 70
         0
  9
$DIMSCALE
 40
1.0
  9
$DIMASZ
 40
0.0
  9
$DIMEXO
 40
0.0
  9
$DIMDLI
 40
0.38
  9
$DIMRND
 40
0.0
  9
$DIMDLE
 40
0.0
  9
$DIMEXE
 40
0.18
  9
$DIMTP
 40
0.0
  9
$DIMTM
 40
0.0
  9
$DIMTXT
 40
0.8
  9
$DIMCEN
 40
0.09
  9
$DIMTSZ
 40
0.0
  9
$DIMTOL
 70
         0
  9
$DIMLIM
 70
         0
  9
$DIMTIH
 70
         1
  9
$DIMTOH
 70
         1
  9
$DIMSE1
 70
         0
  9
$DIMSE2
 70
         0
  9
$DIMTAD
 70
         0
  9
$DIMZIN
 70
         0
  9
$DIMBLK
  1

  9
$DIMASO
 70
         1
  9
$DIMSHO
 70
         1
  9
$DIMPOST
  1

  9
$DIMAPOST
  1

  9
$DIMALT
 70
         0
  9
$DIMALTD
 70
         2
  9
$DIMALTF
 40
25.4
  9
$DIMLFAC
 40
1.0
  9
$DIMTOFL
 70
         0
  9
$DIMTVP
 40
0.0
  9
$DIMTIX
 70
         0
  9
$DIMSOXD
 70
         0
  9
$DIMSAH
 70
         0
  9
$DIMBLK1
  1

  9
$DIMBLK2
  1

  9
$DIMSTYLE
  2
Standard
  9
$DIMCLRD
 70
         0
  9
$DIMCLRE
 70
         0
  9
$DIMCLRT
 70
         0
  9
$DIMTFAC
 40
1.0
  9
$DIMGAP
 40
0.0
  9
$DIMJUST
 70
         0
  9
$DIMSD1
 70
         0
  9
$DIMSD2
 70
         0
  9
$DIMTOLJ
 70
         1
  9
$DIMTZIN
 70
         0
  9
$DIMALTZ
 70
         0
  9
$DIMALTTZ
 70
         0
  9
$DIMUPT
 70
         0
  9
$DIMDEC
 70
         4
  9
$DIMTDEC
 70
         4
  9
$DIMALTU
 70
         2
  9
$DIMALTTD
 70
         2
  9
$DIMTXSTY
  7
Standard
  9
$DIMAUNIT
 70
         0
  9
$DIMADEC
 70
         0
  9
$DIMALTRND
 40
0.0
  9
$DIMAZIN
 70
         0
  9
$DIMDSEP
 70
         0
  9
$DIMATFIT
 70
         3
  9
$DIMFRAC
 70
         0
  9
$DIMLDRBLK
  1

  9
$DIMLUNIT
 70
         2
  9
$DIMLWD
 70
         0
  9
$DIMLWE
 70
         0
  9
$DIMTMOVE
 70
         0
  9
$LUNITS
 70
         2
  9
$LUPREC
 70
         3
  9
$SKETCHINC
 40
0.1
  9
$FILLETRAD
 40
0.0
  9
$AUNITS
 70
         0
  9
$AUPREC
 70
         2
  9
$MENU
  1
acad
  9
$ELEVATION
 40
0.0
  9
$PELEVATION
 40
0.0
  9
$THICKNESS
 40
0.0
  9
$LIMCHECK
 70
         0
  9
$CHAMFERA
 40
0.0
  9
$CHAMFERB
 40
0.0
  9
$CHAMFERC
 40
0.0
  9
$CHAMFERD
 40
0.0
  9
$SKPOLY
 70
         0
  9
$TDCREATE
 40
0.000000000
  9
$TDUCREATE
 40
0.000000000
  9
$TDUPDATE
 40
0.000000000
  9
$TDUUPDATE
 40
0.000000000
  9
$TDINDWG
 40
0.0000000000
  9
$TDUSRTIMER
 40
0.0000000000
  9
$USRTIMER
 70
         1
  9
$ANGBASE
 50
0.0
  9
$ANGDIR
 70
         0
  9
$PDMODE
 70
         0
  9
$PDSIZE
 40
-1.0
  9
$PLINEWID
 40
0.0
  9
$SPLFRAME
 70
         0
  9
$SPLINETYPE
 70
         6
  9
$SPLINESEGS
 70
         8
  9
$HANDSEED
  5
308
  9
$SURFTAB1
 70
         6
  9
$SURFTAB2
 70
         6
  9
$SURFTYPE
 70
         6
  9
$SURFU
 70
         6
  9
$SURFV
 70
         6
  9
$UCSBASE
  2

  9
$UCSNAME
  2

  9
$UCSORG
 10
0.0
 20
0.0
 30
0.0
  9
$UCSXDIR
 10
1.0
 20
0.0
 30
0.0
  9
$UCSYDIR
 10
0.0
 20
1.0
 30
0.0
  9
$UCSORTHOREF
  2

  9
$UCSORTHOVIEW
 70
         0
  9
$UCSORGTOP
 10
0.0
 20
0.0
 30
0.0
  9
$UCSORGBOTTOM
 10
0.0
 20
0.0
 30
0.0
  9
$UCSORGLEFT
 10
0.0
 20
0.0
 30
0.0
  9
$UCSORGRIGHT
 10
0.0
 20
0.0
 30
0.0
  9
$UCSORGFRONT
 10
0.0
 20
0.0
 30
0.0
  9
$UCSORGBACK
 10
0.0
 20
0.0
 30
0.0
  9
$PUCSBASE
  2

  9
$PUCSNAME
  2

  9
$PUCSORG
 10
0.0
 20
0.0
 30
0.0
  9
$PUCSXDIR
 10
1.0
 20
0.0
 30
0.0
  9
$PUCSYDIR
 10
0.0
 20
1.0
 30
0.0
  9
$PUCSORTHOREF
  2

  9
$PUCSORTHOVIEW
 70
         0
  9
$PUCSORGTOP
 10
0.0
 20
0.0
 30
0.0
  9
$PUCSORGBOTTOM
 10
0.0
 20
0.0
 30
0.0
  9
$PUCSORGLEFT
 10
0.0
 20
0.0
 30
0.0
  9
$PUCSORGRIGHT
 10
0.0
 20
0.0
 30
0.0
  9
$PUCSORGFRONT
 10
0.0
 20
0.0
 30
0.0
  9
$PUCSORGBACK
 10
0.0
 20
0.0
 30
0.0
  9
$USERI1
 70
         0
  9
$USERI2
 70
         0
  9
$USERI3
 70
         0
  9
$USERI4
 70
         0
  9
$USERI5
 70
         0
  9
$USERR1
 40
0.0
  9
$USERR2
 40
0.0
  9
$USERR3
 40
0.0
  9
$USERR4
 40
0.0
  9
$USERR5
 40
0.0
  9
$WORLDVIEW
 70
         1
  9
$SHADEDGE
 70
         3
  9
$SHADEDIF
 70
        70
  9
$TILEMODE
 70
         1
  9
$MAXACTVP
 70
        16
  9
$PINSBASE
 10
0.0
 20
0.0
 30
0.0
  9
$PLIMCHECK
 70
         0
  9
$PEXTMIN
 10
1.0000000000E+20
 20
1.0000000000E+20
 30
1.0000000000E+20
  9
$PEXTMAX
 10
-1.0000000000E+20
 20
-1.0000000000E+20
 30
-1.0000000000E+20
  9
$PLIMMIN
 10
0.0
 20
0.0
  9
$PLIMMAX
 10
12.0
 20
9.0
  9
$UNITMODE
 70
         0
  9
$VISRETAIN
 70
         0
  9
$PLINEGEN
 70
         1
  9
$PSLTSCALE
 70
         1
  9
$TREEDEPTH
 70
      3020
  9
$CMLSTYLE
  2
Standard
  9
$CMLJUST
 70
         0
  9
$CMLSCALE
 40
1.0
  9
$PROXYGRAPHICS
 70
         0
  9
$MEASUREMENT
 70
         0
  9
$CELWEIGHT
370
         0
  9
$ENDCAPS
280
         0
  9
$JOINSTYLE
280
         0
  9
$LWDISPLAY
290
         1
  9
$INSUNITS
 70
         0
  9
$HYPERLINKBASE
  1

  9
$STYLESHEET
  1

  9
$XEDIT
290
         1
  9
$CEPSNTYPE
380
         0
  9
$PSTYLEMODE
290
         1
  9
$FINGERPRINTGUID
  2

  9
$VERSIONGUID
  2

  9
$EXTNAMES
290
         1
  9
$PSVPSCALE
 40
0.0
  0
ENDSEC
  0
SECTION
  2
CLASSES
  0
CLASS
  1
LWPOLYLINE
  2
AcDbPolyline
  3
AutoCAD 2000
 90
        0
280
         0
281
         1
  0
CLASS
  1
IMAGE
  2
AcDbRasterImage
  3
ISM
 90
      127
280
         0
281
         1
  0
CLASS
  1
OLE2FRAME
  2
AcDbOle2Frame
  3
AutoCAD 2000
 90
        0
280
         0
281
         1
  0
CLASS
  1
HATCH
  2
AcDbHatch
  3
AutoCAD 2000
 90
        0
280
         0
281
         1
  0
CLASS
  1
DICTIONARYVAR
  2
AcDbDictionaryVar
  3
AutoCAD 2000
 90
        0
280
         0
281
         0
  0
CLASS
  1
RASTERVARIABLES
  2
AcDbRasterVariables
  3
ISM
 90
        0
280
         0
281
         0
  0
CLASS
  1
IMAGEDEF
  2
AcDbRasterImageDef
  3
ISM
 90
        0
280
         0
281
         0
  0
CLASS
  1
IMAGEDEF_REACTOR
  2
AcDbRasterImageDefReactor
  3
ISM
 90
        1
280
         0
281
         0
  0
CLASS
  1
IDBUFFER
  2
AcDbIdBuffer
  3
AutoCAD 2000
 90
        0
280
         0
281
         0
  0
CLASS
  1
SPATIAL_FILTER
  2
AcDbSpatialFilter
  3
AutoCAD 2000
 90
        0
280
         0
281
         0
  0
CLASS
  1
XRECORD
  2
AcDbXrecord
  3
AutoCAD 2000
 90
        0
280
         0
281
         0
  0
CLASS
  1
SORTENTSTABLE
  2
AcDbSortentsTable
  3
AutoCAD 2000
 90
        0
280
         0
281
         0
  0
CLASS
  1
LAYER_INDEX
  2
AcDbLayerIndex
  3
AutoCAD 2000
 90
        0
280
         0
281
         0
  0
CLASS
  1
SPATIAL_INDEX
  2
AcDbSpatialIndex
  3
AutoCAD 2000
 90
        0
280
         0
281
         0
  0
CLASS
  1
OBJECT_PTR
  2
CAseDLPNTableRecord
  3
"ASE-LPNTableRecord"
 90
        1
280
         0
281
         0
  0
CLASS
  1
LAYOUT
  2
AcDbLayout
  3
AutoCAD 2000
 90
        0
280
         0
281
         0
  0
CLASS
  1
PLOTSETTINGS
  2
AcDbPlotSettings
  3
AutoCAD 2000
 90
        0
280
         0
281
         0
  0
CLASS
  1
ACDBDICTIONARYWDFLT
  2
AcDbDictionaryWithDefault
  3
AutoCAD 2000
 90
        0
280
         0
281
         0
  0
CLASS
  1
ACDBPLACEHOLDER
  2
AcDbPlaceHolder
  3
AutoCAD 2000
 90
        0
280
         0
281
         0
  0
CLASS
  1
VBA_PROJECT
  2
AcDbVbaProject
  3
acadvba
 90
        0
280
         0
281
         0
  0
CLASS
  1
WIPEOUT
  2
AcDbWipeout
  3
WipeOut|AutoCAD Express Tool|expresstools@autodesk.com
 90
      127
280
         0
281
         1
  0
CLASS
  1
WIPEOUTVARIABLES
  2
AcDbWipeoutVariables
  3
WipeOut|AutoCAD Express Tool|expresstools@autodesk.com
 90
        0
280
         0
281
         0
  0
CLASS
  1
RTEXT
  2
RText
  3
RText|AutoCAD Express Tool|expresstools@autodesk.com
 90
        0
280
         0
281
         1
  0
CLASS
  1
ARCALIGNEDTEXT
  2
AcDbArcAlignedText
  3
ATEXT|AutoCAD Express Tool|expresstools@autodesk.com
 90
        0
280
         0
281
         1
  0
ENDSEC
  0
SECTION
  2
TABLES
  0
TABLE
  2
VPORT
  5
7
100
AcDbSymbolTable
 70
         1
  0
VPORT
  5
15
100
AcDbSymbolTableRecord
100
AcDbViewportTableRecord
  2
*ACTIVE
 70
         0
 10
0.0
 20
0.0
 11
1.0
 21
1.0
 12
68.0
 22
44.0
 13
0.0
 23
0.0
 14
1.0
 24
1.0
 15
0.0
 25
0.0
 16
0.0
 26
0.0
 36
1.0
 17
0.0
 27
0.0
 37
0.0
 40
88.0
 41
0.6470588235
 42
50.0
 43
0.0
 44
0.0
 50
0.0
 51
0.0
 71
         0
 72
      2000
 73
         1
 74
         1
 75
         0
 76
         0
 77
         0
 78
         0
281
         0
 65
         0
110
0.0
120
0.0
130
0.0
111
1.0
121
0.0
131
0.0
112
0.0
122
1.0
132
0.0
345
0
346
0
 79
         0
146
0.0
  0
ENDTAB
  0
TABLE
  2
LTYPE
  5
4
100
AcDbSymbolTable
 70
         8
  0
LTYPE
  5
11
100
AcDbSymbolTableRecord
100
AcDbLinetypeTableRecord
  2
ByBlock
 70
        64
  3

 72
        65
 73
         0
 40
0.0
  0
LTYPE
  5
12
100
AcDbSymbolTableRecord
100
AcDbLinetypeTableRecord
  2
ByLayer
 70
        64
  3

 72
        65
 73
         0
 40
0.0
  0
LTYPE
  5
13
100
AcDbSymbolTableRecord
100
AcDbLinetypeTableRecord
  2
Continuous
 70
        64
  3
Solid line
 72
        65
 73
         0
 40
0.0
  0
LTYPE
  5
24
100
AcDbSymbolTableRecord
100
AcDbLinetypeTableRecord
  2
HIDDEN
 70
        64
  3
Hidden __ __ __ __ __ __ __ __ __ __ __ __ __ __
 72
        65
 73
         2
 40
0.075
 49
0.05
 74
         0
 49
-0.025
 74
         0
  0
LTYPE
  5
25
100
AcDbSymbolTableRecord
100
AcDbLinetypeTableRecord
  2
PHANTOM
 70
        64
  3
Phantom ______  __  __  ______  __  __  ______
 72
        65
 73
         6
 40
0.5
 49
0.25
 74
         0
 49
-0.05
 74
         0
 49
0.05
 74
         0
 49
-0.05
 74
         0
 49
0.05
 74
         0
 49
-0.05
 74
         0
  0
LTYPE
  5
26
100
AcDbSymbolTableRecord
100
AcDbLinetypeTableRecord
  2
CENTER
 70
        64
  3
Center ____ _ ____ _ ____ _ ____ _ ____ _ ____
 72
        65
 73
         4
 40
0.4
 49
0.25
 74
         0
 49
-0.05
 74
         0
 49
0.05
 74
         0
 49
-0.05
 74
         0
  0
LTYPE
  5
27
100
AcDbSymbolTableRecord
100
AcDbLinetypeTableRecord
  2
CENTERX2
 70
        64
  3
Center (2x) ________  __  ________  __  _____
 72
        65
 73
         4
 40
0.8
 49
0.5
 74
         0
 49
-0.1
 74
         0
 49
0.1
 74
         0
 49
-0.1
 74
         0
  0
LTYPE
  5
28
100
AcDbSymbolTableRecord
100
AcDbLinetypeTableRecord
  2
DOT2
 70
        64
  3
Dot (.5x) ........................................
 72
        65
 73
         2
 40
0.025
 49
0.0
 74
         0
 49
-0.025
 74
         0
  0
ENDTAB
  0
TABLE
  2
LAYER
  5
2
100
AcDbSymbolTable
 70
         1
  0
LAYER
  5
14
100
AcDbSymbolTableRecord
100
AcDbLayerTableRecord
  2
0
 70
         0
 62
         7
  6
Continuous
290
         1
370
        -3
390
1D
  0
ENDTAB
  0
TABLE
  2
STYLE
  5
3
100
AcDbSymbolTable
 70
         2
  0
STYLE
  5
17
100
AcDbSymbolTableRecord
100
AcDbTextStyleTableRecord
  2
Standard
 70
         0
 40
0.0
 41
1.0
 50
0.0
 71
         0
 42
0.0
  3
txt
  4

  0
STYLE
  5
75
100
AcDbSymbolTableRecord
100
AcDbTextStyleTableRecord
  2
SLDTEXTSTYLE0
 70
         0
 40
0.0
 41
0.75
 50
0.0
 71
         0
 42
0.0
  3
txt
  4

  0
ENDTAB
  0
TABLE
  2
VIEW
  5
5
100
AcDbSymbolTable
 70
         0
  0
ENDTAB
  0
TABLE
  2
UCS
  5
6
100
AcDbSymbolTable
 70
         0
  0
ENDTAB
  0
TABLE
  2
APPID
  5
8
100
AcDbSymbolTable
 70
         1
  0
APPID
  5
16
100
AcDbSymbolTableRecord
100
AcDbRegAppTableRecord
  2
ACAD
 70
         0
  0
ENDTAB
  0
TABLE
  2
DIMSTYLE
  5
9
100
AcDbSymbolTable
 70
         4
100
AcDbDimStyleTable
 71
         0
  0
DIMSTYLE
105
18
100
AcDbSymbolTableRecord
100
AcDbDimStyleTableRecord
  2
Standard
 70
         0
  3

  4

 40
1.0
 41
0.18
 42
0.0625
 43
0.38
 44
0.18
 45
0.0
 46
0.0
 47
0.0
 48
0.0
 71
         0
 72
         0
 73
         1
 74
         1
 75
         0
 76
         0
 77
         0
 78
         0
 79
         0
140
0.18
141
0.09
142
0.0
143
25.4
144
1.0
145
0.0
146
1.0
147
0.09
148
0.0
170
         0
171
         2
172
         0
173
         0
174
         0
175
         0
176
         0
177
         0
178
         0
179
         0
271
         4
272
         4
273
         2
274
         2
275
         0
276
         0
277
         2
278
        46
279
         0
280
         0
281
         0
282
         0
283
         1
284
         0
285
         0
286
         0
288
         0
289
         3
340
17
341
0
342
0
343
0
344
0
371
        -2
372
        -2
  0
DIMSTYLE
105
D5
100
AcDbSymbolTableRecord
100
AcDbDimStyleTableRecord
  2
SLDDIMSTYLE0
 70
         0
  3

  4

 40
1.0
 41
1.5
 42
0.0625
 43
0.38
 44
0.96
 45
0.0
 46
0.0
 47
0.0
 48
0.0
 71
         0
 72
         0
 73
         1
 74
         1
 75
         0
 76
         0
 77
         0
 78
        12
 79
         0
140
0.8
141
0.09
142
0.0
143
25.4
144
1.0
145
0.0
146
1.0
147
0.2
148
0.0
170
         0
171
         2
172
         0
173
         1
174
         0
175
         0
176
         1
177
         1
178
         1
179
         0
271
         3
272
         4
273
         2
274
         2
275
         0
276
         0
277
         2
278
        46
279
         0
280
         0
281
         0
282
         0
283
         1
284
        12
285
         0
286
         0
288
         0
289
         3
340
17
341
0
342
0
343
0
344
0
371
        -2
372
        -2
  0
DIMSTYLE
105
EF
100
AcDbSymbolTableRecord
100
AcDbDimStyleTableRecord
  2
SLDDIMSTYLE1
 70
         0
  3

  4

 40
1.0
 41
1.5
 42
0.0625
 43
0.38
 44
0.96
 45
0.0
 46
0.0
 47
0.0
 48
0.0
 71
         0
 72
         0
 73
         1
 74
         1
 75
         0
 76
         0
 77
         0
 78
        12
 79
         0
140
0.8
141
0.09
142
0.0
143
25.4
144
1.0
145
0.0
146
1.0
147
0.2
148
0.0
170
         0
171
         2
172
         0
173
         1
174
         0
175
         0
176
         1
177
         1
178
         1
179
         0
271
         3
272
         4
273
         2
274
         2
275
         0
276
         0
277
         2
278
        46
279
         0
280
         0
281
         0
282
         0
283
         1
284
        12
285
         0
286
         0
288
         0
289
         3
340
17
341
0
342
0
343
0
344
0
371
        -2
372
        -2
  0
DIMSTYLE
105
180
100
AcDbSymbolTableRecord
100
AcDbDimStyleTableRecord
  2
SLDDIMSTYLE2
 70
         0
  3

  4

 40
1.0
 41
1.5
 42
0.0625
 43
0.38
 44
0.96
 45
0.0
 46
0.0
 47
0.0
 48
0.0
 71
         0
 72
         0
 73
         1
 74
         1
 75
         0
 76
         0
 77
         0
 78
        12
 79
         0
140
0.8
141
0.09
142
0.0
143
25.4
144
1.0
145
0.0
146
1.0
147
0.2
148
0.0
170
         0
171
         2
172
         1
173
         1
174
         0
175
         0
176
         1
177
         1
178
         1
179
         0
271
         3
272
         4
273
         2
274
         2
275
         0
276
         0
277
         2
278
        46
279
         0
280
         0
281
         0
282
         0
283
         1
284
        12
285
         0
286
         0
288
         0
289
         3
340
17
341
0
342
0
343
0
344
0
371
        -2
372
        -2
  0
ENDTAB
  0
TABLE
  2
BLOCK_RECORD
  5
1
100
AcDbSymbolTable
 70
        21
  0
BLOCK_RECORD
  5
A
100
AcDbSymbolTableRecord
100
AcDbBlockTableRecord
  2
*MODEL_SPACE
340
20
  0
BLOCK_RECORD
  5
B
100
AcDbSymbolTableRecord
100
AcDbBlockTableRecord
  2
*PAPER_SPACE
340
21
  0
BLOCK_RECORD
  5
A8
100
AcDbSymbolTableRecord
100
AcDbBlockTableRecord
  2
NOTE50
340
0
102
{BLKREFS
331
AE
102
}
  0
BLOCK_RECORD
  5
CC
100
AcDbSymbolTableRecord
100
AcDbBlockTableRecord
  2
*D1
340
0
  0
BLOCK_RECORD
  5
DA
100
AcDbSymbolTableRecord
100
AcDbBlockTableRecord
  2
*D2
340
0
  0
BLOCK_RECORD
  5
E7
100
AcDbSymbolTableRecord
100
AcDbBlockTableRecord
  2
*D3
340
0
  0
BLOCK_RECORD
  5
F4
100
AcDbSymbolTableRecord
100
AcDbBlockTableRecord
  2
*D4
340
0
  0
BLOCK_RECORD
  5
101
100
AcDbSymbolTableRecord
100
AcDbBlockTableRecord
  2
*D5
340
0
  0
BLOCK_RECORD
  5
10D
100
AcDbSymbolTableRecord
100
AcDbBlockTableRecord
  2
*D6
340
0
  0
BLOCK_RECORD
  5
11A
100
AcDbSymbolTableRecord
100
AcDbBlockTableRecord
  2
*D7
340
0
  0
BLOCK_RECORD
  5
127
100
AcDbSymbolTableRecord
100
AcDbBlockTableRecord
  2
*D8
340
0
  0
BLOCK_RECORD
  5
134
100
AcDbSymbolTableRecord
100
AcDbBlockTableRecord
  2
*D9
340
0
  0
BLOCK_RECORD
  5
143
100
AcDbSymbolTableRecord
100
AcDbBlockTableRecord
  2
*D10
340
0
  0
BLOCK_RECORD
  5
14F
100
AcDbSymbolTableRecord
100
AcDbBlockTableRecord
  2
*D11
340
0
  0
BLOCK_RECORD
  5
15C
100
AcDbSymbolTableRecord
100
AcDbBlockTableRecord
  2
*D12
340
0
  0
BLOCK_RECORD
  5
169
100
AcDbSymbolTableRecord
100
AcDbBlockTableRecord
  2
*D13
340
0
  0
BLOCK_RECORD
  5
176
100
AcDbSymbolTableRecord
100
AcDbBlockTableRecord
  2
*D14
340
0
  0
BLOCK_RECORD
  5
185
100
AcDbSymbolTableRecord
100
AcDbBlockTableRecord
  2
*D15
340
0
  0
BLOCK_RECORD
  5
192
100
AcDbSymbolTableRecord
100
AcDbBlockTableRecord
  2
*D16
340
0
  0
BLOCK_RECORD
  5
19E
100
AcDbSymbolTableRecord
100
AcDbBlockTableRecord
  2
*D17
340
0
  0
BLOCK_RECORD
  5
1AA
100
AcDbSymbolTableRecord
100
AcDbBlockTableRecord
  2
*D18
340
0
  0
BLOCK_RECORD
  5
1B9
100
AcDbSymbolTableRecord
100
AcDbBlockTableRecord
  2
*D19
340
0
  0
BLOCK_RECORD
  5
1D6
100
AcDbSymbolTableRecord
100
AcDbBlockTableRecord
  2
*D20
340
0
  0
ENDTAB
  0
ENDSEC
  0
SECTION
  2
BLOCKS
  0
BLOCK
  5
D
100
AcDbEntity
  8
0
390
0
100
AcDbBlockBegin
  2
*MODEL_SPACE
 70
         0
 10
0.0
 20
0.0
 30
0.0
  3
*MODEL_SPACE
  1

  0
ENDBLK
  5
E
100
AcDbEntity
  8
0
390
0
100
AcDbBlockEnd
  0
BLOCK
  5
F
100
AcDbEntity
 67
         1
  8
0
390
0
100
AcDbBlockBegin
  2
*PAPER_SPACE
 70
         0
 10
0.0
 20
0.0
 30
0.0
  3
*PAPER_SPACE
  1

  0
ENDBLK
  5
10
100
AcDbEntity
 67
         1
  8
0
390
0
100
AcDbBlockEnd
  0
BLOCK
  5
A9
100
AcDbEntity
  8
0
390
0
 62
         0
100
AcDbBlockBegin
  2
NOTE50
 70
         0
 10
0.0
 20
0.0
 30
0.0
  3
NOTE50
  1

  0
MTEXT
  5
AA
100
AcDbEntity
  8
0
390
0
 62
         7
100
AcDbMText
 10
0.0
 20
0.0
 30
0.0
 40
0.72
 41
0.0
 71
         1
 72
         1
  1
BREAK SHARP EDGES 0.010 RAD %%p 0.003
  7
SLDTEXTSTYLE0
 73
         1
 44
1.0
  0
MTEXT
  5
AB
100
AcDbEntity
  8
0
390
0
 62
         7
100
AcDbMText
 10
0.0
 20
-1.08
 30
0.0
 40
0.72
 41
0.0
 71
         1
 72
         1
  1
MACHINED SURF FINISH  
  7
SLDTEXTSTYLE0
 73
         1
 44
1.0
  0
MTEXT
  5
AC
100
AcDbEntity
  8
0
390
0
 62
         7
100
AcDbMText
 10
11.088
 20
-1.08
 30
0.0
 40
0.72
 41
0.0
 71
         1
 72
         1
  1
< 125 MICROINCH
  7
SLDTEXTSTYLE0
 73
         1
 44
1.0
  0
ENDBLK
  5
AD
100
AcDbEntity
  8
0
390
0
100
AcDbBlockEnd
  0
BLOCK
  5
CD
100
AcDbEntity
  8
0
390
0
 62
         1
100
AcDbBlockBegin
  2
*D1
 70
         1
 10
0.0
 20
0.0
 30
0.0
  3
*D1
  1

  0
MTEXT
  5
CE
100
AcDbEntity
  8
0
390
0
100
AcDbMText
 10
52.0722771599
 20
79.8252928302
 30
0.0
 40
0.8
 41
0.0
 71
         7
 72
         1
  1
24"
  7
SLDTEXTSTYLE0
 73
         1
 44
1.0
  0
LINE
  5
CF
100
AcDbEntity
  8
0
390
0
100
AcDbLine
 10
64.9124492354
 20
68.0877083536
 30
0.0
 11
64.9124492354
 21
81.1449811321
 31
0.0
  0
LINE
  5
D0
100
AcDbEntity
  8
0
390
0
100
AcDbLine
 10
40.9124492354
 20
68.0877083536
 30
0.0
 11
40.9124492354
 21
81.1449811321
 31
0.0
  0
LINE
  5
D1
100
AcDbEntity
  8
0
390
0
100
AcDbLine
 10
64.9124492354
 20
80.1849811321
 30
0.0
 11
54.2526213108
 21
80.1849811321
 31
0.0
  0
LINE
  5
D2
100
AcDbEntity
  8
0
390
0
100
AcDbLine
 10
40.9124492354
 20
80.1849811321
 30
0.0
 11
51.5722771599
 21
80.1849811321
 31
0.0
  0
SOLID
  5
D3
100
AcDbEntity
  8
0
390
0
100
AcDbTrace
 10
64.9124492354
 20
80.1849811321
 30
0.0
 11
63.4124492354
 21
80.4349811321
 31
0.0
 12
63.4124492354
 22
79.9349811321
 32
0.0
 13
63.4124492354
 23
79.9349811321
 33
0.0
  0
SOLID
  5
D4
100
AcDbEntity
  8
0
390
0
100
AcDbTrace
 10
40.9124492354
 20
80.1849811321
 30
0.0
 11
42.4124492354
 21
79.9349811321
 31
0.0
 12
42.4124492354
 22
80.4349811321
 32
0.0
 13
42.4124492354
 23
80.4349811321
 33
0.0
  0
POINT
  5
D6
100
AcDbEntity
  8
0
390
0
100
AcDbPoint
 10
64.9124492354
 20
67.7677083536
 30
0.0
  0
POINT
  5
D7
100
AcDbEntity
  8
0
390
0
100
AcDbPoint
 10
40.9124492354
 20
67.7677083536
 30
0.0
  0
ENDBLK
  5
D8
100
AcDbEntity
  8
0
390
0
 62
         1
100
AcDbBlockEnd
  0
BLOCK
  5
DB
100
AcDbEntity
  8
0
390
0
 62
         1
100
AcDbBlockBegin
  2
*D2
 70
         1
 10
0.0
 20
0.0
 30
0.0
  3
*D2
  1

  0
MTEXT
  5
DC
100
AcDbEntity
  8
0
390
0
100
AcDbMText
 10
17.9534883019
 20
44.4080200518
 30
0.0
 40
0.8
 41
0.0
 71
         7
 72
         1
  1
46"
  7
SLDTEXTSTYLE0
 73
         1
 44
1.0
  0
LINE
  5
DD
100
AcDbEntity
  8
0
390
0
100
AcDbLine
 10
40.5924492354
 20
67.7677083536
 30
0.0
 11
17.8336603774
 21
67.7677083536
 31
0.0
  0
LINE
  5
DE
100
AcDbEntity
  8
0
390
0
100
AcDbLine
 10
40.5924492354
 20
21.7677083536
 30
0.0
 11
17.8336603774
 21
21.7677083536
 31
0.0
  0
LINE
  5
DF
100
AcDbEntity
  8
0
390
0
100
AcDbLine
 10
18.7936603774
 20
67.7677083536
 30
0.0
 11
18.7936603774
 21
45.5273966555
 31
0.0
  0
LINE
  5
E0
100
AcDbEntity
  8
0
390
0
100
AcDbLine
 10
18.7936603774
 20
21.7677083536
 30
0.0
 11
18.7936603774
 21
44.0080200518
 31
0.0
  0
SOLID
  5
E1
100
AcDbEntity
  8
0
390
0
100
AcDbTrace
 10
18.7936603774
 20
67.7677083536
 30
0.0
 11
18.5436603774
 21
66.2677083536
 31
0.0
 12
19.0436603774
 22
66.2677083536
 32
0.0
 13
19.0436603774
 23
66.2677083536
 33
0.0
  0
SOLID
  5
E2
100
AcDbEntity
  8
0
390
0
100
AcDbTrace
 10
18.7936603774
 20
21.7677083536
 30
0.0
 11
19.0436603774
 21
23.2677083536
 31
0.0
 12
18.5436603774
 22
23.2677083536
 32
0.0
 13
18.5436603774
 23
23.2677083536
 33
0.0
  0
POINT
  5
E3
100
AcDbEntity
  8
0
390
0
100
AcDbPoint
 10
40.9124492354
 20
67.7677083536
 30
0.0
  0
POINT
  5
E4
100
AcDbEntity
  8
0
390
0
100
AcDbPoint
 10
40.9124492354
 20
21.7677083536
 30
0.0
  0
ENDBLK
  5
E5
100
AcDbEntity
  8
0
390
0
 62
         1
100
AcDbBlockEnd
  0
BLOCK
  5
E8
100
AcDbEntity
  8
0
390
0
 62
         1
100
AcDbBlockBegin
  2
*D3
 70
         1
 10
0.0
 20
0.0
 30
0.0
  3
*D3
  1

  0
MTEXT
  5
E9
100
AcDbEntity
  8
0
390
0
 62
         7
100
AcDbMText
 10
67.1445645937
 20
36.8257651021
 30
0.0
 40
0.8
 41
0.0
 71
         7
 72
         1
  1
12 3/8"
  7
SLDTEXTSTYLE0
 73
         1
 44
1.0
  0
MTEXT
  5
EA
100
AcDbEntity
  8
0
390
0
 62
         7
100
AcDbMText
 10
70.7460498767
 20
36.8257651021
 30
0.0
 40
0.8
 41
0.0
 71
         7
 72
         1
  1
 RAD
  7
SLDTEXTSTYLE0
 73
         1
 44
1.0
  0
MTEXT
  5
EB
100
AcDbEntity
  8
0
390
0
 62
         7
100
AcDbMText
 10
67.9500778012
 20
35.3063884984
 30
0.0
 40
0.8
 41
0.0
 71
         7
 72
         1
  1
2 PLACES
  7
SLDTEXTSTYLE0
 73
         1
 44
1.0
  0
LINE
  5
EC
100
AcDbEntity
  8
0
390
0
 62
         7
100
AcDbLine
 10
75.9124492354
 20
38.7677083536
 30
0.0
 11
73.7259970465
 21
37.8736283167
 31
0.0
  0
LINE
  5
ED
100
AcDbEntity
  8
0
390
0
 62
         7
100
AcDbLine
 10
64.4581124049
 20
34.0838218506
 30
0.0
 11
66.6445645937
 21
34.9779018876
 31
0.0
  0
SOLID
  5
EE
100
AcDbEntity
  8
0
390
0
 62
         7
100
AcDbTrace
 10
64.4581124049
 20
34.0838218506
 30
0.0
 11
65.9411408389
 21
34.4201649251
 31
0.0
 12
65.7518928994
 22
34.8829664132
 32
0.0
 13
65.7518928994
 23
34.8829664132
 33
0.0
  0
POINT
  5
F0
100
AcDbEntity
  8
0
390
0
 62
         7
100
AcDbPoint
 10
64.4581124049
 20
34.0838218506
 30
0.0
  0
POINT
  5
F1
100
AcDbEntity
  8
0
390
0
 62
         7
100
AcDbPoint
 10
75.9124492354
 20
38.7677083536
 30
0.0
  0
ENDBLK
  5
F2
100
AcDbEntity
  8
0
390
0
100
AcDbBlockEnd
  0
BLOCK
  5
F5
100
AcDbEntity
  8
0
390
0
 62
         1
100
AcDbBlockBegin
  2
*D4
 70
         1
 10
0.0
 20
0.0
 30
0.0
  3
*D4
  1

  0
MTEXT
  5
F6
100
AcDbEntity
  8
0
390
0
100
AcDbMText
 10
89.3655707558
 20
29.9080200518
 30
0.0
 40
0.8
 41
0.0
 71
         7
 72
         1
  1
17"
  7
SLDTEXTSTYLE0
 73
         1
 44
1.0
  0
LINE
  5
F7
100
AcDbEntity
  8
0
390
0
100
AcDbLine
 10
65.2324492354
 20
21.7677083536
 30
0.0
 11
91.0459986804
 21
21.7677083536
 31
0.0
  0
LINE
  5
F8
100
AcDbEntity
  8
0
390
0
100
AcDbLine
 10
76.2324492354
 20
38.7677083536
 30
0.0
 11
91.0459986804
 21
38.7677083536
 31
0.0
  0
LINE
  5
F9
100
AcDbEntity
  8
0
390
0
100
AcDbLine
 10
90.0859986804
 20
21.7677083536
 30
0.0
 11
90.0859986804
 21
29.5080200518
 31
0.0
  0
LINE
  5
FA
100
AcDbEntity
  8
0
390
0
100
AcDbLine
 10
90.0859986804
 20
38.7677083536
 30
0.0
 11
90.0859986804
 21
31.0273966555
 31
0.0
  0
SOLID
  5
FB
100
AcDbEntity
  8
0
390
0
100
AcDbTrace
 10
90.0859986804
 20
21.7677083536
 30
0.0
 11
90.3359986804
 21
23.2677083536
 31
0.0
 12
89.8359986804
 22
23.2677083536
 32
0.0
 13
89.8359986804
 23
23.2677083536
 33
0.0
  0
SOLID
  5
FC
100
AcDbEntity
  8
0
390
0
100
AcDbTrace
 10
90.0859986804
 20
38.7677083536
 30
0.0
 11
89.8359986804
 21
37.2677083536
 31
0.0
 12
90.3359986804
 22
37.2677083536
 32
0.0
 13
90.3359986804
 23
37.2677083536
 33
0.0
  0
POINT
  5
FD
100
AcDbEntity
  8
0
390
0
100
AcDbPoint
 10
64.9124492354
 20
21.7677083536
 30
0.0
  0
POINT
  5
FE
100
AcDbEntity
  8
0
390
0
100
AcDbPoint
 10
75.9124492354
 20
38.7677083536
 30
0.0
  0
ENDBLK
  5
FF
100
AcDbEntity
  8
0
390
0
 62
         1
100
AcDbBlockEnd
  0
BLOCK
  5
102
100
AcDbEntity
  8
0
390
0
 62
         1
100
AcDbBlockBegin
  2
*D5
 70
         1
 10
0.0
 20
0.0
 30
0.0
  3
*D5
  1

  0
MTEXT
  5
103
100
AcDbEntity
  8
0
390
0
100
AcDbMText
 10
69.7718507448
 20
28.3711252758
 30
0.0
 40
0.8
 41
0.0
 71
         7
 72
         1
  1
11"
  7
SLDTEXTSTYLE0
 73
         1
 44
1.0
  0
LINE
  5
104
100
AcDbEntity
  8
0
390
0
100
AcDbLine
 10
75.9124492354
 20
38.4477083536
 30
0.0
 11
75.9124492354
 21
27.7708135777
 31
0.0
  0
LINE
  5
105
100
AcDbEntity
  8
0
390
0
100
AcDbLine
 10
64.9124492354
 20
28.7308135777
 30
0.0
 11
69.2718507448
 21
28.7308135777
 31
0.0
  0
LINE
  5
106
100
AcDbEntity
  8
0
390
0
100
AcDbLine
 10
75.9124492354
 20
28.7308135777
 30
0.0
 11
71.5530477259
 21
28.7308135777
 31
0.0
  0
SOLID
  5
107
100
AcDbEntity
  8
0
390
0
100
AcDbTrace
 10
64.9124492354
 20
28.7308135777
 30
0.0
 11
66.4124492354
 21
28.4808135777
 31
0.0
 12
66.4124492354
 22
28.9808135777
 32
0.0
 13
66.4124492354
 23
28.9808135777
 33
0.0
  0
SOLID
  5
108
100
AcDbEntity
  8
0
390
0
100
AcDbTrace
 10
75.9124492354
 20
28.7308135777
 30
0.0
 11
74.4124492354
 21
28.9808135777
 31
0.0
 12
74.4124492354
 22
28.4808135777
 32
0.0
 13
74.4124492354
 23
28.4808135777
 33
0.0
  0
POINT
  5
109
100
AcDbEntity
  8
0
390
0
100
AcDbPoint
 10
64.9124492354
 20
33.0984381184
 30
0.0
  0
POINT
  5
10A
100
AcDbEntity
  8
0
390
0
100
AcDbPoint
 10
75.9124492354
 20
38.7677083536
 30
0.0
  0
ENDBLK
  5
10B
100
AcDbEntity
  8
0
390
0
 62
         1
100
AcDbBlockEnd
  0
BLOCK
  5
10E
100
AcDbEntity
  8
0
390
0
 62
         1
100
AcDbBlockBegin
  2
*D6
 70
         1
 10
0.0
 20
0.0
 30
0.0
  3
*D6
  1

  0
MTEXT
  5
10F
100
AcDbEntity
  8
0
390
0
100
AcDbMText
 10
81.2886923335
 20
27.0733849341
 30
0.0
 40
0.8
 41
0.0
 71
         7
 72
         1
  1
11 11/32"
  7
SLDTEXTSTYLE0
 73
         1
 44
1.0
  0
LINE
  5
110
100
AcDbEntity
  8
0
390
0
100
AcDbLine
 10
65.2324492354
 20
21.7677083536
 30
0.0
 11
84.3700613901
 21
21.7677083536
 31
0.0
  0
LINE
  5
111
100
AcDbEntity
  8
0
390
0
100
AcDbLine
 10
65.2324492354
 20
33.0984381184
 30
0.0
 11
84.3700613901
 21
33.0984381184
 31
0.0
  0
LINE
  5
112
100
AcDbEntity
  8
0
390
0
100
AcDbLine
 10
83.4100613901
 20
21.7677083536
 30
0.0
 11
83.4100613901
 21
26.6733849341
 31
0.0
  0
LINE
  5
113
100
AcDbEntity
  8
0
390
0
100
AcDbLine
 10
83.4100613901
 20
33.0984381184
 30
0.0
 11
83.4100613901
 21
28.1927615379
 31
0.0
  0
SOLID
  5
114
100
AcDbEntity
  8
0
390
0
100
AcDbTrace
 10
83.4100613901
 20
21.7677083536
 30
0.0
 11
83.6600613901
 21
23.2677083536
 31
0.0
 12
83.1600613901
 22
23.2677083536
 32
0.0
 13
83.1600613901
 23
23.2677083536
 33
0.0
  0
SOLID
  5
115
100
AcDbEntity
  8
0
390
0
100
AcDbTrace
 10
83.4100613901
 20
33.0984381184
 30
0.0
 11
83.1600613901
 21
31.5984381184
 31
0.0
 12
83.6600613901
 22
31.5984381184
 32
0.0
 13
83.6600613901
 23
31.5984381184
 33
0.0
  0
POINT
  5
116
100
AcDbEntity
  8
0
390
0
100
AcDbPoint
 10
64.9124492354
 20
21.7677083536
 30
0.0
  0
POINT
  5
117
100
AcDbEntity
  8
0
390
0
100
AcDbPoint
 10
64.9124492354
 20
33.0984381184
 30
0.0
  0
ENDBLK
  5
118
100
AcDbEntity
  8
0
390
0
 62
         1
100
AcDbBlockEnd
  0
BLOCK
  5
11B
100
AcDbEntity
  8
0
390
0
 62
         1
100
AcDbBlockBegin
  2
*D7
 70
         1
 10
0.0
 20
0.0
 30
0.0
  3
*D7
  1

  0
MTEXT
  5
11C
100
AcDbEntity
  8
0
390
0
100
AcDbMText
 10
56.8203764659
 20
44.4080200518
 30
0.0
 40
0.8
 41
0.0
 71
         7
 72
         1
  1
12"
  7
SLDTEXTSTYLE0
 73
         1
 44
1.0
  0
LINE
  5
11D
100
AcDbEntity
  8
0
390
0
100
AcDbLine
 10
63.2174492354
 20
38.7677083536
 30
0.0
 11
56.5808043904
 21
38.7677083536
 31
0.0
  0
LINE
  5
11E
100
AcDbEntity
  8
0
390
0
100
AcDbLine
 10
63.2174492354
 20
50.7677083536
 30
0.0
 11
56.5808043904
 21
50.7677083536
 31
0.0
  0
LINE
  5
11F
100
AcDbEntity
  8
0
390
0
100
AcDbLine
 10
57.5408043904
 20
38.7677083536
 30
0.0
 11
57.5408043904
 21
44.0080200518
 31
0.0
  0
LINE
  5
120
100
AcDbEntity
  8
0
390
0
100
AcDbLine
 10
57.5408043904
 20
50.7677083536
 30
0.0
 11
57.5408043904
 21
45.5273966555
 31
0.0
  0
SOLID
  5
121
100
AcDbEntity
  8
0
390
0
100
AcDbTrace
 10
57.5408043904
 20
38.7677083536
 30
0.0
 11
57.7908043904
 21
40.2677083536
 31
0.0
 12
57.2908043904
 22
40.2677083536
 32
0.0
 13
57.2908043904
 23
40.2677083536
 33
0.0
  0
SOLID
  5
122
100
AcDbEntity
  8
0
390
0
100
AcDbTrace
 10
57.5408043904
 20
50.7677083536
 30
0.0
 11
57.2908043904
 21
49.2677083536
 31
0.0
 12
57.7908043904
 22
49.2677083536
 32
0.0
 13
57.7908043904
 23
49.2677083536
 33
0.0
  0
POINT
  5
123
100
AcDbEntity
  8
0
390
0
100
AcDbPoint
 10
63.5374492354
 20
38.7677083536
 30
0.0
  0
POINT
  5
124
100
AcDbEntity
  8
0
390
0
100
AcDbPoint
 10
63.5374492354
 20
50.7677083536
 30
0.0
  0
ENDBLK
  5
125
100
AcDbEntity
  8
0
390
0
 62
         1
100
AcDbBlockEnd
  0
BLOCK
  5
128
100
AcDbEntity
  8
0
390
0
 62
         1
100
AcDbBlockBegin
  2
*D8
 70
         1
 10
0.0
 20
0.0
 30
0.0
  3
*D8
  1

  0
MTEXT
  5
129
100
AcDbEntity
  8
0
390
0
100
AcDbMText
 10
73.4206233843
 20
61.7426551694
 30
0.0
 40
0.8
 41
0.0
 71
         7
 72
         1
  1
11 11/32"
  7
SLDTEXTSTYLE0
 73
         1
 44
1.0
  0
LINE
  5
12A
100
AcDbEntity
  8
0
390
0
100
AcDbLine
 10
65.2324492354
 20
56.4369785889
 30
0.0
 11
76.5019924409
 21
56.4369785889
 31
0.0
  0
LINE
  5
12B
100
AcDbEntity
  8
0
390
0
100
AcDbLine
 10
65.2324492354
 20
67.7677083536
 30
0.0
 11
76.5019924409
 21
67.7677083536
 31
0.0
  0
LINE
  5
12C
100
AcDbEntity
  8
0
390
0
100
AcDbLine
 10
75.5419924409
 20
56.4369785889
 30
0.0
 11
75.5419924409
 21
61.3426551694
 31
0.0
  0
LINE
  5
12D
100
AcDbEntity
  8
0
390
0
100
AcDbLine
 10
75.5419924409
 20
67.7677083536
 30
0.0
 11
75.5419924409
 21
62.8620317731
 31
0.0
  0
SOLID
  5
12E
100
AcDbEntity
  8
0
390
0
100
AcDbTrace
 10
75.5419924409
 20
56.4369785889
 30
0.0
 11
75.7919924409
 21
57.9369785889
 31
0.0
 12
75.2919924409
 22
57.9369785889
 32
0.0
 13
75.2919924409
 23
57.9369785889
 33
0.0
  0
SOLID
  5
12F
100
AcDbEntity
  8
0
390
0
100
AcDbTrace
 10
75.5419924409
 20
67.7677083536
 30
0.0
 11
75.2919924409
 21
66.2677083536
 31
0.0
 12
75.7919924409
 22
66.2677083536
 32
0.0
 13
75.7919924409
 23
66.2677083536
 33
0.0
  0
POINT
  5
130
100
AcDbEntity
  8
0
390
0
100
AcDbPoint
 10
64.9124492354
 20
56.4369785889
 30
0.0
  0
POINT
  5
131
100
AcDbEntity
  8
0
390
0
100
AcDbPoint
 10
64.9124492354
 20
67.7677083536
 30
0.0
  0
ENDBLK
  5
132
100
AcDbEntity
  8
0
390
0
 62
         1
100
AcDbBlockEnd
  0
BLOCK
  5
135
100
AcDbEntity
  8
0
390
0
 62
         1
100
AcDbBlockBegin
  2
*D9
 70
         1
 10
0.0
 20
0.0
 30
0.0
  3
*D9
  1

  0
MTEXT
  5
136
100
AcDbEntity
  8
0
390
0
100
AcDbMText
 10
55.4600043904
 20
35.5733849341
 30
0.0
 40
0.8
 41
0.0
 71
         7
 72
         1
  1
5 21/32"
  7
SLDTEXTSTYLE0
 73
         1
 44
1.0
  0
LINE
  5
137
100
AcDbEntity
  8
0
390
0
100
AcDbLine
 10
63.2174492354
 20
38.7677083536
 30
0.0
 11
56.5808043904
 21
38.7677083536
 31
0.0
  0
LINE
  5
138
100
AcDbEntity
  8
0
390
0
100
AcDbLine
 10
64.5924492354
 20
33.0984381184
 30
0.0
 11
56.5808043904
 21
33.0984381184
 31
0.0
  0
LINE
  5
139
100
AcDbEntity
  8
0
390
0
100
AcDbLine
 10
57.5408043904
 20
38.7677083536
 30
0.0
 11
57.5408043904
 21
36.6927615379
 31
0.0
  0
LINE
  5
13A
100
AcDbEntity
  8
0
390
0
100
AcDbLine
 10
57.5408043904
 20
33.0984381184
 30
0.0
 11
57.5408043904
 21
35.1733849341
 31
0.0
  0
ARC
  5
13B
100
AcDbEntity
  8
0
390
0
100
AcDbCircle
 10
56.4793809942
 20
35.933073236
 30
0.0
 40
1.6987146847
100
AcDbArc
 50
153.4349488229
 51
206.5650511771
  0
ARC
  5
13C
100
AcDbEntity
  8
0
390
0
100
AcDbCircle
 10
58.6022277866
 20
35.933073236
 30
0.0
 40
1.6987146847
100
AcDbArc
 50
333.4349488229
 51
26.5650511771
  0
SOLID
  5
13D
100
AcDbEntity
  8
0
390
0
100
AcDbTrace
 10
57.5408043904
 20
38.7677083536
 30
0.0
 11
57.2908043904
 21
37.2677083536
 31
0.0
 12
57.7908043904
 22
37.2677083536
 32
0.0
 13
57.7908043904
 23
37.2677083536
 33
0.0
  0
SOLID
  5
13E
100
AcDbEntity
  8
0
390
0
100
AcDbTrace
 10
57.5408043904
 20
33.0984381184
 30
0.0
 11
57.7908043904
 21
34.5984381184
 31
0.0
 12
57.2908043904
 22
34.5984381184
 32
0.0
 13
57.2908043904
 23
34.5984381184
 33
0.0
  0
POINT
  5
13F
100
AcDbEntity
  8
0
390
0
100
AcDbPoint
 10
63.5374492354
 20
38.7677083536
 30
0.0
  0
POINT
  5
140
100
AcDbEntity
  8
0
390
0
100
AcDbPoint
 10
64.9124492354
 20
33.0984381184
 30
0.0
  0
ENDBLK
  5
141
100
AcDbEntity
  8
0
390
0
 62
         1
100
AcDbBlockEnd
  0
BLOCK
  5
144
100
AcDbEntity
  8
0
390
0
 62
         1
100
AcDbBlockBegin
  2
*D10
 70
         1
 10
0.0
 20
0.0
 30
0.0
  3
*D10
  1

  0
MTEXT
  5
145
100
AcDbEntity
  8
0
390
0
100
AcDbMText
 10
69.8488463515
 20
44.7033290037
 30
0.0
 40
0.8
 41
0.0
 71
         7
 72
         1
  1
1 3/8"
  7
SLDTEXTSTYLE0
 73
         1
 44
1.0
  0
LINE
  5
146
100
AcDbEntity
  8
0
390
0
100
AcDbLine
 10
64.9124492354
 20
56.1169785889
 30
0.0
 11
64.9124492354
 21
44.1030173056
 31
0.0
  0
LINE
  5
147
100
AcDbEntity
  8
0
390
0
100
AcDbLine
 10
64.9124492354
 20
45.0630173056
 30
0.0
 11
69.3488463515
 21
45.0630173056
 31
0.0
  0
LINE
  5
148
100
AcDbEntity
  8
0
390
0
100
AcDbLine
 10
63.5374492354
 20
45.0630173056
 30
0.0
 11
59.5374492354
 21
45.0630173056
 31
0.0
  0
SOLID
  5
149
100
AcDbEntity
  8
0
390
0
100
AcDbTrace
 10
64.9124492354
 20
45.0630173056
 30
0.0
 11
66.4124492354
 21
44.8130173056
 31
0.0
 12
66.4124492354
 22
45.3130173056
 32
0.0
 13
66.4124492354
 23
45.3130173056
 33
0.0
  0
SOLID
  5
14A
100
AcDbEntity
  8
0
390
0
100
AcDbTrace
 10
63.5374492354
 20
45.0630173056
 30
0.0
 11
62.0374492354
 21
45.3130173056
 31
0.0
 12
62.0374492354
 22
44.8130173056
 32
0.0
 13
62.0374492354
 23
44.8130173056
 33
0.0
  0
POINT
  5
14B
100
AcDbEntity
  8
0
390
0
100
AcDbPoint
 10
64.9124492354
 20
56.4369785889
 30
0.0
  0
POINT
  5
14C
100
AcDbEntity
  8
0
390
0
100
AcDbPoint
 10
63.5374492354
 20
50.7677083536
 30
0.0
  0
ENDBLK
  5
14D
100
AcDbEntity
  8
0
390
0
 62
         1
100
AcDbBlockEnd
  0
BLOCK
  5
150
100
AcDbEntity
  8
0
390
0
 62
         1
100
AcDbBlockBegin
  2
*D11
 70
         1
 10
0.0
 20
0.0
 30
0.0
  3
*D11
  1

  0
MTEXT
  5
151
100
AcDbEntity
  8
0
390
0
100
AcDbMText
 10
35.3293907807
 20
62.9080200518
 30
0.0
 40
0.8
 41
0.0
 71
         7
 72
         1
  1
9"
  7
SLDTEXTSTYLE0
 73
         1
 44
1.0
  0
LINE
  5
152
100
AcDbEntity
  8
0
390
0
100
AcDbLine
 10
40.5924492354
 20
67.7677083536
 30
0.0
 11
34.8895907807
 21
67.7677083536
 31
0.0
  0
LINE
  5
153
100
AcDbEntity
  8
0
390
0
100
AcDbLine
 10
48.5924492354
 20
58.7677083536
 30
0.0
 11
34.8895907807
 21
58.7677083536
 31
0.0
  0
LINE
  5
154
100
AcDbEntity
  8
0
390
0
100
AcDbLine
 10
35.8495907807
 20
67.7677083536
 30
0.0
 11
35.8495907807
 21
64.0273966555
 31
0.0
  0
LINE
  5
155
100
AcDbEntity
  8
0
390
0
100
AcDbLine
 10
35.8495907807
 20
58.7677083536
 30
0.0
 11
35.8495907807
 21
62.5080200518
 31
0.0
  0
SOLID
  5
156
100
AcDbEntity
  8
0
390
0
100
AcDbTrace
 10
35.8495907807
 20
67.7677083536
 30
0.0
 11
35.5995907807
 21
66.2677083536
 31
0.0
 12
36.0995907807
 22
66.2677083536
 32
0.0
 13
36.0995907807
 23
66.2677083536
 33
0.0
  0
SOLID
  5
157
100
AcDbEntity
  8
0
390
0
100
AcDbTrace
 10
35.8495907807
 20
58.7677083536
 30
0.0
 11
36.0995907807
 21
60.2677083536
 31
0.0
 12
35.5995907807
 22
60.2677083536
 32
0.0
 13
35.5995907807
 23
60.2677083536
 33
0.0
  0
POINT
  5
158
100
AcDbEntity
  8
0
390
0
100
AcDbPoint
 10
40.9124492354
 20
67.7677083536
 30
0.0
  0
POINT
  5
159
100
AcDbEntity
  8
0
390
0
100
AcDbPoint
 10
48.9124492354
 20
58.7677083536
 30
0.0
  0
ENDBLK
  5
15A
100
AcDbEntity
  8
0
390
0
 62
         1
100
AcDbBlockEnd
  0
BLOCK
  5
15D
100
AcDbEntity
  8
0
390
0
 62
         1
100
AcDbBlockBegin
  2
*D12
 70
         1
 10
0.0
 20
0.0
 30
0.0
  3
*D12
  1

  0
MTEXT
  5
15E
100
AcDbEntity
  8
0
390
0
100
AcDbMText
 10
24.7985350943
 20
48.9080200518
 30
0.0
 40
0.8
 41
0.0
 71
         7
 72
         1
  1
37"
  7
SLDTEXTSTYLE0
 73
         1
 44
1.0
  0
LINE
  5
15F
100
AcDbEntity
  8
0
390
0
100
AcDbLine
 10
40.5924492354
 20
67.7677083536
 30
0.0
 11
24.6387924528
 21
67.7677083536
 31
0.0
  0
LINE
  5
160
100
AcDbEntity
  8
0
390
0
100
AcDbLine
 10
48.5924492354
 20
30.7677083536
 30
0.0
 11
24.6387924528
 21
30.7677083536
 31
0.0
  0
LINE
  5
161
100
AcDbEntity
  8
0
390
0
100
AcDbLine
 10
25.5987924528
 20
67.7677083536
 30
0.0
 11
25.5987924528
 21
50.0273966555
 31
0.0
  0
LINE
  5
162
100
AcDbEntity
  8
0
390
0
100
AcDbLine
 10
25.5987924528
 20
30.7677083536
 30
0.0
 11
25.5987924528
 21
48.5080200518
 31
0.0
  0
SOLID
  5
163
100
AcDbEntity
  8
0
390
0
100
AcDbTrace
 10
25.5987924528
 20
67.7677083536
 30
0.0
 11
25.3487924528
 21
66.2677083536
 31
0.0
 12
25.8487924528
 22
66.2677083536
 32
0.0
 13
25.8487924528
 23
66.2677083536
 33
0.0
  0
SOLID
  5
164
100
AcDbEntity
  8
0
390
0
100
AcDbTrace
 10
25.5987924528
 20
30.7677083536
 30
0.0
 11
25.8487924528
 21
32.2677083536
 31
0.0
 12
25.3487924528
 22
32.2677083536
 32
0.0
 13
25.3487924528
 23
32.2677083536
 33
0.0
  0
POINT
  5
165
100
AcDbEntity
  8
0
390
0
100
AcDbPoint
 10
40.9124492354
 20
67.7677083536
 30
0.0
  0
POINT
  5
166
100
AcDbEntity
  8
0
390
0
100
AcDbPoint
 10
48.9124492354
 20
30.7677083536
 30
0.0
  0
ENDBLK
  5
167
100
AcDbEntity
  8
0
390
0
 62
         1
100
AcDbBlockEnd
  0
BLOCK
  5
16A
100
AcDbEntity
  8
0
390
0
 62
         1
100
AcDbBlockBegin
  2
*D13
 70
         1
 10
0.0
 20
0.0
 30
0.0
  3
*D13
  1

  0
MTEXT
  5
16B
100
AcDbEntity
  8
0
390
0
100
AcDbMText
 10
50.6920213108
 20
75.9094424178
 30
0.0
 40
0.8
 41
0.0
 71
         7
 72
         1
  1
21"
  7
SLDTEXTSTYLE0
 73
         1
 44
1.0
  0
LINE
  5
16C
100
AcDbEntity
  8
0
390
0
100
AcDbLine
 10
40.9124492354
 20
68.0877083536
 30
0.0
 11
40.9124492354
 21
77.2291307197
 31
0.0
  0
LINE
  5
16D
100
AcDbEntity
  8
0
390
0
100
AcDbLine
 10
61.9124492354
 20
59.0877083536
 30
0.0
 11
61.9124492354
 21
77.2291307197
 31
0.0
  0
LINE
  5
16E
100
AcDbEntity
  8
0
390
0
100
AcDbLine
 10
40.9124492354
 20
76.2691307197
 30
0.0
 11
50.1920213108
 21
76.2691307197
 31
0.0
  0
LINE
  5
16F
100
AcDbEntity
  8
0
390
0
100
AcDbLine
 10
61.9124492354
 20
76.2691307197
 30
0.0
 11
52.6328771599
 21
76.2691307197
 31
0.0
  0
SOLID
  5
170
100
AcDbEntity
  8
0
390
0
100
AcDbTrace
 10
40.9124492354
 20
76.2691307197
 30
0.0
 11
42.4124492354
 21
76.0191307197
 31
0.0
 12
42.4124492354
 22
76.5191307197
 32
0.0
 13
42.4124492354
 23
76.5191307197
 33
0.0
  0
SOLID
  5
171
100
AcDbEntity
  8
0
390
0
100
AcDbTrace
 10
61.9124492354
 20
76.2691307197
 30
0.0
 11
60.4124492354
 21
76.5191307197
 31
0.0
 12
60.4124492354
 22
76.0191307197
 32
0.0
 13
60.4124492354
 23
76.0191307197
 33
0.0
  0
POINT
  5
172
100
AcDbEntity
  8
0
390
0
100
AcDbPoint
 10
40.9124492354
 20
67.7677083536
 30
0.0
  0
POINT
  5
173
100
AcDbEntity
  8
0
390
0
100
AcDbPoint
 10
61.9124492354
 20
58.7677083536
 30
0.0
  0
ENDBLK
  5
174
100
AcDbEntity
  8
0
390
0
 62
         1
100
AcDbBlockEnd
  0
BLOCK
  5
177
100
AcDbEntity
  8
0
390
0
 62
         1
100
AcDbBlockBegin
  2
*D14
 70
         1
 10
0.0
 20
0.0
 30
0.0
  3
*D14
  1

  0
MTEXT
  5
178
100
AcDbEntity
  8
0
390
0
 62
         7
100
AcDbMText
 10
31.1554445283
 20
16.0160558491
 30
0.0
 40
0.8
 41
0.0
 71
         7
 72
         1
  1
%%c
  7
SLDTEXTSTYLE0
 73
         1
 44
1.0
  0
MTEXT
  5
179
100
AcDbEntity
  8
0
390
0
 62
         7
100
AcDbMText
 10
32.5217056604
 20
16.0160558491
 30
0.0
 40
0.8
 41
0.0
 71
         7
 72
         1
  1
5/16"
  7
SLDTEXTSTYLE0
 73
         1
 44
1.0
  0
MTEXT
  5
17A
100
AcDbEntity
  8
0
390
0
 62
         7
100
AcDbMText
 10
35.0827909434
 20
16.0160558491
 30
0.0
 40
0.8
 41
0.0
 71
         7
 72
         1
  1
 DRILL THRU
  7
SLDTEXTSTYLE0
 73
         1
 44
1.0
  0
MTEXT
  5
17B
100
AcDbEntity
  8
0
390
0
 62
         7
100
AcDbMText
 10
33.9239766038
 20
14.4966792453
 30
0.0
 40
0.8
 41
0.0
 71
         7
 72
         1
  1
4 PLACES
  7
SLDTEXTSTYLE0
 73
         1
 44
1.0
  0
MTEXT
  5
17C
100
AcDbEntity
  8
0
390
0
 62
         7
100
AcDbMText
 10
34.4441766038
 20
11.4579260377
 30
0.0
 40
0.8
 41
0.0
 71
         7
 72
         1
  1
DEBURR
  7
SLDTEXTSTYLE0
 73
         1
 44
1.0
  0
LINE
  5
17D
100
AcDbEntity
  8
0
390
0
 62
         7
100
AcDbLine
 10
48.8660959856
 20
30.6182305083
 30
0.0
 11
43.7427441509
 21
14.0966792453
 31
0.0
  0
LINE
  5
17E
100
AcDbEntity
  8
0
390
0
 62
         7
100
AcDbLine
 10
43.7427441509
 20
14.0966792453
 30
0.0
 11
41.7427441509
 21
14.0966792453
 31
0.0
  0
SOLID
  5
17F
100
AcDbEntity
  8
0
390
0
 62
         7
100
AcDbTrace
 10
48.8660959856
 20
30.6182305083
 30
0.0
 11
48.1830331355
 21
29.2595822305
 31
0.0
 12
48.6605981364
 22
29.1114887806
 32
0.0
 13
48.6605981364
 23
29.1114887806
 33
0.0
  0
POINT
  5
181
100
AcDbEntity
  8
0
390
0
 62
         7
100
AcDbPoint
 10
48.8660959856
 20
30.6182305083
 30
0.0
  0
POINT
  5
182
100
AcDbEntity
  8
0
390
0
 62
         7
100
AcDbPoint
 10
48.9588024852
 20
30.9171861989
 30
0.0
  0
ENDBLK
  5
183
100
AcDbEntity
  8
0
390
0
100
AcDbBlockEnd
  0
BLOCK
  5
186
100
AcDbEntity
  8
0
390
0
 62
         1
100
AcDbBlockBegin
  2
*D15
 70
         1
 10
0.0
 20
0.0
 30
0.0
  3
*D15
  1

  0
MTEXT
  5
187
100
AcDbEntity
  8
0
390
0
100
AcDbMText
 10
30.0793952006
 20
55.9080200518
 30
0.0
 40
0.8
 41
0.0
 71
         7
 72
         1
  1
23"
  7
SLDTEXTSTYLE0
 73
         1
 44
1.0
  0
LINE
  5
188
100
AcDbEntity
  8
0
390
0
100
AcDbLine
 10
40.5924492354
 20
67.7677083536
 30
0.0
 11
29.9196525591
 21
67.7677083536
 31
0.0
  0
LINE
  5
189
100
AcDbEntity
  8
0
390
0
100
AcDbLine
 10
45.5924492354
 20
44.7677083536
 30
0.0
 11
29.9196525591
 21
44.7677083536
 31
0.0
  0
LINE
  5
18A
100
AcDbEntity
  8
0
390
0
100
AcDbLine
 10
30.8796525591
 20
67.7677083536
 30
0.0
 11
30.8796525591
 21
57.0273966555
 31
0.0
  0
LINE
  5
18B
100
AcDbEntity
  8
0
390
0
100
AcDbLine
 10
30.8796525591
 20
44.7677083536
 30
0.0
 11
30.8796525591
 21
55.5080200518
 31
0.0
  0
SOLID
  5
18C
100
AcDbEntity
  8
0
390
0
100
AcDbTrace
 10
30.8796525591
 20
67.7677083536
 30
0.0
 11
30.6296525591
 21
66.2677083536
 31
0.0
 12
31.1296525591
 22
66.2677083536
 32
0.0
 13
31.1296525591
 23
66.2677083536
 33
0.0
  0
SOLID
  5
18D
100
AcDbEntity
  8
0
390
0
100
AcDbTrace
 10
30.8796525591
 20
44.7677083536
 30
0.0
 11
31.1296525591
 21
46.2677083536
 31
0.0
 12
30.6296525591
 22
46.2677083536
 32
0.0
 13
30.6296525591
 23
46.2677083536
 33
0.0
  0
POINT
  5
18E
100
AcDbEntity
  8
0
390
0
100
AcDbPoint
 10
40.9124492354
 20
67.7677083536
 30
0.0
  0
POINT
  5
18F
100
AcDbEntity
  8
0
390
0
100
AcDbPoint
 10
45.9124492354
 20
44.7677083536
 30
0.0
  0
ENDBLK
  5
190
100
AcDbEntity
  8
0
390
0
 62
         1
100
AcDbBlockEnd
  0
BLOCK
  5
193
100
AcDbEntity
  8
0
390
0
 62
         1
100
AcDbBlockBegin
  2
*D16
 70
         1
 10
0.0
 20
0.0
 30
0.0
  3
*D16
  1

  0
MTEXT
  5
194
100
AcDbEntity
  8
0
390
0
100
AcDbMText
 10
34.3580121399
 20
49.58141811
 30
0.0
 40
0.8
 41
0.0
 71
         7
 72
         1
  1
5"
  7
SLDTEXTSTYLE0
 73
         1
 44
1.0
  0
LINE
  5
195
100
AcDbEntity
  8
0
390
0
100
AcDbLine
 10
45.9124492354
 20
45.0877083536
 30
0.0
 11
45.9124492354
 21
50.9011064119
 31
0.0
  0
LINE
  5
196
100
AcDbEntity
  8
0
390
0
100
AcDbLine
 10
40.9124492354
 20
49.9411064119
 30
0.0
 11
35.8984121399
 21
49.9411064119
 31
0.0
  0
LINE
  5
197
100
AcDbEntity
  8
0
390
0
100
AcDbLine
 10
45.9124492354
 20
49.9411064119
 30
0.0
 11
40.9124492354
 21
49.9411064119
 31
0.0
  0
SOLID
  5
198
100
AcDbEntity
  8
0
390
0
100
AcDbTrace
 10
40.9124492354
 20
49.9411064119
 30
0.0
 11
42.4124492354
 21
49.6911064119
 31
0.0
 12
42.4124492354
 22
50.1911064119
 32
0.0
 13
42.4124492354
 23
50.1911064119
 33
0.0
  0
SOLID
  5
199
100
AcDbEntity
  8
0
390
0
100
AcDbTrace
 10
45.9124492354
 20
49.9411064119
 30
0.0
 11
44.4124492354
 21
50.1911064119
 31
0.0
 12
44.4124492354
 22
49.6911064119
 32
0.0
 13
44.4124492354
 23
49.6911064119
 33
0.0
  0
POINT
  5
19A
100
AcDbEntity
  8
0
390
0
100
AcDbPoint
 10
40.9124492354
 20
67.7677083536
 30
0.0
  0
POINT
  5
19B
100
AcDbEntity
  8
0
390
0
100
AcDbPoint
 10
45.9124492354
 20
44.7677083536
 30
0.0
  0
ENDBLK
  5
19C
100
AcDbEntity
  8
0
390
0
 62
         1
100
AcDbBlockEnd
  0
BLOCK
  5
19F
100
AcDbEntity
  8
0
390
0
 62
         1
100
AcDbBlockBegin
  2
*D17
 70
         1
 10
0.0
 20
0.0
 30
0.0
  3
*D17
  1

  0
MTEXT
  5
1A0
100
AcDbEntity
  8
0
390
0
 62
         7
100
AcDbMText
 10
30.604979963
 20
37.3670897818
 30
0.0
 40
0.8
 41
0.0
 71
         7
 72
         1
  1
%%c
  7
SLDTEXTSTYLE0
 73
         1
 44
1.0
  0
MTEXT
  5
1A1
100
AcDbEntity
  8
0
390
0
 62
         7
100
AcDbMText
 10
31.9712410951
 20
37.3670897818
 30
0.0
 40
0.8
 41
0.0
 71
         7
 72
         1
  1
3 9/16"
  7
SLDTEXTSTYLE0
 73
         1
 44
1.0
  0
MTEXT
  5
1A2
100
AcDbEntity
  8
0
390
0
 62
         7
100
AcDbMText
 10
28.7335897743
 20
35.847713178
 30
0.0
 40
0.8
 41
0.0
 71
         7
 72
         1
  1
FOR 3" PIPE THRU
  7
SLDTEXTSTYLE0
 73
         1
 44
1.0
  0
LINE
  5
1A3
100
AcDbEntity
  8
0
390
0
 62
         7
100
AcDbLine
 10
44.8443836442
 20
43.3418829285
 30
0.0
 11
40.0691165668
 21
36.9670897818
 31
0.0
  0
LINE
  5
1A4
100
AcDbEntity
  8
0
390
0
 62
         7
100
AcDbLine
 10
40.0691165668
 20
36.9670897818
 30
0.0
 11
38.0691165668
 21
36.9670897818
 31
0.0
  0
SOLID
  5
1A5
100
AcDbEntity
  8
0
390
0
 62
         7
100
AcDbTrace
 10
44.8443836442
 20
43.3418829285
 30
0.0
 11
43.744998439
 21
42.291239235
 31
0.0
 12
44.1451739723
 22
41.9914734222
 32
0.0
 13
44.1451739723
 23
41.9914734222
 33
0.0
  0
POINT
  5
1A6
100
AcDbEntity
  8
0
390
0
 62
         7
100
AcDbPoint
 10
44.8443836442
 20
43.3418829285
 30
0.0
  0
POINT
  5
1A7
100
AcDbEntity
  8
0
390
0
 62
         7
100
AcDbPoint
 10
46.9805148265
 20
46.1935337788
 30
0.0
  0
ENDBLK
  5
1A8
100
AcDbEntity
  8
0
390
0
100
AcDbBlockEnd
  0
BLOCK
  5
1AB
100
AcDbEntity
  8
0
390
0
 62
         1
100
AcDbBlockBegin
  2
*D18
 70
         1
 10
0.0
 20
0.0
 30
0.0
  3
*D18
  1

  0
MTEXT
  5
1AC
100
AcDbEntity
  8
0
390
0
100
AcDbMText
 10
54.6920213108
 20
71.1880098113
 30
0.0
 40
0.8
 41
0.0
 71
         7
 72
         1
  1
13"
  7
SLDTEXTSTYLE0
 73
         1
 44
1.0
  0
LINE
  5
1AD
100
AcDbEntity
  8
0
390
0
100
AcDbLine
 10
48.9124492354
 20
59.0877083536
 30
0.0
 11
48.9124492354
 21
72.5076981132
 31
0.0
  0
LINE
  5
1AE
100
AcDbEntity
  8
0
390
0
100
AcDbLine
 10
61.9124492354
 20
59.0877083536
 30
0.0
 11
61.9124492354
 21
72.5076981132
 31
0.0
  0
LINE
  5
1AF
100
AcDbEntity
  8
0
390
0
100
AcDbLine
 10
48.9124492354
 20
71.5476981132
 30
0.0
 11
53.6920213108
 21
71.5476981132
 31
0.0
  0
LINE
  5
1B0
100
AcDbEntity
  8
0
390
0
100
AcDbLine
 10
61.9124492354
 20
71.5476981132
 30
0.0
 11
57.1328771599
 21
71.5476981132
 31
0.0
  0
ARC
  5
1B1
100
AcDbEntity
  8
0
390
0
100
AcDbCircle
 10
55.7113979146
 20
71.5476981132
 30
0.0
 40
1.6987146847
100
AcDbArc
 50
153.4349488229
 51
206.5650511771
  0
ARC
  5
1B2
100
AcDbEntity
  8
0
390
0
100
AcDbCircle
 10
55.1135005561
 20
71.5476981132
 30
0.0
 40
1.6987146847
100
AcDbArc
 50
333.4349488229
 51
26.5650511771
  0
SOLID
  5
1B3
100
AcDbEntity
  8
0
390
0
100
AcDbTrace
 10
48.9124492354
 20
71.5476981132
 30
0.0
 11
50.4124492354
 21
71.2976981132
 31
0.0
 12
50.4124492354
 22
71.7976981132
 32
0.0
 13
50.4124492354
 23
71.7976981132
 33
0.0
  0
SOLID
  5
1B4
100
AcDbEntity
  8
0
390
0
100
AcDbTrace
 10
61.9124492354
 20
71.5476981132
 30
0.0
 11
60.4124492354
 21
71.7976981132
 31
0.0
 12
60.4124492354
 22
71.2976981132
 32
0.0
 13
60.4124492354
 23
71.2976981132
 33
0.0
  0
POINT
  5
1B5
100
AcDbEntity
  8
0
390
0
100
AcDbPoint
 10
48.9124492354
 20
58.7677083536
 30
0.0
  0
POINT
  5
1B6
100
AcDbEntity
  8
0
390
0
100
AcDbPoint
 10
61.9124492354
 20
58.7677083536
 30
0.0
  0
ENDBLK
  5
1B7
100
AcDbEntity
  8
0
390
0
 62
         1
100
AcDbBlockEnd
  0
BLOCK
  5
1BA
100
AcDbEntity
  8
0
390
0
 62
         7
100
AcDbBlockBegin
  2
*D19
 70
         1
 10
0.0
 20
0.0
 30
0.0
  3
*D19
  1

  0
MTEXT
  5
1BB
100
AcDbEntity
  8
0
390
0
 62
         7
100
AcDbMText
 10
44.266003517
 20
71.2384642919
 30
0.0
 40
0.8
 41
0.0
 71
         7
 72
         1
  1
8"
  7
SLDTEXTSTYLE0
 73
         1
 44
1.0
  0
LINE
  5
1BC
100
AcDbEntity
  8
0
390
0
 62
         7
100
AcDbLine
 10
40.9124492354
 20
68.0877083536
 30
0.0
 11
40.9124492354
 21
72.5581525938
 31
0.0
  0
LINE
  5
1BD
100
AcDbEntity
  8
0
390
0
 62
         7
100
AcDbLine
 10
48.9124492354
 20
59.0877083536
 30
0.0
 11
48.9124492354
 21
72.5581525938
 31
0.0
  0
LINE
  5
1BE
100
AcDbEntity
  8
0
390
0
 62
         7
100
AcDbLine
 10
40.9124492354
 20
71.5981525938
 30
0.0
 11
43.766003517
 21
71.5981525938
 31
0.0
  0
LINE
  5
1BF
100
AcDbEntity
  8
0
390
0
 62
         7
100
AcDbLine
 10
48.9124492354
 20
71.5981525938
 30
0.0
 11
45.806403517
 21
71.5981525938
 31
0.0
  0
SOLID
  5
1C0
100
AcDbEntity
  8
0
390
0
 62
         7
100
AcDbTrace
 10
40.9124492354
 20
71.5981525938
 30
0.0
 11
42.4124492354
 21
71.3481525938
 31
0.0
 12
42.4124492354
 22
71.8481525938
 32
0.0
 13
42.4124492354
 23
71.8481525938
 33
0.0
  0
SOLID
  5
1C1
100
AcDbEntity
  8
0
390
0
 62
         7
100
AcDbTrace
 10
48.9124492354
 20
71.5981525938
 30
0.0
 11
47.4124492354
 21
71.8481525938
 31
0.0
 12
47.4124492354
 22
71.3481525938
 32
0.0
 13
47.4124492354
 23
71.3481525938
 33
0.0
  0
POINT
  5
1C2
100
AcDbEntity
  8
0
390
0
 62
         7
100
AcDbPoint
 10
40.9124492354
 20
67.7677083536
 30
0.0
  0
POINT
  5
1C3
100
AcDbEntity
  8
0
390
0
 62
         7
100
AcDbPoint
 10
48.9124492354
 20
58.7677083536
 30
0.0
  0
ENDBLK
  5
1C4
100
AcDbEntity
  8
0
390
0
 62
         7
100
AcDbBlockEnd
  0
BLOCK
  5
1D7
100
AcDbEntity
  8
0
390
0
 62
         7
100
AcDbBlockBegin
  2
*D20
 70
         1
 10
0.0
 20
0.0
 30
0.0
  3
*D20
  1

  0
MTEXT
  5
1D8
100
AcDbEntity
  8
0
390
0
 62
         7
100
AcDbMText
 10
86.0822073779
 20
70.8273208853
 30
0.0
 40
0.8
 41
0.0
 71
         7
 72
         1
  1
1/4"
  7
SLDTEXTSTYLE0
 73
         1
 44
1.0
  0
LINE
  5
1D9
100
AcDbEntity
  8
0
390
0
 62
         7
100
AcDbLine
 10
96.177021152
 20
22.0877083536
 30
0.0
 11
96.177021152
 21
72.1470091872
 31
0.0
  0
LINE
  5
1DA
100
AcDbEntity
  8
0
390
0
 62
         7
100
AcDbLine
 10
96.427021152
 20
22.0877083536
 30
0.0
 11
96.427021152
 21
72.1470091872
 31
0.0
  0
LINE
  5
1DB
100
AcDbEntity
  8
0
390
0
 62
         7
100
AcDbLine
 10
96.177021152
 20
71.1870091872
 30
0.0
 11
88.6630073779
 21
71.1870091872
 31
0.0
  0
LINE
  5
1DC
100
AcDbEntity
  8
0
390
0
 62
         7
100
AcDbLine
 10
96.427021152
 20
71.1870091872
 30
0.0
 11
100.427021152
 21
71.1870091872
 31
0.0
  0
SOLID
  5
1DD
100
AcDbEntity
  8
0
390
0
 62
         7
100
AcDbTrace
 10
96.177021152
 20
71.1870091872
 30
0.0
 11
94.677021152
 21
71.4370091872
 31
0.0
 12
94.677021152
 22
70.9370091872
 32
0.0
 13
94.677021152
 23
70.9370091872
 33
0.0
  0
SOLID
  5
1DE
100
AcDbEntity
  8
0
390
0
 62
         7
100
AcDbTrace
 10
96.427021152
 20
71.1870091872
 30
0.0
 11
97.927021152
 21
70.9370091872
 31
0.0
 12
97.927021152
 22
71.4370091872
 32
0.0
 13
97.927021152
 23
71.4370091872
 33
0.0
  0
POINT
  5
1DF
100
AcDbEntity
  8
0
390
0
 62
         7
100
AcDbPoint
 10
96.177021152
 20
21.7677083536
 30
0.0
  0
POINT
  5
1E0
100
AcDbEntity
  8
0
390
0
 62
         7
100
AcDbPoint
 10
96.427021152
 20
21.7677083536
 30
0.0
  0
ENDBLK
  5
1E1
100
AcDbEntity
  8
0
390
0
 62
         7
100
AcDbBlockEnd
  0
ENDSEC
  0
SECTION
  2
ENTITIES
  0
LINE
  5
2A
100
AcDbEntity
  8
0
370
         0
390
0
  6
Continuous
 62
         7
100
AcDbLine
 10
27.0
 20
85.0
 30
0.0
 11
12.0
 21
85.0
 31
0.0
  0
LINE
  5
2B
100
AcDbEntity
  8
0
370
         0
390
0
  6
Continuous
 62
         7
100
AcDbLine
 10
42.0
 20
85.0
 30
0.0
 11
27.0
 21
85.0
 31
0.0
  0
LINE
  5
2C
100
AcDbEntity
  8
0
370
         0
390
0
  6
Continuous
 62
         7
100
AcDbLine
 10
132.0
 20
3.0
 30
0.0
 11
117.0
 21
3.0
 31
0.0
  0
LINE
  5
2D
100
AcDbEntity
  8
0
370
         0
390
0
  6
Continuous
 62
         7
100
AcDbLine
 10
132.0
 20
3.0
 30
0.0
 11
132.0
 21
23.5
 31
0.0
  0
LINE
  5
2E
100
AcDbEntity
  8
0
370
         0
390
0
  6
Continuous
 62
         7
100
AcDbLine
 10
132.0
 20
64.5
 30
0.0
 11
133.0
 21
64.5
 31
0.0
  0
LINE
  5
2F
100
AcDbEntity
  8
0
370
         0
390
0
  6
Continuous
 62
         7
100
AcDbLine
 10
132.0
 20
44.0
 30
0.0
 11
133.0
 21
44.0
 31
0.0
  0
LINE
  5
30
100
AcDbEntity
  8
0
370
         0
390
0
  6
Continuous
 62
         7
100
AcDbLine
 10
57.0
 20
85.0
 30
0.0
 11
42.0
 21
85.0
 31
0.0
  0
LINE
  5
31
100
AcDbEntity
  8
0
370
         0
390
0
  6
Continuous
 62
         7
100
AcDbLine
 10
72.0
 20
85.0
 30
0.0
 11
57.0
 21
85.0
 31
0.0
  0
LINE
  5
32
100
AcDbEntity
  8
0
370
         0
390
0
  6
Continuous
 62
         7
100
AcDbLine
 10
87.0
 20
85.0
 30
0.0
 11
72.0
 21
85.0
 31
0.0
  0
LINE
  5
33
100
AcDbEntity
  8
0
370
         0
390
0
  6
Continuous
 62
         7
100
AcDbLine
 10
102.0
 20
85.0
 30
0.0
 11
87.0
 21
85.0
 31
0.0
  0
LINE
  5
34
100
AcDbEntity
  8
0
370
         0
390
0
  6
Continuous
 62
         7
100
AcDbLine
 10
117.0
 20
85.0
 30
0.0
 11
102.0
 21
85.0
 31
0.0
  0
LINE
  5
35
100
AcDbEntity
  8
0
370
         0
390
0
  6
Continuous
 62
         7
100
AcDbLine
 10
132.0
 20
23.5
 30
0.0
 11
133.0
 21
23.5
 31
0.0
  0
LINE
  5
36
100
AcDbEntity
  8
0
370
         0
390
0
  6
Continuous
 62
         7
100
AcDbLine
 10
132.0
 20
85.0
 30
0.0
 11
117.0
 21
85.0
 31
0.0
  0
LINE
  5
37
100
AcDbEntity
  8
0
370
         0
390
0
  6
Continuous
 62
         7
100
AcDbLine
 10
117.0
 20
85.0
 30
0.0
 11
117.0
 21
86.0
 31
0.0
  0
LINE
  5
38
100
AcDbEntity
  8
0
370
         0
390
0
  6
Continuous
 62
         7
100
AcDbLine
 10
102.0
 20
85.0
 30
0.0
 11
102.0
 21
86.0
 31
0.0
  0
LINE
  5
39
100
AcDbEntity
  8
0
370
         0
390
0
  6
Continuous
 62
         7
100
AcDbLine
 10
87.0
 20
85.0
 30
0.0
 11
87.0
 21
86.0
 31
0.0
  0
LINE
  5
3A
100
AcDbEntity
  8
0
370
         0
390
0
  6
Continuous
 62
         7
100
AcDbLine
 10
72.0
 20
85.0
 30
0.0
 11
72.0
 21
86.0
 31
0.0
  0
LINE
  5
3B
100
AcDbEntity
  8
0
370
         0
390
0
  6
Continuous
 62
         7
100
AcDbLine
 10
57.0
 20
85.0
 30
0.0
 11
57.0
 21
86.0
 31
0.0
  0
LINE
  5
3C
100
AcDbEntity
  8
0
370
         0
390
0
  6
Continuous
 62
         7
100
AcDbLine
 10
42.0
 20
85.0
 30
0.0
 11
42.0
 21
86.0
 31
0.0
  0
LINE
  5
3D
100
AcDbEntity
  8
0
370
         0
390
0
  6
Continuous
 62
         7
100
AcDbLine
 10
27.0
 20
85.0
 30
0.0
 11
27.0
 21
86.0
 31
0.0
  0
LINE
  5
3E
100
AcDbEntity
  8
0
370
         0
390
0
  6
Continuous
 62
         7
100
AcDbLine
 10
70.0
 20
13.52
 30
0.0
 11
70.0
 21
3.008
 31
0.0
  0
LINE
  5
3F
100
AcDbEntity
  8
0
370
         0
390
0
  6
Continuous
 62
         7
100
AcDbLine
 10
88.0
 20
19.0
 30
0.0
 11
132.0
 21
19.0
 31
0.0
  0
LINE
  5
40
100
AcDbEntity
  8
0
370
         0
390
0
  6
Continuous
 62
         7
100
AcDbLine
 10
88.0
 20
19.0
 30
0.0
 11
88.0
 21
3.0
 31
0.0
  0
LINE
  5
41
100
AcDbEntity
  8
0
370
         0
390
0
  6
Continuous
 62
         7
100
AcDbLine
 10
108.0
 20
19.0
 30
0.0
 11
108.0
 21
3.0
 31
0.0
  0
LINE
  5
42
100
AcDbEntity
  8
0
370
         0
390
0
  6
Continuous
 62
         7
100
AcDbLine
 10
108.0
 20
4.504
 30
0.0
 11
132.0
 21
4.504
 31
0.0
  0
LINE
  5
43
100
AcDbEntity
  8
0
370
         0
390
0
  6
Continuous
 62
         7
100
AcDbLine
 10
108.0
 20
7.504
 30
0.0
 11
132.0
 21
7.504
 31
0.0
  0
LINE
  5
44
100
AcDbEntity
  8
0
370
         0
390
0
  6
Continuous
 62
         7
100
AcDbLine
 10
108.0
 20
13.504
 30
0.0
 11
132.0
 21
13.504
 31
0.0
  0
LINE
  5
45
100
AcDbEntity
  8
0
370
         0
390
0
  6
Continuous
 62
         7
100
AcDbLine
 10
111.0
 20
7.504
 30
0.0
 11
111.0
 21
3.0
 31
0.0
  0
LINE
  5
46
100
AcDbEntity
  8
0
370
         0
390
0
  6
Continuous
 62
         7
100
AcDbLine
 10
70.0
 20
6.008
 30
0.0
 11
108.0
 21
6.008
 31
0.0
  0
LINE
  5
47
100
AcDbEntity
  8
0
370
         0
390
0
  6
Continuous
 62
         7
100
AcDbLine
 10
129.0
 20
7.504
 30
0.0
 11
129.0
 21
3.0
 31
0.0
  0
LINE
  5
48
100
AcDbEntity
  8
0
370
         0
390
0
  6
Continuous
 62
         7
100
AcDbLine
 10
108.0
 20
16.0
 30
0.0
 11
88.0
 21
16.0
 31
0.0
  0
LINE
  5
49
100
AcDbEntity
  8
0
370
         0
390
0
  6
Continuous
 62
         7
100
AcDbLine
 10
88.0
 20
9.496
 30
0.0
 11
108.0
 21
9.496
 31
0.0
  0
LINE
  5
4A
100
AcDbEntity
  8
0
370
         0
390
0
  6
Continuous
 62
         7
100
AcDbLine
 10
88.0
 20
4.504
 30
0.0
 11
108.0
 21
4.504
 31
0.0
  0
LINE
  5
4B
100
AcDbEntity
  8
0
370
         0
390
0
  6
Continuous
 62
         7
100
AcDbLine
 10
70.0
 20
10.512
 30
0.0
 11
88.0
 21
10.512
 31
0.0
  0
LINE
  5
4C
100
AcDbEntity
  8
0
370
         0
390
0
  6
Continuous
 62
         7
100
AcDbLine
 10
132.0
 20
23.5
 30
0.0
 11
132.0
 21
44.0
 31
0.0
  0
LINE
  5
4D
100
AcDbEntity
  8
0
370
         0
390
0
  6
Continuous
 62
         7
100
AcDbLine
 10
132.0
 20
44.0
 30
0.0
 11
132.0
 21
64.5
 31
0.0
  0
LINE
  5
4E
100
AcDbEntity
  8
0
370
         0
390
0
  6
Continuous
 62
         7
100
AcDbLine
 10
132.0
 20
64.5
 30
0.0
 11
132.0
 21
85.0
 31
0.0
  0
LINE
  5
4F
100
AcDbEntity
  8
0
370
         0
390
0
  6
Continuous
 62
         7
100
AcDbLine
 10
117.0
 20
3.0
 30
0.0
 11
102.0
 21
3.0
 31
0.0
  0
LINE
  5
50
100
AcDbEntity
  8
0
370
         0
390
0
  6
Continuous
 62
         7
100
AcDbLine
 10
102.0
 20
3.0
 30
0.0
 11
87.0
 21
3.0
 31
0.0
  0
LINE
  5
51
100
AcDbEntity
  8
0
370
         0
390
0
  6
Continuous
 62
         7
100
AcDbLine
 10
70.0
 20
12.016
 30
0.0
 11
88.0
 21
12.016
 31
0.0
  0
LINE
  5
52
100
AcDbEntity
  8
0
370
         0
390
0
  6
Continuous
 62
         7
100
AcDbLine
 10
70.0
 20
7.5
 30
0.0
 11
40.0
 21
7.5
 31
0.0
  0
LINE
  5
53
100
AcDbEntity
  8
0
370
         0
390
0
  6
Continuous
 62
         7
100
AcDbLine
 10
88.0
 20
13.52
 30
0.0
 11
70.0
 21
13.52
 31
0.0
  0
LINE
  5
54
100
AcDbEntity
  8
0
370
         0
390
0
  6
Continuous
 62
         7
100
AcDbLine
 10
82.0
 20
13.52
 30
0.0
 11
82.0
 21
9.008
 31
0.0
  0
LINE
  5
55
100
AcDbEntity
  8
0
370
         0
390
0
  6
Continuous
 62
         7
100
AcDbLine
 10
88.0
 20
14.496
 30
0.0
 11
108.0
 21
14.496
 31
0.0
  0
LINE
  5
56
100
AcDbEntity
  8
0
370
         0
390
0
  6
Continuous
 62
         7
100
AcDbLine
 10
70.0
 20
9.008
 30
0.0
 11
88.0
 21
9.008
 31
0.0
  0
LINE
  5
57
100
AcDbEntity
  8
0
370
         0
390
0
  6
Continuous
 62
         7
100
AcDbLine
 10
98.0
 20
16.0
 30
0.0
 11
98.0
 21
9.496
 31
0.0
  0
LINE
  5
58
100
AcDbEntity
  8
0
370
         0
390
0
  6
Continuous
 62
         7
100
AcDbLine
 10
87.0
 20
3.0
 30
0.0
 11
72.0
 21
3.0
 31
0.0
  0
LINE
  5
59
100
AcDbEntity
  8
0
370
         0
390
0
  6
Continuous
 62
         7
100
AcDbLine
 10
72.0
 20
3.0
 30
0.0
 11
57.0
 21
3.0
 31
0.0
  0
LINE
  5
5A
100
AcDbEntity
  8
0
370
         0
390
0
  6
Continuous
 62
         7
100
AcDbLine
 10
57.0
 20
3.0
 30
0.0
 11
42.0
 21
3.0
 31
0.0
  0
LINE
  5
5B
100
AcDbEntity
  8
0
370
         0
390
0
  6
Continuous
 62
         7
100
AcDbLine
 10
42.0
 20
3.0
 30
0.0
 11
27.0
 21
3.0
 31
0.0
  0
LINE
  5
5C
100
AcDbEntity
  8
0
370
         0
390
0
  6
Continuous
 62
         7
100
AcDbLine
 10
103.0
 20
16.0
 30
0.0
 11
103.0
 21
9.496
 31
0.0
  0
LINE
  5
5D
100
AcDbEntity
  8
0
370
         0
390
0
  6
Continuous
 62
         7
100
AcDbLine
 10
27.0
 20
3.0
 30
0.0
 11
12.0
 21
3.0
 31
0.0
  0
LINE
  5
5E
100
AcDbEntity
  8
0
370
         0
390
0
  6
Continuous
 62
         7
100
AcDbLine
 10
6.0
 20
85.0
 30
0.0
 11
6.0
 21
3.0
 31
0.0
  0
LINE
  5
5F
100
AcDbEntity
  8
0
370
         0
390
0
  6
Continuous
 62
         7
100
AcDbLine
 10
12.0
 20
23.5
 30
0.0
 11
12.0
 21
44.0
 31
0.0
  0
LINE
  5
60
100
AcDbEntity
  8
0
370
         0
390
0
  6
Continuous
 62
         7
100
AcDbLine
 10
12.0
 20
44.0
 30
0.0
 11
12.0
 21
64.5
 31
0.0
  0
LINE
  5
61
100
AcDbEntity
  8
0
370
         0
390
0
  6
Continuous
 62
         7
100
AcDbLine
 10
12.0
 20
64.5
 30
0.0
 11
12.0
 21
85.0
 31
0.0
  0
LINE
  5
62
100
AcDbEntity
  8
0
370
         0
390
0
  6
Continuous
 62
         7
100
AcDbLine
 10
12.0
 20
64.5
 30
0.0
 11
11.0
 21
64.5
 31
0.0
  0
LINE
  5
63
100
AcDbEntity
  8
0
370
         0
390
0
  6
Continuous
 62
         7
100
AcDbLine
 10
117.0
 20
3.0
 30
0.0
 11
117.0
 21
2.0
 31
0.0
  0
LINE
  5
64
100
AcDbEntity
  8
0
370
         0
390
0
  6
Continuous
 62
         7
100
AcDbLine
 10
102.0
 20
3.0
 30
0.0
 11
102.0
 21
2.0
 31
0.0
  0
LINE
  5
65
100
AcDbEntity
  8
0
370
         0
390
0
  6
Continuous
 62
         7
100
AcDbLine
 10
87.0
 20
3.0
 30
0.0
 11
87.0
 21
2.0
 31
0.0
  0
LINE
  5
66
100
AcDbEntity
  8
0
370
         0
390
0
  6
CENTERX2
 62
         7
100
AcDbLine
 10
72.0
 20
3.0
 30
0.0
 11
72.0
 21
2.0
 31
0.0
  0
LINE
  5
67
100
AcDbEntity
  8
0
370
         0
390
0
  6
Continuous
 62
         7
100
AcDbLine
 10
57.0
 20
3.0
 30
0.0
 11
57.0
 21
2.0
 31
0.0
  0
LINE
  5
68
100
AcDbEntity
  8
0
370
         0
390
0
  6
Continuous
 62
         7
100
AcDbLine
 10
42.0
 20
3.0
 30
0.0
 11
42.0
 21
2.0
 31
0.0
  0
LINE
  5
69
100
AcDbEntity
  8
0
370
         0
390
0
  6
Continuous
 62
         7
100
AcDbLine
 10
27.0
 20
3.0
 30
0.0
 11
27.0
 21
2.0
 31
0.0
  0
LINE
  5
6A
100
AcDbEntity
  8
0
370
         0
390
0
  6
Continuous
 62
         7
100
AcDbLine
 10
12.0
 20
44.0
 30
0.0
 11
11.0
 21
44.0
 31
0.0
  0
LINE
  5
6B
100
AcDbEntity
  8
0
370
         0
390
0
  6
Continuous
 62
         7
100
AcDbLine
 10
12.0
 20
23.5
 30
0.0
 11
11.0
 21
23.5
 31
0.0
  0
LINE
  5
6C
100
AcDbEntity
  8
0
370
         0
390
0
  6
Continuous
 62
         7
100
AcDbLine
 10
12.0
 20
3.0
 30
0.0
 11
12.0
 21
23.5
 31
0.0
  0
LINE
  5
6D
100
AcDbEntity
  8
0
370
         0
390
0
  6
Continuous
 62
         7
100
AcDbLine
 10
40.0
 20
7.5
 30
0.0
 11
40.0
 21
3.0
 31
0.0
  0
LINE
  5
6E
100
AcDbEntity
  8
0
370
         0
390
0
  6
Continuous
 62
         7
100
AcDbLine
 10
132.0
 20
83.496
 30
0.0
 11
100.0
 21
83.496
 31
0.0
  0
LINE
  5
6F
100
AcDbEntity
  8
0
370
         0
390
0
  6
Continuous
 62
         7
100
AcDbLine
 10
132.0
 20
81.992
 30
0.0
 11
100.0
 21
81.992
 31
0.0
  0
LINE
  5
70
100
AcDbEntity
  8
0
370
         0
390
0
  6
Continuous
 62
         7
100
AcDbLine
 10
132.0
 20
80.488
 30
0.0
 11
100.0
 21
80.488
 31
0.0
  0
LINE
  5
71
100
AcDbEntity
  8
0
370
         0
390
0
  6
Continuous
 62
         7
100
AcDbLine
 10
100.0
 20
85.0
 30
0.0
 11
100.0
 21
80.488
 31
0.0
  0
LINE
  5
72
100
AcDbEntity
  8
0
370
         0
390
0
  6
Continuous
 62
         7
100
AcDbLine
 10
103.0
 20
83.496
 30
0.0
 11
103.0
 21
80.488
 31
0.0
  0
LINE
  5
73
100
AcDbEntity
  8
0
370
         0
390
0
  6
Continuous
 62
         7
100
AcDbLine
 10
126.0
 20
83.496
 30
0.0
 11
126.0
 21
80.488
 31
0.0
  0
LINE
  5
74
100
AcDbEntity
  8
0
370
         0
390
0
  6
Continuous
 62
         7
100
AcDbLine
 10
121.0
 20
83.496
 30
0.0
 11
121.0
 21
80.488
 31
0.0
  0
MTEXT
  5
76
100
AcDbEntity
  8
0
390
0
 62
         1
100
AcDbMText
 10
92.7549028578
 20
5.7442096576
 30
0.0
 40
0.8
 41
0.0
 71
         1
 72
         1
  1
76.0 LBS
  7
SLDTEXTSTYLE0
 73
         1
 44
1.0
  0
MTEXT
  5
77
100
AcDbEntity
  8
0
390
0
 62
         1
100
AcDbMText
 10
71.0391029394
 20
7.4357561776
 30
0.0
 40
0.8
 41
0.0
 71
         1
 72
         1
  1
STEEL, A-36 1/4" THICK BURNED
  7
SLDTEXTSTYLE0
 73
         1
 44
1.0
  0
MTEXT
  5
78
100
AcDbEntity
  8
0
390
0
 62
         1
100
AcDbMText
 10
108.006303656
 20
25.2920945877
 30
0.0
 40
1.3333333333
 41
0.0
 71
         1
 72
         1
  1
2 REQUIRED\PPER ASSEM
  7
SLDTEXTSTYLE0
 73
         1
 44
1.0
  0
MTEXT
  5
79
100
AcDbEntity
  8
0
390
0
 62
         7
100
AcDbMText
 10
133.7071606363
 20
72.7093023403
 30
0.0
 40
0.75
 41
0.0
 71
         1
 72
         1
  1
D
  7
SLDTEXTSTYLE0
 73
         1
 44
1.0
  0
MTEXT
  5
7A
100
AcDbEntity
  8
0
390
0
 62
         7
100
AcDbMText
 10
133.5608467975
 20
52.369691798
 30
0.0
 40
0.75
 41
0.0
 71
         1
 72
         1
  1
C
  7
SLDTEXTSTYLE0
 73
         1
 44
1.0
  0
MTEXT
  5
7B
100
AcDbEntity
  8
0
390
0
 62
         7
100
AcDbMText
 10
133.6489664012
 20
33.7505212773
 30
0.0
 40
0.75
 41
0.0
 71
         1
 72
         1
  1
B
  7
SLDTEXTSTYLE0
 73
         1
 44
1.0
  0
MTEXT
  5
7C
100
AcDbEntity
  8
0
390
0
 62
         7
100
AcDbMText
 10
133.6444132808
 20
13.7101456663
 30
0.0
 40
0.75
 41
0.0
 71
         1
 72
         1
  1
A
  7
SLDTEXTSTYLE0
 73
         1
 44
1.0
  0
MTEXT
  5
7D
100
AcDbEntity
  8
0
390
0
 62
         7
100
AcDbMText
 10
7.7148207894
 20
13.5473149484
 30
0.0
 40
0.75
 41
0.0
 71
         1
 72
         1
  1
A
  7
SLDTEXTSTYLE0
 73
         1
 44
1.0
  0
MTEXT
  5
7E
100
AcDbEntity
  8
0
390
0
 62
         7
100
AcDbMText
 10
7.6892760513
 20
34.2223622451
 30
0.0
 40
0.75
 41
0.0
 71
         1
 72
         1
  1
B
  7
SLDTEXTSTYLE0
 73
         1
 44
1.0
  0
MTEXT
  5
7F
100
AcDbEntity
  8
0
390
0
 62
         7
100
AcDbMText
 10
7.5906232435
 20
54.9939200527
 30
0.0
 40
0.75
 41
0.0
 71
         1
 72
         1
  1
C
  7
SLDTEXTSTYLE0
 73
         1
 44
1.0
  0
MTEXT
  5
80
100
AcDbEntity
  8
0
390
0
 62
         7
100
AcDbMText
 10
7.564391697
 20
74.4517470685
 30
0.0
 40
0.75
 41
0.0
 71
         1
 72
         1
  1
D
  7
SLDTEXTSTYLE0
 73
         1
 44
1.0
  0
MTEXT
  5
81
100
AcDbEntity
  8
0
390
0
 62
         7
100
AcDbMText
 10
129.4864464923
 20
4.1574284717
 30
0.0
 40
0.72
 41
0.0
 71
         1
 72
         1
  1
REV.
  7
SLDTEXTSTYLE0
 73
         1
 44
1.0
  0
MTEXT
  5
82
100
AcDbEntity
  8
0
390
0
 62
         7
100
AcDbMText
 10
98.7926160947
 20
14.0695277957
 30
0.0
 40
0.72
 41
0.0
 71
         1
 72
         1
  1
%%p\P%%p\P%%p\P%%p
  7
SLDTEXTSTYLE0
 73
         1
 44
1.0
  0
MTEXT
  5
83
100
AcDbEntity
  8
0
390
0
 62
         7
100
AcDbMText
 10
70.4955321987
 20
8.7798767997
 30
0.0
 40
0.72
 41
0.0
 71
         1
 72
         1
  1
MATERIAL
  7
SLDTEXTSTYLE0
 73
         1
 44
1.0
  0
MTEXT
  5
84
100
AcDbEntity
  8
0
390
0
 62
         7
100
AcDbMText
 10
70.4772272517
 20
5.853390455
 30
0.0
 40
0.72
 41
0.0
 71
         1
 72
         1
  1
FINISH
  7
SLDTEXTSTYLE0
 73
         1
 44
1.0
  0
MTEXT
  5
85
100
AcDbEntity
  8
0
390
0
 62
         7
100
AcDbMText
 10
126.4034640266
 20
2.5741470478
 30
0.0
 40
0.75
 41
0.0
 71
         1
 72
         1
  1
1
  7
SLDTEXTSTYLE0
 73
         1
 44
1.0
  0
MTEXT
  5
86
100
AcDbEntity
  8
0
390
0
 62
         7
100
AcDbMText
 10
108.7550900322
 20
2.6520863584
 30
0.0
 40
0.75
 41
0.0
 71
         1
 72
         1
  1
2
  7
SLDTEXTSTYLE0
 73
         1
 44
1.0
  0
MTEXT
  5
87
100
AcDbEntity
  8
0
390
0
 62
         7
100
AcDbMText
 10
92.2901734474
 20
2.6780661286
 30
0.0
 40
0.75
 41
0.0
 71
         1
 72
         1
  1
3
  7
SLDTEXTSTYLE0
 73
         1
 44
1.0
  0
MTEXT
  5
88
100
AcDbEntity
  8
0
390
0
 62
         7
100
AcDbMText
 10
77.4534206459
 20
2.6939590187
 30
0.0
 40
0.75
 41
0.0
 71
         1
 72
         1
  1
4
  7
SLDTEXTSTYLE0
 73
         1
 44
1.0
  0
MTEXT
  5
89
100
AcDbEntity
  8
0
390
0
 62
         7
100
AcDbMText
 10
61.8501173481
 20
2.719938789
 30
0.0
 40
0.75
 41
0.0
 71
         1
 72
         1
  1
5
  7
SLDTEXTSTYLE0
 73
         1
 44
1.0
  0
MTEXT
  5
8A
100
AcDbEntity
  8
0
390
0
 62
         7
100
AcDbMText
 10
47.2817239888
 20
2.5900399379
 30
0.0
 40
0.75
 41
0.0
 71
         1
 72
         1
  1
6
  7
SLDTEXTSTYLE0
 73
         1
 44
1.0
  0
MTEXT
  5
8B
100
AcDbEntity
  8
0
390
0
 62
         7
100
AcDbMText
 10
31.4418470291
 20
2.7040458988
 30
0.0
 40
0.75
 41
0.0
 71
         1
 72
         1
  1
7
  7
SLDTEXTSTYLE0
 73
         1
 44
1.0
  0
MTEXT
  5
8C
100
AcDbEntity
  8
0
390
0
 62
         7
100
AcDbMText
 10
17.1852109124
 20
2.719938789
 30
0.0
 40
0.75
 41
0.0
 71
         1
 72
         1
  1
8
  7
SLDTEXTSTYLE0
 73
         1
 44
1.0
  0
MTEXT
  5
8D
100
AcDbEntity
  8
0
390
0
 62
         7
100
AcDbMText
 10
16.9382316246
 20
86.4695169705
 30
0.0
 40
0.75
 41
0.0
 71
         1
 72
         1
  1
8
  7
SLDTEXTSTYLE0
 73
         1
 44
1.0
  0
MTEXT
  5
8E
100
AcDbEntity
  8
0
390
0
 62
         7
100
AcDbMText
 10
32.5636559821
 20
86.29121875
 30
0.0
 40
0.75
 41
0.0
 71
         1
 72
         1
  1
7
  7
SLDTEXTSTYLE0
 73
         1
 44
1.0
  0
MTEXT
  5
8F
100
AcDbEntity
  8
0
390
0
 62
         7
100
AcDbMText
 10
47.6137179177
 20
86.2389496528
 30
0.0
 40
0.75
 41
0.0
 71
         1
 72
         1
  1
6
  7
SLDTEXTSTYLE0
 73
         1
 44
1.0
  0
MTEXT
  5
90
100
AcDbEntity
  8
0
390
0
 62
         7
100
AcDbMText
 10
63.2495534472
 20
86.1440871961
 30
0.0
 40
0.75
 41
0.0
 71
         1
 72
         1
  1
5
  7
SLDTEXTSTYLE0
 73
         1
 44
1.0
  0
MTEXT
  5
91
100
AcDbEntity
  8
0
390
0
 62
         7
100
AcDbMText
 10
78.7905265201
 20
86.3746545139
 30
0.0
 40
0.75
 41
0.0
 71
         1
 72
         1
  1
4
  7
SLDTEXTSTYLE0
 73
         1
 44
1.0
  0
MTEXT
  5
92
100
AcDbEntity
  8
0
390
0
 62
         7
100
AcDbMText
 10
94.4104179263
 20
86.209173151
 30
0.0
 40
0.75
 41
0.0
 71
         1
 72
         1
  1
3
  7
SLDTEXTSTYLE0
 73
         1
 44
1.0
  0
MTEXT
  5
93
100
AcDbEntity
  8
0
390
0
 62
         7
100
AcDbMText
 10
109.3683838809
 20
86.3068020833
 30
0.0
 40
0.75
 41
0.0
 71
         1
 72
         1
  1
2
  7
SLDTEXTSTYLE0
 73
         1
 44
1.0
  0
MTEXT
  5
94
100
AcDbEntity
  8
0
390
0
 62
         7
100
AcDbMText
 10
125.3351821362
 20
86.1738636979
 30
0.0
 40
0.75
 41
0.0
 71
         1
 72
         1
  1
1
  7
SLDTEXTSTYLE0
 73
         1
 44
1.0
  0
MTEXT
  5
95
100
AcDbEntity
  8
0
390
0
 62
         7
100
AcDbMText
 10
109.243472093
 20
18.4057390878
 30
0.0
 40
1.3333333333
 41
0.0
 71
         1
 72
         1
  1
RADIO  ASTRONOMY  LAB
  7
SLDTEXTSTYLE0
 73
         1
 44
1.0
  0
MTEXT
  5
96
100
AcDbEntity
  8
0
390
0
 62
         7
100
AcDbMText
 10
120.1820630037
 20
16.1563928723
 30
0.0
 40
0.8
 41
0.0
 71
         2
 72
         1
  1
University of California - Berkeley\PTel: 510-642-5040    Fax: 510-642-3411
  7
SLDTEXTSTYLE0
 73
         1
 44
1.0
  0
MTEXT
  5
97
100
AcDbEntity
  8
0
390
0
 62
         7
100
AcDbMText
 10
75.0718795251
 20
13.1020750892
 30
0.0
 40
0.72
 41
0.0
 71
         1
 72
         1
  1
NAME
  7
SLDTEXTSTYLE0
 73
         1
 44
1.0
  0
MTEXT
  5
98
100
AcDbEntity
  8
0
390
0
 62
         7
100
AcDbMText
 10
83.9355137884
 20
13.0666274159
 30
0.0
 40
0.72
 41
0.0
 71
         1
 72
         1
  1
DATE
  7
SLDTEXTSTYLE0
 73
         1
 44
1.0
  0
MTEXT
  5
99
100
AcDbEntity
  8
0
390
0
 62
         7
100
AcDbMText
 10
108.6346434591
 20
4.1932229056
 30
0.0
 40
0.72
 41
0.0
 71
         1
 72
         1
  1
SIZE
  7
SLDTEXTSTYLE0
 73
         1
 44
1.0
  0
MTEXT
  5
9A
100
AcDbEntity
  8
0
390
0
 62
         7
100
AcDbMText
 10
109.0759990447
 20
6.753055738
 30
0.0
 40
1.5
 41
0.0
 71
         1
 72
         1
  1
B
  7
SLDTEXTSTYLE0
 73
         1
 44
1.0
  0
MTEXT
  5
9B
100
AcDbEntity
  8
0
390
0
 62
         7
100
AcDbMText
 10
88.6337028089
 20
4.1029293655
 30
0.0
 40
0.72
 41
0.0
 71
         1
 72
         1
  1
SCALE:
  7
SLDTEXTSTYLE0
 73
         1
 44
1.0
  0
MTEXT
  5
9C
100
AcDbEntity
  8
0
390
0
 62
         7
100
AcDbMText
 10
111.3951246244
 20
4.1600022495
 30
0.0
 40
0.72
 41
0.0
 71
         1
 72
         1
  1
DWG NUM:      SHEET             OF
  7
SLDTEXTSTYLE0
 73
         1
 44
1.0
  0
MTEXT
  5
9D
100
AcDbEntity
  8
0
390
0
 62
         7
100
AcDbMText
 10
127.9902518354
 20
83.0824214821
 30
0.0
 40
0.72
 41
0.0
 71
         1
 72
         1
  1
DATE
  7
SLDTEXTSTYLE0
 73
         1
 44
1.0
  0
MTEXT
  5
9E
100
AcDbEntity
  8
0
390
0
 62
         7
100
AcDbMText
 10
122.4199086342
 20
83.0789964828
 30
0.0
 40
0.72
 41
0.0
 71
         1
 72
         1
  1
NAME
  7
SLDTEXTSTYLE0
 73
         1
 44
1.0
  0
MTEXT
  5
9F
100
AcDbEntity
  8
0
390
0
 62
         7
100
AcDbMText
 10
112.264590806
 20
84.5757173655
 30
0.0
 40
0.72
 41
0.0
 71
         1
 72
         1
  1
REVISIONS
  7
SLDTEXTSTYLE0
 73
         1
 44
1.0
  0
MTEXT
  5
A0
100
AcDbEntity
  8
0
390
0
 62
         7
100
AcDbMText
 10
100.6575886951
 20
83.067465932
 30
0.0
 40
0.72
 41
0.0
 71
         1
 72
         1
  1
REV
  7
SLDTEXTSTYLE0
 73
         1
 44
1.0
  0
MTEXT
  5
A1
100
AcDbEntity
  8
0
390
0
 62
         7
100
AcDbMText
 10
103.6996455327
 20
83.063125402
 30
0.0
 40
0.72
 41
0.0
 71
         1
 72
         1
  1
DESCRIPTION
  7
SLDTEXTSTYLE0
 73
         1
 44
1.0
  0
MTEXT
  5
A2
100
AcDbEntity
  8
0
390
0
 62
         7
100
AcDbMText
 10
88.5921574221
 20
5.5875665187
 30
0.0
 40
0.72
 41
0.0
 71
         1
 72
         1
  1
WEIGHT:
  7
SLDTEXTSTYLE0
 73
         1
 44
1.0
  0
MTEXT
  5
A3
100
AcDbEntity
  8
0
390
0
 62
         7
100
AcDbMText
 10
70.486112941
 20
11.580355705
 30
0.0
 40
0.72
 41
0.0
 71
         1
 72
         1
  1
DRAWN
  7
SLDTEXTSTYLE0
 73
         1
 44
1.0
  0
MTEXT
  5
A4
100
AcDbEntity
  8
0
390
0
 62
         7
100
AcDbMText
 10
70.4842936054
 20
10.0906433909
 30
0.0
 40
0.72
 41
0.0
 71
         1
 72
         1
  1
CHECKED
  7
SLDTEXTSTYLE0
 73
         1
 44
1.0
  0
MTEXT
  5
A5
100
AcDbEntity
  8
0
390
0
 62
         7
100
AcDbMText
 10
97.3222343394
 20
14.0313640776
 30
0.0
 40
0.72
 41
0.0
 71
         3
 72
         1
  1
WHOLE & FRACTION\PDECIMAL   X.X\PDECIMAL   X.XX\PDECIMAL   X.XXX
  7
SLDTEXTSTYLE0
 73
         1
 44
1.0
  0
MTEXT
  5
A6
100
AcDbEntity
  8
0
390
0
 62
         7
100
AcDbMText
 10
100.6983805622
 20
15.7178882085
 30
0.0
 40
0.72
 41
0.0
 71
         2
 72
         1
  1
LINEAR
  7
SLDTEXTSTYLE0
 73
         1
 44
1.0
  0
MTEXT
  5
A7
100
AcDbEntity
  8
0
390
0
 62
         7
100
AcDbMText
 10
105.342436411
 20
15.7660301251
 30
0.0
 40
0.72
 41
0.0
 71
         2
 72
         1
  1
ANGLE
  7
SLDTEXTSTYLE0
 73
         1
 44
1.0
  0
INSERT
  5
AE
100
AcDbEntity
  8
0
390
0
100
AcDbBlockReference
  2
NOTE50
 10
89.3359734859
 20
8.7523580209
 30
0.0
  0
MTEXT
  5
AF
100
AcDbEntity
  8
0
390
0
 62
         7
100
AcDbMText
 10
97.9900279047
 20
18.4712227725
 30
0.0
 40
0.72
 41
0.0
 71
         2
 72
         1
  1
UNLESS OTHERWISE SPECIFIED\PDIMENSIONS ARE INCHES & DEGREES
  7
SLDTEXTSTYLE0
 73
         1
 44
1.0
  0
MTEXT
  5
B0
100
AcDbEntity
  8
0
390
0
 62
         7
100
AcDbMText
 10
89.610400872
 20
15.6669476239
 30
0.0
 40
0.72
 41
0.0
 71
         1
 72
         1
  1
TOLERANCES:
  7
SLDTEXTSTYLE0
 73
         1
 44
1.0
  0
MTEXT
  5
B1
100
AcDbEntity
  8
0
390
0
 62
         7
100
AcDbMText
 10
103.64369481
 20
14.0624973421
 30
0.0
 40
0.72
 41
0.0
 71
         1
 72
         1
  1
%%p\P%%p\P%%p\P%%p
  7
SLDTEXTSTYLE0
 73
         1
 44
1.0
  0
MTEXT
  5
B2
100
AcDbEntity
  8
0
390
0
 62
         7
100
AcDbMText
 10
117.3072023483
 20
83.0898114823
 30
0.0
 40
0.72
 41
0.0
 71
         1
 72
         1
  1
ZONE
  7
SLDTEXTSTYLE0
 73
         1
 44
1.0
  0
MTEXT
  5
B3
100
AcDbEntity
  8
0
390
0
 62
         7
100
AcDbMText
 10
40.7617414555
 20
6.9165333374
 30
0.0
 40
0.64
 41
0.0
 71
         1
 72
         1
  1
THIS DRAWING IS THE PROPERTY OF AND CONTAINS CONFIDENTIAL\PINFORMATION PROPRIETARY TO THE UNIVERSITY OF CALIFORNIA AND\PSHALL BE USED ONLY FOR THE PURPOSE FOR WHICH IT WAS PROVIDED\PAND SHALL NOT BE REPRODUCED OR DISCLOSED TO OTHERS.
  7
SLDTEXTSTYLE0
 73
         1
 44
1.0
  0
MTEXT
  5
B4
100
AcDbEntity
  8
0
390
0
 62
         7
100
AcDbMText
 10
101.1116689034
 20
81.6391934088
 30
0.0
 40
0.72
 41
0.0
 71
         1
 72
         1
  1
A
  7
SLDTEXTSTYLE0
 73
         1
 44
1.0
  0
MTEXT
  5
B5
100
AcDbEntity
  8
0
390
0
 62
         7
100
AcDbMText
 10
103.8239673113
 20
81.637212067
 30
0.0
 40
0.72
 41
0.0
 71
         1
 72
         1
  1
RELEASED
  7
SLDTEXTSTYLE0
 73
         1
 44
1.0
  0
MTEXT
  5
B6
100
AcDbEntity
  8
0
390
0
 62
         7
100
AcDbMText
 10
74.9533933852
 20
11.6810151146
 30
0.0
 40
0.8333333333
 41
0.0
 71
         1
 72
         1
  1
M. C. FLEMING
  7
SLDTEXTSTYLE0
 73
         1
 44
1.0
  0
MTEXT
  5
B7
100
AcDbEntity
  8
0
390
0
 62
         7
100
AcDbMText
 10
130.0168351042
 20
6.6165635824
 30
0.0
 40
1.5
 41
0.0
 71
         1
 72
         1
  1
A
  7
SLDTEXTSTYLE0
 73
         1
 44
1.0
  0
MTEXT
  5
B8
100
AcDbEntity
  8
0
390
0
 62
         7
100
AcDbMText
 10
82.5771222158
 20
11.6672334094
 30
0.0
 40
0.8333333333
 41
0.0
 71
         1
 72
         1
  1
2004-12-23
  7
SLDTEXTSTYLE0
 73
         1
 44
1.0
  0
MTEXT
  5
B9
100
AcDbEntity
  8
0
390
0
 62
         7
100
AcDbMText
 10
100.099287306
 20
14.0786137913
 30
0.0
 40
0.72
 41
0.0
 71
         1
 72
         1
  1
1/16\P0.1\P0.01\P0.005
  7
SLDTEXTSTYLE0
 73
         1
 44
1.0
  0
MTEXT
  5
BA
100
AcDbEntity
  8
0
390
0
 62
         7
100
AcDbMText
 10
104.8198737558
 20
14.063000818
 30
0.0
 40
0.72
 41
0.0
 71
         1
 72
         1
  1
1%%d\P0.1%%d\P0.01%%d\P0.001%%d
  7
SLDTEXTSTYLE0
 73
         1
 44
1.0
  0
MTEXT
  5
BB
100
AcDbEntity
  8
0
390
0
 62
         7
100
AcDbMText
 10
112.6536240881
 20
6.7612960901
 30
0.0
 40
1.5
 41
0.0
 71
         1
 72
         1
  1
24-09-216    1 of 1
  7
SLDTEXTSTYLE0
 73
         1
 44
1.0
  0
MTEXT
  5
BC
100
AcDbEntity
  8
0
390
0
 62
         7
100
AcDbMText
 10
122.3678259955
 20
81.6406892064
 30
0.0
 40
0.8333333333
 41
0.0
 71
         1
 72
         1
  1
M.C.F.
  7
SLDTEXTSTYLE0
 73
         1
 44
1.0
  0
MTEXT
  5
BD
100
AcDbEntity
  8
0
390
0
 62
         7
100
AcDbMText
 10
126.7357920781
 20
81.6332191718
 30
0.0
 40
0.8333333333
 41
0.0
 71
         1
 72
         1
  1
2004-12-23
  7
SLDTEXTSTYLE0
 73
         1
 44
1.0
  0
MTEXT
  5
BE
100
AcDbEntity
  8
0
390
0
 62
         7
100
AcDbMText
 10
120.4175001862
 20
12.3978430076
 30
0.0
 40
1.5
 41
0.0
 71
         2
 72
         1
  1
CARMA 6m Base,\PSide Plate East Door
  7
SLDTEXTSTYLE0
 73
         1
 44
1.0
  0
CIRCLE
  5
BF
100
AcDbEntity
  8
0
370
        15
390
0
  6
Continuous
 62
         7
100
AcDbCircle
 10
48.9124492354
 20
58.7677083536
 30
0.0
 40
0.1565
  0
CIRCLE
  5
C0
100
AcDbEntity
  8
0
370
        15
390
0
  6
Continuous
 62
         7
100
AcDbCircle
 10
61.9124492354
 20
30.7677083536
 30
0.0
 40
0.1565
  0
CIRCLE
  5
C1
100
AcDbEntity
  8
0
370
        15
390
0
  6
Continuous
 62
         7
100
AcDbCircle
 10
48.9124492354
 20
30.7677083536
 30
0.0
 40
0.1565
  0
CIRCLE
  5
C2
100
AcDbEntity
  8
0
370
        15
390
0
  6
Continuous
 62
         7
100
AcDbCircle
 10
45.9124492354
 20
44.7677083536
 30
0.0
 40
1.7815
  0
CIRCLE
  5
C3
100
AcDbEntity
  8
0
370
        15
390
0
  6
Continuous
 62
         7
100
AcDbCircle
 10
61.9124492354
 20
58.7677083536
 30
0.0
 40
0.1565
  0
LINE
  5
C4
100
AcDbEntity
  8
0
370
        15
390
0
  6
Continuous
 62
         7
100
AcDbLine
 10
63.5374492354
 20
38.7677083536
 30
0.0
 11
63.5374492354
 21
50.7677083536
 31
0.0
  0
ARC
  5
C5
100
AcDbEntity
  8
0
370
        15
390
0
  6
Continuous
 62
         7
100
AcDbCircle
 10
75.9124492354
 20
50.7677083536
 30
0.0
 40
12.375
100
AcDbArc
 50
152.7339555493
 51
180.0
  0
LINE
  5
C6
100
AcDbEntity
  8
0
370
        15
390
0
  6
Continuous
 62
         7
100
AcDbLine
 10
64.9124492354
 20
56.4369785889
 30
0.0
 11
64.9124495883
 21
67.767710291
 31
0.0
  0
LINE
  5
C7
100
AcDbEntity
  8
0
370
        15
390
0
  6
Continuous
 62
         7
100
AcDbLine
 10
64.9124495883
 20
67.767710291
 30
0.0
 11
40.9124492917
 21
67.767710291
 31
0.0
  0
LINE
  5
C8
100
AcDbEntity
  8
0
370
        15
390
0
  6
Continuous
 62
         7
100
AcDbLine
 10
40.9124492917
 20
67.767710291
 30
0.0
 11
40.9124492917
 21
21.7677083536
 31
0.0
  0
LINE
  5
C9
100
AcDbEntity
  8
0
370
        15
390
0
  6
Continuous
 62
         7
100
AcDbLine
 10
40.9124492917
 20
21.7677083536
 30
0.0
 11
64.9124495883
 21
21.7677083536
 31
0.0
  0
LINE
  5
CA
100
AcDbEntity
  8
0
370
        15
390
0
  6
Continuous
 62
         7
100
AcDbLine
 10
64.9124495883
 20
21.7677083536
 30
0.0
 11
64.9124492354
 21
33.0984381184
 31
0.0
  0
ARC
  5
CB
100
AcDbEntity
  8
0
370
        15
390
0
  6
Continuous
 62
         7
100
AcDbCircle
 10
75.9124492354
 20
38.7677083536
 30
0.0
 40
12.375
100
AcDbArc
 50
180.0
 51
207.2660444507
  0
DIMENSION
  5
D9
100
AcDbEntity
  8
0
390
0
100
AcDbDimension
  2
*D1
 10
40.9124492354
 20
80.1849811321
 30
0.0
 11
52.9124492354
 21
80.1849811321
 31
0.0
 70
       160
 71
         5
 72
         1
 41
1.0
 42
0.0
  3
SLDDIMSTYLE0
100
AcDbAlignedDimension
 13
64.9124492354
 23
67.7677083536
 33
0.0
 14
40.9124492354
 24
67.7677083536
 34
0.0
100
AcDbRotatedDimension
  0
DIMENSION
  5
E6
100
AcDbEntity
  8
0
390
0
100
AcDbDimension
  2
*D2
 10
18.7936603774
 20
21.7677083536
 30
0.0
 11
18.7936603774
 21
44.7677083536
 31
0.0
 70
       160
 71
         5
 72
         1
 41
1.0
 42
0.0
  3
SLDDIMSTYLE0
100
AcDbAlignedDimension
 13
40.9124492354
 23
67.7677083536
 33
0.0
 14
40.9124492354
 24
21.7677083536
 34
0.0
 50
90.0
100
AcDbRotatedDimension
  0
DIMENSION
  5
F3
100
AcDbEntity
  8
0
390
0
100
AcDbDimension
  2
*D3
 10
75.9124492354
 20
38.7677083536
 30
0.0
 11
70.1852808201
 21
36.4257651021
 31
0.0
 70
       164
 71
         5
 72
         1
 41
1.0
 42
0.0
  1
<> RAD\P2 PLACES
  3
SLDDIMSTYLE1
100
AcDbRadialDimension
 15
64.4581124049
 25
34.0838218506
 35
0.0
 40
0.0
  0
DIMENSION
  5
100
100
AcDbEntity
  8
0
390
0
100
AcDbDimension
  2
*D4
 10
90.0859986804
 20
38.7677083536
 30
0.0
 11
90.0859986804
 21
30.2677083536
 31
0.0
 70
       160
 71
         5
 72
         1
 41
1.0
 42
0.0
  3
SLDDIMSTYLE0
100
AcDbAlignedDimension
 13
64.9124492354
 23
21.7677083536
 33
0.0
 14
75.9124492354
 24
38.7677083536
 34
0.0
 50
90.0
100
AcDbRotatedDimension
  0
DIMENSION
  5
10C
100
AcDbEntity
  8
0
390
0
100
AcDbDimension
  2
*D5
 10
75.9124492354
 20
28.7308135777
 30
0.0
 11
70.4124492354
 21
28.7308135777
 31
0.0
 70
       160
 71
         5
 72
         1
 41
1.0
 42
0.0
  3
SLDDIMSTYLE0
100
AcDbAlignedDimension
 13
64.9124492354
 23
33.0984381184
 33
0.0
 14
75.9124492354
 24
38.7677083536
 34
0.0
 50
180.0
100
AcDbRotatedDimension
  0
DIMENSION
  5
119
100
AcDbEntity
  8
0
390
0
100
AcDbDimension
  2
*D6
 10
83.4100613901
 20
33.0984381184
 30
0.0
 11
83.4100613901
 21
27.433073236
 31
0.0
 70
       160
 71
         5
 72
         1
 41
1.0
 42
0.0
  3
SLDDIMSTYLE0
100
AcDbAlignedDimension
 13
64.9124492354
 23
21.7677083536
 33
0.0
 14
64.9124492354
 24
33.0984381184
 34
0.0
 50
90.0
100
AcDbRotatedDimension
  0
DIMENSION
  5
126
100
AcDbEntity
  8
0
390
0
100
AcDbDimension
  2
*D7
 10
57.5408043904
 20
50.7677083536
 30
0.0
 11
57.5408043904
 21
44.7677083536
 31
0.0
 70
       160
 71
         5
 72
         1
 41
1.0
 42
0.0
  3
SLDDIMSTYLE0
100
AcDbAlignedDimension
 13
63.5374492354
 23
38.7677083536
 33
0.0
 14
63.5374492354
 24
50.7677083536
 34
0.0
 50
90.0
100
AcDbRotatedDimension
  0
DIMENSION
  5
133
100
AcDbEntity
  8
0
390
0
100
AcDbDimension
  2
*D8
 10
75.5419924409
 20
67.7677083536
 30
0.0
 11
75.5419924409
 21
62.1023434713
 31
0.0
 70
       160
 71
         5
 72
         1
 41
1.0
 42
0.0
  3
SLDDIMSTYLE0
100
AcDbAlignedDimension
 13
64.9124492354
 23
56.4369785889
 33
0.0
 14
64.9124492354
 24
67.7677083536
 34
0.0
 50
90.0
100
AcDbRotatedDimension
  0
DIMENSION
  5
142
100
AcDbEntity
  8
0
390
0
100
AcDbDimension
  2
*D9
 10
57.5408043904
 20
33.0984381184
 30
0.0
 11
57.5408043904
 21
35.933073236
 31
0.0
 70
       160
 71
         5
 72
         1
 41
1.0
 42
0.0
  1
(<>)
  3
SLDDIMSTYLE0
100
AcDbAlignedDimension
 13
63.5374492354
 23
38.7677083536
 33
0.0
 14
64.9124492354
 24
33.0984381184
 34
0.0
 50
90.0
100
AcDbRotatedDimension
  0
DIMENSION
  5
14E
100
AcDbEntity
  8
0
390
0
100
AcDbDimension
  2
*D10
 10
63.5374492354
 20
45.0630173056
 30
0.0
 11
71.3695316345
 21
45.0630173056
 31
0.0
 70
       160
 71
         5
 72
         1
 41
1.0
 42
0.0
  3
SLDDIMSTYLE0
100
AcDbAlignedDimension
 13
64.9124492354
 23
56.4369785889
 33
0.0
 14
63.5374492354
 24
50.7677083536
 34
0.0
100
AcDbRotatedDimension
  0
DIMENSION
  5
15B
100
AcDbEntity
  8
0
390
0
100
AcDbDimension
  2
*D11
 10
35.8495907807
 20
58.7677083536
 30
0.0
 11
35.8495907807
 21
63.2677083536
 31
0.0
 70
       160
 71
         5
 72
         1
 41
1.0
 42
0.0
  3
SLDDIMSTYLE0
100
AcDbAlignedDimension
 13
40.9124492354
 23
67.7677083536
 33
0.0
 14
48.9124492354
 24
58.7677083536
 34
0.0
 50
90.0
100
AcDbRotatedDimension
  0
DIMENSION
  5
168
100
AcDbEntity
  8
0
390
0
100
AcDbDimension
  2
*D12
 10
25.5987924528
 20
30.7677083536
 30
0.0
 11
25.5987924528
 21
49.2677083536
 31
0.0
 70
       160
 71
         5
 72
         1
 41
1.0
 42
0.0
  3
SLDDIMSTYLE0
100
AcDbAlignedDimension
 13
40.9124492354
 23
67.7677083536
 33
0.0
 14
48.9124492354
 24
30.7677083536
 34
0.0
 50
90.0
100
AcDbRotatedDimension
  0
DIMENSION
  5
175
100
AcDbEntity
  8
0
390
0
100
AcDbDimension
  2
*D13
 10
61.9124492354
 20
76.2691307197
 30
0.0
 11
51.4124492354
 21
76.2691307197
 31
0.0
 70
       160
 71
         5
 72
         1
 41
1.0
 42
0.0
  3
SLDDIMSTYLE0
100
AcDbAlignedDimension
 13
40.9124492354
 23
67.7677083536
 33
0.0
 14
61.9124492354
 24
58.7677083536
 34
0.0
100
AcDbRotatedDimension
  0
DIMENSION
  5
184
100
AcDbEntity
  8
0
390
0
100
AcDbDimension
  2
*D14
 10
48.9588024852
 20
30.9171861989
 30
0.0
 11
36.1990943396
 21
14.0966792453
 31
0.0
 70
       163
 71
         5
 72
         1
 41
1.0
 42
0.0
  1
<> DRILL THRU\P4 PLACES\P\PDEBURR
  3
SLDDIMSTYLE2
100
AcDbDiametricDimension
 15
48.8660959856
 25
30.6182305083
 35
0.0
 40
0.0
  0
DIMENSION
  5
191
100
AcDbEntity
  8
0
390
0
100
AcDbDimension
  2
*D15
 10
30.8796525591
 20
44.7677083536
 30
0.0
 11
30.8796525591
 21
56.2677083536
 31
0.0
 70
       160
 71
         5
 72
         1
 41
1.0
 42
0.0
  3
SLDDIMSTYLE0
100
AcDbAlignedDimension
 13
40.9124492354
 23
67.7677083536
 33
0.0
 14
45.9124492354
 24
44.7677083536
 34
0.0
 50
90.0
100
AcDbRotatedDimension
  0
DIMENSION
  5
19D
100
AcDbEntity
  8
0
390
0
100
AcDbDimension
  2
*D16
 10
45.9124492354
 20
49.9411064119
 30
0.0
 11
34.8782121399
 21
49.9411064119
 31
0.0
 70
       160
 71
         5
 72
         1
 41
1.0
 42
0.0
  3
SLDDIMSTYLE0
100
AcDbAlignedDimension
 13
40.9124492354
 23
67.7677083536
 33
0.0
 14
45.9124492354
 24
44.7677083536
 34
0.0
100
AcDbRotatedDimension
  0
DIMENSION
  5
1A9
100
AcDbEntity
  8
0
390
0
100
AcDbDimension
  2
*D17
 10
46.9805148265
 20
46.1935337788
 30
0.0
 11
33.0888531705
 21
36.9670897818
 31
0.0
 70
       163
 71
         5
 72
         1
 41
1.0
 42
0.0
  1
<>\PFOR 3" PIPE THRU
  3
SLDDIMSTYLE2
100
AcDbDiametricDimension
 15
44.8443836442
 25
43.3418829285
 35
0.0
 40
0.0
  0
DIMENSION
  5
1B8
100
AcDbEntity
  8
0
390
0
100
AcDbDimension
  2
*D18
 10
61.9124492354
 20
71.5476981132
 30
0.0
 11
55.4124492354
 21
71.5476981132
 31
0.0
 70
       160
 71
         5
 72
         1
 41
1.0
 42
0.0
  1
(<>)
  3
SLDDIMSTYLE0
100
AcDbAlignedDimension
 13
48.9124492354
 23
58.7677083536
 33
0.0
 14
61.9124492354
 24
58.7677083536
 34
0.0
100
AcDbRotatedDimension
  0
DIMENSION
  5
1C5
100
AcDbEntity
  8
0
390
0
 62
         7
100
AcDbDimension
  2
*D19
 10
48.9124492354
 20
71.5981525938
 30
0.0
 11
44.786203517
 21
71.5981525938
 31
0.0
 70
       160
 71
         5
 72
         1
 41
1.0
 42
0.0
  3
SLDDIMSTYLE0
100
AcDbAlignedDimension
 13
40.9124492354
 23
67.7677083536
 33
0.0
 14
48.9124492354
 24
58.7677083536
 34
0.0
100
AcDbRotatedDimension
  0
LINE
  5
1C6
100
AcDbEntity
  8
0
370
        15
390
0
  6
Continuous
 62
         7
100
AcDbLine
 10
96.427021152
 20
38.7677083536
 30
0.0
 11
96.177021152
 21
38.7677083536
 31
0.0
  0
LINE
  5
1C7
100
AcDbEntity
  8
0
370
        15
390
0
  6
Continuous
 62
         7
100
AcDbLine
 10
96.427021152
 20
33.0984381184
 30
0.0
 11
96.427021152
 21
38.7677083536
 31
0.0
  0
LINE
  5
1C8
100
AcDbEntity
  8
0
370
        15
390
0
  6
Continuous
 62
         7
100
AcDbLine
 10
96.427021152
 20
33.0984381184
 30
0.0
 11
96.177021152
 21
33.0984381184
 31
0.0
  0
LINE
  5
1C9
100
AcDbEntity
  8
0
370
        15
390
0
  6
Continuous
 62
         7
100
AcDbLine
 10
96.177021152
 20
33.0984381184
 30
0.0
 11
96.177021152
 21
38.7677083536
 31
0.0
  0
LINE
  5
1CA
100
AcDbEntity
  8
0
370
        15
390
0
  6
Continuous
 62
         7
100
AcDbLine
 10
96.427021149
 20
21.7677083536
 30
0.0
 11
96.427021152
 21
33.0984381184
 31
0.0
  0
LINE
  5
1CB
100
AcDbEntity
  8
0
370
        15
390
0
  6
Continuous
 62
         7
100
AcDbLine
 10
96.427021149
 20
21.7677083536
 30
0.0
 11
96.177021152
 21
21.7677083536
 31
0.0
  0
LINE
  5
1CC
100
AcDbEntity
  8
0
370
        15
390
0
  6
Continuous
 62
         7
100
AcDbLine
 10
96.177021152
 20
21.7677083536
 30
0.0
 11
96.177021152
 21
33.0984381184
 31
0.0
  0
LINE
  5
1CD
100
AcDbEntity
  8
0
370
        15
390
0
  6
Continuous
 62
         7
100
AcDbLine
 10
96.427021152
 20
56.4369785889
 30
0.0
 11
96.177021152
 21
56.4369785889
 31
0.0
  0
LINE
  5
1CE
100
AcDbEntity
  8
0
370
        15
390
0
  6
Continuous
 62
         7
100
AcDbLine
 10
96.427021149
 20
67.767710291
 30
0.0
 11
96.177021152
 21
67.767710291
 31
0.0
  0
LINE
  5
1CF
100
AcDbEntity
  8
0
370
        15
390
0
  6
Continuous
 62
         7
100
AcDbLine
 10
96.427021152
 20
56.4369785889
 30
0.0
 11
96.427021149
 21
67.767710291
 31
0.0
  0
LINE
  5
1D0
100
AcDbEntity
  8
0
370
        15
390
0
  6
Continuous
 62
         7
100
AcDbLine
 10
96.177021152
 20
56.4369785889
 30
0.0
 11
96.177021152
 21
67.767710291
 31
0.0
  0
LINE
  5
1D1
100
AcDbEntity
  8
0
370
        15
390
0
  6
Continuous
 62
         7
100
AcDbLine
 10
96.427021152
 20
50.7677083536
 30
0.0
 11
96.177021152
 21
50.7677083536
 31
0.0
  0
LINE
  5
1D2
100
AcDbEntity
  8
0
370
        15
390
0
  6
Continuous
 62
         7
100
AcDbLine
 10
96.427021152
 20
50.7677083536
 30
0.0
 11
96.427021152
 21
56.4369785889
 31
0.0
  0
LINE
  5
1D3
100
AcDbEntity
  8
0
370
        15
390
0
  6
Continuous
 62
         7
100
AcDbLine
 10
96.177021152
 20
50.7677083536
 30
0.0
 11
96.177021152
 21
56.4369785889
 31
0.0
  0
LINE
  5
1D4
100
AcDbEntity
  8
0
370
        15
390
0
  6
Continuous
 62
         7
100
AcDbLine
 10
96.427021152
 20
38.7677083536
 30
0.0
 11
96.427021152
 21
50.7677083536
 31
0.0
  0
LINE
  5
1D5
100
AcDbEntity
  8
0
370
        15
390
0
  6
Continuous
 62
         7
100
AcDbLine
 10
96.177021152
 20
38.7677083536
 30
0.0
 11
96.177021152
 21
50.7677083536
 31
0.0
  0
DIMENSION
  5
1E2
100
AcDbEntity
  8
0
390
0
 62
         7
100
AcDbDimension
  2
*D20
 10
96.427021152
 20
71.1870091872
 30
0.0
 11
87.1226073779
 21
71.1870091872
 31
0.0
 70
       160
 71
         5
 72
         1
 41
1.0
 42
0.0
  3
SLDDIMSTYLE0
100
AcDbAlignedDimension
 13
96.177021152
 23
21.7677083536
 33
0.0
 14
96.427021152
 24
21.7677083536
 34
0.0
100
AcDbRotatedDimension
  0
LINE
  5
1E3
100
AcDbEntity
  8
0
370
        15
390
0
  6
Continuous
 62
         7
100
AcDbLine
 10
109.6129090469
 20
72.5020900426
 30
0.0
 11
109.4361323516
 21
72.4000390286
 31
0.0
  0
LINE
  5
1E4
100
AcDbEntity
  8
0
370
        15
390
0
  6
Continuous
 62
         7
100
AcDbLine
 10
126.5834717954
 20
62.7051927008
 30
0.0
 11
109.6129090469
 21
72.5020900426
 31
0.0
  0
LINE
  5
1E5
100
AcDbEntity
  8
0
370
        15
390
0
  6
Continuous
 62
         7
100
AcDbLine
 10
126.5834717954
 20
62.7051927008
 30
0.0
 11
126.4066951001
 21
62.6031416868
 31
0.0
  0
LINE
  5
1E6
100
AcDbEntity
  8
0
370
        15
390
0
  6
Continuous
 62
         7
100
AcDbLine
 10
126.4066951001
 20
62.6031416868
 30
0.0
 11
109.4361323516
 21
72.4000390286
 31
0.0
  0
LINE
  5
1E7
100
AcDbEntity
  8
0
370
        15
390
0
  6
Continuous
 62
         7
100
AcDbLine
 10
126.4066951001
 20
25.04226434
 30
0.0
 11
126.4066951001
 21
34.2942676214
 31
0.0
  0
LINE
  5
1E8
100
AcDbEntity
  8
0
370
        15
390
0
  6
Continuous
 62
         7
100
AcDbLine
 10
109.4361323516
 20
34.8391616819
 30
0.0
 11
126.4066951001
 21
25.04226434
 31
0.0
  0
LINE
  5
1E9
100
AcDbEntity
  8
0
370
        15
390
0
  6
Continuous
 62
         7
100
AcDbLine
 10
109.4361323516
 20
72.4000390286
 30
0.0
 11
109.4361323516
 21
34.8391616819
 31
0.0
  0
LINE
  5
1EA
100
AcDbEntity
  8
0
370
        15
390
0
  6
Continuous
 62
         7
100
AcDbLine
 10
126.4066951001
 20
53.3511384054
 30
0.0
 11
126.4066951001
 21
62.6031416868
 31
0.0
  0
POLYLINE
  5
1EB
100
AcDbEntity
  8
0
390
0
  6
Continuous
 62
         7
100
AcDb2dPolyline
 66
         1
 10
0.0
 20
0.0
 30
0.0
 70
       128
 40
0.0472440945
 41
0.0472440945
  0
VERTEX
  5
1EC
100
AcDbEntity
  8
0
390
0
100
AcDbVertex
100
AcDb2dVertex
 10
125.434423276
 20
49.2832284616
 30
0.0
  0
VERTEX
  5
1ED
100
AcDbEntity
  8
0
390
0
100
AcDbVertex
100
AcDb2dVertex
 10
125.4394780453
 20
49.6237188245
 30
0.0
  0
VERTEX
  5
1EE
100
AcDbEntity
  8
0
390
0
100
AcDbVertex
100
AcDb2dVertex
 10
125.4546365133
 20
49.9579797008
 30
0.0
  0
VERTEX
  5
1EF
100
AcDbEntity
  8
0
390
0
100
AcDbVertex
100
AcDb2dVertex
 10
125.4798811671
 20
50.2856249132
 30
0.0
  0
VERTEX
  5
1F0
100
AcDbEntity
  8
0
390
0
100
AcDbVertex
100
AcDb2dVertex
 10
125.5151828413
 20
50.6062759276
 30
0.0
  0
VERTEX
  5
1F1
100
AcDbEntity
  8
0
390
0
100
AcDbVertex
100
AcDb2dVertex
 10
125.5605007512
 20
50.9195622906
 30
0.0
  0
VERTEX
  5
1F2
100
AcDbEntity
  8
0
390
0
100
AcDbVertex
100
AcDb2dVertex
 10
125.6157825402
 20
51.225122057
 30
0.0
  0
VERTEX
  5
1F3
100
AcDbEntity
  8
0
390
0
100
AcDbVertex
100
AcDb2dVertex
 10
125.6809643403
 20
51.5226022086
 30
0.0
  0
VERTEX
  5
1F4
100
AcDbEntity
  8
0
390
0
100
AcDbVertex
100
AcDb2dVertex
 10
125.755970846
 20
51.8116590614
 30
0.0
  0
VERTEX
  5
1F5
100
AcDbEntity
  8
0
390
0
100
AcDbVertex
100
AcDb2dVertex
 10
125.8407154009
 20
52.0919586633
 30
0.0
  0
VERTEX
  5
1F6
100
AcDbEntity
  8
0
390
0
100
AcDbVertex
100
AcDb2dVertex
 10
125.9351000982
 20
52.3631771793
 30
0.0
  0
VERTEX
  5
1F7
100
AcDbEntity
  8
0
390
0
100
AcDbVertex
100
AcDb2dVertex
 10
126.0390158937
 20
52.6250012662
 30
0.0
  0
VERTEX
  5
1F8
100
AcDbEntity
  8
0
390
0
100
AcDbVertex
100
AcDb2dVertex
 10
126.1523427317
 20
52.8771284341
 30
0.0
  0
VERTEX
  5
1F9
100
AcDbEntity
  8
0
390
0
100
AcDbVertex
100
AcDb2dVertex
 10
126.2749496838
 20
53.1192673962
 30
0.0
  0
VERTEX
  5
1FA
100
AcDbEntity
  8
0
390
0
100
AcDbVertex
100
AcDb2dVertex
 10
126.4066951001
 20
53.3511384054
 30
0.0
  0
SEQEND
  5
1FB
100
AcDbEntity
  8
0
390
0
  0
LINE
  5
1FC
100
AcDbEntity
  8
0
370
        15
390
0
  6
Continuous
 62
         7
100
AcDbLine
 10
125.434423276
 20
39.484738719
 30
0.0
 11
125.434423276
 21
49.2832284616
 31
0.0
  0
POLYLINE
  5
1FD
100
AcDbEntity
  8
0
390
0
  6
Continuous
 62
         7
100
AcDb2dPolyline
 66
         1
 10
0.0
 20
0.0
 30
0.0
 70
       128
 40
0.0472440945
 41
0.0472440945
  0
VERTEX
  5
1FE
100
AcDbEntity
  8
0
390
0
100
AcDbVertex
100
AcDb2dVertex
 10
126.4066951001
 20
34.2942676214
 30
0.0
  0
VERTEX
  5
1FF
100
AcDbEntity
  8
0
390
0
100
AcDbVertex
100
AcDb2dVertex
 10
126.2749496838
 20
34.6782486505
 30
0.0
  0
VERTEX
  5
200
100
AcDbEntity
  8
0
390
0
100
AcDbVertex
100
AcDb2dVertex
 10
126.1523427317
 20
35.0619465864
 30
0.0
  0
VERTEX
  5
201
100
AcDbEntity
  8
0
390
0
100
AcDbVertex
100
AcDb2dVertex
 10
126.0390158937
 20
35.4449181363
 30
0.0
  0
VERTEX
  5
202
100
AcDbEntity
  8
0
390
0
100
AcDbVertex
100
AcDb2dVertex
 10
125.9351000982
 20
35.8267208468
 30
0.0
  0
VERTEX
  5
203
100
AcDbEntity
  8
0
390
0
100
AcDbVertex
100
AcDb2dVertex
 10
125.8407154009
 20
36.2069136148
 30
0.0
  0
VERTEX
  5
204
100
AcDbEntity
  8
0
390
0
100
AcDbVertex
100
AcDb2dVertex
 10
125.755970846
 20
36.5850571971
 30
0.0
  0
VERTEX
  5
205
100
AcDbEntity
  8
0
390
0
100
AcDbVertex
100
AcDb2dVertex
 10
125.6809643403
 20
36.960714718
 30
0.0
  0
VERTEX
  5
206
100
AcDbEntity
  8
0
390
0
100
AcDbVertex
100
AcDb2dVertex
 10
125.6157825402
 20
37.3334521742
 30
0.0
  0
VERTEX
  5
207
100
AcDbEntity
  8
0
390
0
100
AcDbVertex
100
AcDb2dVertex
 10
125.5605007512
 20
37.7028389356
 30
0.0
  0
VERTEX
  5
208
100
AcDbEntity
  8
0
390
0
100
AcDbVertex
100
AcDb2dVertex
 10
125.5151828413
 20
38.0684482435
 30
0.0
  0
VERTEX
  5
209
100
AcDbEntity
  8
0
390
0
100
AcDbVertex
100
AcDb2dVertex
 10
125.4798811671
 20
38.4298577034
 30
0.0
  0
VERTEX
  5
20A
100
AcDbEntity
  8
0
390
0
100
AcDbVertex
100
AcDb2dVertex
 10
125.4546365133
 20
38.7866497727
 30
0.0
  0
VERTEX
  5
20B
100
AcDbEntity
  8
0
390
0
100
AcDbVertex
100
AcDb2dVertex
 10
125.4394780453
 20
39.1384122436
 30
0.0
  0
VERTEX
  5
20C
100
AcDbEntity
  8
0
390
0
100
AcDbVertex
100
AcDb2dVertex
 10
125.434423276
 20
39.484738719
 30
0.0
  0
SEQEND
  5
20D
100
AcDbEntity
  8
0
390
0
  0
POLYLINE
  5
20E
100
AcDbEntity
  8
0
390
0
  6
Continuous
 62
         7
100
AcDb2dPolyline
 66
         1
 10
0.0
 20
0.0
 30
0.0
 70
       128
 40
0.0472440945
 41
0.0472440945
  0
VERTEX
  5
20F
100
AcDbEntity
  8
0
390
0
100
AcDbVertex
100
AcDb2dVertex
 10
115.2036488124
 20
61.7216553396
 30
0.0
  0
VERTEX
  5
210
100
AcDbEntity
  8
0
390
0
100
AcDbVertex
100
AcDb2dVertex
 10
115.1987324008
 20
61.7621598856
 30
0.0
  0
VERTEX
  5
211
100
AcDbEntity
  8
0
390
0
100
AcDbVertex
100
AcDb2dVertex
 10
115.1844200109
 20
61.8047417929
 30
0.0
  0
VERTEX
  5
212
100
AcDbEntity
  8
0
390
0
100
AcDbVertex
100
AcDb2dVertex
 10
115.1619833613
 20
61.8456174721
 30
0.0
  0
VERTEX
  5
213
100
AcDbEntity
  8
0
390
0
100
AcDbVertex
100
AcDb2dVertex
 10
115.1334160467
 20
61.8811549398
 30
0.0
  0
VERTEX
  5
214
100
AcDbEntity
  8
0
390
0
100
AcDbVertex
100
AcDb2dVertex
 10
115.1012563985
 20
61.9081965361
 30
0.0
  0
VERTEX
  5
215
100
AcDbEntity
  8
0
390
0
100
AcDbVertex
100
AcDb2dVertex
 10
115.0683619425
 20
61.9243394963
 30
0.0
  0
VERTEX
  5
216
100
AcDbEntity
  8
0
390
0
100
AcDbVertex
100
AcDb2dVertex
 10
115.0376554955
 20
61.9281494478
 30
0.0
  0
VERTEX
  5
217
100
AcDbEntity
  8
0
390
0
100
AcDbVertex
100
AcDb2dVertex
 10
115.01186546
 20
61.9192878595
 30
0.0
  0
VERTEX
  5
218
100
AcDbEntity
  8
0
390
0
100
AcDbVertex
100
AcDb2dVertex
 10
114.9932833939
 20
61.8985421224
 30
0.0
  0
VERTEX
  5
219
100
AcDbEntity
  8
0
390
0
100
AcDbVertex
100
AcDb2dVertex
 10
114.9835603953
 20
61.8677555864
 30
0.0
  0
VERTEX
  5
21A
100
AcDbEntity
  8
0
390
0
100
AcDbVertex
100
AcDb2dVertex
 10
114.9835603953
 20
61.8296637703
 30
0.0
  0
VERTEX
  5
21B
100
AcDbEntity
  8
0
390
0
100
AcDbVertex
100
AcDb2dVertex
 10
114.9932833939
 20
61.7876512991
 30
0.0
  0
VERTEX
  5
21C
100
AcDbEntity
  8
0
390
0
100
AcDbVertex
100
AcDb2dVertex
 10
115.01186546
 20
61.7454511652
 30
0.0
  0
VERTEX
  5
21D
100
AcDbEntity
  8
0
390
0
100
AcDbVertex
100
AcDb2dVertex
 10
115.0376554955
 20
61.7068130358
 30
0.0
  0
VERTEX
  5
21E
100
AcDbEntity
  8
0
390
0
100
AcDbVertex
100
AcDb2dVertex
 10
115.0683619425
 20
61.6751700781
 30
0.0
  0
VERTEX
  5
21F
100
AcDbEntity
  8
0
390
0
100
AcDbVertex
100
AcDb2dVertex
 10
115.1012563985
 20
61.6533339079
 30
0.0
  0
VERTEX
  5
220
100
AcDbEntity
  8
0
390
0
100
AcDbVertex
100
AcDb2dVertex
 10
115.1334160467
 20
61.6432447646
 30
0.0
  0
VERTEX
  5
221
100
AcDbEntity
  8
0
390
0
100
AcDbVertex
100
AcDb2dVertex
 10
115.1619833613
 20
61.645799113
 30
0.0
  0
VERTEX
  5
222
100
AcDbEntity
  8
0
390
0
100
AcDbVertex
100
AcDb2dVertex
 10
115.1844200109
 20
61.660769988
 30
0.0
  0
VERTEX
  5
223
100
AcDbEntity
  8
0
390
0
100
AcDbVertex
100
AcDb2dVertex
 10
115.1987324008
 20
61.6868271616
 30
0.0
  0
VERTEX
  5
224
100
AcDbEntity
  8
0
390
0
100
AcDbVertex
100
AcDb2dVertex
 10
115.2036488124
 20
61.7216553396
 30
0.0
  0
SEQEND
  5
225
100
AcDbEntity
  8
0
390
0
  0
POLYLINE
  5
226
100
AcDbEntity
  8
0
390
0
  6
Continuous
 62
         7
100
AcDb2dPolyline
 66
         1
 10
0.0
 20
0.0
 30
0.0
 70
       128
 40
0.0472440945
 41
0.0472440945
  0
VERTEX
  5
227
100
AcDbEntity
  8
0
390
0
100
AcDbVertex
100
AcDb2dVertex
 10
124.3960369678
 20
56.4150026128
 30
0.0
  0
VERTEX
  5
228
100
AcDbEntity
  8
0
390
0
100
AcDbVertex
100
AcDb2dVertex
 10
124.3911205563
 20
56.4555071588
 30
0.0
  0
VERTEX
  5
229
100
AcDbEntity
  8
0
390
0
100
AcDbVertex
100
AcDb2dVertex
 10
124.3768081663
 20
56.498089066
 30
0.0
  0
VERTEX
  5
22A
100
AcDbEntity
  8
0
390
0
100
AcDbVertex
100
AcDb2dVertex
 10
124.3543715167
 20
56.5389647453
 30
0.0
  0
VERTEX
  5
22B
100
AcDbEntity
  8
0
390
0
100
AcDbVertex
100
AcDb2dVertex
 10
124.3258042022
 20
56.574502213
 30
0.0
  0
VERTEX
  5
22C
100
AcDbEntity
  8
0
390
0
100
AcDbVertex
100
AcDb2dVertex
 10
124.2936445539
 20
56.6015438092
 30
0.0
  0
VERTEX
  5
22D
100
AcDbEntity
  8
0
390
0
100
AcDbVertex
100
AcDb2dVertex
 10
124.2607500979
 20
56.6176867695
 30
0.0
  0
VERTEX
  5
22E
100
AcDbEntity
  8
0
390
0
100
AcDbVertex
100
AcDb2dVertex
 10
124.2300436509
 20
56.6214967209
 30
0.0
  0
VERTEX
  5
22F
100
AcDbEntity
  8
0
390
0
100
AcDbVertex
100
AcDb2dVertex
 10
124.2042536154
 20
56.6126351326
 30
0.0
  0
VERTEX
  5
230
100
AcDbEntity
  8
0
390
0
100
AcDbVertex
100
AcDb2dVertex
 10
124.1856715494
 20
56.5918893956
 30
0.0
  0
VERTEX
  5
231
100
AcDbEntity
  8
0
390
0
100
AcDbVertex
100
AcDb2dVertex
 10
124.1759485508
 20
56.5611028596
 30
0.0
  0
VERTEX
  5
232
100
AcDbEntity
  8
0
390
0
100
AcDbVertex
100
AcDb2dVertex
 10
124.1759485508
 20
56.5230110435
 30
0.0
  0
VERTEX
  5
233
100
AcDbEntity
  8
0
390
0
100
AcDbVertex
100
AcDb2dVertex
 10
124.1856715494
 20
56.4809985722
 30
0.0
  0
VERTEX
  5
234
100
AcDbEntity
  8
0
390
0
100
AcDbVertex
100
AcDb2dVertex
 10
124.2042536154
 20
56.4387984384
 30
0.0
  0
VERTEX
  5
235
100
AcDbEntity
  8
0
390
0
100
AcDbVertex
100
AcDb2dVertex
 10
124.2300436509
 20
56.4001603089
 30
0.0
  0
VERTEX
  5
236
100
AcDbEntity
  8
0
390
0
100
AcDbVertex
100
AcDb2dVertex
 10
124.2607500979
 20
56.3685173512
 30
0.0
  0
VERTEX
  5
237
100
AcDbEntity
  8
0
390
0
100
AcDbVertex
100
AcDb2dVertex
 10
124.2936445539
 20
56.346681181
 30
0.0
  0
VERTEX
  5
238
100
AcDbEntity
  8
0
390
0
100
AcDbVertex
100
AcDb2dVertex
 10
124.3258042022
 20
56.3365920378
 30
0.0
  0
VERTEX
  5
239
100
AcDbEntity
  8
0
390
0
100
AcDbVertex
100
AcDb2dVertex
 10
124.3543715167
 20
56.3391463862
 30
0.0
  0
VERTEX
  5
23A
100
AcDbEntity
  8
0
390
0
100
AcDbVertex
100
AcDb2dVertex
 10
124.3768081663
 20
56.3541172611
 30
0.0
  0
VERTEX
  5
23B
100
AcDbEntity
  8
0
390
0
100
AcDbVertex
100
AcDb2dVertex
 10
124.3911205563
 20
56.3801744348
 30
0.0
  0
VERTEX
  5
23C
100
AcDbEntity
  8
0
390
0
100
AcDbVertex
100
AcDb2dVertex
 10
124.3960369678
 20
56.4150026128
 30
0.0
  0
SEQEND
  5
23D
100
AcDbEntity
  8
0
390
0
  0
POLYLINE
  5
23E
100
AcDbEntity
  8
0
390
0
  6
Continuous
 62
         7
100
AcDb2dPolyline
 66
         1
 10
0.0
 20
0.0
 30
0.0
 70
       128
 40
0.0472440945
 41
0.0472440945
  0
VERTEX
  5
23F
100
AcDbEntity
  8
0
390
0
100
AcDbVertex
100
AcDb2dVertex
 10
124.3960369678
 20
33.55185988
 30
0.0
  0
VERTEX
  5
240
100
AcDbEntity
  8
0
390
0
100
AcDbVertex
100
AcDb2dVertex
 10
124.3911205563
 20
33.592364426
 30
0.0
  0
VERTEX
  5
241
100
AcDbEntity
  8
0
390
0
100
AcDbVertex
100
AcDb2dVertex
 10
124.3768081663
 20
33.6349463332
 30
0.0
  0
VERTEX
  5
242
100
AcDbEntity
  8
0
390
0
100
AcDbVertex
100
AcDb2dVertex
 10
124.3543715167
 20
33.6758220125
 30
0.0
  0
VERTEX
  5
243
100
AcDbEntity
  8
0
390
0
100
AcDbVertex
100
AcDb2dVertex
 10
124.3258042022
 20
33.7113594802
 30
0.0
  0
VERTEX
  5
244
100
AcDbEntity
  8
0
390
0
100
AcDbVertex
100
AcDb2dVertex
 10
124.2936445539
 20
33.7384010764
 30
0.0
  0
VERTEX
  5
245
100
AcDbEntity
  8
0
390
0
100
AcDbVertex
100
AcDb2dVertex
 10
124.2607500979
 20
33.7545440367
 30
0.0
  0
VERTEX
  5
246
100
AcDbEntity
  8
0
390
0
100
AcDbVertex
100
AcDb2dVertex
 10
124.2300436509
 20
33.7583539881
 30
0.0
  0
VERTEX
  5
247
100
AcDbEntity
  8
0
390
0
100
AcDbVertex
100
AcDb2dVertex
 10
124.2042536154
 20
33.7494923998
 30
0.0
  0
VERTEX
  5
248
100
AcDbEntity
  8
0
390
0
100
AcDbVertex
100
AcDb2dVertex
 10
124.1856715494
 20
33.7287466628
 30
0.0
  0
VERTEX
  5
249
100
AcDbEntity
  8
0
390
0
100
AcDbVertex
100
AcDb2dVertex
 10
124.1759485508
 20
33.6979601268
 30
0.0
  0
VERTEX
  5
24A
100
AcDbEntity
  8
0
390
0
100
AcDbVertex
100
AcDb2dVertex
 10
124.1759485508
 20
33.6598683107
 30
0.0
  0
VERTEX
  5
24B
100
AcDbEntity
  8
0
390
0
100
AcDbVertex
100
AcDb2dVertex
 10
124.1856715494
 20
33.6178558394
 30
0.0
  0
VERTEX
  5
24C
100
AcDbEntity
  8
0
390
0
100
AcDbVertex
100
AcDb2dVertex
 10
124.2042536154
 20
33.5756557056
 30
0.0
  0
VERTEX
  5
24D
100
AcDbEntity
  8
0
390
0
100
AcDbVertex
100
AcDb2dVertex
 10
124.2300436509
 20
33.5370175761
 30
0.0
  0
VERTEX
  5
24E
100
AcDbEntity
  8
0
390
0
100
AcDbVertex
100
AcDb2dVertex
 10
124.2607500979
 20
33.5053746184
 30
0.0
  0
VERTEX
  5
24F
100
AcDbEntity
  8
0
390
0
100
AcDbVertex
100
AcDb2dVertex
 10
124.2936445539
 20
33.4835384482
 30
0.0
  0
VERTEX
  5
250
100
AcDbEntity
  8
0
390
0
100
AcDbVertex
100
AcDb2dVertex
 10
124.3258042022
 20
33.473449305
 30
0.0
  0
VERTEX
  5
251
100
AcDbEntity
  8
0
390
0
100
AcDbVertex
100
AcDb2dVertex
 10
124.3543715167
 20
33.4760036534
 30
0.0
  0
VERTEX
  5
252
100
AcDbEntity
  8
0
390
0
100
AcDbVertex
100
AcDb2dVertex
 10
124.3768081663
 20
33.4909745283
 30
0.0
  0
VERTEX
  5
253
100
AcDbEntity
  8
0
390
0
100
AcDbVertex
100
AcDb2dVertex
 10
124.3911205563
 20
33.517031702
 30
0.0
  0
VERTEX
  5
254
100
AcDbEntity
  8
0
390
0
100
AcDbVertex
100
AcDb2dVertex
 10
124.3960369678
 20
33.55185988
 30
0.0
  0
SEQEND
  5
255
100
AcDbEntity
  8
0
390
0
  0
POLYLINE
  5
256
100
AcDbEntity
  8
0
390
0
  6
Continuous
 62
         7
100
AcDb2dPolyline
 66
         1
 10
0.0
 20
0.0
 30
0.0
 70
       128
 40
0.0472440945
 41
0.0472440945
  0
VERTEX
  5
257
100
AcDbEntity
  8
0
390
0
100
AcDbVertex
100
AcDb2dVertex
 10
115.2036488124
 20
38.8585126068
 30
0.0
  0
VERTEX
  5
258
100
AcDbEntity
  8
0
390
0
100
AcDbVertex
100
AcDb2dVertex
 10
115.1987324008
 20
38.8990171528
 30
0.0
  0
VERTEX
  5
259
100
AcDbEntity
  8
0
390
0
100
AcDbVertex
100
AcDb2dVertex
 10
115.1844200109
 20
38.9415990601
 30
0.0
  0
VERTEX
  5
25A
100
AcDbEntity
  8
0
390
0
100
AcDbVertex
100
AcDb2dVertex
 10
115.1619833613
 20
38.9824747393
 30
0.0
  0
VERTEX
  5
25B
100
AcDbEntity
  8
0
390
0
100
AcDbVertex
100
AcDb2dVertex
 10
115.1334160467
 20
39.018012207
 30
0.0
  0
VERTEX
  5
25C
100
AcDbEntity
  8
0
390
0
100
AcDbVertex
100
AcDb2dVertex
 10
115.1012563985
 20
39.0450538033
 30
0.0
  0
VERTEX
  5
25D
100
AcDbEntity
  8
0
390
0
100
AcDbVertex
100
AcDb2dVertex
 10
115.0683619425
 20
39.0611967635
 30
0.0
  0
VERTEX
  5
25E
100
AcDbEntity
  8
0
390
0
100
AcDbVertex
100
AcDb2dVertex
 10
115.0376554955
 20
39.065006715
 30
0.0
  0
VERTEX
  5
25F
100
AcDbEntity
  8
0
390
0
100
AcDbVertex
100
AcDb2dVertex
 10
115.01186546
 20
39.0561451267
 30
0.0
  0
VERTEX
  5
260
100
AcDbEntity
  8
0
390
0
100
AcDbVertex
100
AcDb2dVertex
 10
114.9932833939
 20
39.0353993896
 30
0.0
  0
VERTEX
  5
261
100
AcDbEntity
  8
0
390
0
100
AcDbVertex
100
AcDb2dVertex
 10
114.9835603953
 20
39.0046128536
 30
0.0
  0
VERTEX
  5
262
100
AcDbEntity
  8
0
390
0
100
AcDbVertex
100
AcDb2dVertex
 10
114.9835603953
 20
38.9665210375
 30
0.0
  0
VERTEX
  5
263
100
AcDbEntity
  8
0
390
0
100
AcDbVertex
100
AcDb2dVertex
 10
114.9932833939
 20
38.9245085663
 30
0.0
  0
VERTEX
  5
264
100
AcDbEntity
  8
0
390
0
100
AcDbVertex
100
AcDb2dVertex
 10
115.01186546
 20
38.8823084324
 30
0.0
  0
VERTEX
  5
265
100
AcDbEntity
  8
0
390
0
100
AcDbVertex
100
AcDb2dVertex
 10
115.0376554955
 20
38.843670303
 30
0.0
  0
VERTEX
  5
266
100
AcDbEntity
  8
0
390
0
100
AcDbVertex
100
AcDb2dVertex
 10
115.0683619425
 20
38.8120273453
 30
0.0
  0
VERTEX
  5
267
100
AcDbEntity
  8
0
390
0
100
AcDbVertex
100
AcDb2dVertex
 10
115.1012563985
 20
38.790191175
 30
0.0
  0
VERTEX
  5
268
100
AcDbEntity
  8
0
390
0
100
AcDbVertex
100
AcDb2dVertex
 10
115.1334160467
 20
38.7801020318
 30
0.0
  0
VERTEX
  5
269
100
AcDbEntity
  8
0
390
0
100
AcDbVertex
100
AcDb2dVertex
 10
115.1619833613
 20
38.7826563802
 30
0.0
  0
VERTEX
  5
26A
100
AcDbEntity
  8
0
390
0
100
AcDbVertex
100
AcDb2dVertex
 10
115.1844200109
 20
38.7976272552
 30
0.0
  0
VERTEX
  5
26B
100
AcDbEntity
  8
0
390
0
100
AcDbVertex
100
AcDb2dVertex
 10
115.1987324008
 20
38.8236844288
 30
0.0
  0
VERTEX
  5
26C
100
AcDbEntity
  8
0
390
0
100
AcDbVertex
100
AcDb2dVertex
 10
115.2036488124
 20
38.8585126068
 30
0.0
  0
SEQEND
  5
26D
100
AcDbEntity
  8
0
390
0
  0
POLYLINE
  5
26E
100
AcDbEntity
  8
0
390
0
  6
Continuous
 62
         7
100
AcDb2dPolyline
 66
         1
 10
0.0
 20
0.0
 30
0.0
 70
       128
 40
0.0472440945
 41
0.0472440945
  0
VERTEX
  5
26F
100
AcDbEntity
  8
0
390
0
100
AcDbVertex
100
AcDb2dVertex
 10
114.2313769882
 20
50.8513645501
 30
0.0
  0
VERTEX
  5
270
100
AcDbEntity
  8
0
390
0
100
AcDbVertex
100
AcDb2dVertex
 10
114.226447516
 20
50.9827739358
 30
0.0
  0
VERTEX
  5
271
100
AcDbEntity
  8
0
390
0
100
AcDbVertex
100
AcDb2dVertex
 10
114.2116976792
 20
51.1188463124
 30
0.0
  0
VERTEX
  5
272
100
AcDbEntity
  8
0
390
0
100
AcDbVertex
100
AcDb2dVertex
 10
114.1872429151
 20
51.2585167289
 30
0.0
  0
VERTEX
  5
273
100
AcDbEntity
  8
0
390
0
100
AcDbVertex
100
AcDb2dVertex
 10
114.1532746156
 20
51.4006920752
 30
0.0
  0
VERTEX
  5
274
100
AcDbEntity
  8
0
390
0
100
AcDbVertex
100
AcDb2dVertex
 10
114.1100586286
 20
51.5442596362
 30
0.0
  0
VERTEX
  5
275
100
AcDbEntity
  8
0
390
0
100
AcDbVertex
100
AcDb2dVertex
 10
114.0579331778
 20
51.6880958012
 30
0.0
  0
VERTEX
  5
276
100
AcDbEntity
  8
0
390
0
100
AcDbVertex
100
AcDb2dVertex
 10
113.9973062155
 20
51.8310748572
 30
0.0
  0
VERTEX
  5
277
100
AcDbEntity
  8
0
390
0
100
AcDbVertex
100
AcDb2dVertex
 10
113.92865223
 20
51.9720777991
 30
0.0
  0
VERTEX
  5
278
100
AcDbEntity
  8
0
390
0
100
AcDbVertex
100
AcDb2dVertex
 10
113.8525085317
 20
52.1100010879
 30
0.0
  0
VERTEX
  5
279
100
AcDbEntity
  8
0
390
0
100
AcDbVertex
100
AcDb2dVertex
 10
113.7694710483
 20
52.2437652867
 30
0.0
  0
VERTEX
  5
27A
100
AcDbEntity
  8
0
390
0
100
AcDbVertex
100
AcDb2dVertex
 10
113.6801896607
 20
52.3723235093
 30
0.0
  0
VERTEX
  5
27B
100
AcDbEntity
  8
0
390
0
100
AcDbVertex
100
AcDb2dVertex
 10
113.5853631168
 20
52.4946696133
 30
0.0
  0
VERTEX
  5
27C
100
AcDbEntity
  8
0
390
0
100
AcDbVertex
100
AcDb2dVertex
 10
113.4857335629
 20
52.6098460747
 30
0.0
  0
VERTEX
  5
27D
100
AcDbEntity
  8
0
390
0
100
AcDbVertex
100
AcDb2dVertex
 10
113.3820807354
 20
52.7169514814
 30
0.0
  0
VERTEX
  5
27E
100
AcDbEntity
  8
0
390
0
100
AcDbVertex
100
AcDb2dVertex
 10
113.2752158581
 20
52.8151475883
 30
0.0
  0
VERTEX
  5
27F
100
AcDbEntity
  8
0
390
0
100
AcDbVertex
100
AcDb2dVertex
 10
113.1659752936
 20
52.9036658779
 30
0.0
  0
VERTEX
  5
280
100
AcDbEntity
  8
0
390
0
100
AcDbVertex
100
AcDb2dVertex
 10
113.0552139975
 20
52.9818135744
 30
0.0
  0
VERTEX
  5
281
100
AcDbEntity
  8
0
390
0
100
AcDbVertex
100
AcDb2dVertex
 10
112.943798827
 20
53.0489790663
 30
0.0
  0
VERTEX
  5
282
100
AcDbEntity
  8
0
390
0
100
AcDbVertex
100
AcDb2dVertex
 10
112.8326017569
 20
53.1046366924
 30
0.0
  0
VERTEX
  5
283
100
AcDbEntity
  8
0
390
0
100
AcDbVertex
100
AcDb2dVertex
 10
112.7224930551
 20
53.1483508564
 30
0.0
  0
VERTEX
  5
284
100
AcDbEntity
  8
0
390
0
100
AcDbVertex
100
AcDb2dVertex
 10
112.6143344715
 20
53.1797794356
 30
0.0
  0
VERTEX
  5
285
100
AcDbEntity
  8
0
390
0
100
AcDbVertex
100
AcDb2dVertex
 10
112.5089724936
 20
53.1986764589
 30
0.0
  0
VERTEX
  5
286
100
AcDbEntity
  8
0
390
0
100
AcDbVertex
100
AcDb2dVertex
 10
112.4072317217
 20
53.2048940313
 30
0.0
  0
VERTEX
  5
287
100
AcDbEntity
  8
0
390
0
100
AcDbVertex
100
AcDb2dVertex
 10
112.3099084154
 20
53.1983834921
 30
0.0
  0
VERTEX
  5
288
100
AcDbEntity
  8
0
390
0
100
AcDbVertex
100
AcDb2dVertex
 10
112.2177642614
 20
53.1791957948
 30
0.0
  0
VERTEX
  5
289
100
AcDbEntity
  8
0
390
0
100
AcDbVertex
100
AcDb2dVertex
 10
112.1315204127
 20
53.1474811094
 30
0.0
  0
VERTEX
  5
28A
100
AcDbEntity
  8
0
390
0
100
AcDbVertex
100
AcDb2dVertex
 10
112.0518518444
 20
53.1034876462
 30
0.0
  0
VERTEX
  5
28B
100
AcDbEntity
  8
0
390
0
100
AcDbVertex
100
AcDb2dVertex
 10
111.9793820709
 20
53.0475597137
 30
0.0
  0
VERTEX
  5
28C
100
AcDbEntity
  8
0
390
0
100
AcDbVertex
100
AcDb2dVertex
 10
111.9146782667
 20
52.9801350239
 30
0.0
  0
VERTEX
  5
28D
100
AcDbEntity
  8
0
390
0
100
AcDbVertex
100
AcDb2dVertex
 10
111.8582468265
 20
52.9017412662
 30
0.0
  0
VERTEX
  5
28E
100
AcDbEntity
  8
0
390
0
100
AcDbVertex
100
AcDb2dVertex
 10
111.8105294031
 20
52.8129919782
 30
0.0
  0
VERTEX
  5
28F
100
AcDbEntity
  8
0
390
0
100
AcDbVertex
100
AcDb2dVertex
 10
111.7718994498
 20
52.7145817435
 30
0.0
  0
VERTEX
  5
290
100
AcDbEntity
  8
0
390
0
100
AcDbVertex
100
AcDb2dVertex
 10
111.7426592986
 20
52.6072807554
 30
0.0
  0
VERTEX
  5
291
100
AcDbEntity
  8
0
390
0
100
AcDbVertex
100
AcDb2dVertex
 10
111.7230377931
 20
52.4919287897
 30
0.0
  0
VERTEX
  5
292
100
AcDbEntity
  8
0
390
0
100
AcDbVertex
100
AcDb2dVertex
 10
111.7131884983
 20
52.369428632
 30
0.0
  0
VERTEX
  5
293
100
AcDbEntity
  8
0
390
0
100
AcDbVertex
100
AcDb2dVertex
 10
111.7131884983
 20
52.2407390121
 30
0.0
  0
VERTEX
  5
294
100
AcDbEntity
  8
0
390
0
100
AcDbVertex
100
AcDb2dVertex
 10
111.7230377931
 20
52.1068671007
 30
0.0
  0
VERTEX
  5
295
100
AcDbEntity
  8
0
390
0
100
AcDbVertex
100
AcDb2dVertex
 10
111.7426592986
 20
51.968860627
 30
0.0
  0
VERTEX
  5
296
100
AcDbEntity
  8
0
390
0
100
AcDbVertex
100
AcDb2dVertex
 10
111.7718994498
 20
51.8277996789
 30
0.0
  0
VERTEX
  5
297
100
AcDbEntity
  8
0
390
0
100
AcDbVertex
100
AcDb2dVertex
 10
111.8105294031
 20
51.6847882495
 30
0.0
  0
VERTEX
  5
298
100
AcDbEntity
  8
0
390
0
100
AcDbVertex
100
AcDb2dVertex
 10
111.8582468265
 20
51.5409455971
 30
0.0
  0
VERTEX
  5
299
100
AcDbEntity
  8
0
390
0
100
AcDbVertex
100
AcDb2dVertex
 10
111.9146782667
 20
51.3973974855
 30
0.0
  0
VERTEX
  5
29A
100
AcDbEntity
  8
0
390
0
100
AcDbVertex
100
AcDb2dVertex
 10
111.9793820709
 20
51.2552673734
 30
0.0
  0
VERTEX
  5
29B
100
AcDbEntity
  8
0
390
0
100
AcDbVertex
100
AcDb2dVertex
 10
112.0518518444
 20
51.1156676215
 30
0.0
  0
VERTEX
  5
29C
100
AcDbEntity
  8
0
390
0
100
AcDbVertex
100
AcDb2dVertex
 10
112.1315204127
 20
50.9796907872
 30
0.0
  0
VERTEX
  5
29D
100
AcDbEntity
  8
0
390
0
100
AcDbVertex
100
AcDb2dVertex
 10
112.2177642614
 20
50.8484010736
 30
0.0
  0
VERTEX
  5
29E
100
AcDbEntity
  8
0
390
0
100
AcDbVertex
100
AcDb2dVertex
 10
112.3099084154
 20
50.7228260007
 30
0.0
  0
VERTEX
  5
29F
100
AcDbEntity
  8
0
390
0
100
AcDbVertex
100
AcDb2dVertex
 10
112.4072317217
 20
50.6039483637
 30
0.0
  0
VERTEX
  5
2A0
100
AcDbEntity
  8
0
390
0
100
AcDbVertex
100
AcDb2dVertex
 10
112.5089724936
 20
50.4926985414
 30
0.0
  0
VERTEX
  5
2A1
100
AcDbEntity
  8
0
390
0
100
AcDbVertex
100
AcDb2dVertex
 10
112.6143344715
 20
50.3899472143
 30
0.0
  0
VERTEX
  5
2A2
100
AcDbEntity
  8
0
390
0
100
AcDbVertex
100
AcDb2dVertex
 10
112.7224930551
 20
50.2964985509
 30
0.0
  0
VERTEX
  5
2A3
100
AcDbEntity
  8
0
390
0
100
AcDbVertex
100
AcDb2dVertex
 10
112.8326017569
 20
50.2130839138
 30
0.0
  0
VERTEX
  5
2A4
100
AcDbEntity
  8
0
390
0
100
AcDbVertex
100
AcDb2dVertex
 10
112.943798827
 20
50.1403561356
 30
0.0
  0
VERTEX
  5
2A5
100
AcDbEntity
  8
0
390
0
100
AcDbVertex
100
AcDb2dVertex
 10
113.0552139975
 20
50.0788844098
 30
0.0
  0
VERTEX
  5
2A6
100
AcDbEntity
  8
0
390
0
100
AcDbVertex
100
AcDb2dVertex
 10
113.1659752936
 20
50.0291498358
 30
0.0
  0
VERTEX
  5
2A7
100
AcDbEntity
  8
0
390
0
100
AcDbVertex
100
AcDb2dVertex
 10
113.2752158581
 20
49.9915416543
 30
0.0
  0
VERTEX
  5
2A8
100
AcDbEntity
  8
0
390
0
100
AcDbVertex
100
AcDb2dVertex
 10
113.3820807354
 20
49.9663542003
 30
0.0
  0
VERTEX
  5
2A9
100
AcDbEntity
  8
0
390
0
100
AcDbVertex
100
AcDb2dVertex
 10
113.4857335629
 20
49.9537845996
 30
0.0
  0
VERTEX
  5
2AA
100
AcDbEntity
  8
0
390
0
100
AcDbVertex
100
AcDb2dVertex
 10
113.5853631168
 20
49.9539312265
 30
0.0
  0
VERTEX
  5
2AB
100
AcDbEntity
  8
0
390
0
100
AcDbVertex
100
AcDb2dVertex
 10
113.6801896607
 20
49.9667929335
 30
0.0
  0
VERTEX
  5
2AC
100
AcDbEntity
  8
0
390
0
100
AcDbVertex
100
AcDb2dVertex
 10
113.7694710483
 20
49.9922690602
 30
0.0
  0
VERTEX
  5
2AD
100
AcDbEntity
  8
0
390
0
100
AcDbVertex
100
AcDb2dVertex
 10
113.8525085317
 20
50.0301602213
 30
0.0
  0
VERTEX
  5
2AE
100
AcDbEntity
  8
0
390
0
100
AcDbVertex
100
AcDb2dVertex
 10
113.92865223
 20
50.0801698673
 30
0.0
  0
VERTEX
  5
2AF
100
AcDbEntity
  8
0
390
0
100
AcDbVertex
100
AcDb2dVertex
 10
113.9973062155
 20
50.1419066048
 30
0.0
  0
VERTEX
  5
2B0
100
AcDbEntity
  8
0
390
0
100
AcDbVertex
100
AcDb2dVertex
 10
114.0579331778
 20
50.21488726
 30
0.0
  0
VERTEX
  5
2B1
100
AcDbEntity
  8
0
390
0
100
AcDbVertex
100
AcDb2dVertex
 10
114.1100586286
 20
50.2985406606
 30
0.0
  0
VERTEX
  5
2B2
100
AcDbEntity
  8
0
390
0
100
AcDbVertex
100
AcDb2dVertex
 10
114.1532746156
 20
50.3922121051
 30
0.0
  0
VERTEX
  5
2B3
100
AcDbEntity
  8
0
390
0
100
AcDbVertex
100
AcDb2dVertex
 10
114.1872429151
 20
50.4951684875
 30
0.0
  0
VERTEX
  5
2B4
100
AcDbEntity
  8
0
390
0
100
AcDbVertex
100
AcDb2dVertex
 10
114.2116976792
 20
50.6066040345
 30
0.0
  0
VERTEX
  5
2B5
100
AcDbEntity
  8
0
390
0
100
AcDbVertex
100
AcDb2dVertex
 10
114.226447516
 20
50.7256466119
 30
0.0
  0
VERTEX
  5
2B6
100
AcDbEntity
  8
0
390
0
100
AcDbVertex
100
AcDb2dVertex
 10
114.2313769882
 20
50.8513645501
 30
0.0
  0
SEQEND
  5
2B7
100
AcDbEntity
  8
0
390
0
  0
LINE
  5
2B8
100
AcDbEntity
  8
0
370
        15
390
0
  6
Continuous
 62
         7
100
AcDbLine
 10
126.5834717954
 20
53.4531894194
 30
0.0
 11
126.5834717954
 21
62.7051927008
 31
0.0
  0
LINE
  5
2B9
100
AcDbEntity
  8
0
370
        15
390
0
  6
Continuous
 62
         7
100
AcDbLine
 10
126.5834717954
 20
53.4531894194
 30
0.0
 11
126.4066951001
 21
53.3511384054
 31
0.0
  0
LINE
  5
2BA
100
AcDbEntity
  8
0
370
        15
390
0
  6
Continuous
 62
         7
100
AcDbLine
 10
125.6111999713
 20
49.3852794756
 30
0.0
 11
125.434423276
 21
49.2832284616
 31
0.0
  0
POLYLINE
  5
2BB
100
AcDbEntity
  8
0
390
0
  6
Continuous
 62
         7
100
AcDb2dPolyline
 66
         1
 10
0.0
 20
0.0
 30
0.0
 70
       128
 40
0.0472440945
 41
0.0472440945
  0
VERTEX
  5
2BC
100
AcDbEntity
  8
0
390
0
100
AcDbVertex
100
AcDb2dVertex
 10
125.6111999713
 20
49.3852794756
 30
0.0
  0
VERTEX
  5
2BD
100
AcDbEntity
  8
0
390
0
100
AcDbVertex
100
AcDb2dVertex
 10
125.6162547406
 20
49.7257698385
 30
0.0
  0
VERTEX
  5
2BE
100
AcDbEntity
  8
0
390
0
100
AcDbVertex
100
AcDb2dVertex
 10
125.6314132086
 20
50.0600307148
 30
0.0
  0
VERTEX
  5
2BF
100
AcDbEntity
  8
0
390
0
100
AcDbVertex
100
AcDb2dVertex
 10
125.6566578624
 20
50.3876759272
 30
0.0
  0
VERTEX
  5
2C0
100
AcDbEntity
  8
0
390
0
100
AcDbVertex
100
AcDb2dVertex
 10
125.6919595366
 20
50.7083269416
 30
0.0
  0
VERTEX
  5
2C1
100
AcDbEntity
  8
0
390
0
100
AcDbVertex
100
AcDb2dVertex
 10
125.7372774465
 20
51.0216133045
 30
0.0
  0
VERTEX
  5
2C2
100
AcDbEntity
  8
0
390
0
100
AcDbVertex
100
AcDb2dVertex
 10
125.7925592355
 20
51.327173071
 30
0.0
  0
VERTEX
  5
2C3
100
AcDbEntity
  8
0
390
0
100
AcDbVertex
100
AcDb2dVertex
 10
125.8577410356
 20
51.6246532226
 30
0.0
  0
VERTEX
  5
2C4
100
AcDbEntity
  8
0
390
0
100
AcDbVertex
100
AcDb2dVertex
 10
125.9327475413
 20
51.9137100754
 30
0.0
  0
VERTEX
  5
2C5
100
AcDbEntity
  8
0
390
0
100
AcDbVertex
100
AcDb2dVertex
 10
126.0174920962
 20
52.1940096773
 30
0.0
  0
VERTEX
  5
2C6
100
AcDbEntity
  8
0
390
0
100
AcDbVertex
100
AcDb2dVertex
 10
126.1118767935
 20
52.4652281933
 30
0.0
  0
VERTEX
  5
2C7
100
AcDbEntity
  8
0
390
0
100
AcDbVertex
100
AcDb2dVertex
 10
126.215792589
 20
52.7270522802
 30
0.0
  0
VERTEX
  5
2C8
100
AcDbEntity
  8
0
390
0
100
AcDbVertex
100
AcDb2dVertex
 10
126.329119427
 20
52.9791794481
 30
0.0
  0
VERTEX
  5
2C9
100
AcDbEntity
  8
0
390
0
100
AcDbVertex
100
AcDb2dVertex
 10
126.4517263791
 20
53.2213184102
 30
0.0
  0
VERTEX
  5
2CA
100
AcDbEntity
  8
0
390
0
100
AcDbVertex
100
AcDb2dVertex
 10
126.5834717954
 20
53.4531894194
 30
0.0
  0
SEQEND
  5
2CB
100
AcDbEntity
  8
0
390
0
  0
LINE
  5
2CC
100
AcDbEntity
  8
0
370
        15
390
0
  6
Continuous
 62
         7
100
AcDbLine
 10
125.6111999713
 20
39.5867897329
 30
0.0
 11
125.434423276
 21
39.484738719
 31
0.0
  0
LINE
  5
2CD
100
AcDbEntity
  8
0
370
        15
390
0
  6
Continuous
 62
         7
100
AcDbLine
 10
125.6111999713
 20
39.5867897329
 30
0.0
 11
125.6111999713
 21
49.3852794756
 31
0.0
  0
LINE
  5
2CE
100
AcDbEntity
  8
0
370
        15
390
0
  6
Continuous
 62
         7
100
AcDbLine
 10
126.5834717954
 20
34.3963186354
 30
0.0
 11
126.4066951001
 21
34.2942676214
 31
0.0
  0
POLYLINE
  5
2CF
100
AcDbEntity
  8
0
390
0
  6
Continuous
 62
         7
100
AcDb2dPolyline
 66
         1
 10
0.0
 20
0.0
 30
0.0
 70
       128
 40
0.0472440945
 41
0.0472440945
  0
VERTEX
  5
2D0
100
AcDbEntity
  8
0
390
0
100
AcDbVertex
100
AcDb2dVertex
 10
126.5834717954
 20
34.3963186354
 30
0.0
  0
VERTEX
  5
2D1
100
AcDbEntity
  8
0
390
0
100
AcDbVertex
100
AcDb2dVertex
 10
126.4517263791
 20
34.7802996645
 30
0.0
  0
VERTEX
  5
2D2
100
AcDbEntity
  8
0
390
0
100
AcDbVertex
100
AcDb2dVertex
 10
126.329119427
 20
35.1639976004
 30
0.0
  0
VERTEX
  5
2D3
100
AcDbEntity
  8
0
390
0
100
AcDbVertex
100
AcDb2dVertex
 10
126.215792589
 20
35.5469691503
 30
0.0
  0
VERTEX
  5
2D4
100
AcDbEntity
  8
0
390
0
100
AcDbVertex
100
AcDb2dVertex
 10
126.1118767935
 20
35.9287718608
 30
0.0
  0
VERTEX
  5
2D5
100
AcDbEntity
  8
0
390
0
100
AcDbVertex
100
AcDb2dVertex
 10
126.0174920962
 20
36.3089646288
 30
0.0
  0
VERTEX
  5
2D6
100
AcDbEntity
  8
0
390
0
100
AcDbVertex
100
AcDb2dVertex
 10
125.9327475413
 20
36.6871082111
 30
0.0
  0
VERTEX
  5
2D7
100
AcDbEntity
  8
0
390
0
100
AcDbVertex
100
AcDb2dVertex
 10
125.8577410356
 20
37.062765732
 30
0.0
  0
VERTEX
  5
2D8
100
AcDbEntity
  8
0
390
0
100
AcDbVertex
100
AcDb2dVertex
 10
125.7925592355
 20
37.4355031881
 30
0.0
  0
VERTEX
  5
2D9
100
AcDbEntity
  8
0
390
0
100
AcDbVertex
100
AcDb2dVertex
 10
125.7372774465
 20
37.8048899496
 30
0.0
  0
VERTEX
  5
2DA
100
AcDbEntity
  8
0
390
0
100
AcDbVertex
100
AcDb2dVertex
 10
125.6919595366
 20
38.1704992575
 30
0.0
  0
VERTEX
  5
2DB
100
AcDbEntity
  8
0
390
0
100
AcDbVertex
100
AcDb2dVertex
 10
125.6566578624
 20
38.5319087174
 30
0.0
  0
VERTEX
  5
2DC
100
AcDbEntity
  8
0
390
0
100
AcDbVertex
100
AcDb2dVertex
 10
125.6314132086
 20
38.8887007867
 30
0.0
  0
VERTEX
  5
2DD
100
AcDbEntity
  8
0
390
0
100
AcDbVertex
100
AcDb2dVertex
 10
125.6162547406
 20
39.2404632576
 30
0.0
  0
VERTEX
  5
2DE
100
AcDbEntity
  8
0
390
0
100
AcDbVertex
100
AcDb2dVertex
 10
125.6111999713
 20
39.5867897329
 30
0.0
  0
SEQEND
  5
2DF
100
AcDbEntity
  8
0
390
0
  0
LINE
  5
2E0
100
AcDbEntity
  8
0
370
        15
390
0
  6
Continuous
 62
         7
100
AcDbLine
 10
126.5834717954
 20
25.144315354
 30
0.0
 11
126.4066951001
 21
25.04226434
 31
0.0
  0
LINE
  5
2E1
100
AcDbEntity
  8
0
370
        15
390
0
  6
Continuous
 62
         7
100
AcDbLine
 10
126.5834717954
 20
25.144315354
 30
0.0
 11
126.5834717954
 21
34.3963186354
 31
0.0
  0
POLYLINE
  5
2E2
100
AcDbEntity
  8
0
390
0
  6
Continuous
 62
         7
100
AcDb2dPolyline
 66
         1
 10
0.0
 20
0.0
 30
0.0
 70
       128
 40
0.0472440945
 41
0.0472440945
  0
VERTEX
  5
2E3
100
AcDbEntity
  8
0
390
0
100
AcDbVertex
100
AcDb2dVertex
 10
112.1737721186
 20
53.1648582271
 30
0.0
  0
VERTEX
  5
2E4
100
AcDbEntity
  8
0
390
0
100
AcDbVertex
100
AcDb2dVertex
 10
112.1561587662
 20
53.1496107277
 30
0.0
  0
VERTEX
  5
2E5
100
AcDbEntity
  8
0
390
0
100
AcDbVertex
100
AcDb2dVertex
 10
112.0914549619
 20
53.0821860378
 30
0.0
  0
VERTEX
  5
2E6
100
AcDbEntity
  8
0
390
0
100
AcDbVertex
100
AcDb2dVertex
 10
112.0350235218
 20
53.0037922802
 30
0.0
  0
VERTEX
  5
2E7
100
AcDbEntity
  8
0
390
0
100
AcDbVertex
100
AcDb2dVertex
 10
111.9873060984
 20
52.9150429922
 30
0.0
  0
VERTEX
  5
2E8
100
AcDbEntity
  8
0
390
0
100
AcDbVertex
100
AcDb2dVertex
 10
111.9486761451
 20
52.8166327574
 30
0.0
  0
VERTEX
  5
2E9
100
AcDbEntity
  8
0
390
0
100
AcDbVertex
100
AcDb2dVertex
 10
111.9194359939
 20
52.7093317694
 30
0.0
  0
VERTEX
  5
2EA
100
AcDbEntity
  8
0
390
0
100
AcDbVertex
100
AcDb2dVertex
 10
111.8998144884
 20
52.5939798037
 30
0.0
  0
VERTEX
  5
2EB
100
AcDbEntity
  8
0
390
0
100
AcDbVertex
100
AcDb2dVertex
 10
111.8899651936
 20
52.471479646
 30
0.0
  0
VERTEX
  5
2EC
100
AcDbEntity
  8
0
390
0
100
AcDbVertex
100
AcDb2dVertex
 10
111.8899651936
 20
52.3427900261
 30
0.0
  0
VERTEX
  5
2ED
100
AcDbEntity
  8
0
390
0
100
AcDbVertex
100
AcDb2dVertex
 10
111.8998144884
 20
52.2089181147
 30
0.0
  0
VERTEX
  5
2EE
100
AcDbEntity
  8
0
390
0
100
AcDbVertex
100
AcDb2dVertex
 10
111.9194359939
 20
52.070911641
 30
0.0
  0
VERTEX
  5
2EF
100
AcDbEntity
  8
0
390
0
100
AcDbVertex
100
AcDb2dVertex
 10
111.9486761451
 20
51.9298506929
 30
0.0
  0
VERTEX
  5
2F0
100
AcDbEntity
  8
0
390
0
100
AcDbVertex
100
AcDb2dVertex
 10
111.9873060984
 20
51.7868392635
 30
0.0
  0
VERTEX
  5
2F1
100
AcDbEntity
  8
0
390
0
100
AcDbVertex
100
AcDb2dVertex
 10
112.0350235218
 20
51.6429966111
 30
0.0
  0
VERTEX
  5
2F2
100
AcDbEntity
  8
0
390
0
100
AcDbVertex
100
AcDb2dVertex
 10
112.0914549619
 20
51.4994484995
 30
0.0
  0
VERTEX
  5
2F3
100
AcDbEntity
  8
0
390
0
100
AcDbVertex
100
AcDb2dVertex
 10
112.1561587662
 20
51.3573183874
 30
0.0
  0
VERTEX
  5
2F4
100
AcDbEntity
  8
0
390
0
100
AcDbVertex
100
AcDb2dVertex
 10
112.2286285396
 20
51.2177186355
 30
0.0
  0
VERTEX
  5
2F5
100
AcDbEntity
  8
0
390
0
100
AcDbVertex
100
AcDb2dVertex
 10
112.308297108
 20
51.0817418012
 30
0.0
  0
VERTEX
  5
2F6
100
AcDbEntity
  8
0
390
0
100
AcDbVertex
100
AcDb2dVertex
 10
112.3945409567
 20
50.9504520876
 30
0.0
  0
VERTEX
  5
2F7
100
AcDbEntity
  8
0
390
0
100
AcDbVertex
100
AcDb2dVertex
 10
112.4866851107
 20
50.8248770147
 30
0.0
  0
VERTEX
  5
2F8
100
AcDbEntity
  8
0
390
0
100
AcDbVertex
100
AcDb2dVertex
 10
112.584008417
 20
50.7059993777
 30
0.0
  0
VERTEX
  5
2F9
100
AcDbEntity
  8
0
390
0
100
AcDbVertex
100
AcDb2dVertex
 10
112.6857491889
 20
50.5947495553
 30
0.0
  0
VERTEX
  5
2FA
100
AcDbEntity
  8
0
390
0
100
AcDbVertex
100
AcDb2dVertex
 10
112.7911111668
 20
50.4919982283
 30
0.0
  0
VERTEX
  5
2FB
100
AcDbEntity
  8
0
390
0
100
AcDbVertex
100
AcDb2dVertex
 10
112.8992697504
 20
50.3985495649
 30
0.0
  0
VERTEX
  5
2FC
100
AcDbEntity
  8
0
390
0
100
AcDbVertex
100
AcDb2dVertex
 10
113.0093784522
 20
50.3151349278
 30
0.0
  0
VERTEX
  5
2FD
100
AcDbEntity
  8
0
390
0
100
AcDbVertex
100
AcDb2dVertex
 10
113.1205755223
 20
50.2424071496
 30
0.0
  0
VERTEX
  5
2FE
100
AcDbEntity
  8
0
390
0
100
AcDbVertex
100
AcDb2dVertex
 10
113.2319906928
 20
50.1809354237
 30
0.0
  0
VERTEX
  5
2FF
100
AcDbEntity
  8
0
390
0
100
AcDbVertex
100
AcDb2dVertex
 10
113.3427519889
 20
50.1312008498
 30
0.0
  0
VERTEX
  5
300
100
AcDbEntity
  8
0
390
0
100
AcDbVertex
100
AcDb2dVertex
 10
113.4519925534
 20
50.0935926683
 30
0.0
  0
VERTEX
  5
301
100
AcDbEntity
  8
0
390
0
100
AcDbVertex
100
AcDb2dVertex
 10
113.5588574307
 20
50.0684052142
 30
0.0
  0
VERTEX
  5
302
100
AcDbEntity
  8
0
390
0
100
AcDbVertex
100
AcDb2dVertex
 10
113.6625102582
 20
50.0558356136
 30
0.0
  0
VERTEX
  5
303
100
AcDbEntity
  8
0
390
0
100
AcDbVertex
100
AcDb2dVertex
 10
113.7621398121
 20
50.0559822405
 30
0.0
  0
VERTEX
  5
304
100
AcDbEntity
  8
0
390
0
100
AcDbVertex
100
AcDb2dVertex
 10
113.856966356
 20
50.0688439475
 30
0.0
  0
VERTEX
  5
305
100
AcDbEntity
  8
0
390
0
100
AcDbVertex
100
AcDb2dVertex
 10
113.9462477436
 20
50.0943200741
 30
0.0
  0
VERTEX
  5
306
100
AcDbEntity
  8
0
390
0
100
AcDbVertex
100
AcDb2dVertex
 10
113.9463370918
 20
50.0943529383
 30
0.0
  0
SEQEND
  5
307
100
AcDbEntity
  8
0
390
0
  0
ENDSEC
  0
SECTION
  2
OBJECTS
  0
DICTIONARY
  5
19
100
AcDbDictionary
280
         0
281
         1
  3
ACAD_GROUP
350
1A
  3
ACAD_MLINESTYLE
350
1B
  3
ACAD_LAYOUT
350
1E
  3
ACAD_PLOTSETTINGS
350
22
  3
ACAD_PLOTSTYLENAME
350
1F
  3
ACAD_WIPEOUT_VARS
350
23
  0
DICTIONARY
  5
1A
102
{ACAD_REACTORS
330
19
102
}
100
AcDbDictionary
280
         0
281
         1
  0
DICTIONARY
  5
1B
102
{ACAD_REACTORS
330
19
102
}
100
AcDbDictionary
280
         0
281
         1
  3
Standard
350
1C
  0
MLINESTYLE
  5
1C
102
{ACAD_REACTORS
330
1B
102
}
100
AcDbMlineStyle
  2
Standard
 70
         0
  3

 62
         0
 51
90.0
 52
90.0
 71
         2
 49
0.5
 62
       256
  6
ByLayer
 49
-0.5
 62
       256
  6
ByLayer
  0
ACDBDICTIONARYWDFLT
  5
1F
102
{ACAD_REACTORS
330
19
102
}
100
AcDbDictionary
281
         1
  3
Normal
350
1D
100
AcDbDictionaryWithDefault
340
1D
  0
ACDBPLACEHOLDER
  5
1D
102
{ACAD_REACTORS
330
1F
102
}
  0
LAYOUT
  5
20
102
{ACAD_REACTORS
330
1E
102
}
100
AcDbPlotSettings
  1

  2

  4

  6

 40
0.0
 41
0.0
 42
0.0
 43
0.0
 44
0.0
 45
0.0
 46
0.0
 47
0.0
 48
0.0
 49
0.0
140
0.0
141
0.0
142
1.0
143
1.0
 70
      1024
 72
         0
 73
         0
 74
         0
  7

 75
         0
147
1.0
148
0.0
149
0.0
100
AcDbLayout
  1
Model
 70
         0
 71
         0
 10
0.0
 20
0.0
 11
0.0
 21
0.0
 12
0.0
 22
0.0
 32
0.0
 14
0.0
 24
0.0
 34
0.0
 15
0.0
 25
0.0
 35
0.0
146
0.0
 13
0.0
 23
0.0
 33
0.0
 16
0.0
 26
0.0
 36
0.0
 17
0.0
 27
0.0
 37
0.0
 76
         0
330
A
331
0
345
0
346
0
  0
LAYOUT
  5
21
102
{ACAD_REACTORS
330
1E
102
}
100
AcDbPlotSettings
  1

  2

  4

  6

 40
0.0
 41
0.0
 42
0.0
 43
0.0
 44
0.0
 45
0.0
 46
0.0
 47
0.0
 48
0.0
 49
0.0
140
0.0
141
0.0
142
1.0
143
1.0
 70
         0
 72
         0
 73
         0
 74
         0
  7

 75
         0
147
1.0
148
0.0
149
0.0
100
AcDbLayout
  1
Layout1
 70
         0
 71
         0
 10
0.0
 20
0.0
 11
0.0
 21
0.0
 12
0.0
 22
0.0
 32
0.0
 14
0.0
 24
0.0
 34
0.0
 15
0.0
 25
0.0
 35
0.0
146
0.0
 13
0.0
 23
0.0
 33
0.0
 16
0.0
 26
0.0
 36
0.0
 17
0.0
 27
0.0
 37
0.0
 76
         0
330
B
331
0
345
0
346
0
  0
DICTIONARY
  5
1E
102
{ACAD_REACTORS
330
19
102
}
100
AcDbDictionary
280
         0
281
         1
  3
Layout1
350
21
  3
Model
350
20
  0
DICTIONARY
  5
22
102
{ACAD_REACTORS
330
19
102
}
100
AcDbDictionary
280
         0
281
         1
  0
WIPEOUTVARIABLES
  5
23
100
AcDbWipeoutVariables
 70
         1
  0
ENDSEC
  0
EOF
