  0
SECTION
  2
HEADER
  9
$ACADVER
  1
AC1015
  9
$ACADMAINTVER
 70
         6
  9
$DWGCODEPAGE
  3
ANSI_1252
  9
$INSBASE
 10
0.0
 20
0.0
 30
0.0
  9
$EXTMIN
 10
0.0
 20
0.0
 30
0.0
  9
$EXTMAX
 10
340.0
 20
220.0
 30
0.0
  9
$LIMMIN
 10
0.0
 20
0.0
  9
$LIMMAX
 10
0.0
 20
0.0
  9
$ORTHOMODE
 70
         0
  9
$REGENMODE
 70
         1
  9
$FILLMODE
 70
         1
  9
$QTEXTMODE
 70
         0
  9
$MIRRTEXT
 70
         1
  9
$LTSCALE
 40
1.0
  9
$ATTMODE
 70
         1
  9
$TEXTSIZE
 40
2.0
  9
$TRACEWID
 40
0.05
  9
$TEXTSTYLE
  7
Standard
  9
$CLAYER
  8
0
  9
$CELTYPE
  6
Continuous
  9
$CECOLOR
 62
       256
  9
$CELTSCALE
 40
1.0
  9
$DISPSILH
 70
         0
  9
$DIMSCALE
 40
1.0
  9
$DIMASZ
 40
0.0
  9
$DIMEXO
 40
0.0
  9
$DIMDLI
 40
0.38
  9
$DIMRND
 40
0.0
  9
$DIMDLE
 40
0.0
  9
$DIMEXE
 40
0.18
  9
$DIMTP
 40
0.0
  9
$DIMTM
 40
0.0
  9
$DIMTXT
 40
2.0
  9
$DIMCEN
 40
0.09
  9
$DIMTSZ
 40
0.0
  9
$DIMTOL
 70
         0
  9
$DIMLIM
 70
         0
  9
$DIMTIH
 70
         1
  9
$DIMTOH
 70
         1
  9
$DIMSE1
 70
         0
  9
$DIMSE2
 70
         0
  9
$DIMTAD
 70
         0
  9
$DIMZIN
 70
         0
  9
$DIMBLK
  1

  9
$DIMASO
 70
         1
  9
$DIMSHO
 70
         1
  9
$DIMPOST
  1

  9
$DIMAPOST
  1

  9
$DIMALT
 70
         0
  9
$DIMALTD
 70
         2
  9
$DIMALTF
 40
25.4
  9
$DIMLFAC
 40
1.0
  9
$DIMTOFL
 70
         0
  9
$DIMTVP
 40
0.0
  9
$DIMTIX
 70
         0
  9
$DIMSOXD
 70
         0
  9
$DIMSAH
 70
         0
  9
$DIMBLK1
  1

  9
$DIMBLK2
  1

  9
$DIMSTYLE
  2
Standard
  9
$DIMCLRD
 70
         0
  9
$DIMCLRE
 70
         0
  9
$DIMCLRT
 70
         0
  9
$DIMTFAC
 40
1.0
  9
$DIMGAP
 40
0.0
  9
$DIMJUST
 70
         0
  9
$DIMSD1
 70
         0
  9
$DIMSD2
 70
         0
  9
$DIMTOLJ
 70
         1
  9
$DIMTZIN
 70
         0
  9
$DIMALTZ
 70
         0
  9
$DIMALTTZ
 70
         0
  9
$DIMUPT
 70
         0
  9
$DIMDEC
 70
         4
  9
$DIMTDEC
 70
         4
  9
$DIMALTU
 70
         2
  9
$DIMALTTD
 70
         2
  9
$DIMTXSTY
  7
Standard
  9
$DIMAUNIT
 70
         0
  9
$DIMADEC
 70
         0
  9
$DIMALTRND
 40
0.0
  9
$DIMAZIN
 70
         0
  9
$DIMDSEP
 70
         0
  9
$DIMATFIT
 70
         3
  9
$DIMFRAC
 70
         0
  9
$DIMLDRBLK
  1

  9
$DIMLUNIT
 70
         2
  9
$DIMLWD
 70
         0
  9
$DIMLWE
 70
         0
  9
$DIMTMOVE
 70
         0
  9
$LUNITS
 70
         2
  9
$LUPREC
 70
         3
  9
$SKETCHINC
 40
0.1
  9
$FILLETRAD
 40
0.0
  9
$AUNITS
 70
         0
  9
$AUPREC
 70
         2
  9
$MENU
  1
acad
  9
$ELEVATION
 40
0.0
  9
$PELEVATION
 40
0.0
  9
$THICKNESS
 40
0.0
  9
$LIMCHECK
 70
         0
  9
$CHAMFERA
 40
0.0
  9
$CHAMFERB
 40
0.0
  9
$CHAMFERC
 40
0.0
  9
$CHAMFERD
 40
0.0
  9
$SKPOLY
 70
         0
  9
$TDCREATE
 40
0.000000000
  9
$TDUCREATE
 40
0.000000000
  9
$TDUPDATE
 40
0.000000000
  9
$TDUUPDATE
 40
0.000000000
  9
$TDINDWG
 40
0.0000000000
  9
$TDUSRTIMER
 40
0.0000000000
  9
$USRTIMER
 70
         1
  9
$ANGBASE
 50
0.0
  9
$ANGDIR
 70
         0
  9
$PDMODE
 70
         0
  9
$PDSIZE
 40
-1.0
  9
$PLINEWID
 40
0.0
  9
$SPLFRAME
 70
         0
  9
$SPLINETYPE
 70
         6
  9
$SPLINESEGS
 70
         8
  9
$HANDSEED
  5
3E2
  9
$SURFTAB1
 70
         6
  9
$SURFTAB2
 70
         6
  9
$SURFTYPE
 70
         6
  9
$SURFU
 70
         6
  9
$SURFV
 70
         6
  9
$UCSBASE
  2

  9
$UCSNAME
  2

  9
$UCSORG
 10
0.0
 20
0.0
 30
0.0
  9
$UCSXDIR
 10
1.0
 20
0.0
 30
0.0
  9
$UCSYDIR
 10
0.0
 20
1.0
 30
0.0
  9
$UCSORTHOREF
  2

  9
$UCSORTHOVIEW
 70
         0
  9
$UCSORGTOP
 10
0.0
 20
0.0
 30
0.0
  9
$UCSORGBOTTOM
 10
0.0
 20
0.0
 30
0.0
  9
$UCSORGLEFT
 10
0.0
 20
0.0
 30
0.0
  9
$UCSORGRIGHT
 10
0.0
 20
0.0
 30
0.0
  9
$UCSORGFRONT
 10
0.0
 20
0.0
 30
0.0
  9
$UCSORGBACK
 10
0.0
 20
0.0
 30
0.0
  9
$PUCSBASE
  2

  9
$PUCSNAME
  2

  9
$PUCSORG
 10
0.0
 20
0.0
 30
0.0
  9
$PUCSXDIR
 10
1.0
 20
0.0
 30
0.0
  9
$PUCSYDIR
 10
0.0
 20
1.0
 30
0.0
  9
$PUCSORTHOREF
  2

  9
$PUCSORTHOVIEW
 70
         0
  9
$PUCSORGTOP
 10
0.0
 20
0.0
 30
0.0
  9
$PUCSORGBOTTOM
 10
0.0
 20
0.0
 30
0.0
  9
$PUCSORGLEFT
 10
0.0
 20
0.0
 30
0.0
  9
$PUCSORGRIGHT
 10
0.0
 20
0.0
 30
0.0
  9
$PUCSORGFRONT
 10
0.0
 20
0.0
 30
0.0
  9
$PUCSORGBACK
 10
0.0
 20
0.0
 30
0.0
  9
$USERI1
 70
         0
  9
$USERI2
 70
         0
  9
$USERI3
 70
         0
  9
$USERI4
 70
         0
  9
$USERI5
 70
         0
  9
$USERR1
 40
0.0
  9
$USERR2
 40
0.0
  9
$USERR3
 40
0.0
  9
$USERR4
 40
0.0
  9
$USERR5
 40
0.0
  9
$WORLDVIEW
 70
         1
  9
$SHADEDGE
 70
         3
  9
$SHADEDIF
 70
        70
  9
$TILEMODE
 70
         1
  9
$MAXACTVP
 70
        16
  9
$PINSBASE
 10
0.0
 20
0.0
 30
0.0
  9
$PLIMCHECK
 70
         0
  9
$PEXTMIN
 10
1.0000000000E+20
 20
1.0000000000E+20
 30
1.0000000000E+20
  9
$PEXTMAX
 10
-1.0000000000E+20
 20
-1.0000000000E+20
 30
-1.0000000000E+20
  9
$PLIMMIN
 10
0.0
 20
0.0
  9
$PLIMMAX
 10
12.0
 20
9.0
  9
$UNITMODE
 70
         0
  9
$VISRETAIN
 70
         0
  9
$PLINEGEN
 70
         1
  9
$PSLTSCALE
 70
         1
  9
$TREEDEPTH
 70
      3020
  9
$CMLSTYLE
  2
Standard
  9
$CMLJUST
 70
         0
  9
$CMLSCALE
 40
1.0
  9
$PROXYGRAPHICS
 70
         0
  9
$MEASUREMENT
 70
         0
  9
$CELWEIGHT
370
         0
  9
$ENDCAPS
280
         0
  9
$JOINSTYLE
280
         0
  9
$LWDISPLAY
290
         1
  9
$INSUNITS
 70
         0
  9
$HYPERLINKBASE
  1

  9
$STYLESHEET
  1

  9
$XEDIT
290
         1
  9
$CEPSNTYPE
380
         0
  9
$PSTYLEMODE
290
         1
  9
$FINGERPRINTGUID
  2

  9
$VERSIONGUID
  2

  9
$EXTNAMES
290
         1
  9
$PSVPSCALE
 40
0.0
  0
ENDSEC
  0
SECTION
  2
CLASSES
  0
CLASS
  1
LWPOLYLINE
  2
AcDbPolyline
  3
AutoCAD 2000
 90
        0
280
         0
281
         1
  0
CLASS
  1
IMAGE
  2
AcDbRasterImage
  3
ISM
 90
      127
280
         0
281
         1
  0
CLASS
  1
OLE2FRAME
  2
AcDbOle2Frame
  3
AutoCAD 2000
 90
        0
280
         0
281
         1
  0
CLASS
  1
HATCH
  2
AcDbHatch
  3
AutoCAD 2000
 90
        0
280
         0
281
         1
  0
CLASS
  1
DICTIONARYVAR
  2
AcDbDictionaryVar
  3
AutoCAD 2000
 90
        0
280
         0
281
         0
  0
CLASS
  1
RASTERVARIABLES
  2
AcDbRasterVariables
  3
ISM
 90
        0
280
         0
281
         0
  0
CLASS
  1
IMAGEDEF
  2
AcDbRasterImageDef
  3
ISM
 90
        0
280
         0
281
         0
  0
CLASS
  1
IMAGEDEF_REACTOR
  2
AcDbRasterImageDefReactor
  3
ISM
 90
        1
280
         0
281
         0
  0
CLASS
  1
IDBUFFER
  2
AcDbIdBuffer
  3
AutoCAD 2000
 90
        0
280
         0
281
         0
  0
CLASS
  1
SPATIAL_FILTER
  2
AcDbSpatialFilter
  3
AutoCAD 2000
 90
        0
280
         0
281
         0
  0
CLASS
  1
XRECORD
  2
AcDbXrecord
  3
AutoCAD 2000
 90
        0
280
         0
281
         0
  0
CLASS
  1
SORTENTSTABLE
  2
AcDbSortentsTable
  3
AutoCAD 2000
 90
        0
280
         0
281
         0
  0
CLASS
  1
LAYER_INDEX
  2
AcDbLayerIndex
  3
AutoCAD 2000
 90
        0
280
         0
281
         0
  0
CLASS
  1
SPATIAL_INDEX
  2
AcDbSpatialIndex
  3
AutoCAD 2000
 90
        0
280
         0
281
         0
  0
CLASS
  1
OBJECT_PTR
  2
CAseDLPNTableRecord
  3
"ASE-LPNTableRecord"
 90
        1
280
         0
281
         0
  0
CLASS
  1
LAYOUT
  2
AcDbLayout
  3
AutoCAD 2000
 90
        0
280
         0
281
         0
  0
CLASS
  1
PLOTSETTINGS
  2
AcDbPlotSettings
  3
AutoCAD 2000
 90
        0
280
         0
281
         0
  0
CLASS
  1
ACDBDICTIONARYWDFLT
  2
AcDbDictionaryWithDefault
  3
AutoCAD 2000
 90
        0
280
         0
281
         0
  0
CLASS
  1
ACDBPLACEHOLDER
  2
AcDbPlaceHolder
  3
AutoCAD 2000
 90
        0
280
         0
281
         0
  0
CLASS
  1
VBA_PROJECT
  2
AcDbVbaProject
  3
acadvba
 90
        0
280
         0
281
         0
  0
CLASS
  1
WIPEOUT
  2
AcDbWipeout
  3
WipeOut|AutoCAD Express Tool|expresstools@autodesk.com
 90
      127
280
         0
281
         1
  0
CLASS
  1
WIPEOUTVARIABLES
  2
AcDbWipeoutVariables
  3
WipeOut|AutoCAD Express Tool|expresstools@autodesk.com
 90
        0
280
         0
281
         0
  0
CLASS
  1
RTEXT
  2
RText
  3
RText|AutoCAD Express Tool|expresstools@autodesk.com
 90
        0
280
         0
281
         1
  0
CLASS
  1
ARCALIGNEDTEXT
  2
AcDbArcAlignedText
  3
ATEXT|AutoCAD Express Tool|expresstools@autodesk.com
 90
        0
280
         0
281
         1
  0
ENDSEC
  0
SECTION
  2
TABLES
  0
TABLE
  2
VPORT
  5
7
100
AcDbSymbolTable
 70
         1
  0
VPORT
  5
15
100
AcDbSymbolTableRecord
100
AcDbViewportTableRecord
  2
*ACTIVE
 70
         0
 10
0.0
 20
0.0
 11
1.0
 21
1.0
 12
170.0
 22
110.0
 13
0.0
 23
0.0
 14
1.0
 24
1.0
 15
0.0
 25
0.0
 16
0.0
 26
0.0
 36
1.0
 17
0.0
 27
0.0
 37
0.0
 40
220.0
 41
0.6470588235
 42
50.0
 43
0.0
 44
0.0
 50
0.0
 51
0.0
 71
         0
 72
      2000
 73
         1
 74
         1
 75
         0
 76
         0
 77
         0
 78
         0
281
         0
 65
         0
110
0.0
120
0.0
130
0.0
111
1.0
121
0.0
131
0.0
112
0.0
122
1.0
132
0.0
345
0
346
0
 79
         0
146
0.0
  0
ENDTAB
  0
TABLE
  2
LTYPE
  5
4
100
AcDbSymbolTable
 70
         8
  0
LTYPE
  5
11
100
AcDbSymbolTableRecord
100
AcDbLinetypeTableRecord
  2
ByBlock
 70
        64
  3

 72
        65
 73
         0
 40
0.0
  0
LTYPE
  5
12
100
AcDbSymbolTableRecord
100
AcDbLinetypeTableRecord
  2
ByLayer
 70
        64
  3

 72
        65
 73
         0
 40
0.0
  0
LTYPE
  5
13
100
AcDbSymbolTableRecord
100
AcDbLinetypeTableRecord
  2
Continuous
 70
        64
  3
Solid line
 72
        65
 73
         0
 40
0.0
  0
LTYPE
  5
24
100
AcDbSymbolTableRecord
100
AcDbLinetypeTableRecord
  2
HIDDEN
 70
        64
  3
Hidden __ __ __ __ __ __ __ __ __ __ __ __ __ __
 72
        65
 73
         2
 40
0.075
 49
0.05
 74
         0
 49
-0.025
 74
         0
  0
LTYPE
  5
25
100
AcDbSymbolTableRecord
100
AcDbLinetypeTableRecord
  2
PHANTOM
 70
        64
  3
Phantom ______  __  __  ______  __  __  ______
 72
        65
 73
         6
 40
0.5
 49
0.25
 74
         0
 49
-0.05
 74
         0
 49
0.05
 74
         0
 49
-0.05
 74
         0
 49
0.05
 74
         0
 49
-0.05
 74
         0
  0
LTYPE
  5
26
100
AcDbSymbolTableRecord
100
AcDbLinetypeTableRecord
  2
CENTER
 70
        64
  3
Center ____ _ ____ _ ____ _ ____ _ ____ _ ____
 72
        65
 73
         4
 40
0.4
 49
0.25
 74
         0
 49
-0.05
 74
         0
 49
0.05
 74
         0
 49
-0.05
 74
         0
  0
LTYPE
  5
27
100
AcDbSymbolTableRecord
100
AcDbLinetypeTableRecord
  2
CENTERX2
 70
        64
  3
Center (2x) ________  __  ________  __  _____
 72
        65
 73
         4
 40
0.8
 49
0.5
 74
         0
 49
-0.1
 74
         0
 49
0.1
 74
         0
 49
-0.1
 74
         0
  0
LTYPE
  5
28
100
AcDbSymbolTableRecord
100
AcDbLinetypeTableRecord
  2
DOT2
 70
        64
  3
Dot (.5x) ........................................
 72
        65
 73
         2
 40
0.025
 49
0.0
 74
         0
 49
-0.025
 74
         0
  0
ENDTAB
  0
TABLE
  2
LAYER
  5
2
100
AcDbSymbolTable
 70
         1
  0
LAYER
  5
14
100
AcDbSymbolTableRecord
100
AcDbLayerTableRecord
  2
0
 70
         0
 62
         7
  6
Continuous
290
         1
370
        -3
390
1D
  0
ENDTAB
  0
TABLE
  2
STYLE
  5
3
100
AcDbSymbolTable
 70
         2
  0
STYLE
  5
17
100
AcDbSymbolTableRecord
100
AcDbTextStyleTableRecord
  2
Standard
 70
         0
 40
0.0
 41
1.0
 50
0.0
 71
         0
 42
0.0
  3
txt
  4

  0
STYLE
  5
75
100
AcDbSymbolTableRecord
100
AcDbTextStyleTableRecord
  2
SLDTEXTSTYLE0
 70
         0
 40
0.0
 41
0.75
 50
0.0
 71
         0
 42
0.0
  3
txt
  4

  0
ENDTAB
  0
TABLE
  2
VIEW
  5
5
100
AcDbSymbolTable
 70
         0
  0
ENDTAB
  0
TABLE
  2
UCS
  5
6
100
AcDbSymbolTable
 70
         0
  0
ENDTAB
  0
TABLE
  2
APPID
  5
8
100
AcDbSymbolTable
 70
         1
  0
APPID
  5
16
100
AcDbSymbolTableRecord
100
AcDbRegAppTableRecord
  2
ACAD
 70
         0
  0
ENDTAB
  0
TABLE
  2
DIMSTYLE
  5
9
100
AcDbSymbolTable
 70
         4
100
AcDbDimStyleTable
 71
         0
  0
DIMSTYLE
105
18
100
AcDbSymbolTableRecord
100
AcDbDimStyleTableRecord
  2
Standard
 70
         0
  3

  4

 40
1.0
 41
0.18
 42
0.0625
 43
0.38
 44
0.18
 45
0.0
 46
0.0
 47
0.0
 48
0.0
 71
         0
 72
         0
 73
         1
 74
         1
 75
         0
 76
         0
 77
         0
 78
         0
 79
         0
140
0.18
141
0.09
142
0.0
143
25.4
144
1.0
145
0.0
146
1.0
147
0.09
148
0.0
170
         0
171
         2
172
         0
173
         0
174
         0
175
         0
176
         0
177
         0
178
         0
179
         0
271
         4
272
         4
273
         2
274
         2
275
         0
276
         0
277
         2
278
        46
279
         0
280
         0
281
         0
282
         0
283
         1
284
         0
285
         0
286
         0
288
         0
289
         3
340
17
341
0
342
0
343
0
344
0
371
        -2
372
        -2
  0
DIMSTYLE
105
CD
100
AcDbSymbolTableRecord
100
AcDbDimStyleTableRecord
  2
SLDDIMSTYLE0
 70
         0
  3

  4

 40
1.0
 41
3.75
 42
0.0625
 43
0.38
 44
2.4
 45
0.0
 46
0.0
 47
0.0
 48
0.0
 71
         0
 72
         0
 73
         1
 74
         1
 75
         0
 76
         0
 77
         0
 78
        12
 79
         0
140
2.0
141
0.09
142
0.0
143
25.4
144
1.0
145
0.0
146
1.0
147
0.5
148
0.0
170
         0
171
         2
172
         0
173
         1
174
         0
175
         0
176
         1
177
         1
178
         1
179
         0
271
         3
272
         4
273
         2
274
         2
275
         0
276
         0
277
         2
278
        46
279
         0
280
         0
281
         0
282
         0
283
         1
284
        12
285
         0
286
         0
288
         0
289
         3
340
17
341
0
342
0
343
0
344
0
371
        -2
372
        -2
  0
DIMSTYLE
105
ED
100
AcDbSymbolTableRecord
100
AcDbDimStyleTableRecord
  2
SLDDIMSTYLE1
 70
         0
  3

  4

 40
1.0
 41
3.75
 42
0.0625
 43
0.38
 44
2.4
 45
0.0
 46
0.0
 47
0.0
 48
0.0
 71
         0
 72
         0
 73
         1
 74
         1
 75
         0
 76
         0
 77
         0
 78
        12
 79
         0
140
2.0
141
0.09
142
0.0
143
25.4
144
0.8
145
0.0
146
1.0
147
0.5
148
0.0
170
         0
171
         2
172
         1
173
         1
174
         0
175
         0
176
         1
177
         1
178
         1
179
         0
271
         3
272
         4
273
         2
274
         2
275
         0
276
         0
277
         2
278
        46
279
         0
280
         0
281
         0
282
         0
283
         1
284
        12
285
         0
286
         0
288
         0
289
         3
340
17
341
0
342
0
343
0
344
0
371
        -2
372
        -2
  0
DIMSTYLE
105
3DA
100
AcDbSymbolTableRecord
100
AcDbDimStyleTableRecord
  2
SLDDIMSTYLE2
 70
         0
  3

  4

 40
1.0
 41
3.75
 42
0.0625
 43
0.38
 44
0.0
 45
0.0
 46
0.0
 47
0.0
 48
0.0
 71
         0
 72
         0
 73
         1
 74
         1
 75
         0
 76
         0
 77
         0
 78
         0
 79
         0
140
3.75
141
0.09
142
0.0
143
25.4
144
1.0
145
0.0
146
1.0
147
0.9375
148
0.0
170
         0
171
         2
172
         0
173
         1
174
         0
175
         0
176
         0
177
         0
178
         0
179
         0
271
         0
272
         0
273
         2
274
         2
275
         0
276
         0
277
         2
278
        46
279
         0
280
         0
281
         0
282
         0
283
         1
284
         0
285
         0
286
         0
288
         0
289
         3
340
17
341
0
342
0
343
0
344
0
371
        -2
372
        -2
  0
ENDTAB
  0
TABLE
  2
BLOCK_RECORD
  5
1
100
AcDbSymbolTable
 70
         6
  0
BLOCK_RECORD
  5
A
100
AcDbSymbolTableRecord
100
AcDbBlockTableRecord
  2
*MODEL_SPACE
340
20
  0
BLOCK_RECORD
  5
B
100
AcDbSymbolTableRecord
100
AcDbBlockTableRecord
  2
*PAPER_SPACE
340
21
  0
BLOCK_RECORD
  5
A9
100
AcDbSymbolTableRecord
100
AcDbBlockTableRecord
  2
NOTE51
340
0
102
{BLKREFS
331
AF
102
}
  0
BLOCK_RECORD
  5
C4
100
AcDbSymbolTableRecord
100
AcDbBlockTableRecord
  2
*D1
340
0
  0
BLOCK_RECORD
  5
D2
100
AcDbSymbolTableRecord
100
AcDbBlockTableRecord
  2
*D2
340
0
  0
BLOCK_RECORD
  5
E3
100
AcDbSymbolTableRecord
100
AcDbBlockTableRecord
  2
*D3
340
0
  0
BLOCK_RECORD
  5
F2
100
AcDbSymbolTableRecord
100
AcDbBlockTableRecord
  2
*D4
340
0
  0
BLOCK_RECORD
  5
3DC
100
AcDbSymbolTableRecord
100
AcDbBlockTableRecord
  2
NOTE69
340
0
102
{BLKREFS
331
3E1
102
}
  0
ENDTAB
  0
ENDSEC
  0
SECTION
  2
BLOCKS
  0
BLOCK
  5
D
100
AcDbEntity
  8
0
390
0
100
AcDbBlockBegin
  2
*MODEL_SPACE
 70
         0
 10
0.0
 20
0.0
 30
0.0
  3
*MODEL_SPACE
  1

  0
ENDBLK
  5
E
100
AcDbEntity
  8
0
390
0
100
AcDbBlockEnd
  0
BLOCK
  5
F
100
AcDbEntity
 67
         1
  8
0
390
0
100
AcDbBlockBegin
  2
*PAPER_SPACE
 70
         0
 10
0.0
 20
0.0
 30
0.0
  3
*PAPER_SPACE
  1

  0
ENDBLK
  5
10
100
AcDbEntity
 67
         1
  8
0
390
0
100
AcDbBlockEnd
  0
BLOCK
  5
AA
100
AcDbEntity
  8
0
390
0
 62
         0
100
AcDbBlockBegin
  2
NOTE51
 70
         0
 10
0.0
 20
0.0
 30
0.0
  3
NOTE51
  1

  0
MTEXT
  5
AB
100
AcDbEntity
  8
0
390
0
 62
         7
100
AcDbMText
 10
0.0
 20
0.0
 30
0.0
 40
1.8
 41
0.0
 71
         1
 72
         1
  1
BREAK SHARP EDGES 0.010 RAD %%p 0.003
  7
SLDTEXTSTYLE0
 73
         1
 44
1.0
  0
MTEXT
  5
AC
100
AcDbEntity
  8
0
390
0
 62
         7
100
AcDbMText
 10
0.0
 20
-2.7
 30
0.0
 40
1.8
 41
0.0
 71
         1
 72
         1
  1
MACHINED SURF FINISH  
  7
SLDTEXTSTYLE0
 73
         1
 44
1.0
  0
MTEXT
  5
AD
100
AcDbEntity
  8
0
390
0
 62
         7
100
AcDbMText
 10
27.72
 20
-2.7
 30
0.0
 40
1.8
 41
0.0
 71
         1
 72
         1
  1
< 125 MICROINCH
  7
SLDTEXTSTYLE0
 73
         1
 44
1.0
  0
ENDBLK
  5
AE
100
AcDbEntity
  8
0
390
0
100
AcDbBlockEnd
  0
BLOCK
  5
C5
100
AcDbEntity
  8
0
390
0
 62
         1
100
AcDbBlockBegin
  2
*D1
 70
         1
 10
0.0
 20
0.0
 30
0.0
  3
*D1
  1

  0
MTEXT
  5
C6
100
AcDbEntity
  8
0
390
0
100
AcDbMText
 10
185.6354523093
 20
87.6377975848
 30
0.0
 40
2.0
 41
0.0
 71
         7
 72
         1
  1
232 1/2"
  7
SLDTEXTSTYLE0
 73
         1
 44
1.0
  0
LINE
  5
C7
100
AcDbEntity
  8
0
390
0
100
AcDbLine
 10
73.9987988031
 20
75.2767461435
 30
0.0
 11
73.9987988031
 21
90.9370183395
 31
0.0
  0
LINE
  5
C8
100
AcDbEntity
  8
0
390
0
100
AcDbLine
 10
306.4987988031
 20
75.2767461435
 30
0.0
 11
306.4987988031
 21
90.9370183395
 31
0.0
  0
LINE
  5
C9
100
AcDbEntity
  8
0
390
0
100
AcDbLine
 10
73.9987988031
 20
88.5370183395
 30
0.0
 11
184.3854523093
 21
88.5370183395
 31
0.0
  0
LINE
  5
CA
100
AcDbEntity
  8
0
390
0
100
AcDbLine
 10
306.4987988031
 20
88.5370183395
 30
0.0
 11
197.2894523093
 21
88.5370183395
 31
0.0
  0
SOLID
  5
CB
100
AcDbEntity
  8
0
390
0
100
AcDbTrace
 10
73.9987988031
 20
88.5370183395
 30
0.0
 11
77.7487988031
 21
87.9120183395
 31
0.0
 12
77.7487988031
 22
89.1620183395
 32
0.0
 13
77.7487988031
 23
89.1620183395
 33
0.0
  0
SOLID
  5
CC
100
AcDbEntity
  8
0
390
0
100
AcDbTrace
 10
306.4987988031
 20
88.5370183395
 30
0.0
 11
302.7487988031
 21
89.1620183395
 31
0.0
 12
302.7487988031
 22
87.9120183395
 32
0.0
 13
302.7487988031
 23
87.9120183395
 33
0.0
  0
POINT
  5
CE
100
AcDbEntity
  8
0
390
0
100
AcDbPoint
 10
73.9987988031
 20
74.4767461435
 30
0.0
  0
POINT
  5
CF
100
AcDbEntity
  8
0
390
0
100
AcDbPoint
 10
306.4987988031
 20
74.4767461435
 30
0.0
  0
ENDBLK
  5
D0
100
AcDbEntity
  8
0
390
0
 62
         1
100
AcDbBlockEnd
  0
BLOCK
  5
D3
100
AcDbEntity
  8
0
390
0
 62
         1
100
AcDbBlockBegin
  2
*D2
 70
         1
 10
0.0
 20
0.0
 30
0.0
  3
*D2
  1

  0
MTEXT
  5
D4
100
AcDbEntity
  8
0
390
0
100
AcDbMText
 10
55.5598086052
 20
48.6498711004
 30
0.0
 40
2.0
 41
0.0
 71
         7
 72
         1
  1
6"
  7
SLDTEXTSTYLE0
 73
         1
 44
1.0
  0
LINE
  5
D5
100
AcDbEntity
  8
0
390
0
100
AcDbLine
 10
73.1987988031
 20
74.4767461435
 30
0.0
 11
59.5108086052
 21
74.4767461435
 31
0.0
  0
LINE
  5
D6
100
AcDbEntity
  8
0
390
0
100
AcDbLine
 10
73.1987988031
 20
68.4767461435
 30
0.0
 11
59.5108086052
 21
68.4767461435
 31
0.0
  0
LINE
  5
D7
100
AcDbEntity
  8
0
390
0
100
AcDbLine
 10
59.4108086052
 20
49.5490918551
 30
0.0
 11
61.9108086052
 21
49.5490918551
 31
0.0
  0
LINE
  5
D8
100
AcDbEntity
  8
0
390
0
100
AcDbLine
 10
61.9108086052
 20
49.5490918551
 30
0.0
 11
61.9108086052
 21
68.4767461435
 31
0.0
  0
LINE
  5
D9
100
AcDbEntity
  8
0
390
0
100
AcDbLine
 10
61.9108086052
 20
74.4767461435
 30
0.0
 11
61.9108086052
 21
84.4767461435
 31
0.0
  0
SOLID
  5
DA
100
AcDbEntity
  8
0
390
0
100
AcDbTrace
 10
61.9108086052
 20
74.4767461435
 30
0.0
 11
62.5358086052
 21
78.2267461435
 31
0.0
 12
61.2858086052
 22
78.2267461435
 32
0.0
 13
61.2858086052
 23
78.2267461435
 33
0.0
  0
SOLID
  5
DB
100
AcDbEntity
  8
0
390
0
100
AcDbTrace
 10
61.9108086052
 20
68.4767461435
 30
0.0
 11
61.2858086052
 21
64.7267461435
 31
0.0
 12
62.5358086052
 22
64.7267461435
 32
0.0
 13
62.5358086052
 23
64.7267461435
 33
0.0
  0
POINT
  5
DC
100
AcDbEntity
  8
0
390
0
100
AcDbPoint
 10
73.9987988031
 20
74.4767461435
 30
0.0
  0
POINT
  5
DD
100
AcDbEntity
  8
0
390
0
100
AcDbPoint
 10
73.9987988031
 20
68.4767461435
 30
0.0
  0
ENDBLK
  5
DE
100
AcDbEntity
  8
0
390
0
 62
         1
100
AcDbBlockEnd
  0
BLOCK
  5
E4
100
AcDbEntity
  8
0
390
0
 62
         1
100
AcDbBlockBegin
  2
*D3
 70
         1
 10
0.0
 20
0.0
 30
0.0
  3
*D3
  1

  0
MTEXT
  5
E5
100
AcDbEntity
  8
0
390
0
 62
         7
100
AcDbMText
 10
169.683653621
 20
166.4915378244
 30
0.0
 40
2.0
 41
0.0
 71
         7
 72
         1
  1
%%c
  7
SLDTEXTSTYLE0
 73
         1
 44
1.0
  0
MTEXT
  5
E6
100
AcDbEntity
  8
0
390
0
 62
         7
100
AcDbMText
 10
173.0993064512
 20
166.4915378244
 30
0.0
 40
2.0
 41
0.0
 71
         7
 72
         1
  1
73 1/4"
  7
SLDTEXTSTYLE0
 73
         1
 44
1.0
  0
MTEXT
  5
E7
100
AcDbEntity
  8
0
390
0
 62
         7
100
AcDbMText
 10
182.3025932437
 20
166.4915378244
 30
0.0
 40
2.0
 41
0.0
 71
         7
 72
         1
  1
 INSIDE
  7
SLDTEXTSTYLE0
 73
         1
 44
1.0
  0
LINE
  5
E8
100
AcDbEntity
  8
0
390
0
 62
         7
100
AcDbLine
 10
154.8609434791
 20
163.9881509097
 30
0.0
 11
163.433653621
 21
167.3907585792
 31
0.0
  0
LINE
  5
E9
100
AcDbEntity
  8
0
390
0
 62
         7
100
AcDbLine
 10
69.7569641552
 20
130.2093985719
 30
0.0
 11
154.8609434791
 21
163.9881509097
 31
0.0
  0
LINE
  5
EA
100
AcDbEntity
  8
0
390
0
 62
         7
100
AcDbLine
 10
163.433653621
 20
167.3907585792
 30
0.0
 11
168.433653621
 21
167.3907585792
 31
0.0
  0
SOLID
  5
EB
100
AcDbEntity
  8
0
390
0
 62
         7
100
AcDbTrace
 10
69.7569641552
 20
130.2093985719
 30
0.0
 11
73.4730230513
 21
131.0119141672
 31
0.0
 12
73.0118796747
 22
132.1737432364
 32
0.0
 13
73.0118796747
 23
132.1737432364
 33
0.0
  0
SOLID
  5
EC
100
AcDbEntity
  8
0
390
0
 62
         7
100
AcDbTrace
 10
154.8609434791
 20
163.9881509097
 30
0.0
 11
151.144884583
 21
163.1856353145
 31
0.0
 12
151.6060279596
 22
162.0238062452
 32
0.0
 13
151.6060279596
 23
162.0238062452
 33
0.0
  0
POINT
  5
EE
100
AcDbEntity
  8
0
390
0
 62
         7
100
AcDbPoint
 10
69.7569641552
 20
130.2093985719
 30
0.0
  0
POINT
  5
EF
100
AcDbEntity
  8
0
390
0
 62
         7
100
AcDbPoint
 10
154.8609434791
 20
163.9881509097
 30
0.0
  0
ENDBLK
  5
F0
100
AcDbEntity
  8
0
390
0
100
AcDbBlockEnd
  0
BLOCK
  5
F3
100
AcDbEntity
  8
0
390
0
 62
         1
100
AcDbBlockBegin
  2
*D4
 70
         1
 10
0.0
 20
0.0
 30
0.0
  3
*D4
  1

  0
MTEXT
  5
F4
100
AcDbEntity
  8
0
390
0
 62
         7
100
AcDbMText
 10
170.8843668286
 20
186.1789439277
 30
0.0
 40
2.0
 41
0.0
 71
         7
 72
         1
  1
%%c
  7
SLDTEXTSTYLE0
 73
         1
 44
1.0
  0
MTEXT
  5
F5
100
AcDbEntity
  8
0
390
0
 62
         7
100
AcDbMText
 10
174.3000196588
 20
186.1789439277
 30
0.0
 40
2.0
 41
0.0
 71
         7
 72
         1
  1
74"
  7
SLDTEXTSTYLE0
 73
         1
 44
1.0
  0
MTEXT
  5
F6
100
AcDbEntity
  8
0
390
0
 62
         7
100
AcDbMText
 10
178.5008800361
 20
186.1789439277
 30
0.0
 40
2.0
 41
0.0
 71
         7
 72
         1
  1
 OUTSIDE
  7
SLDTEXTSTYLE0
 73
         1
 44
1.0
  0
LINE
  5
F7
100
AcDbEntity
  8
0
390
0
 62
         7
100
AcDbLine
 10
149.0595778925
 20
175.178200128
 30
0.0
 11
164.6343668286
 21
187.0781646824
 31
0.0
  0
LINE
  5
F8
100
AcDbEntity
  8
0
390
0
 62
         7
100
AcDbLine
 10
75.5583297418
 20
119.0193493537
 30
0.0
 11
149.0595778925
 21
175.178200128
 31
0.0
  0
LINE
  5
F9
100
AcDbEntity
  8
0
390
0
 62
         7
100
AcDbLine
 10
164.6343668286
 20
187.0781646824
 30
0.0
 11
169.6343668286
 21
187.0781646824
 31
0.0
  0
SOLID
  5
FA
100
AcDbEntity
  8
0
390
0
 62
         7
100
AcDbTrace
 10
75.5583297418
 20
119.0193493537
 30
0.0
 11
78.9175617667
 21
120.7994294651
 31
0.0
 12
78.1586583778
 22
121.7926895753
 32
0.0
 13
78.1586583778
 23
121.7926895753
 33
0.0
  0
SOLID
  5
FB
100
AcDbEntity
  8
0
390
0
 62
         7
100
AcDbTrace
 10
149.0595778925
 20
175.178200128
 30
0.0
 11
145.7003458676
 21
173.3981200165
 31
0.0
 12
146.4592492565
 22
172.4048599064
 32
0.0
 13
146.4592492565
 23
172.4048599064
 33
0.0
  0
POINT
  5
FC
100
AcDbEntity
  8
0
390
0
 62
         7
100
AcDbPoint
 10
75.5583297418
 20
119.0193493537
 30
0.0
  0
POINT
  5
FD
100
AcDbEntity
  8
0
390
0
 62
         7
100
AcDbPoint
 10
149.0595778925
 20
175.178200128
 30
0.0
  0
ENDBLK
  5
FE
100
AcDbEntity
  8
0
390
0
100
AcDbBlockEnd
  0
BLOCK
  5
3DD
100
AcDbEntity
  8
0
390
0
 62
         0
100
AcDbBlockBegin
  2
NOTE69
 70
         0
 10
0.0
 20
0.0
 30
0.0
  3
NOTE69
  1

  0
MTEXT
  5
3DE
102
{ACAD_REACTORS
330
0
330
0
102
}
100
AcDbEntity
  8
0
390
0
 62
         1
100
AcDbMText
 10
-91.3547066152
 20
6.6673739234
 30
0.0
 40
3.3333333333
 41
0.0
 71
         1
 72
         1
  1
RADIUS EDGES 1/32 TO 1/16 EXPOSED ON INTERIOR
  7
SLDTEXTSTYLE0
 73
         1
 44
1.0
  0
MTEXT
  5
3DF
102
{ACAD_REACTORS
330
0
330
0
102
}
100
AcDbEntity
  8
0
390
0
 62
         1
100
AcDbMText
 10
-91.3547066152
 20
2.3340405901
 30
0.0
 40
3.3333333333
 41
0.0
 71
         1
 72
         1
  1
PART LIKELY TO KNOCK HEADS
  7
SLDTEXTSTYLE0
 73
         1
 44
1.0
  0
ENDBLK
  5
3E0
100
AcDbEntity
  8
0
390
0
100
AcDbBlockEnd
  0
ENDSEC
  0
SECTION
  2
ENTITIES
  0
LINE
  5
2A
100
AcDbEntity
  8
0
370
         0
390
0
  6
Continuous
 62
         7
100
AcDbLine
 10
67.5
 20
212.5
 30
0.0
 11
30.0
 21
212.5
 31
0.0
  0
LINE
  5
2B
100
AcDbEntity
  8
0
370
         0
390
0
  6
Continuous
 62
         7
100
AcDbLine
 10
105.0
 20
212.5
 30
0.0
 11
67.5
 21
212.5
 31
0.0
  0
LINE
  5
2C
100
AcDbEntity
  8
0
370
         0
390
0
  6
Continuous
 62
         7
100
AcDbLine
 10
330.0
 20
7.5
 30
0.0
 11
292.5
 21
7.5
 31
0.0
  0
LINE
  5
2D
100
AcDbEntity
  8
0
370
         0
390
0
  6
Continuous
 62
         7
100
AcDbLine
 10
330.0
 20
7.5
 30
0.0
 11
330.0
 21
58.75
 31
0.0
  0
LINE
  5
2E
100
AcDbEntity
  8
0
370
         0
390
0
  6
Continuous
 62
         7
100
AcDbLine
 10
330.0
 20
161.25
 30
0.0
 11
332.5
 21
161.25
 31
0.0
  0
LINE
  5
2F
100
AcDbEntity
  8
0
370
         0
390
0
  6
Continuous
 62
         7
100
AcDbLine
 10
330.0
 20
110.0
 30
0.0
 11
332.5
 21
110.0
 31
0.0
  0
LINE
  5
30
100
AcDbEntity
  8
0
370
         0
390
0
  6
Continuous
 62
         7
100
AcDbLine
 10
142.5
 20
212.5
 30
0.0
 11
105.0
 21
212.5
 31
0.0
  0
LINE
  5
31
100
AcDbEntity
  8
0
370
         0
390
0
  6
Continuous
 62
         7
100
AcDbLine
 10
180.0
 20
212.5
 30
0.0
 11
142.5
 21
212.5
 31
0.0
  0
LINE
  5
32
100
AcDbEntity
  8
0
370
         0
390
0
  6
Continuous
 62
         7
100
AcDbLine
 10
217.5
 20
212.5
 30
0.0
 11
180.0
 21
212.5
 31
0.0
  0
LINE
  5
33
100
AcDbEntity
  8
0
370
         0
390
0
  6
Continuous
 62
         7
100
AcDbLine
 10
255.0
 20
212.5
 30
0.0
 11
217.5
 21
212.5
 31
0.0
  0
LINE
  5
34
100
AcDbEntity
  8
0
370
         0
390
0
  6
Continuous
 62
         7
100
AcDbLine
 10
292.5
 20
212.5
 30
0.0
 11
255.0
 21
212.5
 31
0.0
  0
LINE
  5
35
100
AcDbEntity
  8
0
370
         0
390
0
  6
Continuous
 62
         7
100
AcDbLine
 10
330.0
 20
58.75
 30
0.0
 11
332.5
 21
58.75
 31
0.0
  0
LINE
  5
36
100
AcDbEntity
  8
0
370
         0
390
0
  6
Continuous
 62
         7
100
AcDbLine
 10
330.0
 20
212.5
 30
0.0
 11
292.5
 21
212.5
 31
0.0
  0
LINE
  5
37
100
AcDbEntity
  8
0
370
         0
390
0
  6
Continuous
 62
         7
100
AcDbLine
 10
292.5
 20
212.5
 30
0.0
 11
292.5
 21
215.0
 31
0.0
  0
LINE
  5
38
100
AcDbEntity
  8
0
370
         0
390
0
  6
Continuous
 62
         7
100
AcDbLine
 10
255.0
 20
212.5
 30
0.0
 11
255.0
 21
215.0
 31
0.0
  0
LINE
  5
39
100
AcDbEntity
  8
0
370
         0
390
0
  6
Continuous
 62
         7
100
AcDbLine
 10
217.5
 20
212.5
 30
0.0
 11
217.5
 21
215.0
 31
0.0
  0
LINE
  5
3A
100
AcDbEntity
  8
0
370
         0
390
0
  6
Continuous
 62
         7
100
AcDbLine
 10
180.0
 20
212.5
 30
0.0
 11
180.0
 21
215.0
 31
0.0
  0
LINE
  5
3B
100
AcDbEntity
  8
0
370
         0
390
0
  6
Continuous
 62
         7
100
AcDbLine
 10
142.5
 20
212.5
 30
0.0
 11
142.5
 21
215.0
 31
0.0
  0
LINE
  5
3C
100
AcDbEntity
  8
0
370
         0
390
0
  6
Continuous
 62
         7
100
AcDbLine
 10
105.0
 20
212.5
 30
0.0
 11
105.0
 21
215.0
 31
0.0
  0
LINE
  5
3D
100
AcDbEntity
  8
0
370
         0
390
0
  6
Continuous
 62
         7
100
AcDbLine
 10
67.5
 20
212.5
 30
0.0
 11
67.5
 21
215.0
 31
0.0
  0
LINE
  5
3E
100
AcDbEntity
  8
0
370
         0
390
0
  6
Continuous
 62
         7
100
AcDbLine
 10
175.0
 20
33.8
 30
0.0
 11
175.0
 21
7.52
 31
0.0
  0
LINE
  5
3F
100
AcDbEntity
  8
0
370
         0
390
0
  6
Continuous
 62
         7
100
AcDbLine
 10
220.0
 20
47.5
 30
0.0
 11
330.0
 21
47.5
 31
0.0
  0
LINE
  5
40
100
AcDbEntity
  8
0
370
         0
390
0
  6
Continuous
 62
         7
100
AcDbLine
 10
220.0
 20
47.5
 30
0.0
 11
220.0
 21
7.5
 31
0.0
  0
LINE
  5
41
100
AcDbEntity
  8
0
370
         0
390
0
  6
Continuous
 62
         7
100
AcDbLine
 10
270.0
 20
47.5
 30
0.0
 11
270.0
 21
7.5
 31
0.0
  0
LINE
  5
42
100
AcDbEntity
  8
0
370
         0
390
0
  6
Continuous
 62
         7
100
AcDbLine
 10
270.0
 20
11.26
 30
0.0
 11
330.0
 21
11.26
 31
0.0
  0
LINE
  5
43
100
AcDbEntity
  8
0
370
         0
390
0
  6
Continuous
 62
         7
100
AcDbLine
 10
270.0
 20
18.76
 30
0.0
 11
330.0
 21
18.76
 31
0.0
  0
LINE
  5
44
100
AcDbEntity
  8
0
370
         0
390
0
  6
Continuous
 62
         7
100
AcDbLine
 10
270.0
 20
33.76
 30
0.0
 11
330.0
 21
33.76
 31
0.0
  0
LINE
  5
45
100
AcDbEntity
  8
0
370
         0
390
0
  6
Continuous
 62
         7
100
AcDbLine
 10
277.5
 20
18.76
 30
0.0
 11
277.5
 21
7.5
 31
0.0
  0
LINE
  5
46
100
AcDbEntity
  8
0
370
         0
390
0
  6
Continuous
 62
         7
100
AcDbLine
 10
175.0
 20
15.02
 30
0.0
 11
270.0
 21
15.02
 31
0.0
  0
LINE
  5
47
100
AcDbEntity
  8
0
370
         0
390
0
  6
Continuous
 62
         7
100
AcDbLine
 10
322.5
 20
18.76
 30
0.0
 11
322.5
 21
7.5
 31
0.0
  0
LINE
  5
48
100
AcDbEntity
  8
0
370
         0
390
0
  6
Continuous
 62
         7
100
AcDbLine
 10
270.0
 20
40.0
 30
0.0
 11
220.0
 21
40.0
 31
0.0
  0
LINE
  5
49
100
AcDbEntity
  8
0
370
         0
390
0
  6
Continuous
 62
         7
100
AcDbLine
 10
220.0
 20
23.74
 30
0.0
 11
270.0
 21
23.74
 31
0.0
  0
LINE
  5
4A
100
AcDbEntity
  8
0
370
         0
390
0
  6
Continuous
 62
         7
100
AcDbLine
 10
220.0
 20
11.26
 30
0.0
 11
270.0
 21
11.26
 31
0.0
  0
LINE
  5
4B
100
AcDbEntity
  8
0
370
         0
390
0
  6
Continuous
 62
         7
100
AcDbLine
 10
175.0
 20
26.28
 30
0.0
 11
220.0
 21
26.28
 31
0.0
  0
LINE
  5
4C
100
AcDbEntity
  8
0
370
         0
390
0
  6
Continuous
 62
         7
100
AcDbLine
 10
330.0
 20
58.75
 30
0.0
 11
330.0
 21
110.0
 31
0.0
  0
LINE
  5
4D
100
AcDbEntity
  8
0
370
         0
390
0
  6
Continuous
 62
         7
100
AcDbLine
 10
330.0
 20
110.0
 30
0.0
 11
330.0
 21
161.25
 31
0.0
  0
LINE
  5
4E
100
AcDbEntity
  8
0
370
         0
390
0
  6
Continuous
 62
         7
100
AcDbLine
 10
330.0
 20
161.25
 30
0.0
 11
330.0
 21
212.5
 31
0.0
  0
LINE
  5
4F
100
AcDbEntity
  8
0
370
         0
390
0
  6
Continuous
 62
         7
100
AcDbLine
 10
292.5
 20
7.5
 30
0.0
 11
255.0
 21
7.5
 31
0.0
  0
LINE
  5
50
100
AcDbEntity
  8
0
370
         0
390
0
  6
Continuous
 62
         7
100
AcDbLine
 10
255.0
 20
7.5
 30
0.0
 11
217.5
 21
7.5
 31
0.0
  0
LINE
  5
51
100
AcDbEntity
  8
0
370
         0
390
0
  6
Continuous
 62
         7
100
AcDbLine
 10
175.0
 20
30.04
 30
0.0
 11
220.0
 21
30.04
 31
0.0
  0
LINE
  5
52
100
AcDbEntity
  8
0
370
         0
390
0
  6
Continuous
 62
         7
100
AcDbLine
 10
175.0
 20
18.75
 30
0.0
 11
100.0
 21
18.75
 31
0.0
  0
LINE
  5
53
100
AcDbEntity
  8
0
370
         0
390
0
  6
Continuous
 62
         7
100
AcDbLine
 10
220.0
 20
33.8
 30
0.0
 11
175.0
 21
33.8
 31
0.0
  0
LINE
  5
54
100
AcDbEntity
  8
0
370
         0
390
0
  6
Continuous
 62
         7
100
AcDbLine
 10
205.0
 20
33.8
 30
0.0
 11
205.0
 21
22.52
 31
0.0
  0
LINE
  5
55
100
AcDbEntity
  8
0
370
         0
390
0
  6
Continuous
 62
         7
100
AcDbLine
 10
220.0
 20
36.24
 30
0.0
 11
270.0
 21
36.24
 31
0.0
  0
LINE
  5
56
100
AcDbEntity
  8
0
370
         0
390
0
  6
Continuous
 62
         7
100
AcDbLine
 10
175.0
 20
22.52
 30
0.0
 11
220.0
 21
22.52
 31
0.0
  0
LINE
  5
57
100
AcDbEntity
  8
0
370
         0
390
0
  6
Continuous
 62
         7
100
AcDbLine
 10
245.0
 20
40.0
 30
0.0
 11
245.0
 21
23.74
 31
0.0
  0
LINE
  5
58
100
AcDbEntity
  8
0
370
         0
390
0
  6
Continuous
 62
         7
100
AcDbLine
 10
217.5
 20
7.5
 30
0.0
 11
180.0
 21
7.5
 31
0.0
  0
LINE
  5
59
100
AcDbEntity
  8
0
370
         0
390
0
  6
Continuous
 62
         7
100
AcDbLine
 10
180.0
 20
7.5
 30
0.0
 11
142.5
 21
7.5
 31
0.0
  0
LINE
  5
5A
100
AcDbEntity
  8
0
370
         0
390
0
  6
Continuous
 62
         7
100
AcDbLine
 10
142.5
 20
7.5
 30
0.0
 11
105.0
 21
7.5
 31
0.0
  0
LINE
  5
5B
100
AcDbEntity
  8
0
370
         0
390
0
  6
Continuous
 62
         7
100
AcDbLine
 10
105.0
 20
7.5
 30
0.0
 11
67.5
 21
7.5
 31
0.0
  0
LINE
  5
5C
100
AcDbEntity
  8
0
370
         0
390
0
  6
Continuous
 62
         7
100
AcDbLine
 10
257.5
 20
40.0
 30
0.0
 11
257.5
 21
23.74
 31
0.0
  0
LINE
  5
5D
100
AcDbEntity
  8
0
370
         0
390
0
  6
Continuous
 62
         7
100
AcDbLine
 10
67.5
 20
7.5
 30
0.0
 11
30.0
 21
7.5
 31
0.0
  0
LINE
  5
5E
100
AcDbEntity
  8
0
370
         0
390
0
  6
Continuous
 62
         7
100
AcDbLine
 10
15.0
 20
212.5
 30
0.0
 11
15.0
 21
7.5
 31
0.0
  0
LINE
  5
5F
100
AcDbEntity
  8
0
370
         0
390
0
  6
Continuous
 62
         7
100
AcDbLine
 10
30.0
 20
58.75
 30
0.0
 11
30.0
 21
110.0
 31
0.0
  0
LINE
  5
60
100
AcDbEntity
  8
0
370
         0
390
0
  6
Continuous
 62
         7
100
AcDbLine
 10
30.0
 20
110.0
 30
0.0
 11
30.0
 21
161.25
 31
0.0
  0
LINE
  5
61
100
AcDbEntity
  8
0
370
         0
390
0
  6
Continuous
 62
         7
100
AcDbLine
 10
30.0
 20
161.25
 30
0.0
 11
30.0
 21
212.5
 31
0.0
  0
LINE
  5
62
100
AcDbEntity
  8
0
370
         0
390
0
  6
Continuous
 62
         7
100
AcDbLine
 10
30.0
 20
161.25
 30
0.0
 11
27.5
 21
161.25
 31
0.0
  0
LINE
  5
63
100
AcDbEntity
  8
0
370
         0
390
0
  6
Continuous
 62
         7
100
AcDbLine
 10
292.5
 20
7.5
 30
0.0
 11
292.5
 21
5.0
 31
0.0
  0
LINE
  5
64
100
AcDbEntity
  8
0
370
         0
390
0
  6
Continuous
 62
         7
100
AcDbLine
 10
255.0
 20
7.5
 30
0.0
 11
255.0
 21
5.0
 31
0.0
  0
LINE
  5
65
100
AcDbEntity
  8
0
370
         0
390
0
  6
Continuous
 62
         7
100
AcDbLine
 10
217.5
 20
7.5
 30
0.0
 11
217.5
 21
5.0
 31
0.0
  0
LINE
  5
66
100
AcDbEntity
  8
0
370
         0
390
0
  6
CENTERX2
 62
         7
100
AcDbLine
 10
180.0
 20
7.5
 30
0.0
 11
180.0
 21
5.0
 31
0.0
  0
LINE
  5
67
100
AcDbEntity
  8
0
370
         0
390
0
  6
Continuous
 62
         7
100
AcDbLine
 10
142.5
 20
7.5
 30
0.0
 11
142.5
 21
5.0
 31
0.0
  0
LINE
  5
68
100
AcDbEntity
  8
0
370
         0
390
0
  6
Continuous
 62
         7
100
AcDbLine
 10
105.0
 20
7.5
 30
0.0
 11
105.0
 21
5.0
 31
0.0
  0
LINE
  5
69
100
AcDbEntity
  8
0
370
         0
390
0
  6
Continuous
 62
         7
100
AcDbLine
 10
67.5
 20
7.5
 30
0.0
 11
67.5
 21
5.0
 31
0.0
  0
LINE
  5
6A
100
AcDbEntity
  8
0
370
         0
390
0
  6
Continuous
 62
         7
100
AcDbLine
 10
30.0
 20
110.0
 30
0.0
 11
27.5
 21
110.0
 31
0.0
  0
LINE
  5
6B
100
AcDbEntity
  8
0
370
         0
390
0
  6
Continuous
 62
         7
100
AcDbLine
 10
30.0
 20
58.75
 30
0.0
 11
27.5
 21
58.75
 31
0.0
  0
LINE
  5
6C
100
AcDbEntity
  8
0
370
         0
390
0
  6
Continuous
 62
         7
100
AcDbLine
 10
30.0
 20
7.5
 30
0.0
 11
30.0
 21
58.75
 31
0.0
  0
LINE
  5
6D
100
AcDbEntity
  8
0
370
         0
390
0
  6
Continuous
 62
         7
100
AcDbLine
 10
100.0
 20
18.75
 30
0.0
 11
100.0
 21
7.5
 31
0.0
  0
LINE
  5
6E
100
AcDbEntity
  8
0
370
         0
390
0
  6
Continuous
 62
         7
100
AcDbLine
 10
330.0
 20
208.74
 30
0.0
 11
250.0
 21
208.74
 31
0.0
  0
LINE
  5
6F
100
AcDbEntity
  8
0
370
         0
390
0
  6
Continuous
 62
         7
100
AcDbLine
 10
330.0
 20
204.98
 30
0.0
 11
250.0
 21
204.98
 31
0.0
  0
LINE
  5
70
100
AcDbEntity
  8
0
370
         0
390
0
  6
Continuous
 62
         7
100
AcDbLine
 10
330.0
 20
201.22
 30
0.0
 11
250.0
 21
201.22
 31
0.0
  0
LINE
  5
71
100
AcDbEntity
  8
0
370
         0
390
0
  6
Continuous
 62
         7
100
AcDbLine
 10
250.0
 20
212.5
 30
0.0
 11
250.0
 21
201.22
 31
0.0
  0
LINE
  5
72
100
AcDbEntity
  8
0
370
         0
390
0
  6
Continuous
 62
         7
100
AcDbLine
 10
257.5
 20
208.74
 30
0.0
 11
257.5
 21
201.22
 31
0.0
  0
LINE
  5
73
100
AcDbEntity
  8
0
370
         0
390
0
  6
Continuous
 62
         7
100
AcDbLine
 10
315.0
 20
208.74
 30
0.0
 11
315.0
 21
201.22
 31
0.0
  0
LINE
  5
74
100
AcDbEntity
  8
0
370
         0
390
0
  6
Continuous
 62
         7
100
AcDbLine
 10
302.5
 20
208.74
 30
0.0
 11
302.5
 21
201.22
 31
0.0
  0
MTEXT
  5
76
100
AcDbEntity
  8
0
390
0
 62
         1
100
AcDbMText
 10
185.2254726302
 20
18.4293566621
 30
0.0
 40
2.0
 41
0.0
 71
         1
 72
         1
  1
STEEL, A-36, 3/8 THICK
  7
SLDTEXTSTYLE0
 73
         1
 44
1.0
  0
MTEXT
  5
77
100
AcDbEntity
  8
0
390
0
 62
         1
100
AcDbMText
 10
232.993362627
 20
14.5022872368
 30
0.0
 40
2.0
 41
0.0
 71
         1
 72
         1
  1
145.3 lbs
  7
SLDTEXTSTYLE0
 73
         1
 44
1.0
  0
MTEXT
  5
78
100
AcDbEntity
  8
0
390
0
 62
         1
100
AcDbMText
 10
66.1711171235
 20
35.417011748
 30
0.0
 40
3.3333333333
 41
0.0
 71
         1
 72
         1
  1
THIS PART CAN BE FABRICATED FROM SEVERAL PEICES
  7
SLDTEXTSTYLE0
 73
         1
 44
1.0
  0
MTEXT
  5
79
100
AcDbEntity
  8
0
390
0
 62
         1
100
AcDbMText
 10
295.4775636563
 20
58.4993423704
 30
0.0
 40
3.3333333333
 41
0.0
 71
         2
 72
         1
  1
1 REQUIRED\PPER ASSEM
  7
SLDTEXTSTYLE0
 73
         1
 44
1.0
  0
MTEXT
  5
7A
100
AcDbEntity
  8
0
390
0
 62
         7
100
AcDbMText
 10
334.2679015908
 20
181.7732558508
 30
0.0
 40
1.875
 41
0.0
 71
         1
 72
         1
  1
D
  7
SLDTEXTSTYLE0
 73
         1
 44
1.0
  0
MTEXT
  5
7B
100
AcDbEntity
  8
0
390
0
 62
         7
100
AcDbMText
 10
333.9021169938
 20
130.924229495
 30
0.0
 40
1.875
 41
0.0
 71
         1
 72
         1
  1
C
  7
SLDTEXTSTYLE0
 73
         1
 44
1.0
  0
MTEXT
  5
7C
100
AcDbEntity
  8
0
390
0
 62
         7
100
AcDbMText
 10
334.1224160031
 20
84.3763031932
 30
0.0
 40
1.875
 41
0.0
 71
         1
 72
         1
  1
B
  7
SLDTEXTSTYLE0
 73
         1
 44
1.0
  0
MTEXT
  5
7D
100
AcDbEntity
  8
0
390
0
 62
         7
100
AcDbMText
 10
334.111033202
 20
34.2753641657
 30
0.0
 40
1.875
 41
0.0
 71
         1
 72
         1
  1
A
  7
SLDTEXTSTYLE0
 73
         1
 44
1.0
  0
MTEXT
  5
7E
100
AcDbEntity
  8
0
390
0
 62
         7
100
AcDbMText
 10
19.2870519734
 20
33.8682873709
 30
0.0
 40
1.875
 41
0.0
 71
         1
 72
         1
  1
A
  7
SLDTEXTSTYLE0
 73
         1
 44
1.0
  0
MTEXT
  5
7F
100
AcDbEntity
  8
0
390
0
 62
         7
100
AcDbMText
 10
19.2231901283
 20
85.5559056127
 30
0.0
 40
1.875
 41
0.0
 71
         1
 72
         1
  1
B
  7
SLDTEXTSTYLE0
 73
         1
 44
1.0
  0
MTEXT
  5
80
100
AcDbEntity
  8
0
390
0
 62
         7
100
AcDbMText
 10
18.9765581086
 20
137.4848001318
 30
0.0
 40
1.875
 41
0.0
 71
         1
 72
         1
  1
C
  7
SLDTEXTSTYLE0
 73
         1
 44
1.0
  0
MTEXT
  5
81
100
AcDbEntity
  8
0
390
0
 62
         7
100
AcDbMText
 10
18.9109792426
 20
186.1293676713
 30
0.0
 40
1.875
 41
0.0
 71
         1
 72
         1
  1
D
  7
SLDTEXTSTYLE0
 73
         1
 44
1.0
  0
MTEXT
  5
82
100
AcDbEntity
  8
0
390
0
 62
         7
100
AcDbMText
 10
323.7161162307
 20
10.3935711792
 30
0.0
 40
1.8
 41
0.0
 71
         1
 72
         1
  1
REV.
  7
SLDTEXTSTYLE0
 73
         1
 44
1.0
  0
MTEXT
  5
83
100
AcDbEntity
  8
0
390
0
 62
         7
100
AcDbMText
 10
246.9815402369
 20
35.1738194892
 30
0.0
 40
1.8
 41
0.0
 71
         1
 72
         1
  1
%%p\P%%p\P%%p\P%%p
  7
SLDTEXTSTYLE0
 73
         1
 44
1.0
  0
MTEXT
  5
84
100
AcDbEntity
  8
0
390
0
 62
         7
100
AcDbMText
 10
176.2388304968
 20
21.9496919994
 30
0.0
 40
1.8
 41
0.0
 71
         1
 72
         1
  1
MATERIAL
  7
SLDTEXTSTYLE0
 73
         1
 44
1.0
  0
MTEXT
  5
85
100
AcDbEntity
  8
0
390
0
 62
         7
100
AcDbMText
 10
176.1930681292
 20
14.6334761374
 30
0.0
 40
1.8
 41
0.0
 71
         1
 72
         1
  1
FINISH
  7
SLDTEXTSTYLE0
 73
         1
 44
1.0
  0
MTEXT
  5
86
100
AcDbEntity
  8
0
390
0
 62
         7
100
AcDbMText
 10
316.0086600666
 20
6.4353676194
 30
0.0
 40
1.875
 41
0.0
 71
         1
 72
         1
  1
1
  7
SLDTEXTSTYLE0
 73
         1
 44
1.0
  0
MTEXT
  5
87
100
AcDbEntity
  8
0
390
0
 62
         7
100
AcDbMText
 10
271.8877250805
 20
6.630215896
 30
0.0
 40
1.875
 41
0.0
 71
         1
 72
         1
  1
2
  7
SLDTEXTSTYLE0
 73
         1
 44
1.0
  0
MTEXT
  5
88
100
AcDbEntity
  8
0
390
0
 62
         7
100
AcDbMText
 10
230.7254336184
 20
6.6951653215
 30
0.0
 40
1.875
 41
0.0
 71
         1
 72
         1
  1
3
  7
SLDTEXTSTYLE0
 73
         1
 44
1.0
  0
MTEXT
  5
89
100
AcDbEntity
  8
0
390
0
 62
         7
100
AcDbMText
 10
193.6335516147
 20
6.7348975469
 30
0.0
 40
1.875
 41
0.0
 71
         1
 72
         1
  1
4
  7
SLDTEXTSTYLE0
 73
         1
 44
1.0
  0
MTEXT
  5
8A
100
AcDbEntity
  8
0
390
0
 62
         7
100
AcDbMText
 10
154.6252933703
 20
6.7998469724
 30
0.0
 40
1.875
 41
0.0
 71
         1
 72
         1
  1
5
  7
SLDTEXTSTYLE0
 73
         1
 44
1.0
  0
MTEXT
  5
8B
100
AcDbEntity
  8
0
390
0
 62
         7
100
AcDbMText
 10
118.204309972
 20
6.4750998447
 30
0.0
 40
1.875
 41
0.0
 71
         1
 72
         1
  1
6
  7
SLDTEXTSTYLE0
 73
         1
 44
1.0
  0
MTEXT
  5
8C
100
AcDbEntity
  8
0
390
0
 62
         7
100
AcDbMText
 10
78.6046175728
 20
6.7601147471
 30
0.0
 40
1.875
 41
0.0
 71
         1
 72
         1
  1
7
  7
SLDTEXTSTYLE0
 73
         1
 44
1.0
  0
MTEXT
  5
8D
100
AcDbEntity
  8
0
390
0
 62
         7
100
AcDbMText
 10
42.9630272809
 20
6.7998469724
 30
0.0
 40
1.875
 41
0.0
 71
         1
 72
         1
  1
8
  7
SLDTEXTSTYLE0
 73
         1
 44
1.0
  0
MTEXT
  5
8E
100
AcDbEntity
  8
0
390
0
 62
         7
100
AcDbMText
 10
42.3455790615
 20
216.1737924263
 30
0.0
 40
1.875
 41
0.0
 71
         1
 72
         1
  1
8
  7
SLDTEXTSTYLE0
 73
         1
 44
1.0
  0
MTEXT
  5
8F
100
AcDbEntity
  8
0
390
0
 62
         7
100
AcDbMText
 10
81.4091399552
 20
215.728046875
 30
0.0
 40
1.875
 41
0.0
 71
         1
 72
         1
  1
7
  7
SLDTEXTSTYLE0
 73
         1
 44
1.0
  0
MTEXT
  5
90
100
AcDbEntity
  8
0
390
0
 62
         7
100
AcDbMText
 10
119.0342947943
 20
215.5973741319
 30
0.0
 40
1.875
 41
0.0
 71
         1
 72
         1
  1
6
  7
SLDTEXTSTYLE0
 73
         1
 44
1.0
  0
MTEXT
  5
91
100
AcDbEntity
  8
0
390
0
 62
         7
100
AcDbMText
 10
158.1238836181
 20
215.3602179903
 30
0.0
 40
1.875
 41
0.0
 71
         1
 72
         1
  1
5
  7
SLDTEXTSTYLE0
 73
         1
 44
1.0
  0
MTEXT
  5
92
100
AcDbEntity
  8
0
390
0
 62
         7
100
AcDbMText
 10
196.9763163004
 20
215.9366362847
 30
0.0
 40
1.875
 41
0.0
 71
         1
 72
         1
  1
4
  7
SLDTEXTSTYLE0
 73
         1
 44
1.0
  0
MTEXT
  5
93
100
AcDbEntity
  8
0
390
0
 62
         7
100
AcDbMText
 10
236.0260448157
 20
215.5229328775
 30
0.0
 40
1.875
 41
0.0
 71
         1
 72
         1
  1
3
  7
SLDTEXTSTYLE0
 73
         1
 44
1.0
  0
MTEXT
  5
94
100
AcDbEntity
  8
0
390
0
 62
         7
100
AcDbMText
 10
273.4209597023
 20
215.7670052083
 30
0.0
 40
1.875
 41
0.0
 71
         1
 72
         1
  1
2
  7
SLDTEXTSTYLE0
 73
         1
 44
1.0
  0
MTEXT
  5
95
100
AcDbEntity
  8
0
390
0
 62
         7
100
AcDbMText
 10
313.3379553406
 20
215.4346592447
 30
0.0
 40
1.875
 41
0.0
 71
         1
 72
         1
  1
1
  7
SLDTEXTSTYLE0
 73
         1
 44
1.0
  0
MTEXT
  5
96
100
AcDbEntity
  8
0
390
0
 62
         7
100
AcDbMText
 10
273.1086802326
 20
46.0143477196
 30
0.0
 40
3.3333333333
 41
0.0
 71
         1
 72
         1
  1
RADIO  ASTRONOMY  LAB
  7
SLDTEXTSTYLE0
 73
         1
 44
1.0
  0
MTEXT
  5
97
100
AcDbEntity
  8
0
390
0
 62
         7
100
AcDbMText
 10
300.4551575093
 20
40.3909821808
 30
0.0
 40
2.0
 41
0.0
 71
         2
 72
         1
  1
University of California - Berkeley\PTel: 510-642-5040    Fax: 510-642-3411
  7
SLDTEXTSTYLE0
 73
         1
 44
1.0
  0
MTEXT
  5
98
100
AcDbEntity
  8
0
390
0
 62
         7
100
AcDbMText
 10
187.6796988128
 20
32.755187723
 30
0.0
 40
1.8
 41
0.0
 71
         1
 72
         1
  1
NAME
  7
SLDTEXTSTYLE0
 73
         1
 44
1.0
  0
MTEXT
  5
99
100
AcDbEntity
  8
0
390
0
 62
         7
100
AcDbMText
 10
209.8387844709
 20
32.6665685399
 30
0.0
 40
1.8
 41
0.0
 71
         1
 72
         1
  1
DATE
  7
SLDTEXTSTYLE0
 73
         1
 44
1.0
  0
MTEXT
  5
9A
100
AcDbEntity
  8
0
390
0
 62
         7
100
AcDbMText
 10
271.5866086478
 20
10.483057264
 30
0.0
 40
1.8
 41
0.0
 71
         1
 72
         1
  1
SIZE
  7
SLDTEXTSTYLE0
 73
         1
 44
1.0
  0
MTEXT
  5
9B
100
AcDbEntity
  8
0
390
0
 62
         7
100
AcDbMText
 10
272.6899976117
 20
16.882639345
 30
0.0
 40
3.75
 41
0.0
 71
         1
 72
         1
  1
B
  7
SLDTEXTSTYLE0
 73
         1
 44
1.0
  0
MTEXT
  5
9C
100
AcDbEntity
  8
0
390
0
 62
         7
100
AcDbMText
 10
221.5842570223
 20
10.2573234137
 30
0.0
 40
1.8
 41
0.0
 71
         1
 72
         1
  1
SCALE:
  7
SLDTEXTSTYLE0
 73
         1
 44
1.0
  0
MTEXT
  5
9D
100
AcDbEntity
  8
0
390
0
 62
         7
100
AcDbMText
 10
278.4878115611
 20
10.4000056239
 30
0.0
 40
1.8
 41
0.0
 71
         1
 72
         1
  1
DWG NUM:      SHEET             OF
  7
SLDTEXTSTYLE0
 73
         1
 44
1.0
  0
MTEXT
  5
9E
100
AcDbEntity
  8
0
390
0
 62
         7
100
AcDbMText
 10
319.9756295884
 20
207.7060537053
 30
0.0
 40
1.8
 41
0.0
 71
         1
 72
         1
  1
DATE
  7
SLDTEXTSTYLE0
 73
         1
 44
1.0
  0
MTEXT
  5
9F
100
AcDbEntity
  8
0
390
0
 62
         7
100
AcDbMText
 10
306.0497715855
 20
207.6974912069
 30
0.0
 40
1.8
 41
0.0
 71
         1
 72
         1
  1
NAME
  7
SLDTEXTSTYLE0
 73
         1
 44
1.0
  0
MTEXT
  5
A0
100
AcDbEntity
  8
0
390
0
 62
         7
100
AcDbMText
 10
280.6614770149
 20
211.4392934137
 30
0.0
 40
1.8
 41
0.0
 71
         1
 72
         1
  1
REVISIONS
  7
SLDTEXTSTYLE0
 73
         1
 44
1.0
  0
MTEXT
  5
A1
100
AcDbEntity
  8
0
390
0
 62
         7
100
AcDbMText
 10
251.6439717377
 20
207.6686648301
 30
0.0
 40
1.8
 41
0.0
 71
         1
 72
         1
  1
REV
  7
SLDTEXTSTYLE0
 73
         1
 44
1.0
  0
MTEXT
  5
A2
100
AcDbEntity
  8
0
390
0
 62
         7
100
AcDbMText
 10
259.2491138317
 20
207.6578135051
 30
0.0
 40
1.8
 41
0.0
 71
         1
 72
         1
  1
DESCRIPTION
  7
SLDTEXTSTYLE0
 73
         1
 44
1.0
  0
MTEXT
  5
A3
100
AcDbEntity
  8
0
390
0
 62
         7
100
AcDbMText
 10
221.4803935552
 20
13.9689162967
 30
0.0
 40
1.8
 41
0.0
 71
         1
 72
         1
  1
WEIGHT:
  7
SLDTEXTSTYLE0
 73
         1
 44
1.0
  0
MTEXT
  5
A4
100
AcDbEntity
  8
0
390
0
 62
         7
100
AcDbMText
 10
176.2152823525
 20
28.9508892625
 30
0.0
 40
1.8
 41
0.0
 71
         1
 72
         1
  1
DRAWN
  7
SLDTEXTSTYLE0
 73
         1
 44
1.0
  0
MTEXT
  5
A5
100
AcDbEntity
  8
0
390
0
 62
         7
100
AcDbMText
 10
176.2107340135
 20
25.2266084773
 30
0.0
 40
1.8
 41
0.0
 71
         1
 72
         1
  1
CHECKED
  7
SLDTEXTSTYLE0
 73
         1
 44
1.0
  0
MTEXT
  5
A6
100
AcDbEntity
  8
0
390
0
 62
         7
100
AcDbMText
 10
243.3055858485
 20
35.078410194
 30
0.0
 40
1.8
 41
0.0
 71
         3
 72
         1
  1
WHOLE & FRACTION\PDECIMAL   X.X\PDECIMAL   X.XX\PDECIMAL   X.XXX
  7
SLDTEXTSTYLE0
 73
         1
 44
1.0
  0
MTEXT
  5
A7
100
AcDbEntity
  8
0
390
0
 62
         7
100
AcDbMText
 10
251.7459514055
 20
39.2947205214
 30
0.0
 40
1.8
 41
0.0
 71
         2
 72
         1
  1
LINEAR
  7
SLDTEXTSTYLE0
 73
         1
 44
1.0
  0
MTEXT
  5
A8
100
AcDbEntity
  8
0
390
0
 62
         7
100
AcDbMText
 10
263.3560910274
 20
39.4150753128
 30
0.0
 40
1.8
 41
0.0
 71
         2
 72
         1
  1
ANGLE
  7
SLDTEXTSTYLE0
 73
         1
 44
1.0
  0
INSERT
  5
AF
100
AcDbEntity
  8
0
390
0
100
AcDbBlockReference
  2
NOTE51
 10
223.3399337148
 20
21.8808950522
 30
0.0
  0
MTEXT
  5
B0
100
AcDbEntity
  8
0
390
0
 62
         7
100
AcDbMText
 10
244.9750697618
 20
46.1780569314
 30
0.0
 40
1.8
 41
0.0
 71
         2
 72
         1
  1
UNLESS OTHERWISE SPECIFIED\PDIMENSIONS ARE INCHES & DEGREES
  7
SLDTEXTSTYLE0
 73
         1
 44
1.0
  0
MTEXT
  5
B1
100
AcDbEntity
  8
0
390
0
 62
         7
100
AcDbMText
 10
224.0260021801
 20
39.1673690598
 30
0.0
 40
1.8
 41
0.0
 71
         1
 72
         1
  1
TOLERANCES:
  7
SLDTEXTSTYLE0
 73
         1
 44
1.0
  0
MTEXT
  5
B2
100
AcDbEntity
  8
0
390
0
 62
         7
100
AcDbMText
 10
259.1092370249
 20
35.1562433553
 30
0.0
 40
1.8
 41
0.0
 71
         1
 72
         1
  1
%%p\P%%p\P%%p\P%%p
  7
SLDTEXTSTYLE0
 73
         1
 44
1.0
  0
MTEXT
  5
B3
100
AcDbEntity
  8
0
390
0
 62
         7
100
AcDbMText
 10
293.2680058707
 20
207.7245287058
 30
0.0
 40
1.8
 41
0.0
 71
         1
 72
         1
  1
ZONE
  7
SLDTEXTSTYLE0
 73
         1
 44
1.0
  0
MTEXT
  5
B4
100
AcDbEntity
  8
0
390
0
 62
         7
100
AcDbMText
 10
101.9043536387
 20
17.2913333436
 30
0.0
 40
1.6
 41
0.0
 71
         1
 72
         1
  1
THIS DRAWING IS THE PROPERTY OF AND CONTAINS CONFIDENTIAL\PINFORMATION PROPRIETARY TO THE UNIVERSITY OF CALIFORNIA AND\PSHALL BE USED ONLY FOR THE PURPOSE FOR WHICH IT WAS PROVIDED\PAND SHALL NOT BE REPRODUCED OR DISCLOSED TO OTHERS.
  7
SLDTEXTSTYLE0
 73
         1
 44
1.0
  0
MTEXT
  5
B5
100
AcDbEntity
  8
0
390
0
 62
         7
100
AcDbMText
 10
252.7791722585
 20
204.097983522
 30
0.0
 40
1.8
 41
0.0
 71
         1
 72
         1
  1
A
  7
SLDTEXTSTYLE0
 73
         1
 44
1.0
  0
MTEXT
  5
B6
100
AcDbEntity
  8
0
390
0
 62
         7
100
AcDbMText
 10
259.5599182782
 20
204.0930301675
 30
0.0
 40
1.8
 41
0.0
 71
         1
 72
         1
  1
RELEASED
  7
SLDTEXTSTYLE0
 73
         1
 44
1.0
  0
MTEXT
  5
B7
100
AcDbEntity
  8
0
390
0
 62
         7
100
AcDbMText
 10
187.383483463
 20
29.2025377865
 30
0.0
 40
2.0833333333
 41
0.0
 71
         1
 72
         1
  1
M. C. FLEMING
  7
SLDTEXTSTYLE0
 73
         1
 44
1.0
  0
MTEXT
  5
B8
100
AcDbEntity
  8
0
390
0
 62
         7
100
AcDbMText
 10
325.0420877605
 20
16.5414089561
 30
0.0
 40
3.75
 41
0.0
 71
         1
 72
         1
  1
A
  7
SLDTEXTSTYLE0
 73
         1
 44
1.0
  0
MTEXT
  5
B9
100
AcDbEntity
  8
0
390
0
 62
         7
100
AcDbMText
 10
206.4428055394
 20
29.1680835235
 30
0.0
 40
2.0833333333
 41
0.0
 71
         1
 72
         1
  1
2005-01-15
  7
SLDTEXTSTYLE0
 73
         1
 44
1.0
  0
MTEXT
  5
BA
100
AcDbEntity
  8
0
390
0
 62
         7
100
AcDbMText
 10
250.2482182651
 20
35.1965344782
 30
0.0
 40
1.8
 41
0.0
 71
         1
 72
         1
  1
1/16\P0.1\P0.01\P0.005
  7
SLDTEXTSTYLE0
 73
         1
 44
1.0
  0
MTEXT
  5
BB
100
AcDbEntity
  8
0
390
0
 62
         7
100
AcDbMText
 10
262.0496843895
 20
35.1575020449
 30
0.0
 40
1.8
 41
0.0
 71
         1
 72
         1
  1
1%%d\P0.1%%d\P0.01%%d\P0.001%%d
  7
SLDTEXTSTYLE0
 73
         1
 44
1.0
  0
MTEXT
  5
BC
100
AcDbEntity
  8
0
390
0
 62
         7
100
AcDbMText
 10
281.6340602203
 20
16.9032402253
 30
0.0
 40
3.75
 41
0.0
 71
         1
 72
         1
  1
24-09-217   1 of 1
  7
SLDTEXTSTYLE0
 73
         1
 44
1.0
  0
MTEXT
  5
BD
100
AcDbEntity
  8
0
390
0
 62
         7
100
AcDbMText
 10
305.9195649888
 20
204.101723016
 30
0.0
 40
2.0833333333
 41
0.0
 71
         1
 72
         1
  1
M.C.F.
  7
SLDTEXTSTYLE0
 73
         1
 44
1.0
  0
MTEXT
  5
BE
100
AcDbEntity
  8
0
390
0
 62
         7
100
AcDbMText
 10
316.8394801952
 20
204.0830479295
 30
0.0
 40
2.0833333333
 41
0.0
 71
         1
 72
         1
  1
2005-01-15
  7
SLDTEXTSTYLE0
 73
         1
 44
1.0
  0
MTEXT
  5
BF
100
AcDbEntity
  8
0
390
0
 62
         7
100
AcDbMText
 10
299.4420412753
 20
31.4872930245
 30
0.0
 40
3.75
 41
0.0
 71
         2
 72
         1
  1
CARMA 6m Base,\PTop Ring
  7
SLDTEXTSTYLE0
 73
         1
 44
1.0
  0
LINE
  5
C0
100
AcDbEntity
  8
0
370
         0
390
0
  6
Continuous
 62
         1
100
AcDbLine
 10
73.9987988031
 20
74.4767461435
 30
0.0
 11
306.4987988031
 21
74.4767461435
 31
0.0
  0
LINE
  5
C1
100
AcDbEntity
  8
0
370
         0
390
0
  6
Continuous
 62
         1
100
AcDbLine
 10
73.9987988031
 20
74.4767461435
 30
0.0
 11
73.9987988031
 21
68.4767461435
 31
0.0
  0
LINE
  5
C2
100
AcDbEntity
  8
0
370
         0
390
0
  6
Continuous
 62
         1
100
AcDbLine
 10
73.9987988031
 20
68.4767461435
 30
0.0
 11
306.4987988031
 21
68.4767461435
 31
0.0
  0
LINE
  5
C3
100
AcDbEntity
  8
0
370
         0
390
0
  6
Continuous
 62
         1
100
AcDbLine
 10
306.4987988031
 20
74.4767461435
 30
0.0
 11
306.4987988031
 21
68.4767461435
 31
0.0
  0
DIMENSION
  5
D1
100
AcDbEntity
  8
0
390
0
100
AcDbDimension
  2
*D1
 10
306.4987988031
 20
88.5370183395
 30
0.0
 11
190.8374523093
 21
88.5370183395
 31
0.0
 70
       160
 71
         5
 72
         1
 41
1.0
 42
0.0
  3
SLDDIMSTYLE0
100
AcDbAlignedDimension
 13
73.9987988031
 23
74.4767461435
 33
0.0
 14
306.4987988031
 24
74.4767461435
 34
0.0
 50
180.0
100
AcDbRotatedDimension
  0
DIMENSION
  5
DF
100
AcDbEntity
  8
0
390
0
100
AcDbDimension
  2
*D2
 10
61.9108086052
 20
68.4767461435
 30
0.0
 11
61.9108086052
 21
49.5490918551
 31
0.0
 70
       160
 71
         5
 72
         1
 41
1.0
 42
0.0
  3
SLDDIMSTYLE0
100
AcDbAlignedDimension
 13
73.9987988031
 23
74.4767461435
 33
0.0
 14
73.9987988031
 24
68.4767461435
 34
0.0
 50
90.0
100
AcDbRotatedDimension
  0
MTEXT
  5
E0
100
AcDbEntity
  8
0
390
0
 62
         1
100
AcDbMText
 10
172.9349990841
 20
60.6052995054
 30
0.0
 40
2.0
 41
0.0
 71
         1
 72
         1
  1
FLATTENED VIEW
  7
SLDTEXTSTYLE0
 73
         1
 44
1.0
  0
CIRCLE
  5
E1
100
AcDbEntity
  8
0
370
        15
390
0
  6
Continuous
 62
         7
100
AcDbCircle
 10
112.3089538172
 20
147.0987747408
 30
0.0
 40
45.78125
  0
CIRCLE
  5
E2
100
AcDbEntity
  8
0
370
        15
390
0
  6
Continuous
 62
         7
100
AcDbCircle
 10
112.3089538172
 20
147.0987747408
 30
0.0
 40
46.25
  0
DIMENSION
  5
F1
100
AcDbEntity
  8
0
390
0
100
AcDbDimension
  2
*D3
 10
154.8609434791
 20
163.9881509097
 30
0.0
 11
180.2921347531
 21
167.3907585792
 31
0.0
 70
       163
 71
         5
 72
         1
 41
1.0
 42
0.0
  1
<> INSIDE
  3
SLDDIMSTYLE1
100
AcDbDiametricDimension
 15
69.7569641552
 25
130.2093985719
 35
0.0
 40
0.0
  0
DIMENSION
  5
FF
100
AcDbEntity
  8
0
390
0
100
AcDbDimension
  2
*D4
 10
149.0595778925
 20
175.178200128
 30
0.0
 11
180.2921347531
 21
187.0781646824
 31
0.0
 70
       163
 71
         5
 72
         1
 41
1.0
 42
0.0
  1
<> OUTSIDE
  3
SLDDIMSTYLE1
100
AcDbDiametricDimension
 15
75.5583297418
 25
119.0193493537
 35
0.0
 40
0.0
  0
LINE
  5
100
100
AcDbEntity
  8
0
370
        15
390
0
  6
Continuous
 62
         7
100
AcDbLine
 10
314.0471253534
 20
136.8044774701
 30
0.0
 11
314.0471253534
 21
141.7037223414
 31
0.0
  0
LINE
  5
101
100
AcDbEntity
  8
0
370
        15
390
0
  6
Continuous
 62
         7
100
AcDbLine
 10
240.0471253534
 20
141.7037223414
 30
0.0
 11
240.0471253534
 21
136.8044774701
 31
0.0
  0
POLYLINE
  5
102
100
AcDbEntity
  8
0
390
0
  6
Continuous
 62
         7
100
AcDb2dPolyline
 66
         1
 10
0.0
 20
0.0
 30
0.0
 70
       128
 40
0.1181102362
 41
0.1181102362
  0
VERTEX
  5
103
100
AcDbEntity
  8
0
390
0
100
AcDbVertex
100
AcDb2dVertex
 10
302.9449112144
 20
126.7532487937
 30
0.0
  0
VERTEX
  5
104
100
AcDbEntity
  8
0
390
0
100
AcDbVertex
100
AcDb2dVertex
 10
303.6139616918
 20
127.1497297208
 30
0.0
  0
VERTEX
  5
105
100
AcDbEntity
  8
0
390
0
100
AcDbVertex
100
AcDb2dVertex
 10
304.2648045865
 20
127.5561852275
 30
0.0
  0
VERTEX
  5
106
100
AcDbEntity
  8
0
390
0
100
AcDbVertex
100
AcDb2dVertex
 10
304.8969938435
 20
127.9723367494
 30
0.0
  0
VERTEX
  5
107
100
AcDbEntity
  8
0
390
0
100
AcDbVertex
100
AcDb2dVertex
 10
305.5100961918
 20
128.3978990771
 30
0.0
  0
VERTEX
  5
108
100
AcDbEntity
  8
0
390
0
100
AcDbVertex
100
AcDb2dVertex
 10
306.1036914416
 20
128.8325805515
 30
0.0
  0
VERTEX
  5
109
100
AcDbEntity
  8
0
390
0
100
AcDbVertex
100
AcDb2dVertex
 10
306.6773727724
 20
129.2760832635
 30
0.0
  0
VERTEX
  5
10A
100
AcDbEntity
  8
0
390
0
100
AcDbVertex
100
AcDb2dVertex
 10
307.2307470117
 20
129.7281032585
 30
0.0
  0
VERTEX
  5
10B
100
AcDbEntity
  8
0
390
0
100
AcDbVertex
100
AcDb2dVertex
 10
307.7634349044
 20
130.1883307447
 30
0.0
  0
VERTEX
  5
10C
100
AcDbEntity
  8
0
390
0
100
AcDbVertex
100
AcDb2dVertex
 10
308.2750713729
 20
130.656450305
 30
0.0
  0
VERTEX
  5
10D
100
AcDbEntity
  8
0
390
0
100
AcDbVertex
100
AcDb2dVertex
 10
308.765305767
 20
131.1321411138
 30
0.0
  0
VERTEX
  5
10E
100
AcDbEntity
  8
0
390
0
100
AcDbVertex
100
AcDb2dVertex
 10
309.2338021047
 20
131.6150771563
 30
0.0
  0
VERTEX
  5
10F
100
AcDbEntity
  8
0
390
0
100
AcDbVertex
100
AcDb2dVertex
 10
309.6802393018
 20
132.1049274523
 30
0.0
  0
VERTEX
  5
110
100
AcDbEntity
  8
0
390
0
100
AcDbVertex
100
AcDb2dVertex
 10
310.1043113928
 20
132.6013562829
 30
0.0
  0
VERTEX
  5
111
100
AcDbEntity
  8
0
390
0
100
AcDbVertex
100
AcDb2dVertex
 10
310.5057277396
 20
133.1040234204
 30
0.0
  0
VERTEX
  5
112
100
AcDbEntity
  8
0
390
0
100
AcDbVertex
100
AcDb2dVertex
 10
310.8842132317
 20
133.612584362
 30
0.0
  0
VERTEX
  5
113
100
AcDbEntity
  8
0
390
0
100
AcDbVertex
100
AcDb2dVertex
 10
311.2395084739
 20
134.1266905655
 30
0.0
  0
VERTEX
  5
114
100
AcDbEntity
  8
0
390
0
100
AcDbVertex
100
AcDb2dVertex
 10
311.5713699647
 20
134.645989688
 30
0.0
  0
VERTEX
  5
115
100
AcDbEntity
  8
0
390
0
100
AcDbVertex
100
AcDb2dVertex
 10
311.8795702628
 20
135.1701258279
 30
0.0
  0
VERTEX
  5
116
100
AcDbEntity
  8
0
390
0
100
AcDbVertex
100
AcDb2dVertex
 10
312.163898143
 20
135.6987397686
 30
0.0
  0
VERTEX
  5
117
100
AcDbEntity
  8
0
390
0
100
AcDbVertex
100
AcDb2dVertex
 10
312.4241587413
 20
136.2314692243
 30
0.0
  0
VERTEX
  5
118
100
AcDbEntity
  8
0
390
0
100
AcDbVertex
100
AcDb2dVertex
 10
312.660173688
 20
136.767949089
 30
0.0
  0
VERTEX
  5
119
100
AcDbEntity
  8
0
390
0
100
AcDbVertex
100
AcDb2dVertex
 10
312.8717812303
 20
137.3078116861
 30
0.0
  0
VERTEX
  5
11A
100
AcDbEntity
  8
0
390
0
100
AcDbVertex
100
AcDb2dVertex
 10
313.058836343
 20
137.8506870208
 30
0.0
  0
VERTEX
  5
11B
100
AcDbEntity
  8
0
390
0
100
AcDbVertex
100
AcDb2dVertex
 10
313.2212108277
 20
138.3962030335
 30
0.0
  0
VERTEX
  5
11C
100
AcDbEntity
  8
0
390
0
100
AcDbVertex
100
AcDb2dVertex
 10
313.3587934013
 20
138.9439858546
 30
0.0
  0
VERTEX
  5
11D
100
AcDbEntity
  8
0
390
0
100
AcDbVertex
100
AcDb2dVertex
 10
313.4714897713
 20
139.4936600614
 30
0.0
  0
VERTEX
  5
11E
100
AcDbEntity
  8
0
390
0
100
AcDbVertex
100
AcDb2dVertex
 10
313.5592227014
 20
140.0448489343
 30
0.0
  0
VERTEX
  5
11F
100
AcDbEntity
  8
0
390
0
100
AcDbVertex
100
AcDb2dVertex
 10
313.6219320638
 20
140.5971747163
 30
0.0
  0
VERTEX
  5
120
100
AcDbEntity
  8
0
390
0
100
AcDbVertex
100
AcDb2dVertex
 10
313.6595748807
 20
141.1502588708
 30
0.0
  0
VERTEX
  5
121
100
AcDbEntity
  8
0
390
0
100
AcDbVertex
100
AcDb2dVertex
 10
313.6721253534
 20
141.7037223414
 30
0.0
  0
VERTEX
  5
122
100
AcDbEntity
  8
0
390
0
100
AcDbVertex
100
AcDb2dVertex
 10
313.6595748807
 20
142.2571858121
 30
0.0
  0
VERTEX
  5
123
100
AcDbEntity
  8
0
390
0
100
AcDbVertex
100
AcDb2dVertex
 10
313.6219320638
 20
142.8102699665
 30
0.0
  0
VERTEX
  5
124
100
AcDbEntity
  8
0
390
0
100
AcDbVertex
100
AcDb2dVertex
 10
313.5592227014
 20
143.3625957485
 30
0.0
  0
VERTEX
  5
125
100
AcDbEntity
  8
0
390
0
100
AcDbVertex
100
AcDb2dVertex
 10
313.4714897713
 20
143.9137846215
 30
0.0
  0
VERTEX
  5
126
100
AcDbEntity
  8
0
390
0
100
AcDbVertex
100
AcDb2dVertex
 10
313.3587934013
 20
144.4634588282
 30
0.0
  0
VERTEX
  5
127
100
AcDbEntity
  8
0
390
0
100
AcDbVertex
100
AcDb2dVertex
 10
313.2212108277
 20
145.0112416493
 30
0.0
  0
VERTEX
  5
128
100
AcDbEntity
  8
0
390
0
100
AcDbVertex
100
AcDb2dVertex
 10
313.058836343
 20
145.556757662
 30
0.0
  0
VERTEX
  5
129
100
AcDbEntity
  8
0
390
0
100
AcDbVertex
100
AcDb2dVertex
 10
312.8717812303
 20
146.0996329967
 30
0.0
  0
VERTEX
  5
12A
100
AcDbEntity
  8
0
390
0
100
AcDbVertex
100
AcDb2dVertex
 10
312.660173688
 20
146.6394955938
 30
0.0
  0
VERTEX
  5
12B
100
AcDbEntity
  8
0
390
0
100
AcDbVertex
100
AcDb2dVertex
 10
312.4241587413
 20
147.1759754585
 30
0.0
  0
VERTEX
  5
12C
100
AcDbEntity
  8
0
390
0
100
AcDbVertex
100
AcDb2dVertex
 10
312.163898143
 20
147.7087049142
 30
0.0
  0
VERTEX
  5
12D
100
AcDbEntity
  8
0
390
0
100
AcDbVertex
100
AcDb2dVertex
 10
311.8795702628
 20
148.2373188549
 30
0.0
  0
VERTEX
  5
12E
100
AcDbEntity
  8
0
390
0
100
AcDbVertex
100
AcDb2dVertex
 10
311.5713699647
 20
148.7614549948
 30
0.0
  0
VERTEX
  5
12F
100
AcDbEntity
  8
0
390
0
100
AcDbVertex
100
AcDb2dVertex
 10
311.2395084739
 20
149.2807541174
 30
0.0
  0
VERTEX
  5
130
100
AcDbEntity
  8
0
390
0
100
AcDbVertex
100
AcDb2dVertex
 10
310.8842132317
 20
149.7948603208
 30
0.0
  0
VERTEX
  5
131
100
AcDbEntity
  8
0
390
0
100
AcDbVertex
100
AcDb2dVertex
 10
310.5057277396
 20
150.3034212624
 30
0.0
  0
VERTEX
  5
132
100
AcDbEntity
  8
0
390
0
100
AcDbVertex
100
AcDb2dVertex
 10
310.1043113928
 20
150.8060884
 30
0.0
  0
VERTEX
  5
133
100
AcDbEntity
  8
0
390
0
100
AcDbVertex
100
AcDb2dVertex
 10
309.6802393018
 20
151.3025172305
 30
0.0
  0
VERTEX
  5
134
100
AcDbEntity
  8
0
390
0
100
AcDbVertex
100
AcDb2dVertex
 10
309.2338021047
 20
151.7923675265
 30
0.0
  0
VERTEX
  5
135
100
AcDbEntity
  8
0
390
0
100
AcDbVertex
100
AcDb2dVertex
 10
308.765305767
 20
152.275303569
 30
0.0
  0
VERTEX
  5
136
100
AcDbEntity
  8
0
390
0
100
AcDbVertex
100
AcDb2dVertex
 10
308.2750713729
 20
152.7509943778
 30
0.0
  0
VERTEX
  5
137
100
AcDbEntity
  8
0
390
0
100
AcDbVertex
100
AcDb2dVertex
 10
307.7634349044
 20
153.2191139381
 30
0.0
  0
VERTEX
  5
138
100
AcDbEntity
  8
0
390
0
100
AcDbVertex
100
AcDb2dVertex
 10
307.2307470117
 20
153.6793414243
 30
0.0
  0
VERTEX
  5
139
100
AcDbEntity
  8
0
390
0
100
AcDbVertex
100
AcDb2dVertex
 10
306.6773727724
 20
154.1313614194
 30
0.0
  0
VERTEX
  5
13A
100
AcDbEntity
  8
0
390
0
100
AcDbVertex
100
AcDb2dVertex
 10
306.1036914416
 20
154.5748641314
 30
0.0
  0
VERTEX
  5
13B
100
AcDbEntity
  8
0
390
0
100
AcDbVertex
100
AcDb2dVertex
 10
305.5100961918
 20
155.0095456057
 30
0.0
  0
VERTEX
  5
13C
100
AcDbEntity
  8
0
390
0
100
AcDbVertex
100
AcDb2dVertex
 10
304.8969938435
 20
155.4351079334
 30
0.0
  0
VERTEX
  5
13D
100
AcDbEntity
  8
0
390
0
100
AcDbVertex
100
AcDb2dVertex
 10
304.2648045865
 20
155.8512594554
 30
0.0
  0
VERTEX
  5
13E
100
AcDbEntity
  8
0
390
0
100
AcDbVertex
100
AcDb2dVertex
 10
303.6139616918
 20
156.257714962
 30
0.0
  0
VERTEX
  5
13F
100
AcDbEntity
  8
0
390
0
100
AcDbVertex
100
AcDb2dVertex
 10
302.9449112144
 20
156.6541958892
 30
0.0
  0
VERTEX
  5
140
100
AcDbEntity
  8
0
390
0
100
AcDbVertex
100
AcDb2dVertex
 10
302.2581116882
 20
157.0404305085
 30
0.0
  0
VERTEX
  5
141
100
AcDbEntity
  8
0
390
0
100
AcDbVertex
100
AcDb2dVertex
 10
301.5540338113
 20
157.4161541142
 30
0.0
  0
VERTEX
  5
142
100
AcDbEntity
  8
0
390
0
100
AcDbVertex
100
AcDb2dVertex
 10
300.8331601235
 20
157.7811092039
 30
0.0
  0
VERTEX
  5
143
100
AcDbEntity
  8
0
390
0
100
AcDbVertex
100
AcDb2dVertex
 10
300.0959846756
 20
158.1350456558
 30
0.0
  0
VERTEX
  5
144
100
AcDbEntity
  8
0
390
0
100
AcDbVertex
100
AcDb2dVertex
 10
299.3430126909
 20
158.4777208995
 30
0.0
  0
VERTEX
  5
145
100
AcDbEntity
  8
0
390
0
100
AcDbVertex
100
AcDb2dVertex
 10
298.5747602187
 20
158.8089000824
 30
0.0
  0
VERTEX
  5
146
100
AcDbEntity
  8
0
390
0
100
AcDbVertex
100
AcDb2dVertex
 10
297.7917537808
 20
159.128356231
 30
0.0
  0
VERTEX
  5
147
100
AcDbEntity
  8
0
390
0
100
AcDbVertex
100
AcDb2dVertex
 10
296.9945300109
 20
159.4358704058
 30
0.0
  0
VERTEX
  5
148
100
AcDbEntity
  8
0
390
0
100
AcDbVertex
100
AcDb2dVertex
 10
296.1836352862
 20
159.7312318521
 30
0.0
  0
VERTEX
  5
149
100
AcDbEntity
  8
0
390
0
100
AcDbVertex
100
AcDb2dVertex
 10
295.3596253534
 20
160.0142381439
 30
0.0
  0
VERTEX
  5
14A
100
AcDbEntity
  8
0
390
0
100
AcDbVertex
100
AcDb2dVertex
 10
294.5230649479
 20
160.2846953228
 30
0.0
  0
VERTEX
  5
14B
100
AcDbEntity
  8
0
390
0
100
AcDbVertex
100
AcDb2dVertex
 10
293.6745274064
 20
160.5424180309
 30
0.0
  0
VERTEX
  5
14C
100
AcDbEntity
  8
0
390
0
100
AcDbVertex
100
AcDb2dVertex
 10
292.814594274
 20
160.787229638
 30
0.0
  0
VERTEX
  5
14D
100
AcDbEntity
  8
0
390
0
100
AcDbVertex
100
AcDb2dVertex
 10
291.9438549061
 20
161.0189623625
 30
0.0
  0
VERTEX
  5
14E
100
AcDbEntity
  8
0
390
0
100
AcDbVertex
100
AcDb2dVertex
 10
291.0629060638
 20
161.2374573863
 30
0.0
  0
VERTEX
  5
14F
100
AcDbEntity
  8
0
390
0
100
AcDbVertex
100
AcDb2dVertex
 10
290.1723515055
 20
161.4425649638
 30
0.0
  0
VERTEX
  5
150
100
AcDbEntity
  8
0
390
0
100
AcDbVertex
100
AcDb2dVertex
 10
289.2728015729
 20
161.6341445245
 30
0.0
  0
VERTEX
  5
151
100
AcDbEntity
  8
0
390
0
100
AcDbVertex
100
AcDb2dVertex
 10
288.3648727724
 20
161.8120647694
 30
0.0
  0
VERTEX
  5
152
100
AcDbEntity
  8
0
390
0
100
AcDbVertex
100
AcDb2dVertex
 10
287.4491873532
 20
161.9762037609
 30
0.0
  0
VERTEX
  5
153
100
AcDbEntity
  8
0
390
0
100
AcDbVertex
100
AcDb2dVertex
 10
286.5263728803
 20
162.1264490062
 30
0.0
  0
VERTEX
  5
154
100
AcDbEntity
  8
0
390
0
100
AcDbVertex
100
AcDb2dVertex
 10
285.5970618047
 20
162.2626975349
 30
0.0
  0
VERTEX
  5
155
100
AcDbEntity
  8
0
390
0
100
AcDbVertex
100
AcDb2dVertex
 10
284.6618910296
 20
162.3848559688
 30
0.0
  0
VERTEX
  5
156
100
AcDbEntity
  8
0
390
0
100
AcDbVertex
100
AcDb2dVertex
 10
283.7215014746
 20
162.4928405868
 30
0.0
  0
VERTEX
  5
157
100
AcDbEntity
  8
0
390
0
100
AcDbVertex
100
AcDb2dVertex
 10
282.7765376355
 20
162.5865773817
 30
0.0
  0
VERTEX
  5
158
100
AcDbEntity
  8
0
390
0
100
AcDbVertex
100
AcDb2dVertex
 10
281.8276471435
 20
162.6660021107
 30
0.0
  0
VERTEX
  5
159
100
AcDbEntity
  8
0
390
0
100
AcDbVertex
100
AcDb2dVertex
 10
280.8754803206
 20
162.7310603404
 30
0.0
  0
VERTEX
  5
15A
100
AcDbEntity
  8
0
390
0
100
AcDbVertex
100
AcDb2dVertex
 10
279.9206897345
 20
162.7817074829
 30
0.0
  0
VERTEX
  5
15B
100
AcDbEntity
  8
0
390
0
100
AcDbVertex
100
AcDb2dVertex
 10
278.9639297508
 20
162.8179088272
 30
0.0
  0
VERTEX
  5
15C
100
AcDbEntity
  8
0
390
0
100
AcDbVertex
100
AcDb2dVertex
 10
278.0058560852
 20
162.8396395628
 30
0.0
  0
VERTEX
  5
15D
100
AcDbEntity
  8
0
390
0
100
AcDbVertex
100
AcDb2dVertex
 10
277.0471253534
 20
162.8468847965
 30
0.0
  0
VERTEX
  5
15E
100
AcDbEntity
  8
0
390
0
100
AcDbVertex
100
AcDb2dVertex
 10
276.0883946217
 20
162.8396395628
 30
0.0
  0
VERTEX
  5
15F
100
AcDbEntity
  8
0
390
0
100
AcDbVertex
100
AcDb2dVertex
 10
275.130320956
 20
162.8179088272
 30
0.0
  0
VERTEX
  5
160
100
AcDbEntity
  8
0
390
0
100
AcDbVertex
100
AcDb2dVertex
 10
274.1735609724
 20
162.7817074829
 30
0.0
  0
VERTEX
  5
161
100
AcDbEntity
  8
0
390
0
100
AcDbVertex
100
AcDb2dVertex
 10
273.2187703863
 20
162.7310603404
 30
0.0
  0
VERTEX
  5
162
100
AcDbEntity
  8
0
390
0
100
AcDbVertex
100
AcDb2dVertex
 10
272.2666035634
 20
162.6660021107
 30
0.0
  0
VERTEX
  5
163
100
AcDbEntity
  8
0
390
0
100
AcDbVertex
100
AcDb2dVertex
 10
271.3177130713
 20
162.5865773817
 30
0.0
  0
VERTEX
  5
164
100
AcDbEntity
  8
0
390
0
100
AcDbVertex
100
AcDb2dVertex
 10
270.3727492323
 20
162.4928405868
 30
0.0
  0
VERTEX
  5
165
100
AcDbEntity
  8
0
390
0
100
AcDbVertex
100
AcDb2dVertex
 10
269.4323596772
 20
162.3848559688
 30
0.0
  0
VERTEX
  5
166
100
AcDbEntity
  8
0
390
0
100
AcDbVertex
100
AcDb2dVertex
 10
268.4971889022
 20
162.2626975349
 30
0.0
  0
VERTEX
  5
167
100
AcDbEntity
  8
0
390
0
100
AcDbVertex
100
AcDb2dVertex
 10
267.5678778266
 20
162.1264490062
 30
0.0
  0
VERTEX
  5
168
100
AcDbEntity
  8
0
390
0
100
AcDbVertex
100
AcDb2dVertex
 10
266.6450633537
 20
161.9762037609
 30
0.0
  0
VERTEX
  5
169
100
AcDbEntity
  8
0
390
0
100
AcDbVertex
100
AcDb2dVertex
 10
265.7293779345
 20
161.8120647694
 30
0.0
  0
VERTEX
  5
16A
100
AcDbEntity
  8
0
390
0
100
AcDbVertex
100
AcDb2dVertex
 10
264.821449134
 20
161.6341445245
 30
0.0
  0
VERTEX
  5
16B
100
AcDbEntity
  8
0
390
0
100
AcDbVertex
100
AcDb2dVertex
 10
263.9218992013
 20
161.4425649638
 30
0.0
  0
VERTEX
  5
16C
100
AcDbEntity
  8
0
390
0
100
AcDbVertex
100
AcDb2dVertex
 10
263.0313446431
 20
161.2374573863
 30
0.0
  0
VERTEX
  5
16D
100
AcDbEntity
  8
0
390
0
100
AcDbVertex
100
AcDb2dVertex
 10
262.1503958008
 20
161.0189623625
 30
0.0
  0
VERTEX
  5
16E
100
AcDbEntity
  8
0
390
0
100
AcDbVertex
100
AcDb2dVertex
 10
261.2796564328
 20
160.787229638
 30
0.0
  0
VERTEX
  5
16F
100
AcDbEntity
  8
0
390
0
100
AcDbVertex
100
AcDb2dVertex
 10
260.4197233005
 20
160.5424180309
 30
0.0
  0
VERTEX
  5
170
100
AcDbEntity
  8
0
390
0
100
AcDbVertex
100
AcDb2dVertex
 10
259.5711857589
 20
160.2846953228
 30
0.0
  0
VERTEX
  5
171
100
AcDbEntity
  8
0
390
0
100
AcDbVertex
100
AcDb2dVertex
 10
258.7346253534
 20
160.0142381439
 30
0.0
  0
VERTEX
  5
172
100
AcDbEntity
  8
0
390
0
100
AcDbVertex
100
AcDb2dVertex
 10
257.9106154207
 20
159.7312318521
 30
0.0
  0
VERTEX
  5
173
100
AcDbEntity
  8
0
390
0
100
AcDbVertex
100
AcDb2dVertex
 10
257.099720696
 20
159.4358704058
 30
0.0
  0
VERTEX
  5
174
100
AcDbEntity
  8
0
390
0
100
AcDbVertex
100
AcDb2dVertex
 10
256.3024969261
 20
159.128356231
 30
0.0
  0
VERTEX
  5
175
100
AcDbEntity
  8
0
390
0
100
AcDbVertex
100
AcDb2dVertex
 10
255.5194904882
 20
158.8089000824
 30
0.0
  0
VERTEX
  5
176
100
AcDbEntity
  8
0
390
0
100
AcDbVertex
100
AcDb2dVertex
 10
254.751238016
 20
158.4777208995
 30
0.0
  0
VERTEX
  5
177
100
AcDbEntity
  8
0
390
0
100
AcDbVertex
100
AcDb2dVertex
 10
253.9982660312
 20
158.1350456558
 30
0.0
  0
VERTEX
  5
178
100
AcDbEntity
  8
0
390
0
100
AcDbVertex
100
AcDb2dVertex
 10
253.2610905833
 20
157.7811092039
 30
0.0
  0
VERTEX
  5
179
100
AcDbEntity
  8
0
390
0
100
AcDbVertex
100
AcDb2dVertex
 10
252.5402168955
 20
157.4161541142
 30
0.0
  0
VERTEX
  5
17A
100
AcDbEntity
  8
0
390
0
100
AcDbVertex
100
AcDb2dVertex
 10
251.8361390187
 20
157.0404305085
 30
0.0
  0
VERTEX
  5
17B
100
AcDbEntity
  8
0
390
0
100
AcDbVertex
100
AcDb2dVertex
 10
251.1493394925
 20
156.6541958892
 30
0.0
  0
VERTEX
  5
17C
100
AcDbEntity
  8
0
390
0
100
AcDbVertex
100
AcDb2dVertex
 10
250.4802890151
 20
156.257714962
 30
0.0
  0
VERTEX
  5
17D
100
AcDbEntity
  8
0
390
0
100
AcDbVertex
100
AcDb2dVertex
 10
249.8294461203
 20
155.8512594554
 30
0.0
  0
VERTEX
  5
17E
100
AcDbEntity
  8
0
390
0
100
AcDbVertex
100
AcDb2dVertex
 10
249.1972568633
 20
155.4351079334
 30
0.0
  0
VERTEX
  5
17F
100
AcDbEntity
  8
0
390
0
100
AcDbVertex
100
AcDb2dVertex
 10
248.5841545151
 20
155.0095456057
 30
0.0
  0
VERTEX
  5
180
100
AcDbEntity
  8
0
390
0
100
AcDbVertex
100
AcDb2dVertex
 10
247.9905592653
 20
154.5748641314
 30
0.0
  0
VERTEX
  5
181
100
AcDbEntity
  8
0
390
0
100
AcDbVertex
100
AcDb2dVertex
 10
247.4168779345
 20
154.1313614194
 30
0.0
  0
VERTEX
  5
182
100
AcDbEntity
  8
0
390
0
100
AcDbVertex
100
AcDb2dVertex
 10
246.8635036952
 20
153.6793414243
 30
0.0
  0
VERTEX
  5
183
100
AcDbEntity
  8
0
390
0
100
AcDbVertex
100
AcDb2dVertex
 10
246.3308158024
 20
153.2191139381
 30
0.0
  0
VERTEX
  5
184
100
AcDbEntity
  8
0
390
0
100
AcDbVertex
100
AcDb2dVertex
 10
245.819179334
 20
152.7509943778
 30
0.0
  0
VERTEX
  5
185
100
AcDbEntity
  8
0
390
0
100
AcDbVertex
100
AcDb2dVertex
 10
245.3289449398
 20
152.275303569
 30
0.0
  0
VERTEX
  5
186
100
AcDbEntity
  8
0
390
0
100
AcDbVertex
100
AcDb2dVertex
 10
244.8604486022
 20
151.7923675265
 30
0.0
  0
VERTEX
  5
187
100
AcDbEntity
  8
0
390
0
100
AcDbVertex
100
AcDb2dVertex
 10
244.414011405
 20
151.3025172305
 30
0.0
  0
VERTEX
  5
188
100
AcDbEntity
  8
0
390
0
100
AcDbVertex
100
AcDb2dVertex
 10
243.9899393141
 20
150.8060884
 30
0.0
  0
VERTEX
  5
189
100
AcDbEntity
  8
0
390
0
100
AcDbVertex
100
AcDb2dVertex
 10
243.5885229673
 20
150.3034212624
 30
0.0
  0
VERTEX
  5
18A
100
AcDbEntity
  8
0
390
0
100
AcDbVertex
100
AcDb2dVertex
 10
243.2100374752
 20
149.7948603208
 30
0.0
  0
VERTEX
  5
18B
100
AcDbEntity
  8
0
390
0
100
AcDbVertex
100
AcDb2dVertex
 10
242.854742233
 20
149.2807541174
 30
0.0
  0
VERTEX
  5
18C
100
AcDbEntity
  8
0
390
0
100
AcDbVertex
100
AcDb2dVertex
 10
242.5228807422
 20
148.7614549948
 30
0.0
  0
VERTEX
  5
18D
100
AcDbEntity
  8
0
390
0
100
AcDbVertex
100
AcDb2dVertex
 10
242.2146804441
 20
148.2373188549
 30
0.0
  0
VERTEX
  5
18E
100
AcDbEntity
  8
0
390
0
100
AcDbVertex
100
AcDb2dVertex
 10
241.9303525639
 20
147.7087049142
 30
0.0
  0
VERTEX
  5
18F
100
AcDbEntity
  8
0
390
0
100
AcDbVertex
100
AcDb2dVertex
 10
241.6700919656
 20
147.1759754585
 30
0.0
  0
VERTEX
  5
190
100
AcDbEntity
  8
0
390
0
100
AcDbVertex
100
AcDb2dVertex
 10
241.4340770189
 20
146.6394955938
 30
0.0
  0
VERTEX
  5
191
100
AcDbEntity
  8
0
390
0
100
AcDbVertex
100
AcDb2dVertex
 10
241.2224694766
 20
146.0996329967
 30
0.0
  0
VERTEX
  5
192
100
AcDbEntity
  8
0
390
0
100
AcDbVertex
100
AcDb2dVertex
 10
241.0354143639
 20
145.556757662
 30
0.0
  0
VERTEX
  5
193
100
AcDbEntity
  8
0
390
0
100
AcDbVertex
100
AcDb2dVertex
 10
240.8730398791
 20
145.0112416493
 30
0.0
  0
VERTEX
  5
194
100
AcDbEntity
  8
0
390
0
100
AcDbVertex
100
AcDb2dVertex
 10
240.7354573056
 20
144.4634588282
 30
0.0
  0
VERTEX
  5
195
100
AcDbEntity
  8
0
390
0
100
AcDbVertex
100
AcDb2dVertex
 10
240.6227609356
 20
143.9137846215
 30
0.0
  0
VERTEX
  5
196
100
AcDbEntity
  8
0
390
0
100
AcDbVertex
100
AcDb2dVertex
 10
240.5350280055
 20
143.3625957485
 30
0.0
  0
VERTEX
  5
197
100
AcDbEntity
  8
0
390
0
100
AcDbVertex
100
AcDb2dVertex
 10
240.4723186431
 20
142.8102699665
 30
0.0
  0
VERTEX
  5
198
100
AcDbEntity
  8
0
390
0
100
AcDbVertex
100
AcDb2dVertex
 10
240.4346758262
 20
142.2571858121
 30
0.0
  0
VERTEX
  5
199
100
AcDbEntity
  8
0
390
0
100
AcDbVertex
100
AcDb2dVertex
 10
240.4221253534
 20
141.7037223414
 30
0.0
  0
VERTEX
  5
19A
100
AcDbEntity
  8
0
390
0
100
AcDbVertex
100
AcDb2dVertex
 10
240.4346758262
 20
141.1502588708
 30
0.0
  0
VERTEX
  5
19B
100
AcDbEntity
  8
0
390
0
100
AcDbVertex
100
AcDb2dVertex
 10
240.4723186431
 20
140.5971747163
 30
0.0
  0
VERTEX
  5
19C
100
AcDbEntity
  8
0
390
0
100
AcDbVertex
100
AcDb2dVertex
 10
240.5350280055
 20
140.0448489343
 30
0.0
  0
VERTEX
  5
19D
100
AcDbEntity
  8
0
390
0
100
AcDbVertex
100
AcDb2dVertex
 10
240.6227609356
 20
139.4936600614
 30
0.0
  0
VERTEX
  5
19E
100
AcDbEntity
  8
0
390
0
100
AcDbVertex
100
AcDb2dVertex
 10
240.7354573056
 20
138.9439858546
 30
0.0
  0
VERTEX
  5
19F
100
AcDbEntity
  8
0
390
0
100
AcDbVertex
100
AcDb2dVertex
 10
240.8730398791
 20
138.3962030335
 30
0.0
  0
VERTEX
  5
1A0
100
AcDbEntity
  8
0
390
0
100
AcDbVertex
100
AcDb2dVertex
 10
241.0354143639
 20
137.8506870208
 30
0.0
  0
VERTEX
  5
1A1
100
AcDbEntity
  8
0
390
0
100
AcDbVertex
100
AcDb2dVertex
 10
241.2224694766
 20
137.3078116861
 30
0.0
  0
VERTEX
  5
1A2
100
AcDbEntity
  8
0
390
0
100
AcDbVertex
100
AcDb2dVertex
 10
241.4340770189
 20
136.767949089
 30
0.0
  0
VERTEX
  5
1A3
100
AcDbEntity
  8
0
390
0
100
AcDbVertex
100
AcDb2dVertex
 10
241.6700919656
 20
136.2314692243
 30
0.0
  0
VERTEX
  5
1A4
100
AcDbEntity
  8
0
390
0
100
AcDbVertex
100
AcDb2dVertex
 10
241.9303525639
 20
135.6987397686
 30
0.0
  0
VERTEX
  5
1A5
100
AcDbEntity
  8
0
390
0
100
AcDbVertex
100
AcDb2dVertex
 10
242.2146804441
 20
135.1701258279
 30
0.0
  0
VERTEX
  5
1A6
100
AcDbEntity
  8
0
390
0
100
AcDbVertex
100
AcDb2dVertex
 10
242.5228807422
 20
134.645989688
 30
0.0
  0
VERTEX
  5
1A7
100
AcDbEntity
  8
0
390
0
100
AcDbVertex
100
AcDb2dVertex
 10
242.854742233
 20
134.1266905655
 30
0.0
  0
VERTEX
  5
1A8
100
AcDbEntity
  8
0
390
0
100
AcDbVertex
100
AcDb2dVertex
 10
243.2100374752
 20
133.612584362
 30
0.0
  0
VERTEX
  5
1A9
100
AcDbEntity
  8
0
390
0
100
AcDbVertex
100
AcDb2dVertex
 10
243.5885229673
 20
133.1040234204
 30
0.0
  0
VERTEX
  5
1AA
100
AcDbEntity
  8
0
390
0
100
AcDbVertex
100
AcDb2dVertex
 10
243.9899393141
 20
132.6013562829
 30
0.0
  0
VERTEX
  5
1AB
100
AcDbEntity
  8
0
390
0
100
AcDbVertex
100
AcDb2dVertex
 10
244.414011405
 20
132.1049274523
 30
0.0
  0
VERTEX
  5
1AC
100
AcDbEntity
  8
0
390
0
100
AcDbVertex
100
AcDb2dVertex
 10
244.8604486022
 20
131.6150771563
 30
0.0
  0
VERTEX
  5
1AD
100
AcDbEntity
  8
0
390
0
100
AcDbVertex
100
AcDb2dVertex
 10
245.3289449398
 20
131.1321411138
 30
0.0
  0
VERTEX
  5
1AE
100
AcDbEntity
  8
0
390
0
100
AcDbVertex
100
AcDb2dVertex
 10
245.819179334
 20
130.656450305
 30
0.0
  0
VERTEX
  5
1AF
100
AcDbEntity
  8
0
390
0
100
AcDbVertex
100
AcDb2dVertex
 10
246.3308158024
 20
130.1883307447
 30
0.0
  0
VERTEX
  5
1B0
100
AcDbEntity
  8
0
390
0
100
AcDbVertex
100
AcDb2dVertex
 10
246.8635036952
 20
129.7281032585
 30
0.0
  0
VERTEX
  5
1B1
100
AcDbEntity
  8
0
390
0
100
AcDbVertex
100
AcDb2dVertex
 10
247.4168779345
 20
129.2760832635
 30
0.0
  0
VERTEX
  5
1B2
100
AcDbEntity
  8
0
390
0
100
AcDbVertex
100
AcDb2dVertex
 10
247.9905592653
 20
128.8325805515
 30
0.0
  0
VERTEX
  5
1B3
100
AcDbEntity
  8
0
390
0
100
AcDbVertex
100
AcDb2dVertex
 10
248.5841545151
 20
128.3978990771
 30
0.0
  0
VERTEX
  5
1B4
100
AcDbEntity
  8
0
390
0
100
AcDbVertex
100
AcDb2dVertex
 10
249.1972568633
 20
127.9723367494
 30
0.0
  0
VERTEX
  5
1B5
100
AcDbEntity
  8
0
390
0
100
AcDbVertex
100
AcDb2dVertex
 10
249.8294461203
 20
127.5561852275
 30
0.0
  0
VERTEX
  5
1B6
100
AcDbEntity
  8
0
390
0
100
AcDbVertex
100
AcDb2dVertex
 10
250.4802890151
 20
127.1497297208
 30
0.0
  0
VERTEX
  5
1B7
100
AcDbEntity
  8
0
390
0
100
AcDbVertex
100
AcDb2dVertex
 10
251.1493394925
 20
126.7532487937
 30
0.0
  0
VERTEX
  5
1B8
100
AcDbEntity
  8
0
390
0
100
AcDbVertex
100
AcDb2dVertex
 10
251.8361390187
 20
126.3670141743
 30
0.0
  0
VERTEX
  5
1B9
100
AcDbEntity
  8
0
390
0
100
AcDbVertex
100
AcDb2dVertex
 10
252.5402168955
 20
125.9912905686
 30
0.0
  0
VERTEX
  5
1BA
100
AcDbEntity
  8
0
390
0
100
AcDbVertex
100
AcDb2dVertex
 10
253.2610905833
 20
125.6263354789
 30
0.0
  0
VERTEX
  5
1BB
100
AcDbEntity
  8
0
390
0
100
AcDbVertex
100
AcDb2dVertex
 10
253.9982660312
 20
125.272399027
 30
0.0
  0
VERTEX
  5
1BC
100
AcDbEntity
  8
0
390
0
100
AcDbVertex
100
AcDb2dVertex
 10
254.751238016
 20
124.9297237833
 30
0.0
  0
VERTEX
  5
1BD
100
AcDbEntity
  8
0
390
0
100
AcDbVertex
100
AcDb2dVertex
 10
255.5194904882
 20
124.5985446004
 30
0.0
  0
VERTEX
  5
1BE
100
AcDbEntity
  8
0
390
0
100
AcDbVertex
100
AcDb2dVertex
 10
256.3024969261
 20
124.2790884518
 30
0.0
  0
VERTEX
  5
1BF
100
AcDbEntity
  8
0
390
0
100
AcDbVertex
100
AcDb2dVertex
 10
257.099720696
 20
123.971574277
 30
0.0
  0
VERTEX
  5
1C0
100
AcDbEntity
  8
0
390
0
100
AcDbVertex
100
AcDb2dVertex
 10
257.9106154207
 20
123.6762128307
 30
0.0
  0
VERTEX
  5
1C1
100
AcDbEntity
  8
0
390
0
100
AcDbVertex
100
AcDb2dVertex
 10
258.7346253534
 20
123.3932065389
 30
0.0
  0
VERTEX
  5
1C2
100
AcDbEntity
  8
0
390
0
100
AcDbVertex
100
AcDb2dVertex
 10
259.5711857589
 20
123.12274936
 30
0.0
  0
VERTEX
  5
1C3
100
AcDbEntity
  8
0
390
0
100
AcDbVertex
100
AcDb2dVertex
 10
260.4197233005
 20
122.8650266519
 30
0.0
  0
VERTEX
  5
1C4
100
AcDbEntity
  8
0
390
0
100
AcDbVertex
100
AcDb2dVertex
 10
261.2796564328
 20
122.6202150448
 30
0.0
  0
VERTEX
  5
1C5
100
AcDbEntity
  8
0
390
0
100
AcDbVertex
100
AcDb2dVertex
 10
262.1503958008
 20
122.3884823203
 30
0.0
  0
VERTEX
  5
1C6
100
AcDbEntity
  8
0
390
0
100
AcDbVertex
100
AcDb2dVertex
 10
263.0313446431
 20
122.1699872965
 30
0.0
  0
VERTEX
  5
1C7
100
AcDbEntity
  8
0
390
0
100
AcDbVertex
100
AcDb2dVertex
 10
263.9218992013
 20
121.964879719
 30
0.0
  0
VERTEX
  5
1C8
100
AcDbEntity
  8
0
390
0
100
AcDbVertex
100
AcDb2dVertex
 10
264.821449134
 20
121.7733001583
 30
0.0
  0
VERTEX
  5
1C9
100
AcDbEntity
  8
0
390
0
100
AcDbVertex
100
AcDb2dVertex
 10
265.7293779345
 20
121.5953799134
 30
0.0
  0
VERTEX
  5
1CA
100
AcDbEntity
  8
0
390
0
100
AcDbVertex
100
AcDb2dVertex
 10
266.6450633537
 20
121.4312409219
 30
0.0
  0
VERTEX
  5
1CB
100
AcDbEntity
  8
0
390
0
100
AcDbVertex
100
AcDb2dVertex
 10
267.5678778266
 20
121.2809956766
 30
0.0
  0
VERTEX
  5
1CC
100
AcDbEntity
  8
0
390
0
100
AcDbVertex
100
AcDb2dVertex
 10
268.4971889022
 20
121.144747148
 30
0.0
  0
VERTEX
  5
1CD
100
AcDbEntity
  8
0
390
0
100
AcDbVertex
100
AcDb2dVertex
 10
269.4323596772
 20
121.022588714
 30
0.0
  0
VERTEX
  5
1CE
100
AcDbEntity
  8
0
390
0
100
AcDbVertex
100
AcDb2dVertex
 10
270.3727492323
 20
120.914604096
 30
0.0
  0
VERTEX
  5
1CF
100
AcDbEntity
  8
0
390
0
100
AcDbVertex
100
AcDb2dVertex
 10
271.3177130713
 20
120.8208673012
 30
0.0
  0
VERTEX
  5
1D0
100
AcDbEntity
  8
0
390
0
100
AcDbVertex
100
AcDb2dVertex
 10
272.2666035634
 20
120.7414425721
 30
0.0
  0
VERTEX
  5
1D1
100
AcDbEntity
  8
0
390
0
100
AcDbVertex
100
AcDb2dVertex
 10
273.2187703863
 20
120.6763843424
 30
0.0
  0
VERTEX
  5
1D2
100
AcDbEntity
  8
0
390
0
100
AcDbVertex
100
AcDb2dVertex
 10
274.1735609724
 20
120.6257371999
 30
0.0
  0
VERTEX
  5
1D3
100
AcDbEntity
  8
0
390
0
100
AcDbVertex
100
AcDb2dVertex
 10
275.130320956
 20
120.5895358556
 30
0.0
  0
VERTEX
  5
1D4
100
AcDbEntity
  8
0
390
0
100
AcDbVertex
100
AcDb2dVertex
 10
276.0883946217
 20
120.56780512
 30
0.0
  0
VERTEX
  5
1D5
100
AcDbEntity
  8
0
390
0
100
AcDbVertex
100
AcDb2dVertex
 10
277.0471253534
 20
120.5605598863
 30
0.0
  0
VERTEX
  5
1D6
100
AcDbEntity
  8
0
390
0
100
AcDbVertex
100
AcDb2dVertex
 10
278.0058560852
 20
120.56780512
 30
0.0
  0
VERTEX
  5
1D7
100
AcDbEntity
  8
0
390
0
100
AcDbVertex
100
AcDb2dVertex
 10
278.9639297508
 20
120.5895358556
 30
0.0
  0
VERTEX
  5
1D8
100
AcDbEntity
  8
0
390
0
100
AcDbVertex
100
AcDb2dVertex
 10
279.9206897345
 20
120.6257371999
 30
0.0
  0
VERTEX
  5
1D9
100
AcDbEntity
  8
0
390
0
100
AcDbVertex
100
AcDb2dVertex
 10
280.8754803206
 20
120.6763843424
 30
0.0
  0
VERTEX
  5
1DA
100
AcDbEntity
  8
0
390
0
100
AcDbVertex
100
AcDb2dVertex
 10
281.8276471435
 20
120.7414425721
 30
0.0
  0
VERTEX
  5
1DB
100
AcDbEntity
  8
0
390
0
100
AcDbVertex
100
AcDb2dVertex
 10
282.7765376355
 20
120.8208673012
 30
0.0
  0
VERTEX
  5
1DC
100
AcDbEntity
  8
0
390
0
100
AcDbVertex
100
AcDb2dVertex
 10
283.7215014746
 20
120.914604096
 30
0.0
  0
VERTEX
  5
1DD
100
AcDbEntity
  8
0
390
0
100
AcDbVertex
100
AcDb2dVertex
 10
284.6618910296
 20
121.022588714
 30
0.0
  0
VERTEX
  5
1DE
100
AcDbEntity
  8
0
390
0
100
AcDbVertex
100
AcDb2dVertex
 10
285.5970618047
 20
121.144747148
 30
0.0
  0
VERTEX
  5
1DF
100
AcDbEntity
  8
0
390
0
100
AcDbVertex
100
AcDb2dVertex
 10
286.5263728803
 20
121.2809956766
 30
0.0
  0
VERTEX
  5
1E0
100
AcDbEntity
  8
0
390
0
100
AcDbVertex
100
AcDb2dVertex
 10
287.4491873532
 20
121.4312409219
 30
0.0
  0
VERTEX
  5
1E1
100
AcDbEntity
  8
0
390
0
100
AcDbVertex
100
AcDb2dVertex
 10
288.3648727724
 20
121.5953799134
 30
0.0
  0
VERTEX
  5
1E2
100
AcDbEntity
  8
0
390
0
100
AcDbVertex
100
AcDb2dVertex
 10
289.2728015729
 20
121.7733001583
 30
0.0
  0
VERTEX
  5
1E3
100
AcDbEntity
  8
0
390
0
100
AcDbVertex
100
AcDb2dVertex
 10
290.1723515055
 20
121.964879719
 30
0.0
  0
VERTEX
  5
1E4
100
AcDbEntity
  8
0
390
0
100
AcDbVertex
100
AcDb2dVertex
 10
291.0629060638
 20
122.1699872965
 30
0.0
  0
VERTEX
  5
1E5
100
AcDbEntity
  8
0
390
0
100
AcDbVertex
100
AcDb2dVertex
 10
291.9438549061
 20
122.3884823203
 30
0.0
  0
VERTEX
  5
1E6
100
AcDbEntity
  8
0
390
0
100
AcDbVertex
100
AcDb2dVertex
 10
292.814594274
 20
122.6202150448
 30
0.0
  0
VERTEX
  5
1E7
100
AcDbEntity
  8
0
390
0
100
AcDbVertex
100
AcDb2dVertex
 10
293.6745274064
 20
122.8650266519
 30
0.0
  0
VERTEX
  5
1E8
100
AcDbEntity
  8
0
390
0
100
AcDbVertex
100
AcDb2dVertex
 10
294.5230649479
 20
123.12274936
 30
0.0
  0
VERTEX
  5
1E9
100
AcDbEntity
  8
0
390
0
100
AcDbVertex
100
AcDb2dVertex
 10
295.3596253534
 20
123.3932065389
 30
0.0
  0
VERTEX
  5
1EA
100
AcDbEntity
  8
0
390
0
100
AcDbVertex
100
AcDb2dVertex
 10
296.1836352862
 20
123.6762128307
 30
0.0
  0
VERTEX
  5
1EB
100
AcDbEntity
  8
0
390
0
100
AcDbVertex
100
AcDb2dVertex
 10
296.9945300109
 20
123.971574277
 30
0.0
  0
VERTEX
  5
1EC
100
AcDbEntity
  8
0
390
0
100
AcDbVertex
100
AcDb2dVertex
 10
297.7917537808
 20
124.2790884518
 30
0.0
  0
VERTEX
  5
1ED
100
AcDbEntity
  8
0
390
0
100
AcDbVertex
100
AcDb2dVertex
 10
298.5747602187
 20
124.5985446004
 30
0.0
  0
VERTEX
  5
1EE
100
AcDbEntity
  8
0
390
0
100
AcDbVertex
100
AcDb2dVertex
 10
299.3430126909
 20
124.9297237833
 30
0.0
  0
VERTEX
  5
1EF
100
AcDbEntity
  8
0
390
0
100
AcDbVertex
100
AcDb2dVertex
 10
300.0959846756
 20
125.272399027
 30
0.0
  0
VERTEX
  5
1F0
100
AcDbEntity
  8
0
390
0
100
AcDbVertex
100
AcDb2dVertex
 10
300.8331601235
 20
125.6263354789
 30
0.0
  0
VERTEX
  5
1F1
100
AcDbEntity
  8
0
390
0
100
AcDbVertex
100
AcDb2dVertex
 10
301.5540338113
 20
125.9912905686
 30
0.0
  0
VERTEX
  5
1F2
100
AcDbEntity
  8
0
390
0
100
AcDbVertex
100
AcDb2dVertex
 10
302.2581116882
 20
126.3670141743
 30
0.0
  0
VERTEX
  5
1F3
100
AcDbEntity
  8
0
390
0
100
AcDbVertex
100
AcDb2dVertex
 10
302.9449112144
 20
126.7532487937
 30
0.0
  0
SEQEND
  5
1F4
100
AcDbEntity
  8
0
390
0
  0
POLYLINE
  5
1F5
100
AcDbEntity
  8
0
390
0
  6
Continuous
 62
         7
100
AcDb2dPolyline
 66
         1
 10
0.0
 20
0.0
 30
0.0
 70
       128
 40
0.1181102362
 41
0.1181102362
  0
VERTEX
  5
1F6
100
AcDbEntity
  8
0
390
0
100
AcDbVertex
100
AcDb2dVertex
 10
250.8841744495
 20
126.6001722727
 30
0.0
  0
VERTEX
  5
1F7
100
AcDbEntity
  8
0
390
0
100
AcDbVertex
100
AcDb2dVertex
 10
251.5780060528
 20
126.2099830327
 30
0.0
  0
VERTEX
  5
1F8
100
AcDbEntity
  8
0
390
0
100
AcDbVertex
100
AcDb2dVertex
 10
252.2892929182
 20
125.8304124276
 30
0.0
  0
VERTEX
  5
1F9
100
AcDbEntity
  8
0
390
0
100
AcDbVertex
100
AcDb2dVertex
 10
253.0175475652
 20
125.4617205963
 30
0.0
  0
VERTEX
  5
1FA
100
AcDbEntity
  8
0
390
0
100
AcDbVertex
100
AcDb2dVertex
 10
253.7622708846
 20
125.1041602217
 30
0.0
  0
VERTEX
  5
1FB
100
AcDbEntity
  8
0
390
0
100
AcDbVertex
100
AcDb2dVertex
 10
254.5229524801
 20
124.7579763578
 30
0.0
  0
VERTEX
  5
1FC
100
AcDbEntity
  8
0
390
0
100
AcDbVertex
100
AcDb2dVertex
 10
255.2990710186
 20
124.4234062617
 30
0.0
  0
VERTEX
  5
1FD
100
AcDbEntity
  8
0
390
0
100
AcDbVertex
100
AcDb2dVertex
 10
256.0900945872
 20
124.1006792311
 30
0.0
  0
VERTEX
  5
1FE
100
AcDbEntity
  8
0
390
0
100
AcDbVertex
100
AcDb2dVertex
 10
256.8954810579
 20
123.790016447
 30
0.0
  0
VERTEX
  5
1FF
100
AcDbEntity
  8
0
390
0
100
AcDbVertex
100
AcDb2dVertex
 10
257.7146784589
 20
123.4916308221
 30
0.0
  0
VERTEX
  5
200
100
AcDbEntity
  8
0
390
0
100
AcDbVertex
100
AcDb2dVertex
 10
258.5471253534
 20
123.2057268549
 30
0.0
  0
VERTEX
  5
201
100
AcDbEntity
  8
0
390
0
100
AcDbVertex
100
AcDb2dVertex
 10
259.3922512238
 20
122.9325004899
 30
0.0
  0
VERTEX
  5
202
100
AcDbEntity
  8
0
390
0
100
AcDbVertex
100
AcDb2dVertex
 10
260.2494768631
 20
122.6721389827
 30
0.0
  0
VERTEX
  5
203
100
AcDbEntity
  8
0
390
0
100
AcDbVertex
100
AcDb2dVertex
 10
261.1182147715
 20
122.4248207721
 30
0.0
  0
VERTEX
  5
204
100
AcDbEntity
  8
0
390
0
100
AcDbVertex
100
AcDb2dVertex
 10
261.9978695596
 20
122.1907153576
 30
0.0
  0
VERTEX
  5
205
100
AcDbEntity
  8
0
390
0
100
AcDbVertex
100
AcDb2dVertex
 10
262.8878383559
 20
121.9699831835
 30
0.0
  0
VERTEX
  5
206
100
AcDbEntity
  8
0
390
0
100
AcDbVertex
100
AcDb2dVertex
 10
263.7875112203
 20
121.7627755284
 30
0.0
  0
VERTEX
  5
207
100
AcDbEntity
  8
0
390
0
100
AcDbVertex
100
AcDb2dVertex
 10
264.6962715618
 20
121.5692344022
 30
0.0
  0
VERTEX
  5
208
100
AcDbEntity
  8
0
390
0
100
AcDbVertex
100
AcDb2dVertex
 10
265.6134965616
 20
121.3894924482
 30
0.0
  0
VERTEX
  5
209
100
AcDbEntity
  8
0
390
0
100
AcDbVertex
100
AcDb2dVertex
 10
266.5385575994
 20
121.2236728528
 30
0.0
  0
VERTEX
  5
20A
100
AcDbEntity
  8
0
390
0
100
AcDbVertex
100
AcDb2dVertex
 10
267.4708206846
 20
121.0718892602
 30
0.0
  0
VERTEX
  5
20B
100
AcDbEntity
  8
0
390
0
100
AcDbVertex
100
AcDb2dVertex
 10
268.4096468908
 20
120.9342456955
 30
0.0
  0
VERTEX
  5
20C
100
AcDbEntity
  8
0
390
0
100
AcDbVertex
100
AcDb2dVertex
 10
269.3543927932
 20
120.8108364926
 30
0.0
  0
VERTEX
  5
20D
100
AcDbEntity
  8
0
390
0
100
AcDbVertex
100
AcDb2dVertex
 10
270.3044109102
 20
120.70174623
 30
0.0
  0
VERTEX
  5
20E
100
AcDbEntity
  8
0
390
0
100
AcDbVertex
100
AcDb2dVertex
 10
271.259050147
 20
120.6070496728
 30
0.0
  0
VERTEX
  5
20F
100
AcDbEntity
  8
0
390
0
100
AcDbVertex
100
AcDb2dVertex
 10
272.2176562413
 20
120.5268117212
 30
0.0
  0
VERTEX
  5
210
100
AcDbEntity
  8
0
390
0
100
AcDbVertex
100
AcDb2dVertex
 10
273.1795722125
 20
120.4610873663
 30
0.0
  0
VERTEX
  5
211
100
AcDbEntity
  8
0
390
0
100
AcDbVertex
100
AcDb2dVertex
 10
274.1441388115
 20
120.4099216524
 30
0.0
  0
VERTEX
  5
212
100
AcDbEntity
  8
0
390
0
100
AcDbVertex
100
AcDb2dVertex
 10
275.1106949725
 20
120.3733496458
 30
0.0
  0
VERTEX
  5
213
100
AcDbEntity
  8
0
390
0
100
AcDbVertex
100
AcDb2dVertex
 10
276.078578266
 20
120.3513964112
 30
0.0
  0
VERTEX
  5
214
100
AcDbEntity
  8
0
390
0
100
AcDbVertex
100
AcDb2dVertex
 10
277.0471253534
 20
120.3440769942
 30
0.0
  0
VERTEX
  5
215
100
AcDbEntity
  8
0
390
0
100
AcDbVertex
100
AcDb2dVertex
 10
278.0156724408
 20
120.3513964112
 30
0.0
  0
VERTEX
  5
216
100
AcDbEntity
  8
0
390
0
100
AcDbVertex
100
AcDb2dVertex
 10
278.9835557344
 20
120.3733496458
 30
0.0
  0
VERTEX
  5
217
100
AcDbEntity
  8
0
390
0
100
AcDbVertex
100
AcDb2dVertex
 10
279.9501118954
 20
120.4099216524
 30
0.0
  0
VERTEX
  5
218
100
AcDbEntity
  8
0
390
0
100
AcDbVertex
100
AcDb2dVertex
 10
280.9146784943
 20
120.4610873663
 30
0.0
  0
VERTEX
  5
219
100
AcDbEntity
  8
0
390
0
100
AcDbVertex
100
AcDb2dVertex
 10
281.8765944656
 20
120.5268117212
 30
0.0
  0
VERTEX
  5
21A
100
AcDbEntity
  8
0
390
0
100
AcDbVertex
100
AcDb2dVertex
 10
282.8352005599
 20
120.6070496728
 30
0.0
  0
VERTEX
  5
21B
100
AcDbEntity
  8
0
390
0
100
AcDbVertex
100
AcDb2dVertex
 10
283.7898397966
 20
120.70174623
 30
0.0
  0
VERTEX
  5
21C
100
AcDbEntity
  8
0
390
0
100
AcDbVertex
100
AcDb2dVertex
 10
284.7398579137
 20
120.8108364926
 30
0.0
  0
VERTEX
  5
21D
100
AcDbEntity
  8
0
390
0
100
AcDbVertex
100
AcDb2dVertex
 10
285.6846038161
 20
120.9342456955
 30
0.0
  0
VERTEX
  5
21E
100
AcDbEntity
  8
0
390
0
100
AcDbVertex
100
AcDb2dVertex
 10
286.6234300222
 20
121.0718892602
 30
0.0
  0
VERTEX
  5
21F
100
AcDbEntity
  8
0
390
0
100
AcDbVertex
100
AcDb2dVertex
 10
287.5556931075
 20
121.2236728528
 30
0.0
  0
VERTEX
  5
220
100
AcDbEntity
  8
0
390
0
100
AcDbVertex
100
AcDb2dVertex
 10
288.4807541453
 20
121.3894924482
 30
0.0
  0
VERTEX
  5
221
100
AcDbEntity
  8
0
390
0
100
AcDbVertex
100
AcDb2dVertex
 10
289.3979791451
 20
121.5692344022
 30
0.0
  0
VERTEX
  5
222
100
AcDbEntity
  8
0
390
0
100
AcDbVertex
100
AcDb2dVertex
 10
290.3067394866
 20
121.7627755284
 30
0.0
  0
VERTEX
  5
223
100
AcDbEntity
  8
0
390
0
100
AcDbVertex
100
AcDb2dVertex
 10
291.2064123509
 20
121.9699831835
 30
0.0
  0
VERTEX
  5
224
100
AcDbEntity
  8
0
390
0
100
AcDbVertex
100
AcDb2dVertex
 10
292.0963811472
 20
122.1907153576
 30
0.0
  0
VERTEX
  5
225
100
AcDbEntity
  8
0
390
0
100
AcDbVertex
100
AcDb2dVertex
 10
292.9760359353
 20
122.4248207721
 30
0.0
  0
VERTEX
  5
226
100
AcDbEntity
  8
0
390
0
100
AcDbVertex
100
AcDb2dVertex
 10
293.8447738438
 20
122.6721389827
 30
0.0
  0
VERTEX
  5
227
100
AcDbEntity
  8
0
390
0
100
AcDbVertex
100
AcDb2dVertex
 10
294.701999483
 20
122.9325004899
 30
0.0
  0
VERTEX
  5
228
100
AcDbEntity
  8
0
390
0
100
AcDbVertex
100
AcDb2dVertex
 10
295.5471253534
 20
123.2057268549
 30
0.0
  0
VERTEX
  5
229
100
AcDbEntity
  8
0
390
0
100
AcDbVertex
100
AcDb2dVertex
 10
296.3795722479
 20
123.4916308221
 30
0.0
  0
VERTEX
  5
22A
100
AcDbEntity
  8
0
390
0
100
AcDbVertex
100
AcDb2dVertex
 10
297.198769649
 20
123.790016447
 30
0.0
  0
VERTEX
  5
22B
100
AcDbEntity
  8
0
390
0
100
AcDbVertex
100
AcDb2dVertex
 10
298.0041561197
 20
124.1006792311
 30
0.0
  0
VERTEX
  5
22C
100
AcDbEntity
  8
0
390
0
100
AcDbVertex
100
AcDb2dVertex
 10
298.7951796883
 20
124.4234062617
 30
0.0
  0
VERTEX
  5
22D
100
AcDbEntity
  8
0
390
0
100
AcDbVertex
100
AcDb2dVertex
 10
299.5712982268
 20
124.7579763578
 30
0.0
  0
VERTEX
  5
22E
100
AcDbEntity
  8
0
390
0
100
AcDbVertex
100
AcDb2dVertex
 10
300.3319798223
 20
125.1041602217
 30
0.0
  0
VERTEX
  5
22F
100
AcDbEntity
  8
0
390
0
100
AcDbVertex
100
AcDb2dVertex
 10
301.0767031417
 20
125.4617205963
 30
0.0
  0
VERTEX
  5
230
100
AcDbEntity
  8
0
390
0
100
AcDbVertex
100
AcDb2dVertex
 10
301.8049577887
 20
125.8304124276
 30
0.0
  0
VERTEX
  5
231
100
AcDbEntity
  8
0
390
0
100
AcDbVertex
100
AcDb2dVertex
 10
302.5162446541
 20
126.2099830327
 30
0.0
  0
VERTEX
  5
232
100
AcDbEntity
  8
0
390
0
100
AcDbVertex
100
AcDb2dVertex
 10
303.2100762573
 20
126.6001722727
 30
0.0
  0
VERTEX
  5
233
100
AcDbEntity
  8
0
390
0
100
AcDbVertex
100
AcDb2dVertex
 10
303.8859770809
 20
127.0007127315
 30
0.0
  0
VERTEX
  5
234
100
AcDbEntity
  8
0
390
0
100
AcDbVertex
100
AcDb2dVertex
 10
304.5434838961
 20
127.4113298986
 30
0.0
  0
VERTEX
  5
235
100
AcDbEntity
  8
0
390
0
100
AcDbVertex
100
AcDb2dVertex
 10
305.1821460806
 20
127.8317423577
 30
0.0
  0
VERTEX
  5
236
100
AcDbEntity
  8
0
390
0
100
AcDbVertex
100
AcDb2dVertex
 10
305.8015259273
 20
128.2616619788
 30
0.0
  0
VERTEX
  5
237
100
AcDbEntity
  8
0
390
0
100
AcDbVertex
100
AcDb2dVertex
 10
306.4011989442
 20
128.7007941167
 30
0.0
  0
VERTEX
  5
238
100
AcDbEntity
  8
0
390
0
100
AcDbVertex
100
AcDb2dVertex
 10
306.9807541453
 20
129.1488378121
 30
0.0
  0
VERTEX
  5
239
100
AcDbEntity
  8
0
390
0
100
AcDbVertex
100
AcDb2dVertex
 10
307.5397943325
 20
129.6054859983
 30
0.0
  0
VERTEX
  5
23A
100
AcDbEntity
  8
0
390
0
100
AcDbVertex
100
AcDb2dVertex
 10
308.0779363674
 20
130.0704257113
 30
0.0
  0
VERTEX
  5
23B
100
AcDbEntity
  8
0
390
0
100
AcDbVertex
100
AcDb2dVertex
 10
308.5948114345
 20
130.5433383047
 30
0.0
  0
VERTEX
  5
23C
100
AcDbEntity
  8
0
390
0
100
AcDbVertex
100
AcDb2dVertex
 10
309.0900652935
 20
131.0238996678
 30
0.0
  0
VERTEX
  5
23D
100
AcDbEntity
  8
0
390
0
100
AcDbVertex
100
AcDb2dVertex
 10
309.5633585219
 20
131.511780448
 30
0.0
  0
VERTEX
  5
23E
100
AcDbEntity
  8
0
390
0
100
AcDbVertex
100
AcDb2dVertex
 10
310.0143667484
 20
132.006646276
 30
0.0
  0
VERTEX
  5
23F
100
AcDbEntity
  8
0
390
0
100
AcDbVertex
100
AcDb2dVertex
 10
310.4427808744
 20
132.5081579956
 30
0.0
  0
VERTEX
  5
240
100
AcDbEntity
  8
0
390
0
100
AcDbVertex
100
AcDb2dVertex
 10
310.8483072862
 20
133.0159718956
 30
0.0
  0
VERTEX
  5
241
100
AcDbEntity
  8
0
390
0
100
AcDbVertex
100
AcDb2dVertex
 10
311.2306680564
 20
133.5297399459
 30
0.0
  0
VERTEX
  5
242
100
AcDbEntity
  8
0
390
0
100
AcDbVertex
100
AcDb2dVertex
 10
311.5896011338
 20
134.0491100353
 30
0.0
  0
VERTEX
  5
243
100
AcDbEntity
  8
0
390
0
100
AcDbVertex
100
AcDb2dVertex
 10
311.9248605239
 20
134.5737262137
 30
0.0
  0
VERTEX
  5
244
100
AcDbEntity
  8
0
390
0
100
AcDbVertex
100
AcDb2dVertex
 10
312.2362164564
 20
135.1032289353
 30
0.0
  0
VERTEX
  5
245
100
AcDbEntity
  8
0
390
0
100
AcDbVertex
100
AcDb2dVertex
 10
312.5234555436
 20
135.6372553054
 30
0.0
  0
VERTEX
  5
246
100
AcDbEntity
  8
0
390
0
100
AcDbVertex
100
AcDb2dVertex
 10
312.7863809261
 20
136.1754393289
 30
0.0
  0
VERTEX
  5
247
100
AcDbEntity
  8
0
390
0
100
AcDbVertex
100
AcDb2dVertex
 10
313.0248124082
 20
136.7174121615
 30
0.0
  0
VERTEX
  5
248
100
AcDbEntity
  8
0
390
0
100
AcDbVertex
100
AcDb2dVertex
 10
313.2385865806
 20
137.262802362
 30
0.0
  0
VERTEX
  5
249
100
AcDbEntity
  8
0
390
0
100
AcDbVertex
100
AcDb2dVertex
 10
313.4275569333
 20
137.8112361472
 30
0.0
  0
VERTEX
  5
24A
100
AcDbEntity
  8
0
390
0
100
AcDbVertex
100
AcDb2dVertex
 10
313.5915939555
 20
138.3623376481
 30
0.0
  0
VERTEX
  5
24B
100
AcDbEntity
  8
0
390
0
100
AcDbVertex
100
AcDb2dVertex
 10
313.7305852243
 20
138.9157291671
 30
0.0
  0
VERTEX
  5
24C
100
AcDbEntity
  8
0
390
0
100
AcDbVertex
100
AcDb2dVertex
 10
313.8444354821
 20
139.4710314373
 30
0.0
  0
VERTEX
  5
24D
100
AcDbEntity
  8
0
390
0
100
AcDbVertex
100
AcDb2dVertex
 10
313.9330667016
 20
140.0278638824
 30
0.0
  0
VERTEX
  5
24E
100
AcDbEntity
  8
0
390
0
100
AcDbVertex
100
AcDb2dVertex
 10
313.9964181394
 20
140.5858448772
 30
0.0
  0
VERTEX
  5
24F
100
AcDbEntity
  8
0
390
0
100
AcDbVertex
100
AcDb2dVertex
 10
314.0344463775
 20
141.1445920093
 30
0.0
  0
VERTEX
  5
250
100
AcDbEntity
  8
0
390
0
100
AcDbVertex
100
AcDb2dVertex
 10
314.0471253534
 20
141.7037223414
 30
0.0
  0
VERTEX
  5
251
100
AcDbEntity
  8
0
390
0
100
AcDbVertex
100
AcDb2dVertex
 10
314.0344463775
 20
142.2628526735
 30
0.0
  0
VERTEX
  5
252
100
AcDbEntity
  8
0
390
0
100
AcDbVertex
100
AcDb2dVertex
 10
313.9964181394
 20
142.8215998057
 30
0.0
  0
VERTEX
  5
253
100
AcDbEntity
  8
0
390
0
100
AcDbVertex
100
AcDb2dVertex
 10
313.9330667016
 20
143.3795808004
 30
0.0
  0
VERTEX
  5
254
100
AcDbEntity
  8
0
390
0
100
AcDbVertex
100
AcDb2dVertex
 10
313.8444354821
 20
143.9364132455
 30
0.0
  0
VERTEX
  5
255
100
AcDbEntity
  8
0
390
0
100
AcDbVertex
100
AcDb2dVertex
 10
313.7305852243
 20
144.4917155157
 30
0.0
  0
VERTEX
  5
256
100
AcDbEntity
  8
0
390
0
100
AcDbVertex
100
AcDb2dVertex
 10
313.5915939555
 20
145.0451070347
 30
0.0
  0
VERTEX
  5
257
100
AcDbEntity
  8
0
390
0
100
AcDbVertex
100
AcDb2dVertex
 10
313.4275569333
 20
145.5962085356
 30
0.0
  0
VERTEX
  5
258
100
AcDbEntity
  8
0
390
0
100
AcDbVertex
100
AcDb2dVertex
 10
313.2385865806
 20
146.1446423208
 30
0.0
  0
VERTEX
  5
259
100
AcDbEntity
  8
0
390
0
100
AcDbVertex
100
AcDb2dVertex
 10
313.0248124082
 20
146.6900325213
 30
0.0
  0
VERTEX
  5
25A
100
AcDbEntity
  8
0
390
0
100
AcDbVertex
100
AcDb2dVertex
 10
312.7863809261
 20
147.2320053539
 30
0.0
  0
VERTEX
  5
25B
100
AcDbEntity
  8
0
390
0
100
AcDbVertex
100
AcDb2dVertex
 10
312.5234555436
 20
147.7701893774
 30
0.0
  0
VERTEX
  5
25C
100
AcDbEntity
  8
0
390
0
100
AcDbVertex
100
AcDb2dVertex
 10
312.2362164564
 20
148.3042157475
 30
0.0
  0
VERTEX
  5
25D
100
AcDbEntity
  8
0
390
0
100
AcDbVertex
100
AcDb2dVertex
 10
311.9248605239
 20
148.8337184691
 30
0.0
  0
VERTEX
  5
25E
100
AcDbEntity
  8
0
390
0
100
AcDbVertex
100
AcDb2dVertex
 10
311.5896011338
 20
149.3583346475
 30
0.0
  0
VERTEX
  5
25F
100
AcDbEntity
  8
0
390
0
100
AcDbVertex
100
AcDb2dVertex
 10
311.2306680564
 20
149.877704737
 30
0.0
  0
VERTEX
  5
260
100
AcDbEntity
  8
0
390
0
100
AcDbVertex
100
AcDb2dVertex
 10
310.8483072862
 20
150.3914727872
 30
0.0
  0
VERTEX
  5
261
100
AcDbEntity
  8
0
390
0
100
AcDbVertex
100
AcDb2dVertex
 10
310.4427808744
 20
150.8992866873
 30
0.0
  0
VERTEX
  5
262
100
AcDbEntity
  8
0
390
0
100
AcDbVertex
100
AcDb2dVertex
 10
310.0143667484
 20
151.4007984068
 30
0.0
  0
VERTEX
  5
263
100
AcDbEntity
  8
0
390
0
100
AcDbVertex
100
AcDb2dVertex
 10
309.5633585219
 20
151.8956642348
 30
0.0
  0
VERTEX
  5
264
100
AcDbEntity
  8
0
390
0
100
AcDbVertex
100
AcDb2dVertex
 10
309.0900652935
 20
152.383545015
 30
0.0
  0
VERTEX
  5
265
100
AcDbEntity
  8
0
390
0
100
AcDbVertex
100
AcDb2dVertex
 10
308.5948114345
 20
152.8641063781
 30
0.0
  0
VERTEX
  5
266
100
AcDbEntity
  8
0
390
0
100
AcDbVertex
100
AcDb2dVertex
 10
308.0779363674
 20
153.3370189715
 30
0.0
  0
VERTEX
  5
267
100
AcDbEntity
  8
0
390
0
100
AcDbVertex
100
AcDb2dVertex
 10
307.5397943325
 20
153.8019586845
 30
0.0
  0
VERTEX
  5
268
100
AcDbEntity
  8
0
390
0
100
AcDbVertex
100
AcDb2dVertex
 10
306.9807541453
 20
154.2586068707
 30
0.0
  0
VERTEX
  5
269
100
AcDbEntity
  8
0
390
0
100
AcDbVertex
100
AcDb2dVertex
 10
306.4011989442
 20
154.7066505661
 30
0.0
  0
VERTEX
  5
26A
100
AcDbEntity
  8
0
390
0
100
AcDbVertex
100
AcDb2dVertex
 10
305.8015259273
 20
155.145782704
 30
0.0
  0
VERTEX
  5
26B
100
AcDbEntity
  8
0
390
0
100
AcDbVertex
100
AcDb2dVertex
 10
305.1821460806
 20
155.5757023251
 30
0.0
  0
VERTEX
  5
26C
100
AcDbEntity
  8
0
390
0
100
AcDbVertex
100
AcDb2dVertex
 10
304.5434838961
 20
155.9961147842
 30
0.0
  0
VERTEX
  5
26D
100
AcDbEntity
  8
0
390
0
100
AcDbVertex
100
AcDb2dVertex
 10
303.8859770809
 20
156.4067319513
 30
0.0
  0
VERTEX
  5
26E
100
AcDbEntity
  8
0
390
0
100
AcDbVertex
100
AcDb2dVertex
 10
303.2100762573
 20
156.8072724101
 30
0.0
  0
VERTEX
  5
26F
100
AcDbEntity
  8
0
390
0
100
AcDbVertex
100
AcDb2dVertex
 10
302.5162446541
 20
157.1974616502
 30
0.0
  0
VERTEX
  5
270
100
AcDbEntity
  8
0
390
0
100
AcDbVertex
100
AcDb2dVertex
 10
301.8049577887
 20
157.5770322552
 30
0.0
  0
VERTEX
  5
271
100
AcDbEntity
  8
0
390
0
100
AcDbVertex
100
AcDb2dVertex
 10
301.0767031417
 20
157.9457240865
 30
0.0
  0
VERTEX
  5
272
100
AcDbEntity
  8
0
390
0
100
AcDbVertex
100
AcDb2dVertex
 10
300.3319798223
 20
158.3032844611
 30
0.0
  0
VERTEX
  5
273
100
AcDbEntity
  8
0
390
0
100
AcDbVertex
100
AcDb2dVertex
 10
299.5712982268
 20
158.649468325
 30
0.0
  0
VERTEX
  5
274
100
AcDbEntity
  8
0
390
0
100
AcDbVertex
100
AcDb2dVertex
 10
298.7951796883
 20
158.9840384211
 30
0.0
  0
VERTEX
  5
275
100
AcDbEntity
  8
0
390
0
100
AcDbVertex
100
AcDb2dVertex
 10
298.0041561197
 20
159.3067654517
 30
0.0
  0
VERTEX
  5
276
100
AcDbEntity
  8
0
390
0
100
AcDbVertex
100
AcDb2dVertex
 10
297.198769649
 20
159.6174282358
 30
0.0
  0
VERTEX
  5
277
100
AcDbEntity
  8
0
390
0
100
AcDbVertex
100
AcDb2dVertex
 10
296.3795722479
 20
159.9158138608
 30
0.0
  0
VERTEX
  5
278
100
AcDbEntity
  8
0
390
0
100
AcDbVertex
100
AcDb2dVertex
 10
295.5471253534
 20
160.2017178279
 30
0.0
  0
VERTEX
  5
279
100
AcDbEntity
  8
0
390
0
100
AcDbVertex
100
AcDb2dVertex
 10
294.701999483
 20
160.4749441929
 30
0.0
  0
VERTEX
  5
27A
100
AcDbEntity
  8
0
390
0
100
AcDbVertex
100
AcDb2dVertex
 10
293.8447738438
 20
160.7353057001
 30
0.0
  0
VERTEX
  5
27B
100
AcDbEntity
  8
0
390
0
100
AcDbVertex
100
AcDb2dVertex
 10
292.9760359353
 20
160.9826239107
 30
0.0
  0
VERTEX
  5
27C
100
AcDbEntity
  8
0
390
0
100
AcDbVertex
100
AcDb2dVertex
 10
292.0963811472
 20
161.2167293252
 30
0.0
  0
VERTEX
  5
27D
100
AcDbEntity
  8
0
390
0
100
AcDbVertex
100
AcDb2dVertex
 10
291.2064123509
 20
161.4374614994
 30
0.0
  0
VERTEX
  5
27E
100
AcDbEntity
  8
0
390
0
100
AcDbVertex
100
AcDb2dVertex
 10
290.3067394866
 20
161.6446691544
 30
0.0
  0
VERTEX
  5
27F
100
AcDbEntity
  8
0
390
0
100
AcDbVertex
100
AcDb2dVertex
 10
289.3979791451
 20
161.8382102807
 30
0.0
  0
VERTEX
  5
280
100
AcDbEntity
  8
0
390
0
100
AcDbVertex
100
AcDb2dVertex
 10
288.4807541453
 20
162.0179522346
 30
0.0
  0
VERTEX
  5
281
100
AcDbEntity
  8
0
390
0
100
AcDbVertex
100
AcDb2dVertex
 10
287.5556931075
 20
162.1837718301
 30
0.0
  0
VERTEX
  5
282
100
AcDbEntity
  8
0
390
0
100
AcDbVertex
100
AcDb2dVertex
 10
286.6234300222
 20
162.3355554226
 30
0.0
  0
VERTEX
  5
283
100
AcDbEntity
  8
0
390
0
100
AcDbVertex
100
AcDb2dVertex
 10
285.6846038161
 20
162.4731989874
 30
0.0
  0
VERTEX
  5
284
100
AcDbEntity
  8
0
390
0
100
AcDbVertex
100
AcDb2dVertex
 10
284.7398579137
 20
162.5966081903
 30
0.0
  0
VERTEX
  5
285
100
AcDbEntity
  8
0
390
0
100
AcDbVertex
100
AcDb2dVertex
 10
283.7898397966
 20
162.7056984528
 30
0.0
  0
VERTEX
  5
286
100
AcDbEntity
  8
0
390
0
100
AcDbVertex
100
AcDb2dVertex
 10
282.8352005599
 20
162.80039501
 30
0.0
  0
VERTEX
  5
287
100
AcDbEntity
  8
0
390
0
100
AcDbVertex
100
AcDb2dVertex
 10
281.8765944656
 20
162.8806329616
 30
0.0
  0
VERTEX
  5
288
100
AcDbEntity
  8
0
390
0
100
AcDbVertex
100
AcDb2dVertex
 10
280.9146784943
 20
162.9463573165
 30
0.0
  0
VERTEX
  5
289
100
AcDbEntity
  8
0
390
0
100
AcDbVertex
100
AcDb2dVertex
 10
279.9501118954
 20
162.9975230304
 30
0.0
  0
VERTEX
  5
28A
100
AcDbEntity
  8
0
390
0
100
AcDbVertex
100
AcDb2dVertex
 10
278.9835557344
 20
163.034095037
 30
0.0
  0
VERTEX
  5
28B
100
AcDbEntity
  8
0
390
0
100
AcDbVertex
100
AcDb2dVertex
 10
278.0156724408
 20
163.0560482716
 30
0.0
  0
VERTEX
  5
28C
100
AcDbEntity
  8
0
390
0
100
AcDbVertex
100
AcDb2dVertex
 10
277.0471253534
 20
163.0633676886
 30
0.0
  0
VERTEX
  5
28D
100
AcDbEntity
  8
0
390
0
100
AcDbVertex
100
AcDb2dVertex
 10
276.078578266
 20
163.0560482716
 30
0.0
  0
VERTEX
  5
28E
100
AcDbEntity
  8
0
390
0
100
AcDbVertex
100
AcDb2dVertex
 10
275.1106949725
 20
163.034095037
 30
0.0
  0
VERTEX
  5
28F
100
AcDbEntity
  8
0
390
0
100
AcDbVertex
100
AcDb2dVertex
 10
274.1441388115
 20
162.9975230304
 30
0.0
  0
VERTEX
  5
290
100
AcDbEntity
  8
0
390
0
100
AcDbVertex
100
AcDb2dVertex
 10
273.1795722125
 20
162.9463573165
 30
0.0
  0
VERTEX
  5
291
100
AcDbEntity
  8
0
390
0
100
AcDbVertex
100
AcDb2dVertex
 10
272.2176562413
 20
162.8806329616
 30
0.0
  0
VERTEX
  5
292
100
AcDbEntity
  8
0
390
0
100
AcDbVertex
100
AcDb2dVertex
 10
271.259050147
 20
162.80039501
 30
0.0
  0
VERTEX
  5
293
100
AcDbEntity
  8
0
390
0
100
AcDbVertex
100
AcDb2dVertex
 10
270.3044109102
 20
162.7056984528
 30
0.0
  0
VERTEX
  5
294
100
AcDbEntity
  8
0
390
0
100
AcDbVertex
100
AcDb2dVertex
 10
269.3543927932
 20
162.5966081903
 30
0.0
  0
VERTEX
  5
295
100
AcDbEntity
  8
0
390
0
100
AcDbVertex
100
AcDb2dVertex
 10
268.4096468908
 20
162.4731989874
 30
0.0
  0
VERTEX
  5
296
100
AcDbEntity
  8
0
390
0
100
AcDbVertex
100
AcDb2dVertex
 10
267.4708206846
 20
162.3355554226
 30
0.0
  0
VERTEX
  5
297
100
AcDbEntity
  8
0
390
0
100
AcDbVertex
100
AcDb2dVertex
 10
266.5385575994
 20
162.1837718301
 30
0.0
  0
VERTEX
  5
298
100
AcDbEntity
  8
0
390
0
100
AcDbVertex
100
AcDb2dVertex
 10
265.6134965616
 20
162.0179522346
 30
0.0
  0
VERTEX
  5
299
100
AcDbEntity
  8
0
390
0
100
AcDbVertex
100
AcDb2dVertex
 10
264.6962715618
 20
161.8382102807
 30
0.0
  0
VERTEX
  5
29A
100
AcDbEntity
  8
0
390
0
100
AcDbVertex
100
AcDb2dVertex
 10
263.7875112203
 20
161.6446691544
 30
0.0
  0
VERTEX
  5
29B
100
AcDbEntity
  8
0
390
0
100
AcDbVertex
100
AcDb2dVertex
 10
262.8878383559
 20
161.4374614994
 30
0.0
  0
VERTEX
  5
29C
100
AcDbEntity
  8
0
390
0
100
AcDbVertex
100
AcDb2dVertex
 10
261.9978695596
 20
161.2167293252
 30
0.0
  0
VERTEX
  5
29D
100
AcDbEntity
  8
0
390
0
100
AcDbVertex
100
AcDb2dVertex
 10
261.1182147715
 20
160.9826239107
 30
0.0
  0
VERTEX
  5
29E
100
AcDbEntity
  8
0
390
0
100
AcDbVertex
100
AcDb2dVertex
 10
260.2494768631
 20
160.7353057001
 30
0.0
  0
VERTEX
  5
29F
100
AcDbEntity
  8
0
390
0
100
AcDbVertex
100
AcDb2dVertex
 10
259.3922512238
 20
160.4749441929
 30
0.0
  0
VERTEX
  5
2A0
100
AcDbEntity
  8
0
390
0
100
AcDbVertex
100
AcDb2dVertex
 10
258.5471253534
 20
160.2017178279
 30
0.0
  0
VERTEX
  5
2A1
100
AcDbEntity
  8
0
390
0
100
AcDbVertex
100
AcDb2dVertex
 10
257.7146784589
 20
159.9158138608
 30
0.0
  0
VERTEX
  5
2A2
100
AcDbEntity
  8
0
390
0
100
AcDbVertex
100
AcDb2dVertex
 10
256.8954810579
 20
159.6174282358
 30
0.0
  0
VERTEX
  5
2A3
100
AcDbEntity
  8
0
390
0
100
AcDbVertex
100
AcDb2dVertex
 10
256.0900945872
 20
159.3067654517
 30
0.0
  0
VERTEX
  5
2A4
100
AcDbEntity
  8
0
390
0
100
AcDbVertex
100
AcDb2dVertex
 10
255.2990710186
 20
158.9840384211
 30
0.0
  0
VERTEX
  5
2A5
100
AcDbEntity
  8
0
390
0
100
AcDbVertex
100
AcDb2dVertex
 10
254.5229524801
 20
158.649468325
 30
0.0
  0
VERTEX
  5
2A6
100
AcDbEntity
  8
0
390
0
100
AcDbVertex
100
AcDb2dVertex
 10
253.7622708846
 20
158.3032844611
 30
0.0
  0
VERTEX
  5
2A7
100
AcDbEntity
  8
0
390
0
100
AcDbVertex
100
AcDb2dVertex
 10
253.0175475652
 20
157.9457240865
 30
0.0
  0
VERTEX
  5
2A8
100
AcDbEntity
  8
0
390
0
100
AcDbVertex
100
AcDb2dVertex
 10
252.2892929182
 20
157.5770322552
 30
0.0
  0
VERTEX
  5
2A9
100
AcDbEntity
  8
0
390
0
100
AcDbVertex
100
AcDb2dVertex
 10
251.5780060528
 20
157.1974616502
 30
0.0
  0
VERTEX
  5
2AA
100
AcDbEntity
  8
0
390
0
100
AcDbVertex
100
AcDb2dVertex
 10
250.8841744495
 20
156.8072724101
 30
0.0
  0
VERTEX
  5
2AB
100
AcDbEntity
  8
0
390
0
100
AcDbVertex
100
AcDb2dVertex
 10
250.208273626
 20
156.4067319513
 30
0.0
  0
VERTEX
  5
2AC
100
AcDbEntity
  8
0
390
0
100
AcDbVertex
100
AcDb2dVertex
 10
249.5507668108
 20
155.9961147842
 30
0.0
  0
VERTEX
  5
2AD
100
AcDbEntity
  8
0
390
0
100
AcDbVertex
100
AcDb2dVertex
 10
248.9121046262
 20
155.5757023251
 30
0.0
  0
VERTEX
  5
2AE
100
AcDbEntity
  8
0
390
0
100
AcDbVertex
100
AcDb2dVertex
 10
248.2927247795
 20
155.145782704
 30
0.0
  0
VERTEX
  5
2AF
100
AcDbEntity
  8
0
390
0
100
AcDbVertex
100
AcDb2dVertex
 10
247.6930517627
 20
154.7066505661
 30
0.0
  0
VERTEX
  5
2B0
100
AcDbEntity
  8
0
390
0
100
AcDbVertex
100
AcDb2dVertex
 10
247.1134965616
 20
154.2586068707
 30
0.0
  0
VERTEX
  5
2B1
100
AcDbEntity
  8
0
390
0
100
AcDbVertex
100
AcDb2dVertex
 10
246.5544563744
 20
153.8019586845
 30
0.0
  0
VERTEX
  5
2B2
100
AcDbEntity
  8
0
390
0
100
AcDbVertex
100
AcDb2dVertex
 10
246.0163143395
 20
153.3370189715
 30
0.0
  0
VERTEX
  5
2B3
100
AcDbEntity
  8
0
390
0
100
AcDbVertex
100
AcDb2dVertex
 10
245.4994392723
 20
152.8641063781
 30
0.0
  0
VERTEX
  5
2B4
100
AcDbEntity
  8
0
390
0
100
AcDbVertex
100
AcDb2dVertex
 10
245.0041854134
 20
152.383545015
 30
0.0
  0
VERTEX
  5
2B5
100
AcDbEntity
  8
0
390
0
100
AcDbVertex
100
AcDb2dVertex
 10
244.5308921849
 20
151.8956642348
 30
0.0
  0
VERTEX
  5
2B6
100
AcDbEntity
  8
0
390
0
100
AcDbVertex
100
AcDb2dVertex
 10
244.0798839585
 20
151.4007984068
 30
0.0
  0
VERTEX
  5
2B7
100
AcDbEntity
  8
0
390
0
100
AcDbVertex
100
AcDb2dVertex
 10
243.6514698325
 20
150.8992866873
 30
0.0
  0
VERTEX
  5
2B8
100
AcDbEntity
  8
0
390
0
100
AcDbVertex
100
AcDb2dVertex
 10
243.2459434207
 20
150.3914727872
 30
0.0
  0
VERTEX
  5
2B9
100
AcDbEntity
  8
0
390
0
100
AcDbVertex
100
AcDb2dVertex
 10
242.8635826505
 20
149.877704737
 30
0.0
  0
VERTEX
  5
2BA
100
AcDbEntity
  8
0
390
0
100
AcDbVertex
100
AcDb2dVertex
 10
242.504649573
 20
149.3583346475
 30
0.0
  0
VERTEX
  5
2BB
100
AcDbEntity
  8
0
390
0
100
AcDbVertex
100
AcDb2dVertex
 10
242.169390183
 20
148.8337184691
 30
0.0
  0
VERTEX
  5
2BC
100
AcDbEntity
  8
0
390
0
100
AcDbVertex
100
AcDb2dVertex
 10
241.8580342505
 20
148.3042157475
 30
0.0
  0
VERTEX
  5
2BD
100
AcDbEntity
  8
0
390
0
100
AcDbVertex
100
AcDb2dVertex
 10
241.5707951633
 20
147.7701893774
 30
0.0
  0
VERTEX
  5
2BE
100
AcDbEntity
  8
0
390
0
100
AcDbVertex
100
AcDb2dVertex
 10
241.3078697807
 20
147.2320053539
 30
0.0
  0
VERTEX
  5
2BF
100
AcDbEntity
  8
0
390
0
100
AcDbVertex
100
AcDb2dVertex
 10
241.0694382987
 20
146.6900325213
 30
0.0
  0
VERTEX
  5
2C0
100
AcDbEntity
  8
0
390
0
100
AcDbVertex
100
AcDb2dVertex
 10
240.8556641263
 20
146.1446423208
 30
0.0
  0
VERTEX
  5
2C1
100
AcDbEntity
  8
0
390
0
100
AcDbVertex
100
AcDb2dVertex
 10
240.6666937736
 20
145.5962085356
 30
0.0
  0
VERTEX
  5
2C2
100
AcDbEntity
  8
0
390
0
100
AcDbVertex
100
AcDb2dVertex
 10
240.5026567514
 20
145.0451070347
 30
0.0
  0
VERTEX
  5
2C3
100
AcDbEntity
  8
0
390
0
100
AcDbVertex
100
AcDb2dVertex
 10
240.3636654826
 20
144.4917155157
 30
0.0
  0
VERTEX
  5
2C4
100
AcDbEntity
  8
0
390
0
100
AcDbVertex
100
AcDb2dVertex
 10
240.2498152248
 20
143.9364132455
 30
0.0
  0
VERTEX
  5
2C5
100
AcDbEntity
  8
0
390
0
100
AcDbVertex
100
AcDb2dVertex
 10
240.1611840053
 20
143.3795808004
 30
0.0
  0
VERTEX
  5
2C6
100
AcDbEntity
  8
0
390
0
100
AcDbVertex
100
AcDb2dVertex
 10
240.0978325675
 20
142.8215998057
 30
0.0
  0
VERTEX
  5
2C7
100
AcDbEntity
  8
0
390
0
100
AcDbVertex
100
AcDb2dVertex
 10
240.0598043293
 20
142.2628526735
 30
0.0
  0
VERTEX
  5
2C8
100
AcDbEntity
  8
0
390
0
100
AcDbVertex
100
AcDb2dVertex
 10
240.0471253534
 20
141.7037223414
 30
0.0
  0
VERTEX
  5
2C9
100
AcDbEntity
  8
0
390
0
100
AcDbVertex
100
AcDb2dVertex
 10
240.0598043293
 20
141.1445920093
 30
0.0
  0
VERTEX
  5
2CA
100
AcDbEntity
  8
0
390
0
100
AcDbVertex
100
AcDb2dVertex
 10
240.0978325675
 20
140.5858448772
 30
0.0
  0
VERTEX
  5
2CB
100
AcDbEntity
  8
0
390
0
100
AcDbVertex
100
AcDb2dVertex
 10
240.1611840053
 20
140.0278638824
 30
0.0
  0
VERTEX
  5
2CC
100
AcDbEntity
  8
0
390
0
100
AcDbVertex
100
AcDb2dVertex
 10
240.2498152248
 20
139.4710314373
 30
0.0
  0
VERTEX
  5
2CD
100
AcDbEntity
  8
0
390
0
100
AcDbVertex
100
AcDb2dVertex
 10
240.3636654826
 20
138.9157291671
 30
0.0
  0
VERTEX
  5
2CE
100
AcDbEntity
  8
0
390
0
100
AcDbVertex
100
AcDb2dVertex
 10
240.5026567514
 20
138.3623376481
 30
0.0
  0
VERTEX
  5
2CF
100
AcDbEntity
  8
0
390
0
100
AcDbVertex
100
AcDb2dVertex
 10
240.6666937736
 20
137.8112361472
 30
0.0
  0
VERTEX
  5
2D0
100
AcDbEntity
  8
0
390
0
100
AcDbVertex
100
AcDb2dVertex
 10
240.8556641263
 20
137.262802362
 30
0.0
  0
VERTEX
  5
2D1
100
AcDbEntity
  8
0
390
0
100
AcDbVertex
100
AcDb2dVertex
 10
241.0694382987
 20
136.7174121615
 30
0.0
  0
VERTEX
  5
2D2
100
AcDbEntity
  8
0
390
0
100
AcDbVertex
100
AcDb2dVertex
 10
241.3078697807
 20
136.1754393289
 30
0.0
  0
VERTEX
  5
2D3
100
AcDbEntity
  8
0
390
0
100
AcDbVertex
100
AcDb2dVertex
 10
241.5707951633
 20
135.6372553054
 30
0.0
  0
VERTEX
  5
2D4
100
AcDbEntity
  8
0
390
0
100
AcDbVertex
100
AcDb2dVertex
 10
241.8580342505
 20
135.1032289353
 30
0.0
  0
VERTEX
  5
2D5
100
AcDbEntity
  8
0
390
0
100
AcDbVertex
100
AcDb2dVertex
 10
242.169390183
 20
134.5737262137
 30
0.0
  0
VERTEX
  5
2D6
100
AcDbEntity
  8
0
390
0
100
AcDbVertex
100
AcDb2dVertex
 10
242.504649573
 20
134.0491100353
 30
0.0
  0
VERTEX
  5
2D7
100
AcDbEntity
  8
0
390
0
100
AcDbVertex
100
AcDb2dVertex
 10
242.8635826505
 20
133.5297399459
 30
0.0
  0
VERTEX
  5
2D8
100
AcDbEntity
  8
0
390
0
100
AcDbVertex
100
AcDb2dVertex
 10
243.2459434207
 20
133.0159718956
 30
0.0
  0
VERTEX
  5
2D9
100
AcDbEntity
  8
0
390
0
100
AcDbVertex
100
AcDb2dVertex
 10
243.6514698325
 20
132.5081579956
 30
0.0
  0
VERTEX
  5
2DA
100
AcDbEntity
  8
0
390
0
100
AcDbVertex
100
AcDb2dVertex
 10
244.0798839585
 20
132.006646276
 30
0.0
  0
VERTEX
  5
2DB
100
AcDbEntity
  8
0
390
0
100
AcDbVertex
100
AcDb2dVertex
 10
244.5308921849
 20
131.511780448
 30
0.0
  0
VERTEX
  5
2DC
100
AcDbEntity
  8
0
390
0
100
AcDbVertex
100
AcDb2dVertex
 10
245.0041854134
 20
131.0238996678
 30
0.0
  0
VERTEX
  5
2DD
100
AcDbEntity
  8
0
390
0
100
AcDbVertex
100
AcDb2dVertex
 10
245.4994392723
 20
130.5433383047
 30
0.0
  0
VERTEX
  5
2DE
100
AcDbEntity
  8
0
390
0
100
AcDbVertex
100
AcDb2dVertex
 10
246.0163143395
 20
130.0704257113
 30
0.0
  0
VERTEX
  5
2DF
100
AcDbEntity
  8
0
390
0
100
AcDbVertex
100
AcDb2dVertex
 10
246.5544563744
 20
129.6054859983
 30
0.0
  0
VERTEX
  5
2E0
100
AcDbEntity
  8
0
390
0
100
AcDbVertex
100
AcDb2dVertex
 10
247.1134965616
 20
129.1488378121
 30
0.0
  0
VERTEX
  5
2E1
100
AcDbEntity
  8
0
390
0
100
AcDbVertex
100
AcDb2dVertex
 10
247.6930517627
 20
128.7007941167
 30
0.0
  0
VERTEX
  5
2E2
100
AcDbEntity
  8
0
390
0
100
AcDbVertex
100
AcDb2dVertex
 10
248.2927247795
 20
128.2616619788
 30
0.0
  0
VERTEX
  5
2E3
100
AcDbEntity
  8
0
390
0
100
AcDbVertex
100
AcDb2dVertex
 10
248.9121046262
 20
127.8317423577
 30
0.0
  0
VERTEX
  5
2E4
100
AcDbEntity
  8
0
390
0
100
AcDbVertex
100
AcDb2dVertex
 10
249.5507668108
 20
127.4113298986
 30
0.0
  0
VERTEX
  5
2E5
100
AcDbEntity
  8
0
390
0
100
AcDbVertex
100
AcDb2dVertex
 10
250.208273626
 20
127.0007127315
 30
0.0
  0
VERTEX
  5
2E6
100
AcDbEntity
  8
0
390
0
100
AcDbVertex
100
AcDb2dVertex
 10
250.8841744495
 20
126.6001722727
 30
0.0
  0
SEQEND
  5
2E7
100
AcDbEntity
  8
0
390
0
  0
POLYLINE
  5
2E8
100
AcDbEntity
  8
0
390
0
  6
Continuous
 62
         7
100
AcDb2dPolyline
 66
         1
 10
0.0
 20
0.0
 30
0.0
 70
       128
 40
0.1181102362
 41
0.1181102362
  0
VERTEX
  5
2E9
100
AcDbEntity
  8
0
390
0
100
AcDbVertex
100
AcDb2dVertex
 10
250.8841744495
 20
121.7009274014
 30
0.0
  0
VERTEX
  5
2EA
100
AcDbEntity
  8
0
390
0
100
AcDbVertex
100
AcDb2dVertex
 10
251.5780060528
 20
121.3107381613
 30
0.0
  0
VERTEX
  5
2EB
100
AcDbEntity
  8
0
390
0
100
AcDbVertex
100
AcDb2dVertex
 10
252.2892929182
 20
120.9311675563
 30
0.0
  0
VERTEX
  5
2EC
100
AcDbEntity
  8
0
390
0
100
AcDbVertex
100
AcDb2dVertex
 10
253.0175475652
 20
120.562475725
 30
0.0
  0
VERTEX
  5
2ED
100
AcDbEntity
  8
0
390
0
100
AcDbVertex
100
AcDb2dVertex
 10
253.7622708846
 20
120.2049153504
 30
0.0
  0
VERTEX
  5
2EE
100
AcDbEntity
  8
0
390
0
100
AcDbVertex
100
AcDb2dVertex
 10
254.5229524801
 20
119.8587314865
 30
0.0
  0
VERTEX
  5
2EF
100
AcDbEntity
  8
0
390
0
100
AcDbVertex
100
AcDb2dVertex
 10
255.2990710186
 20
119.5241613904
 30
0.0
  0
VERTEX
  5
2F0
100
AcDbEntity
  8
0
390
0
100
AcDbVertex
100
AcDb2dVertex
 10
256.0900945872
 20
119.2014343598
 30
0.0
  0
VERTEX
  5
2F1
100
AcDbEntity
  8
0
390
0
100
AcDbVertex
100
AcDb2dVertex
 10
256.8954810579
 20
118.8907715757
 30
0.0
  0
VERTEX
  5
2F2
100
AcDbEntity
  8
0
390
0
100
AcDbVertex
100
AcDb2dVertex
 10
257.7146784589
 20
118.5923859507
 30
0.0
  0
VERTEX
  5
2F3
100
AcDbEntity
  8
0
390
0
100
AcDbVertex
100
AcDb2dVertex
 10
258.5471253534
 20
118.3064819836
 30
0.0
  0
VERTEX
  5
2F4
100
AcDbEntity
  8
0
390
0
100
AcDbVertex
100
AcDb2dVertex
 10
259.3922512238
 20
118.0332556186
 30
0.0
  0
VERTEX
  5
2F5
100
AcDbEntity
  8
0
390
0
100
AcDbVertex
100
AcDb2dVertex
 10
260.2494768631
 20
117.7728941114
 30
0.0
  0
VERTEX
  5
2F6
100
AcDbEntity
  8
0
390
0
100
AcDbVertex
100
AcDb2dVertex
 10
261.1182147715
 20
117.5255759008
 30
0.0
  0
VERTEX
  5
2F7
100
AcDbEntity
  8
0
390
0
100
AcDbVertex
100
AcDb2dVertex
 10
261.9978695596
 20
117.2914704863
 30
0.0
  0
VERTEX
  5
2F8
100
AcDbEntity
  8
0
390
0
100
AcDbVertex
100
AcDb2dVertex
 10
262.8878383559
 20
117.0707383121
 30
0.0
  0
VERTEX
  5
2F9
100
AcDbEntity
  8
0
390
0
100
AcDbVertex
100
AcDb2dVertex
 10
263.7875112203
 20
116.8635306571
 30
0.0
  0
VERTEX
  5
2FA
100
AcDbEntity
  8
0
390
0
100
AcDbVertex
100
AcDb2dVertex
 10
264.6962715618
 20
116.6699895308
 30
0.0
  0
VERTEX
  5
2FB
100
AcDbEntity
  8
0
390
0
100
AcDbVertex
100
AcDb2dVertex
 10
265.6134965616
 20
116.4902475769
 30
0.0
  0
VERTEX
  5
2FC
100
AcDbEntity
  8
0
390
0
100
AcDbVertex
100
AcDb2dVertex
 10
266.5385575994
 20
116.3244279814
 30
0.0
  0
VERTEX
  5
2FD
100
AcDbEntity
  8
0
390
0
100
AcDbVertex
100
AcDb2dVertex
 10
267.4708206846
 20
116.1726443889
 30
0.0
  0
VERTEX
  5
2FE
100
AcDbEntity
  8
0
390
0
100
AcDbVertex
100
AcDb2dVertex
 10
268.4096468908
 20
116.0350008241
 30
0.0
  0
VERTEX
  5
2FF
100
AcDbEntity
  8
0
390
0
100
AcDbVertex
100
AcDb2dVertex
 10
269.3543927932
 20
115.9115916212
 30
0.0
  0
VERTEX
  5
300
100
AcDbEntity
  8
0
390
0
100
AcDbVertex
100
AcDb2dVertex
 10
270.3044109102
 20
115.8025013587
 30
0.0
  0
VERTEX
  5
301
100
AcDbEntity
  8
0
390
0
100
AcDbVertex
100
AcDb2dVertex
 10
271.259050147
 20
115.7078048014
 30
0.0
  0
VERTEX
  5
302
100
AcDbEntity
  8
0
390
0
100
AcDbVertex
100
AcDb2dVertex
 10
272.2176562413
 20
115.6275668499
 30
0.0
  0
VERTEX
  5
303
100
AcDbEntity
  8
0
390
0
100
AcDbVertex
100
AcDb2dVertex
 10
273.1795722125
 20
115.561842495
 30
0.0
  0
VERTEX
  5
304
100
AcDbEntity
  8
0
390
0
100
AcDbVertex
100
AcDb2dVertex
 10
274.1441388115
 20
115.5106767811
 30
0.0
  0
VERTEX
  5
305
100
AcDbEntity
  8
0
390
0
100
AcDbVertex
100
AcDb2dVertex
 10
275.1106949725
 20
115.4741047745
 30
0.0
  0
VERTEX
  5
306
100
AcDbEntity
  8
0
390
0
100
AcDbVertex
100
AcDb2dVertex
 10
276.078578266
 20
115.4521515399
 30
0.0
  0
VERTEX
  5
307
100
AcDbEntity
  8
0
390
0
100
AcDbVertex
100
AcDb2dVertex
 10
277.0471253534
 20
115.4448321229
 30
0.0
  0
VERTEX
  5
308
100
AcDbEntity
  8
0
390
0
100
AcDbVertex
100
AcDb2dVertex
 10
278.0156724408
 20
115.4521515399
 30
0.0
  0
VERTEX
  5
309
100
AcDbEntity
  8
0
390
0
100
AcDbVertex
100
AcDb2dVertex
 10
278.9835557344
 20
115.4741047745
 30
0.0
  0
VERTEX
  5
30A
100
AcDbEntity
  8
0
390
0
100
AcDbVertex
100
AcDb2dVertex
 10
279.9501118954
 20
115.5106767811
 30
0.0
  0
VERTEX
  5
30B
100
AcDbEntity
  8
0
390
0
100
AcDbVertex
100
AcDb2dVertex
 10
280.9146784943
 20
115.561842495
 30
0.0
  0
VERTEX
  5
30C
100
AcDbEntity
  8
0
390
0
100
AcDbVertex
100
AcDb2dVertex
 10
281.8765944656
 20
115.6275668499
 30
0.0
  0
VERTEX
  5
30D
100
AcDbEntity
  8
0
390
0
100
AcDbVertex
100
AcDb2dVertex
 10
282.8352005599
 20
115.7078048014
 30
0.0
  0
VERTEX
  5
30E
100
AcDbEntity
  8
0
390
0
100
AcDbVertex
100
AcDb2dVertex
 10
283.7898397966
 20
115.8025013587
 30
0.0
  0
VERTEX
  5
30F
100
AcDbEntity
  8
0
390
0
100
AcDbVertex
100
AcDb2dVertex
 10
284.7398579137
 20
115.9115916212
 30
0.0
  0
VERTEX
  5
310
100
AcDbEntity
  8
0
390
0
100
AcDbVertex
100
AcDb2dVertex
 10
285.6846038161
 20
116.0350008241
 30
0.0
  0
VERTEX
  5
311
100
AcDbEntity
  8
0
390
0
100
AcDbVertex
100
AcDb2dVertex
 10
286.6234300222
 20
116.1726443889
 30
0.0
  0
VERTEX
  5
312
100
AcDbEntity
  8
0
390
0
100
AcDbVertex
100
AcDb2dVertex
 10
287.5556931075
 20
116.3244279814
 30
0.0
  0
VERTEX
  5
313
100
AcDbEntity
  8
0
390
0
100
AcDbVertex
100
AcDb2dVertex
 10
288.4807541453
 20
116.4902475769
 30
0.0
  0
VERTEX
  5
314
100
AcDbEntity
  8
0
390
0
100
AcDbVertex
100
AcDb2dVertex
 10
289.3979791451
 20
116.6699895308
 30
0.0
  0
VERTEX
  5
315
100
AcDbEntity
  8
0
390
0
100
AcDbVertex
100
AcDb2dVertex
 10
290.3067394866
 20
116.8635306571
 30
0.0
  0
VERTEX
  5
316
100
AcDbEntity
  8
0
390
0
100
AcDbVertex
100
AcDb2dVertex
 10
291.2064123509
 20
117.0707383121
 30
0.0
  0
VERTEX
  5
317
100
AcDbEntity
  8
0
390
0
100
AcDbVertex
100
AcDb2dVertex
 10
292.0963811472
 20
117.2914704863
 30
0.0
  0
VERTEX
  5
318
100
AcDbEntity
  8
0
390
0
100
AcDbVertex
100
AcDb2dVertex
 10
292.9760359353
 20
117.5255759008
 30
0.0
  0
VERTEX
  5
319
100
AcDbEntity
  8
0
390
0
100
AcDbVertex
100
AcDb2dVertex
 10
293.8447738438
 20
117.7728941114
 30
0.0
  0
VERTEX
  5
31A
100
AcDbEntity
  8
0
390
0
100
AcDbVertex
100
AcDb2dVertex
 10
294.701999483
 20
118.0332556186
 30
0.0
  0
VERTEX
  5
31B
100
AcDbEntity
  8
0
390
0
100
AcDbVertex
100
AcDb2dVertex
 10
295.5471253534
 20
118.3064819836
 30
0.0
  0
VERTEX
  5
31C
100
AcDbEntity
  8
0
390
0
100
AcDbVertex
100
AcDb2dVertex
 10
296.3795722479
 20
118.5923859507
 30
0.0
  0
VERTEX
  5
31D
100
AcDbEntity
  8
0
390
0
100
AcDbVertex
100
AcDb2dVertex
 10
297.198769649
 20
118.8907715757
 30
0.0
  0
VERTEX
  5
31E
100
AcDbEntity
  8
0
390
0
100
AcDbVertex
100
AcDb2dVertex
 10
298.0041561197
 20
119.2014343598
 30
0.0
  0
VERTEX
  5
31F
100
AcDbEntity
  8
0
390
0
100
AcDbVertex
100
AcDb2dVertex
 10
298.7951796883
 20
119.5241613904
 30
0.0
  0
VERTEX
  5
320
100
AcDbEntity
  8
0
390
0
100
AcDbVertex
100
AcDb2dVertex
 10
299.5712982268
 20
119.8587314865
 30
0.0
  0
VERTEX
  5
321
100
AcDbEntity
  8
0
390
0
100
AcDbVertex
100
AcDb2dVertex
 10
300.3319798223
 20
120.2049153504
 30
0.0
  0
VERTEX
  5
322
100
AcDbEntity
  8
0
390
0
100
AcDbVertex
100
AcDb2dVertex
 10
301.0767031417
 20
120.562475725
 30
0.0
  0
VERTEX
  5
323
100
AcDbEntity
  8
0
390
0
100
AcDbVertex
100
AcDb2dVertex
 10
301.8049577887
 20
120.9311675563
 30
0.0
  0
VERTEX
  5
324
100
AcDbEntity
  8
0
390
0
100
AcDbVertex
100
AcDb2dVertex
 10
302.5162446541
 20
121.3107381613
 30
0.0
  0
VERTEX
  5
325
100
AcDbEntity
  8
0
390
0
100
AcDbVertex
100
AcDb2dVertex
 10
303.2100762573
 20
121.7009274014
 30
0.0
  0
VERTEX
  5
326
100
AcDbEntity
  8
0
390
0
100
AcDbVertex
100
AcDb2dVertex
 10
303.8859770809
 20
122.1014678602
 30
0.0
  0
VERTEX
  5
327
100
AcDbEntity
  8
0
390
0
100
AcDbVertex
100
AcDb2dVertex
 10
304.5434838961
 20
122.5120850273
 30
0.0
  0
VERTEX
  5
328
100
AcDbEntity
  8
0
390
0
100
AcDbVertex
100
AcDb2dVertex
 10
305.1821460806
 20
122.9324974864
 30
0.0
  0
VERTEX
  5
329
100
AcDbEntity
  8
0
390
0
100
AcDbVertex
100
AcDb2dVertex
 10
305.8015259273
 20
123.3624171075
 30
0.0
  0
VERTEX
  5
32A
100
AcDbEntity
  8
0
390
0
100
AcDbVertex
100
AcDb2dVertex
 10
306.4011989442
 20
123.8015492454
 30
0.0
  0
VERTEX
  5
32B
100
AcDbEntity
  8
0
390
0
100
AcDbVertex
100
AcDb2dVertex
 10
306.9807541453
 20
124.2495929408
 30
0.0
  0
VERTEX
  5
32C
100
AcDbEntity
  8
0
390
0
100
AcDbVertex
100
AcDb2dVertex
 10
307.5397943325
 20
124.706241127
 30
0.0
  0
VERTEX
  5
32D
100
AcDbEntity
  8
0
390
0
100
AcDbVertex
100
AcDb2dVertex
 10
308.0779363674
 20
125.1711808399
 30
0.0
  0
VERTEX
  5
32E
100
AcDbEntity
  8
0
390
0
100
AcDbVertex
100
AcDb2dVertex
 10
308.5948114345
 20
125.6440934334
 30
0.0
  0
VERTEX
  5
32F
100
AcDbEntity
  8
0
390
0
100
AcDbVertex
100
AcDb2dVertex
 10
309.0900652935
 20
126.1246547965
 30
0.0
  0
VERTEX
  5
330
100
AcDbEntity
  8
0
390
0
100
AcDbVertex
100
AcDb2dVertex
 10
309.5633585219
 20
126.6125355767
 30
0.0
  0
VERTEX
  5
331
100
AcDbEntity
  8
0
390
0
100
AcDbVertex
100
AcDb2dVertex
 10
310.0143667484
 20
127.1074014047
 30
0.0
  0
VERTEX
  5
332
100
AcDbEntity
  8
0
390
0
100
AcDbVertex
100
AcDb2dVertex
 10
310.4427808744
 20
127.6089131242
 30
0.0
  0
VERTEX
  5
333
100
AcDbEntity
  8
0
390
0
100
AcDbVertex
100
AcDb2dVertex
 10
310.8483072862
 20
128.1167270243
 30
0.0
  0
VERTEX
  5
334
100
AcDbEntity
  8
0
390
0
100
AcDbVertex
100
AcDb2dVertex
 10
311.2306680564
 20
128.6304950745
 30
0.0
  0
VERTEX
  5
335
100
AcDbEntity
  8
0
390
0
100
AcDbVertex
100
AcDb2dVertex
 10
311.5896011338
 20
129.149865164
 30
0.0
  0
VERTEX
  5
336
100
AcDbEntity
  8
0
390
0
100
AcDbVertex
100
AcDb2dVertex
 10
311.9248605239
 20
129.6744813424
 30
0.0
  0
VERTEX
  5
337
100
AcDbEntity
  8
0
390
0
100
AcDbVertex
100
AcDb2dVertex
 10
312.2362164564
 20
130.203984064
 30
0.0
  0
VERTEX
  5
338
100
AcDbEntity
  8
0
390
0
100
AcDbVertex
100
AcDb2dVertex
 10
312.5234555436
 20
130.7380104341
 30
0.0
  0
VERTEX
  5
339
100
AcDbEntity
  8
0
390
0
100
AcDbVertex
100
AcDb2dVertex
 10
312.7863809261
 20
131.2761944576
 30
0.0
  0
VERTEX
  5
33A
100
AcDbEntity
  8
0
390
0
100
AcDbVertex
100
AcDb2dVertex
 10
313.0248124082
 20
131.8181672902
 30
0.0
  0
VERTEX
  5
33B
100
AcDbEntity
  8
0
390
0
100
AcDbVertex
100
AcDb2dVertex
 10
313.2385865806
 20
132.3635574907
 30
0.0
  0
VERTEX
  5
33C
100
AcDbEntity
  8
0
390
0
100
AcDbVertex
100
AcDb2dVertex
 10
313.4275569333
 20
132.9119912759
 30
0.0
  0
VERTEX
  5
33D
100
AcDbEntity
  8
0
390
0
100
AcDbVertex
100
AcDb2dVertex
 10
313.5915939555
 20
133.4630927768
 30
0.0
  0
VERTEX
  5
33E
100
AcDbEntity
  8
0
390
0
100
AcDbVertex
100
AcDb2dVertex
 10
313.7305852243
 20
134.0164842958
 30
0.0
  0
VERTEX
  5
33F
100
AcDbEntity
  8
0
390
0
100
AcDbVertex
100
AcDb2dVertex
 10
313.8444354821
 20
134.571786566
 30
0.0
  0
VERTEX
  5
340
100
AcDbEntity
  8
0
390
0
100
AcDbVertex
100
AcDb2dVertex
 10
313.9330667016
 20
135.1286190111
 30
0.0
  0
VERTEX
  5
341
100
AcDbEntity
  8
0
390
0
100
AcDbVertex
100
AcDb2dVertex
 10
313.9964181394
 20
135.6866000058
 30
0.0
  0
VERTEX
  5
342
100
AcDbEntity
  8
0
390
0
100
AcDbVertex
100
AcDb2dVertex
 10
314.0344463775
 20
136.245347138
 30
0.0
  0
VERTEX
  5
343
100
AcDbEntity
  8
0
390
0
100
AcDbVertex
100
AcDb2dVertex
 10
314.0471253534
 20
136.8044774701
 30
0.0
  0
SEQEND
  5
344
100
AcDbEntity
  8
0
390
0
  0
POLYLINE
  5
345
100
AcDbEntity
  8
0
390
0
  6
Continuous
 62
         7
100
AcDb2dPolyline
 66
         1
 10
0.0
 20
0.0
 30
0.0
 70
       128
 40
0.1181102362
 41
0.1181102362
  0
VERTEX
  5
346
100
AcDbEntity
  8
0
390
0
100
AcDbVertex
100
AcDb2dVertex
 10
240.0471253534
 20
136.8044774701
 30
0.0
  0
VERTEX
  5
347
100
AcDbEntity
  8
0
390
0
100
AcDbVertex
100
AcDb2dVertex
 10
240.0598043293
 20
136.245347138
 30
0.0
  0
VERTEX
  5
348
100
AcDbEntity
  8
0
390
0
100
AcDbVertex
100
AcDb2dVertex
 10
240.0978325675
 20
135.6866000058
 30
0.0
  0
VERTEX
  5
349
100
AcDbEntity
  8
0
390
0
100
AcDbVertex
100
AcDb2dVertex
 10
240.1611840053
 20
135.1286190111
 30
0.0
  0
VERTEX
  5
34A
100
AcDbEntity
  8
0
390
0
100
AcDbVertex
100
AcDb2dVertex
 10
240.2498152248
 20
134.571786566
 30
0.0
  0
VERTEX
  5
34B
100
AcDbEntity
  8
0
390
0
100
AcDbVertex
100
AcDb2dVertex
 10
240.3636654826
 20
134.0164842958
 30
0.0
  0
VERTEX
  5
34C
100
AcDbEntity
  8
0
390
0
100
AcDbVertex
100
AcDb2dVertex
 10
240.5026567514
 20
133.4630927768
 30
0.0
  0
VERTEX
  5
34D
100
AcDbEntity
  8
0
390
0
100
AcDbVertex
100
AcDb2dVertex
 10
240.6666937736
 20
132.9119912759
 30
0.0
  0
VERTEX
  5
34E
100
AcDbEntity
  8
0
390
0
100
AcDbVertex
100
AcDb2dVertex
 10
240.8556641263
 20
132.3635574907
 30
0.0
  0
VERTEX
  5
34F
100
AcDbEntity
  8
0
390
0
100
AcDbVertex
100
AcDb2dVertex
 10
241.0694382987
 20
131.8181672902
 30
0.0
  0
VERTEX
  5
350
100
AcDbEntity
  8
0
390
0
100
AcDbVertex
100
AcDb2dVertex
 10
241.3078697807
 20
131.2761944576
 30
0.0
  0
VERTEX
  5
351
100
AcDbEntity
  8
0
390
0
100
AcDbVertex
100
AcDb2dVertex
 10
241.5707951633
 20
130.7380104341
 30
0.0
  0
VERTEX
  5
352
100
AcDbEntity
  8
0
390
0
100
AcDbVertex
100
AcDb2dVertex
 10
241.8580342505
 20
130.203984064
 30
0.0
  0
VERTEX
  5
353
100
AcDbEntity
  8
0
390
0
100
AcDbVertex
100
AcDb2dVertex
 10
242.169390183
 20
129.6744813424
 30
0.0
  0
VERTEX
  5
354
100
AcDbEntity
  8
0
390
0
100
AcDbVertex
100
AcDb2dVertex
 10
242.504649573
 20
129.149865164
 30
0.0
  0
VERTEX
  5
355
100
AcDbEntity
  8
0
390
0
100
AcDbVertex
100
AcDb2dVertex
 10
242.8635826505
 20
128.6304950745
 30
0.0
  0
VERTEX
  5
356
100
AcDbEntity
  8
0
390
0
100
AcDbVertex
100
AcDb2dVertex
 10
243.2459434207
 20
128.1167270243
 30
0.0
  0
VERTEX
  5
357
100
AcDbEntity
  8
0
390
0
100
AcDbVertex
100
AcDb2dVertex
 10
243.6514698325
 20
127.6089131242
 30
0.0
  0
VERTEX
  5
358
100
AcDbEntity
  8
0
390
0
100
AcDbVertex
100
AcDb2dVertex
 10
244.0798839585
 20
127.1074014047
 30
0.0
  0
VERTEX
  5
359
100
AcDbEntity
  8
0
390
0
100
AcDbVertex
100
AcDb2dVertex
 10
244.5308921849
 20
126.6125355767
 30
0.0
  0
VERTEX
  5
35A
100
AcDbEntity
  8
0
390
0
100
AcDbVertex
100
AcDb2dVertex
 10
245.0041854134
 20
126.1246547965
 30
0.0
  0
VERTEX
  5
35B
100
AcDbEntity
  8
0
390
0
100
AcDbVertex
100
AcDb2dVertex
 10
245.4994392723
 20
125.6440934334
 30
0.0
  0
VERTEX
  5
35C
100
AcDbEntity
  8
0
390
0
100
AcDbVertex
100
AcDb2dVertex
 10
246.0163143395
 20
125.1711808399
 30
0.0
  0
VERTEX
  5
35D
100
AcDbEntity
  8
0
390
0
100
AcDbVertex
100
AcDb2dVertex
 10
246.5544563744
 20
124.706241127
 30
0.0
  0
VERTEX
  5
35E
100
AcDbEntity
  8
0
390
0
100
AcDbVertex
100
AcDb2dVertex
 10
247.1134965616
 20
124.2495929408
 30
0.0
  0
VERTEX
  5
35F
100
AcDbEntity
  8
0
390
0
100
AcDbVertex
100
AcDb2dVertex
 10
247.6930517627
 20
123.8015492454
 30
0.0
  0
VERTEX
  5
360
100
AcDbEntity
  8
0
390
0
100
AcDbVertex
100
AcDb2dVertex
 10
248.2927247795
 20
123.3624171075
 30
0.0
  0
VERTEX
  5
361
100
AcDbEntity
  8
0
390
0
100
AcDbVertex
100
AcDb2dVertex
 10
248.9121046262
 20
122.9324974864
 30
0.0
  0
VERTEX
  5
362
100
AcDbEntity
  8
0
390
0
100
AcDbVertex
100
AcDb2dVertex
 10
249.5507668108
 20
122.5120850273
 30
0.0
  0
VERTEX
  5
363
100
AcDbEntity
  8
0
390
0
100
AcDbVertex
100
AcDb2dVertex
 10
250.208273626
 20
122.1014678602
 30
0.0
  0
VERTEX
  5
364
100
AcDbEntity
  8
0
390
0
100
AcDbVertex
100
AcDb2dVertex
 10
250.8841744495
 20
121.7009274014
 30
0.0
  0
SEQEND
  5
365
100
AcDbEntity
  8
0
390
0
  0
POLYLINE
  5
366
100
AcDbEntity
  8
0
390
0
  6
Continuous
 62
         7
100
AcDb2dPolyline
 66
         1
 10
0.0
 20
0.0
 30
0.0
 70
       128
 40
0.1181102362
 41
0.1181102362
  0
VERTEX
  5
367
100
AcDbEntity
  8
0
390
0
100
AcDbVertex
100
AcDb2dVertex
 10
313.4254811854
 20
139.2540999057
 30
0.0
  0
VERTEX
  5
368
100
AcDbEntity
  8
0
390
0
100
AcDbVertex
100
AcDb2dVertex
 10
313.3587934013
 20
139.5642139569
 30
0.0
  0
VERTEX
  5
369
100
AcDbEntity
  8
0
390
0
100
AcDbVertex
100
AcDb2dVertex
 10
313.2212108277
 20
140.111996778
 30
0.0
  0
VERTEX
  5
36A
100
AcDbEntity
  8
0
390
0
100
AcDbVertex
100
AcDb2dVertex
 10
313.058836343
 20
140.6575127907
 30
0.0
  0
VERTEX
  5
36B
100
AcDbEntity
  8
0
390
0
100
AcDbVertex
100
AcDb2dVertex
 10
312.8717812303
 20
141.2003881254
 30
0.0
  0
VERTEX
  5
36C
100
AcDbEntity
  8
0
390
0
100
AcDbVertex
100
AcDb2dVertex
 10
312.660173688
 20
141.7402507225
 30
0.0
  0
VERTEX
  5
36D
100
AcDbEntity
  8
0
390
0
100
AcDbVertex
100
AcDb2dVertex
 10
312.4241587413
 20
142.2767305872
 30
0.0
  0
VERTEX
  5
36E
100
AcDbEntity
  8
0
390
0
100
AcDbVertex
100
AcDb2dVertex
 10
312.163898143
 20
142.8094600429
 30
0.0
  0
VERTEX
  5
36F
100
AcDbEntity
  8
0
390
0
100
AcDbVertex
100
AcDb2dVertex
 10
311.8795702628
 20
143.3380739836
 30
0.0
  0
VERTEX
  5
370
100
AcDbEntity
  8
0
390
0
100
AcDbVertex
100
AcDb2dVertex
 10
311.5713699647
 20
143.8622101235
 30
0.0
  0
VERTEX
  5
371
100
AcDbEntity
  8
0
390
0
100
AcDbVertex
100
AcDb2dVertex
 10
311.2395084739
 20
144.381509246
 30
0.0
  0
VERTEX
  5
372
100
AcDbEntity
  8
0
390
0
100
AcDbVertex
100
AcDb2dVertex
 10
310.8842132317
 20
144.8956154495
 30
0.0
  0
VERTEX
  5
373
100
AcDbEntity
  8
0
390
0
100
AcDbVertex
100
AcDb2dVertex
 10
310.5057277396
 20
145.4041763911
 30
0.0
  0
VERTEX
  5
374
100
AcDbEntity
  8
0
390
0
100
AcDbVertex
100
AcDb2dVertex
 10
310.1043113928
 20
145.9068435286
 30
0.0
  0
VERTEX
  5
375
100
AcDbEntity
  8
0
390
0
100
AcDbVertex
100
AcDb2dVertex
 10
309.6802393018
 20
146.4032723592
 30
0.0
  0
VERTEX
  5
376
100
AcDbEntity
  8
0
390
0
100
AcDbVertex
100
AcDb2dVertex
 10
309.2338021047
 20
146.8931226552
 30
0.0
  0
VERTEX
  5
377
100
AcDbEntity
  8
0
390
0
100
AcDbVertex
100
AcDb2dVertex
 10
308.765305767
 20
147.3760586977
 30
0.0
  0
VERTEX
  5
378
100
AcDbEntity
  8
0
390
0
100
AcDbVertex
100
AcDb2dVertex
 10
308.2750713729
 20
147.8517495065
 30
0.0
  0
VERTEX
  5
379
100
AcDbEntity
  8
0
390
0
100
AcDbVertex
100
AcDb2dVertex
 10
307.7634349044
 20
148.3198690668
 30
0.0
  0
VERTEX
  5
37A
100
AcDbEntity
  8
0
390
0
100
AcDbVertex
100
AcDb2dVertex
 10
307.2307470117
 20
148.780096553
 30
0.0
  0
VERTEX
  5
37B
100
AcDbEntity
  8
0
390
0
100
AcDbVertex
100
AcDb2dVertex
 10
306.6773727724
 20
149.232116548
 30
0.0
  0
VERTEX
  5
37C
100
AcDbEntity
  8
0
390
0
100
AcDbVertex
100
AcDb2dVertex
 10
306.1036914416
 20
149.67561926
 30
0.0
  0
VERTEX
  5
37D
100
AcDbEntity
  8
0
390
0
100
AcDbVertex
100
AcDb2dVertex
 10
305.5100961918
 20
150.1103007344
 30
0.0
  0
VERTEX
  5
37E
100
AcDbEntity
  8
0
390
0
100
AcDbVertex
100
AcDb2dVertex
 10
304.8969938435
 20
150.5358630621
 30
0.0
  0
VERTEX
  5
37F
100
AcDbEntity
  8
0
390
0
100
AcDbVertex
100
AcDb2dVertex
 10
304.2648045865
 20
150.952014584
 30
0.0
  0
VERTEX
  5
380
100
AcDbEntity
  8
0
390
0
100
AcDbVertex
100
AcDb2dVertex
 10
303.6139616918
 20
151.3584700907
 30
0.0
  0
VERTEX
  5
381
100
AcDbEntity
  8
0
390
0
100
AcDbVertex
100
AcDb2dVertex
 10
302.9449112144
 20
151.7549510178
 30
0.0
  0
VERTEX
  5
382
100
AcDbEntity
  8
0
390
0
100
AcDbVertex
100
AcDb2dVertex
 10
302.2581116882
 20
152.1411856372
 30
0.0
  0
VERTEX
  5
383
100
AcDbEntity
  8
0
390
0
100
AcDbVertex
100
AcDb2dVertex
 10
301.5540338113
 20
152.5169092429
 30
0.0
  0
VERTEX
  5
384
100
AcDbEntity
  8
0
390
0
100
AcDbVertex
100
AcDb2dVertex
 10
300.8331601235
 20
152.8818643326
 30
0.0
  0
VERTEX
  5
385
100
AcDbEntity
  8
0
390
0
100
AcDbVertex
100
AcDb2dVertex
 10
300.0959846756
 20
153.2358007845
 30
0.0
  0
VERTEX
  5
386
100
AcDbEntity
  8
0
390
0
100
AcDbVertex
100
AcDb2dVertex
 10
299.3430126909
 20
153.5784760282
 30
0.0
  0
VERTEX
  5
387
100
AcDbEntity
  8
0
390
0
100
AcDbVertex
100
AcDb2dVertex
 10
298.5747602187
 20
153.9096552111
 30
0.0
  0
VERTEX
  5
388
100
AcDbEntity
  8
0
390
0
100
AcDbVertex
100
AcDb2dVertex
 10
297.7917537808
 20
154.2291113597
 30
0.0
  0
VERTEX
  5
389
100
AcDbEntity
  8
0
390
0
100
AcDbVertex
100
AcDb2dVertex
 10
296.9945300109
 20
154.5366255345
 30
0.0
  0
VERTEX
  5
38A
100
AcDbEntity
  8
0
390
0
100
AcDbVertex
100
AcDb2dVertex
 10
296.1836352862
 20
154.8319869808
 30
0.0
  0
VERTEX
  5
38B
100
AcDbEntity
  8
0
390
0
100
AcDbVertex
100
AcDb2dVertex
 10
295.3596253534
 20
155.1149932726
 30
0.0
  0
VERTEX
  5
38C
100
AcDbEntity
  8
0
390
0
100
AcDbVertex
100
AcDb2dVertex
 10
294.5230649479
 20
155.3854504515
 30
0.0
  0
VERTEX
  5
38D
100
AcDbEntity
  8
0
390
0
100
AcDbVertex
100
AcDb2dVertex
 10
293.6745274064
 20
155.6431731596
 30
0.0
  0
VERTEX
  5
38E
100
AcDbEntity
  8
0
390
0
100
AcDbVertex
100
AcDb2dVertex
 10
292.814594274
 20
155.8879847667
 30
0.0
  0
VERTEX
  5
38F
100
AcDbEntity
  8
0
390
0
100
AcDbVertex
100
AcDb2dVertex
 10
291.9438549061
 20
156.1197174912
 30
0.0
  0
VERTEX
  5
390
100
AcDbEntity
  8
0
390
0
100
AcDbVertex
100
AcDb2dVertex
 10
291.0629060638
 20
156.338212515
 30
0.0
  0
VERTEX
  5
391
100
AcDbEntity
  8
0
390
0
100
AcDbVertex
100
AcDb2dVertex
 10
290.1723515055
 20
156.5433200925
 30
0.0
  0
VERTEX
  5
392
100
AcDbEntity
  8
0
390
0
100
AcDbVertex
100
AcDb2dVertex
 10
289.2728015729
 20
156.7348996532
 30
0.0
  0
VERTEX
  5
393
100
AcDbEntity
  8
0
390
0
100
AcDbVertex
100
AcDb2dVertex
 10
288.3648727724
 20
156.9128198981
 30
0.0
  0
VERTEX
  5
394
100
AcDbEntity
  8
0
390
0
100
AcDbVertex
100
AcDb2dVertex
 10
287.4491873532
 20
157.0769588896
 30
0.0
  0
VERTEX
  5
395
100
AcDbEntity
  8
0
390
0
100
AcDbVertex
100
AcDb2dVertex
 10
286.5263728803
 20
157.2272041349
 30
0.0
  0
VERTEX
  5
396
100
AcDbEntity
  8
0
390
0
100
AcDbVertex
100
AcDb2dVertex
 10
285.5970618047
 20
157.3634526635
 30
0.0
  0
VERTEX
  5
397
100
AcDbEntity
  8
0
390
0
100
AcDbVertex
100
AcDb2dVertex
 10
284.6618910296
 20
157.4856110975
 30
0.0
  0
VERTEX
  5
398
100
AcDbEntity
  8
0
390
0
100
AcDbVertex
100
AcDb2dVertex
 10
283.7215014746
 20
157.5935957155
 30
0.0
  0
VERTEX
  5
399
100
AcDbEntity
  8
0
390
0
100
AcDbVertex
100
AcDb2dVertex
 10
282.7765376355
 20
157.6873325103
 30
0.0
  0
VERTEX
  5
39A
100
AcDbEntity
  8
0
390
0
100
AcDbVertex
100
AcDb2dVertex
 10
281.8276471435
 20
157.7667572394
 30
0.0
  0
VERTEX
  5
39B
100
AcDbEntity
  8
0
390
0
100
AcDbVertex
100
AcDb2dVertex
 10
280.8754803206
 20
157.8318154691
 30
0.0
  0
VERTEX
  5
39C
100
AcDbEntity
  8
0
390
0
100
AcDbVertex
100
AcDb2dVertex
 10
279.9206897345
 20
157.8824626115
 30
0.0
  0
VERTEX
  5
39D
100
AcDbEntity
  8
0
390
0
100
AcDbVertex
100
AcDb2dVertex
 10
278.9639297508
 20
157.9186639559
 30
0.0
  0
VERTEX
  5
39E
100
AcDbEntity
  8
0
390
0
100
AcDbVertex
100
AcDb2dVertex
 10
278.0058560852
 20
157.9403946915
 30
0.0
  0
VERTEX
  5
39F
100
AcDbEntity
  8
0
390
0
100
AcDbVertex
100
AcDb2dVertex
 10
277.0471253534
 20
157.9476399252
 30
0.0
  0
VERTEX
  5
3A0
100
AcDbEntity
  8
0
390
0
100
AcDbVertex
100
AcDb2dVertex
 10
276.0883946217
 20
157.9403946915
 30
0.0
  0
VERTEX
  5
3A1
100
AcDbEntity
  8
0
390
0
100
AcDbVertex
100
AcDb2dVertex
 10
275.130320956
 20
157.9186639559
 30
0.0
  0
VERTEX
  5
3A2
100
AcDbEntity
  8
0
390
0
100
AcDbVertex
100
AcDb2dVertex
 10
274.1735609724
 20
157.8824626115
 30
0.0
  0
VERTEX
  5
3A3
100
AcDbEntity
  8
0
390
0
100
AcDbVertex
100
AcDb2dVertex
 10
273.2187703863
 20
157.8318154691
 30
0.0
  0
VERTEX
  5
3A4
100
AcDbEntity
  8
0
390
0
100
AcDbVertex
100
AcDb2dVertex
 10
272.2666035634
 20
157.7667572394
 30
0.0
  0
VERTEX
  5
3A5
100
AcDbEntity
  8
0
390
0
100
AcDbVertex
100
AcDb2dVertex
 10
271.3177130713
 20
157.6873325103
 30
0.0
  0
VERTEX
  5
3A6
100
AcDbEntity
  8
0
390
0
100
AcDbVertex
100
AcDb2dVertex
 10
270.3727492323
 20
157.5935957155
 30
0.0
  0
VERTEX
  5
3A7
100
AcDbEntity
  8
0
390
0
100
AcDbVertex
100
AcDb2dVertex
 10
269.4323596772
 20
157.4856110975
 30
0.0
  0
VERTEX
  5
3A8
100
AcDbEntity
  8
0
390
0
100
AcDbVertex
100
AcDb2dVertex
 10
268.4971889022
 20
157.3634526635
 30
0.0
  0
VERTEX
  5
3A9
100
AcDbEntity
  8
0
390
0
100
AcDbVertex
100
AcDb2dVertex
 10
267.5678778266
 20
157.2272041349
 30
0.0
  0
VERTEX
  5
3AA
100
AcDbEntity
  8
0
390
0
100
AcDbVertex
100
AcDb2dVertex
 10
266.6450633537
 20
157.0769588896
 30
0.0
  0
VERTEX
  5
3AB
100
AcDbEntity
  8
0
390
0
100
AcDbVertex
100
AcDb2dVertex
 10
265.7293779345
 20
156.9128198981
 30
0.0
  0
VERTEX
  5
3AC
100
AcDbEntity
  8
0
390
0
100
AcDbVertex
100
AcDb2dVertex
 10
264.821449134
 20
156.7348996532
 30
0.0
  0
VERTEX
  5
3AD
100
AcDbEntity
  8
0
390
0
100
AcDbVertex
100
AcDb2dVertex
 10
263.9218992013
 20
156.5433200925
 30
0.0
  0
VERTEX
  5
3AE
100
AcDbEntity
  8
0
390
0
100
AcDbVertex
100
AcDb2dVertex
 10
263.0313446431
 20
156.338212515
 30
0.0
  0
VERTEX
  5
3AF
100
AcDbEntity
  8
0
390
0
100
AcDbVertex
100
AcDb2dVertex
 10
262.1503958008
 20
156.1197174912
 30
0.0
  0
VERTEX
  5
3B0
100
AcDbEntity
  8
0
390
0
100
AcDbVertex
100
AcDb2dVertex
 10
261.2796564328
 20
155.8879847667
 30
0.0
  0
VERTEX
  5
3B1
100
AcDbEntity
  8
0
390
0
100
AcDbVertex
100
AcDb2dVertex
 10
260.4197233005
 20
155.6431731596
 30
0.0
  0
VERTEX
  5
3B2
100
AcDbEntity
  8
0
390
0
100
AcDbVertex
100
AcDb2dVertex
 10
259.5711857589
 20
155.3854504515
 30
0.0
  0
VERTEX
  5
3B3
100
AcDbEntity
  8
0
390
0
100
AcDbVertex
100
AcDb2dVertex
 10
258.7346253534
 20
155.1149932726
 30
0.0
  0
VERTEX
  5
3B4
100
AcDbEntity
  8
0
390
0
100
AcDbVertex
100
AcDb2dVertex
 10
257.9106154207
 20
154.8319869808
 30
0.0
  0
VERTEX
  5
3B5
100
AcDbEntity
  8
0
390
0
100
AcDbVertex
100
AcDb2dVertex
 10
257.099720696
 20
154.5366255345
 30
0.0
  0
VERTEX
  5
3B6
100
AcDbEntity
  8
0
390
0
100
AcDbVertex
100
AcDb2dVertex
 10
256.3024969261
 20
154.2291113597
 30
0.0
  0
VERTEX
  5
3B7
100
AcDbEntity
  8
0
390
0
100
AcDbVertex
100
AcDb2dVertex
 10
255.5194904882
 20
153.9096552111
 30
0.0
  0
VERTEX
  5
3B8
100
AcDbEntity
  8
0
390
0
100
AcDbVertex
100
AcDb2dVertex
 10
254.751238016
 20
153.5784760282
 30
0.0
  0
VERTEX
  5
3B9
100
AcDbEntity
  8
0
390
0
100
AcDbVertex
100
AcDb2dVertex
 10
253.9982660312
 20
153.2358007845
 30
0.0
  0
VERTEX
  5
3BA
100
AcDbEntity
  8
0
390
0
100
AcDbVertex
100
AcDb2dVertex
 10
253.2610905833
 20
152.8818643326
 30
0.0
  0
VERTEX
  5
3BB
100
AcDbEntity
  8
0
390
0
100
AcDbVertex
100
AcDb2dVertex
 10
252.5402168955
 20
152.5169092429
 30
0.0
  0
VERTEX
  5
3BC
100
AcDbEntity
  8
0
390
0
100
AcDbVertex
100
AcDb2dVertex
 10
251.8361390187
 20
152.1411856372
 30
0.0
  0
VERTEX
  5
3BD
100
AcDbEntity
  8
0
390
0
100
AcDbVertex
100
AcDb2dVertex
 10
251.1493394925
 20
151.7549510178
 30
0.0
  0
VERTEX
  5
3BE
100
AcDbEntity
  8
0
390
0
100
AcDbVertex
100
AcDb2dVertex
 10
250.4802890151
 20
151.3584700907
 30
0.0
  0
VERTEX
  5
3BF
100
AcDbEntity
  8
0
390
0
100
AcDbVertex
100
AcDb2dVertex
 10
249.8294461203
 20
150.952014584
 30
0.0
  0
VERTEX
  5
3C0
100
AcDbEntity
  8
0
390
0
100
AcDbVertex
100
AcDb2dVertex
 10
249.1972568633
 20
150.5358630621
 30
0.0
  0
VERTEX
  5
3C1
100
AcDbEntity
  8
0
390
0
100
AcDbVertex
100
AcDb2dVertex
 10
248.5841545151
 20
150.1103007344
 30
0.0
  0
VERTEX
  5
3C2
100
AcDbEntity
  8
0
390
0
100
AcDbVertex
100
AcDb2dVertex
 10
247.9905592653
 20
149.67561926
 30
0.0
  0
VERTEX
  5
3C3
100
AcDbEntity
  8
0
390
0
100
AcDbVertex
100
AcDb2dVertex
 10
247.4168779345
 20
149.232116548
 30
0.0
  0
VERTEX
  5
3C4
100
AcDbEntity
  8
0
390
0
100
AcDbVertex
100
AcDb2dVertex
 10
246.8635036952
 20
148.780096553
 30
0.0
  0
VERTEX
  5
3C5
100
AcDbEntity
  8
0
390
0
100
AcDbVertex
100
AcDb2dVertex
 10
246.3308158024
 20
148.3198690668
 30
0.0
  0
VERTEX
  5
3C6
100
AcDbEntity
  8
0
390
0
100
AcDbVertex
100
AcDb2dVertex
 10
245.819179334
 20
147.8517495065
 30
0.0
  0
VERTEX
  5
3C7
100
AcDbEntity
  8
0
390
0
100
AcDbVertex
100
AcDb2dVertex
 10
245.3289449398
 20
147.3760586977
 30
0.0
  0
VERTEX
  5
3C8
100
AcDbEntity
  8
0
390
0
100
AcDbVertex
100
AcDb2dVertex
 10
244.8604486022
 20
146.8931226552
 30
0.0
  0
VERTEX
  5
3C9
100
AcDbEntity
  8
0
390
0
100
AcDbVertex
100
AcDb2dVertex
 10
244.414011405
 20
146.4032723592
 30
0.0
  0
VERTEX
  5
3CA
100
AcDbEntity
  8
0
390
0
100
AcDbVertex
100
AcDb2dVertex
 10
243.9899393141
 20
145.9068435286
 30
0.0
  0
VERTEX
  5
3CB
100
AcDbEntity
  8
0
390
0
100
AcDbVertex
100
AcDb2dVertex
 10
243.5885229673
 20
145.4041763911
 30
0.0
  0
VERTEX
  5
3CC
100
AcDbEntity
  8
0
390
0
100
AcDbVertex
100
AcDb2dVertex
 10
243.2100374752
 20
144.8956154495
 30
0.0
  0
VERTEX
  5
3CD
100
AcDbEntity
  8
0
390
0
100
AcDbVertex
100
AcDb2dVertex
 10
242.854742233
 20
144.381509246
 30
0.0
  0
VERTEX
  5
3CE
100
AcDbEntity
  8
0
390
0
100
AcDbVertex
100
AcDb2dVertex
 10
242.5228807422
 20
143.8622101235
 30
0.0
  0
VERTEX
  5
3CF
100
AcDbEntity
  8
0
390
0
100
AcDbVertex
100
AcDb2dVertex
 10
242.2146804441
 20
143.3380739836
 30
0.0
  0
VERTEX
  5
3D0
100
AcDbEntity
  8
0
390
0
100
AcDbVertex
100
AcDb2dVertex
 10
241.9303525639
 20
142.8094600429
 30
0.0
  0
VERTEX
  5
3D1
100
AcDbEntity
  8
0
390
0
100
AcDbVertex
100
AcDb2dVertex
 10
241.6700919656
 20
142.2767305872
 30
0.0
  0
VERTEX
  5
3D2
100
AcDbEntity
  8
0
390
0
100
AcDbVertex
100
AcDb2dVertex
 10
241.4340770189
 20
141.7402507225
 30
0.0
  0
VERTEX
  5
3D3
100
AcDbEntity
  8
0
390
0
100
AcDbVertex
100
AcDb2dVertex
 10
241.2224694766
 20
141.2003881254
 30
0.0
  0
VERTEX
  5
3D4
100
AcDbEntity
  8
0
390
0
100
AcDbVertex
100
AcDb2dVertex
 10
241.0354143639
 20
140.6575127907
 30
0.0
  0
VERTEX
  5
3D5
100
AcDbEntity
  8
0
390
0
100
AcDbVertex
100
AcDb2dVertex
 10
240.8730398791
 20
140.111996778
 30
0.0
  0
VERTEX
  5
3D6
100
AcDbEntity
  8
0
390
0
100
AcDbVertex
100
AcDb2dVertex
 10
240.7354573056
 20
139.5642139569
 30
0.0
  0
VERTEX
  5
3D7
100
AcDbEntity
  8
0
390
0
100
AcDbVertex
100
AcDb2dVertex
 10
240.6687695215
 20
139.2540999057
 30
0.0
  0
SEQEND
  5
3D8
100
AcDbEntity
  8
0
390
0
  0
LEADER
  5
3D9
100
AcDbEntity
  8
0
390
0
 62
         1
100
AcDbLeader
  3
SLDDIMSTYLE2
 73
         2
 74
         1
 75
         0
 40
0.0
 76
         3
 10
256.835177946
 20
119.1930798258
 30
0.0
 10
258.2690856931
 20
100.650545283
 30
0.0
 10
253.2690856931
 20
100.650545283
 30
0.0
 77
       256
340
3E1
  0
LEADER
  5
3DB
100
AcDbEntity
  8
0
390
0
 62
         1
100
AcDbLeader
  3
SLDDIMSTYLE2
 73
         2
 74
         1
 75
         0
 40
0.0
 76
         3
 10
287.7458682635
 20
156.7274895492
 30
0.0
 10
258.2690856931
 20
100.650545283
 30
0.0
 10
253.2690856931
 20
100.650545283
 30
0.0
 77
       256
340
3E1
  0
INSERT
  5
3E1
102
{ACAD_REACTORS
330
3D9
330
3DB
102
}
100
AcDbEntity
  8
0
390
0
100
AcDbBlockReference
  2
NOTE69
 10
253.2690856931
 20
100.650545283
 30
0.0
  0
ENDSEC
  0
SECTION
  2
OBJECTS
  0
DICTIONARY
  5
19
100
AcDbDictionary
280
         0
281
         1
  3
ACAD_GROUP
350
1A
  3
ACAD_MLINESTYLE
350
1B
  3
ACAD_LAYOUT
350
1E
  3
ACAD_PLOTSETTINGS
350
22
  3
ACAD_PLOTSTYLENAME
350
1F
  3
ACAD_WIPEOUT_VARS
350
23
  0
DICTIONARY
  5
1A
102
{ACAD_REACTORS
330
19
102
}
100
AcDbDictionary
280
         0
281
         1
  0
DICTIONARY
  5
1B
102
{ACAD_REACTORS
330
19
102
}
100
AcDbDictionary
280
         0
281
         1
  3
Standard
350
1C
  0
MLINESTYLE
  5
1C
102
{ACAD_REACTORS
330
1B
102
}
100
AcDbMlineStyle
  2
Standard
 70
         0
  3

 62
         0
 51
90.0
 52
90.0
 71
         2
 49
0.5
 62
       256
  6
ByLayer
 49
-0.5
 62
       256
  6
ByLayer
  0
ACDBDICTIONARYWDFLT
  5
1F
102
{ACAD_REACTORS
330
19
102
}
100
AcDbDictionary
281
         1
  3
Normal
350
1D
100
AcDbDictionaryWithDefault
340
1D
  0
ACDBPLACEHOLDER
  5
1D
102
{ACAD_REACTORS
330
1F
102
}
  0
LAYOUT
  5
20
102
{ACAD_REACTORS
330
1E
102
}
100
AcDbPlotSettings
  1

  2

  4

  6

 40
0.0
 41
0.0
 42
0.0
 43
0.0
 44
0.0
 45
0.0
 46
0.0
 47
0.0
 48
0.0
 49
0.0
140
0.0
141
0.0
142
1.0
143
1.0
 70
      1024
 72
         0
 73
         0
 74
         0
  7

 75
         0
147
1.0
148
0.0
149
0.0
100
AcDbLayout
  1
Model
 70
         0
 71
         0
 10
0.0
 20
0.0
 11
0.0
 21
0.0
 12
0.0
 22
0.0
 32
0.0
 14
0.0
 24
0.0
 34
0.0
 15
0.0
 25
0.0
 35
0.0
146
0.0
 13
0.0
 23
0.0
 33
0.0
 16
0.0
 26
0.0
 36
0.0
 17
0.0
 27
0.0
 37
0.0
 76
         0
330
A
331
0
345
0
346
0
  0
LAYOUT
  5
21
102
{ACAD_REACTORS
330
1E
102
}
100
AcDbPlotSettings
  1

  2

  4

  6

 40
0.0
 41
0.0
 42
0.0
 43
0.0
 44
0.0
 45
0.0
 46
0.0
 47
0.0
 48
0.0
 49
0.0
140
0.0
141
0.0
142
1.0
143
1.0
 70
         0
 72
         0
 73
         0
 74
         0
  7

 75
         0
147
1.0
148
0.0
149
0.0
100
AcDbLayout
  1
Layout1
 70
         0
 71
         0
 10
0.0
 20
0.0
 11
0.0
 21
0.0
 12
0.0
 22
0.0
 32
0.0
 14
0.0
 24
0.0
 34
0.0
 15
0.0
 25
0.0
 35
0.0
146
0.0
 13
0.0
 23
0.0
 33
0.0
 16
0.0
 26
0.0
 36
0.0
 17
0.0
 27
0.0
 37
0.0
 76
         0
330
B
331
0
345
0
346
0
  0
DICTIONARY
  5
1E
102
{ACAD_REACTORS
330
19
102
}
100
AcDbDictionary
280
         0
281
         1
  3
Layout1
350
21
  3
Model
350
20
  0
DICTIONARY
  5
22
102
{ACAD_REACTORS
330
19
102
}
100
AcDbDictionary
280
         0
281
         1
  0
WIPEOUTVARIABLES
  5
23
100
AcDbWipeoutVariables
 70
         1
  0
ENDSEC
  0
EOF
