  0
SECTION
  2
HEADER
  9
$ACADVER
  1
AC1015
  9
$ACADMAINTVER
 70
    10
  9
$DWGCODEPAGE
  3
ANSI_1252
  9
$INSBASE
 10
0.0
 20
0.0
 30
0.0
  9
$EXTMIN
 10
8.989746579189954
 20
2.735229802708204
 30
-0.0015258207003583
  9
$EXTMAX
 10
201.1268925614734
 20
129.7078860468556
 30
0.0000000349246037
  9
$LIMMIN
 10
0.0
 20
0.0
  9
$LIMMAX
 10
0.0
 20
0.0
  9
$ORTHOMODE
 70
     0
  9
$REGENMODE
 70
     1
  9
$FILLMODE
 70
     1
  9
$QTEXTMODE
 70
     0
  9
$MIRRTEXT
 70
     1
  9
$LTSCALE
 40
1.0
  9
$ATTMODE
 70
     1
  9
$TEXTSIZE
 40
0.0
  9
$TRACEWID
 40
0.05
  9
$TEXTSTYLE
  7
Standard
  9
$CLAYER
  8
0
  9
$CELTYPE
  6
Continuous
  9
$CECOLOR
 62
   256
  9
$CELTSCALE
 40
1.0
  9
$DISPSILH
 70
     0
  9
$DIMSCALE
 40
1.0
  9
$DIMASZ
 40
0.0
  9
$DIMEXO
 40
0.0
  9
$DIMDLI
 40
0.38
  9
$DIMRND
 40
0.0
  9
$DIMDLE
 40
0.0
  9
$DIMEXE
 40
0.18
  9
$DIMTP
 40
0.0
  9
$DIMTM
 40
0.0
  9
$DIMTXT
 40
1.199999999999999
  9
$DIMCEN
 40
0.09
  9
$DIMTSZ
 40
0.0
  9
$DIMTOL
 70
     0
  9
$DIMLIM
 70
     0
  9
$DIMTIH
 70
     1
  9
$DIMTOH
 70
     1
  9
$DIMSE1
 70
     0
  9
$DIMSE2
 70
     0
  9
$DIMTAD
 70
     1
  9
$DIMZIN
 70
     0
  9
$DIMBLK
  1

  9
$DIMASO
 70
     1
  9
$DIMSHO
 70
     1
  9
$DIMPOST
  1

  9
$DIMAPOST
  1

  9
$DIMALT
 70
     0
  9
$DIMALTD
 70
     2
  9
$DIMALTF
 40
25.4
  9
$DIMLFAC
 40
1.0
  9
$DIMTOFL
 70
     0
  9
$DIMTVP
 40
0.0
  9
$DIMTIX
 70
     0
  9
$DIMSOXD
 70
     0
  9
$DIMSAH
 70
     0
  9
$DIMBLK1
  1

  9
$DIMBLK2
  1

  9
$DIMSTYLE
  2
Standard
  9
$DIMCLRD
 70
     0
  9
$DIMCLRE
 70
     0
  9
$DIMCLRT
 70
     0
  9
$DIMTFAC
 40
1.0
  9
$DIMGAP
 40
0.0
  9
$DIMJUST
 70
     0
  9
$DIMSD1
 70
     0
  9
$DIMSD2
 70
     0
  9
$DIMTOLJ
 70
     1
  9
$DIMTZIN
 70
     0
  9
$DIMALTZ
 70
     0
  9
$DIMALTTZ
 70
     0
  9
$DIMUPT
 70
     0
  9
$DIMDEC
 70
     4
  9
$DIMTDEC
 70
     4
  9
$DIMALTU
 70
     2
  9
$DIMALTTD
 70
     2
  9
$DIMTXSTY
  7
Standard
  9
$DIMAUNIT
 70
     0
  9
$DIMADEC
 70
     0
  9
$DIMALTRND
 40
0.0
  9
$DIMAZIN
 70
     0
  9
$DIMDSEP
 70
     0
  9
$DIMATFIT
 70
     3
  9
$DIMFRAC
 70
     0
  9
$DIMLDRBLK
  1

  9
$DIMLUNIT
 70
     2
  9
$DIMLWD
 70
     0
  9
$DIMLWE
 70
     0
  9
$DIMTMOVE
 70
     0
  9
$LUNITS
 70
     2
  9
$LUPREC
 70
     3
  9
$SKETCHINC
 40
0.1
  9
$FILLETRAD
 40
0.0
  9
$AUNITS
 70
     0
  9
$AUPREC
 70
     2
  9
$MENU
  1
acad
  9
$ELEVATION
 40
0.0
  9
$PELEVATION
 40
0.0
  9
$THICKNESS
 40
0.0
  9
$LIMCHECK
 70
     0
  9
$CHAMFERA
 40
0.0
  9
$CHAMFERB
 40
0.0
  9
$CHAMFERC
 40
0.0
  9
$CHAMFERD
 40
0.0
  9
$SKPOLY
 70
     0
  9
$TDCREATE
 40
2453398.540483391
  9
$TDUCREATE
 40
2453398.873816724
  9
$TDUPDATE
 40
2453398.542042823
  9
$TDUUPDATE
 40
2453398.875376157
  9
$TDINDWG
 40
0.0015646644
  9
$TDUSRTIMER
 40
0.0015646644
  9
$USRTIMER
 70
     1
  9
$ANGBASE
 50
0.0
  9
$ANGDIR
 70
     0
  9
$PDMODE
 70
     0
  9
$PDSIZE
 40
-1.0
  9
$PLINEWID
 40
0.0
  9
$SPLFRAME
 70
     0
  9
$SPLINETYPE
 70
     6
  9
$SPLINESEGS
 70
     8
  9
$HANDSEED
  5
488
  9
$SURFTAB1
 70
     6
  9
$SURFTAB2
 70
     6
  9
$SURFTYPE
 70
     6
  9
$SURFU
 70
     6
  9
$SURFV
 70
     6
  9
$UCSBASE
  2

  9
$UCSNAME
  2

  9
$UCSORG
 10
0.0
 20
0.0
 30
0.0
  9
$UCSXDIR
 10
1.0
 20
0.0
 30
0.0
  9
$UCSYDIR
 10
0.0
 20
1.0
 30
0.0
  9
$UCSORTHOREF
  2

  9
$UCSORTHOVIEW
 70
     0
  9
$UCSORGTOP
 10
0.0
 20
0.0
 30
0.0
  9
$UCSORGBOTTOM
 10
0.0
 20
0.0
 30
0.0
  9
$UCSORGLEFT
 10
0.0
 20
0.0
 30
0.0
  9
$UCSORGRIGHT
 10
0.0
 20
0.0
 30
0.0
  9
$UCSORGFRONT
 10
0.0
 20
0.0
 30
0.0
  9
$UCSORGBACK
 10
0.0
 20
0.0
 30
0.0
  9
$PUCSBASE
  2

  9
$PUCSNAME
  2

  9
$PUCSORG
 10
0.0
 20
0.0
 30
0.0
  9
$PUCSXDIR
 10
1.0
 20
0.0
 30
0.0
  9
$PUCSYDIR
 10
0.0
 20
1.0
 30
0.0
  9
$PUCSORTHOREF
  2

  9
$PUCSORTHOVIEW
 70
     0
  9
$PUCSORGTOP
 10
0.0
 20
0.0
 30
0.0
  9
$PUCSORGBOTTOM
 10
0.0
 20
0.0
 30
0.0
  9
$PUCSORGLEFT
 10
0.0
 20
0.0
 30
0.0
  9
$PUCSORGRIGHT
 10
0.0
 20
0.0
 30
0.0
  9
$PUCSORGFRONT
 10
0.0
 20
0.0
 30
0.0
  9
$PUCSORGBACK
 10
0.0
 20
0.0
 30
0.0
  9
$USERI1
 70
     0
  9
$USERI2
 70
     0
  9
$USERI3
 70
     0
  9
$USERI4
 70
     0
  9
$USERI5
 70
     0
  9
$USERR1
 40
0.0
  9
$USERR2
 40
0.0
  9
$USERR3
 40
0.0
  9
$USERR4
 40
0.0
  9
$USERR5
 40
0.0
  9
$WORLDVIEW
 70
     1
  9
$SHADEDGE
 70
     3
  9
$SHADEDIF
 70
    70
  9
$TILEMODE
 70
     1
  9
$MAXACTVP
 70
    16
  9
$PINSBASE
 10
0.0
 20
0.0
 30
0.0
  9
$PLIMCHECK
 70
     0
  9
$PEXTMIN
 10
1.000000000000000E+20
 20
1.000000000000000E+20
 30
1.000000000000000E+20
  9
$PEXTMAX
 10
-1.000000000000000E+20
 20
-1.000000000000000E+20
 30
-1.000000000000000E+20
  9
$PLIMMIN
 10
0.0
 20
0.0
  9
$PLIMMAX
 10
12.0
 20
9.0
  9
$UNITMODE
 70
     0
  9
$VISRETAIN
 70
     0
  9
$PLINEGEN
 70
     1
  9
$PSLTSCALE
 70
     1
  9
$TREEDEPTH
 70
  3020
  9
$CMLSTYLE
  2
Standard
  9
$CMLJUST
 70
     0
  9
$CMLSCALE
 40
1.0
  9
$PROXYGRAPHICS
 70
     0
  9
$MEASUREMENT
 70
     0
  9
$CELWEIGHT
370
     0
  9
$ENDCAPS
280
     0
  9
$JOINSTYLE
280
     0
  9
$LWDISPLAY
290
     1
  9
$INSUNITS
 70
     0
  9
$HYPERLINKBASE
  1

  9
$STYLESHEET
  1

  9
$XEDIT
290
     1
  9
$CEPSNTYPE
380
     0
  9
$PSTYLEMODE
290
     1
  9
$FINGERPRINTGUID
  2

  9
$VERSIONGUID
  2
{570AE00F-8C1D-4727-B714-95E002946EAA}
  9
$EXTNAMES
290
     1
  9
$PSVPSCALE
 40
0.0
  9
$OLESTARTUP
290
     0
  0
ENDSEC
  0
SECTION
  2
CLASSES
  0
CLASS
  1
LWPOLYLINE
  2
AcDbPolyline
  3
AutoCAD 2000
 90
    32768
280
     0
281
     1
  0
CLASS
  1
IMAGE
  2
AcDbRasterImage
  3
ISM
 90
    32895
280
     0
281
     1
  0
CLASS
  1
OLE2FRAME
  2
AcDbOle2Frame
  3
AutoCAD 2000
 90
    32768
280
     0
281
     1
  0
CLASS
  1
HATCH
  2
AcDbHatch
  3
AutoCAD 2000
 90
    32768
280
     0
281
     1
  0
CLASS
  1
DICTIONARYVAR
  2
AcDbDictionaryVar
  3
AutoCAD 2000
 90
    32768
280
     0
281
     0
  0
CLASS
  1
RASTERVARIABLES
  2
AcDbRasterVariables
  3
ISM
 90
    32768
280
     0
281
     0
  0
CLASS
  1
IMAGEDEF
  2
AcDbRasterImageDef
  3
ISM
 90
    32768
280
     0
281
     0
  0
CLASS
  1
IMAGEDEF_REACTOR
  2
AcDbRasterImageDefReactor
  3
ISM
 90
    32769
280
     0
281
     0
  0
CLASS
  1
IDBUFFER
  2
AcDbIdBuffer
  3
AutoCAD 2000
 90
    32768
280
     0
281
     0
  0
CLASS
  1
SPATIAL_FILTER
  2
AcDbSpatialFilter
  3
AutoCAD 2000
 90
    32768
280
     0
281
     0
  0
CLASS
  1
XRECORD
  2
AcDbXrecord
  3
AutoCAD 2000
 90
    32768
280
     0
281
     0
  0
CLASS
  1
SORTENTSTABLE
  2
AcDbSortentsTable
  3
AutoCAD 2000
 90
    32768
280
     0
281
     0
  0
CLASS
  1
LAYER_INDEX
  2
AcDbLayerIndex
  3
AutoCAD 2000
 90
    32768
280
     0
281
     0
  0
CLASS
  1
SPATIAL_INDEX
  2
AcDbSpatialIndex
  3
AutoCAD 2000
 90
    32768
280
     0
281
     0
  0
CLASS
  1
OBJECT_PTR
  2
CAseDLPNTableRecord
  3
"ASE-LPNTableRecord"
 90
    32769
280
     0
281
     0
  0
CLASS
  1
LAYOUT
  2
AcDbLayout
  3
AutoCAD 2000
 90
        0
280
     0
281
     0
  0
CLASS
  1
PLOTSETTINGS
  2
AcDbPlotSettings
  3
AutoCAD 2000
 90
    32768
280
     0
281
     0
  0
CLASS
  1
ACDBDICTIONARYWDFLT
  2
AcDbDictionaryWithDefault
  3
AutoCAD 2000
 90
        0
280
     0
281
     0
  0
CLASS
  1
ACDBPLACEHOLDER
  2
AcDbPlaceHolder
  3
AutoCAD 2000
 90
        0
280
     0
281
     0
  0
CLASS
  1
VBA_PROJECT
  2
AcDbVbaProject
  3
acadvba
 90
    32768
280
     0
281
     0
  0
CLASS
  1
WIPEOUT
  2
AcDbWipeout
  3
WipeOut|AutoCAD Express Tool|expresstools@autodesk.com
 90
    32895
280
     0
281
     1
  0
CLASS
  1
WIPEOUTVARIABLES
  2
AcDbWipeoutVariables
  3
WipeOut|AutoCAD Express Tool|expresstools@autodesk.com
 90
        0
280
     0
281
     0
  0
CLASS
  1
RTEXT
  2
RText
  3
RText|AutoCAD Express Tool|expresstools@autodesk.com
 90
    32768
280
     0
281
     1
  0
CLASS
  1
ARCALIGNEDTEXT
  2
AcDbArcAlignedText
  3
ATEXT|AutoCAD Express Tool|expresstools@autodesk.com
 90
    32768
280
     0
281
     1
  0
ENDSEC
  0
SECTION
  2
TABLES
  0
TABLE
  2
VPORT
  5
7
330
0
100
AcDbSymbolTable
 70
     9
  0
VPORT
  5
487
330
7
100
AcDbSymbolTableRecord
100
AcDbViewportTableRecord
  2
*Active
 70
     0
 10
0.0
 20
0.0
 11
1.0
 21
1.0
 12
105.0583195703317
 22
66.2215579247819
 13
0.0
 23
0.0
 14
1.0
 24
1.0
 15
0.0
 25
0.0
 16
0.0
 26
0.0
 36
1.0
 17
0.0
 27
0.0
 37
0.0
 40
128.7375412760655
 41
1.5
 42
50.0
 43
0.0
 44
0.0
 50
0.0
 51
0.0
 71
     0
 72
  2000
 73
     1
 74
     1
 75
     0
 76
     0
 77
     0
 78
     0
281
     0
 65
     0
110
0.0
120
0.0
130
0.0
111
1.0
121
0.0
131
0.0
112
0.0
122
1.0
132
0.0
 79
     0
146
0.0
  0
ENDTAB
  0
TABLE
  2
LTYPE
  5
4
330
0
100
AcDbSymbolTable
 70
     6
  0
LTYPE
  5
11
330
4
100
AcDbSymbolTableRecord
100
AcDbLinetypeTableRecord
  2
ByBlock
 70
     0
  3

 72
    65
 73
     0
 40
0.0
  0
LTYPE
  5
12
330
4
100
AcDbSymbolTableRecord
100
AcDbLinetypeTableRecord
  2
ByLayer
 70
     0
  3

 72
    65
 73
     0
 40
0.0
  0
LTYPE
  5
13
330
4
100
AcDbSymbolTableRecord
100
AcDbLinetypeTableRecord
  2
Continuous
 70
     0
  3
Solid line
 72
    65
 73
     0
 40
0.0
  0
LTYPE
  5
24
330
4
100
AcDbSymbolTableRecord
100
AcDbLinetypeTableRecord
  2
HIDDEN
 70
     0
  3
Hidden __ __ __ __ __ __ __ __ __ __ __ __ __ __
 72
    65
 73
     2
 40
0.075
 49
0.05
 74
     0
 49
-0.025
 74
     0
  0
LTYPE
  5
25
330
4
100
AcDbSymbolTableRecord
100
AcDbLinetypeTableRecord
  2
PHANTOM
 70
     0
  3
Phantom ______  __  __  ______  __  __  ______
 72
    65
 73
     6
 40
0.5
 49
0.25
 74
     0
 49
-0.05
 74
     0
 49
0.05
 74
     0
 49
-0.05
 74
     0
 49
0.05
 74
     0
 49
-0.05
 74
     0
  0
LTYPE
  5
26
330
4
100
AcDbSymbolTableRecord
100
AcDbLinetypeTableRecord
  2
CENTER
 70
     0
  3
Center ____ _ ____ _ ____ _ ____ _ ____ _ ____
 72
    65
 73
     4
 40
0.4
 49
0.25
 74
     0
 49
-0.05
 74
     0
 49
0.05
 74
     0
 49
-0.05
 74
     0
  0
LTYPE
  5
27
330
4
100
AcDbSymbolTableRecord
100
AcDbLinetypeTableRecord
  2
CENTERX2
 70
     0
  3
Center (2x) ________  __  ________  __  _____
 72
    65
 73
     4
 40
0.8
 49
0.5
 74
     0
 49
-0.1
 74
     0
 49
0.1
 74
     0
 49
-0.1
 74
     0
  0
LTYPE
  5
28
330
4
100
AcDbSymbolTableRecord
100
AcDbLinetypeTableRecord
  2
DOT2
 70
     0
  3
Dot (.5x) ........................................
 72
    65
 73
     2
 40
0.025
 49
0.0
 74
     0
 49
-0.025
 74
     0
  0
ENDTAB
  0
TABLE
  2
LAYER
  5
2
330
0
100
AcDbSymbolTable
 70
     1
  0
LAYER
  5
14
330
2
100
AcDbSymbolTableRecord
100
AcDbLayerTableRecord
  2
0
 70
     0
 62
     7
  6
Continuous
370
    -3
390
1D
  0
ENDTAB
  0
TABLE
  2
STYLE
  5
3
330
0
100
AcDbSymbolTable
 70
     2
  0
STYLE
  5
17
330
3
100
AcDbSymbolTableRecord
100
AcDbTextStyleTableRecord
  2
Standard
 70
     0
 40
0.0
 41
1.0
 50
0.0
 71
     0
 42
0.0
  3
txt
  4

  0
STYLE
  5
75
330
3
100
AcDbSymbolTableRecord
100
AcDbTextStyleTableRecord
  2
SLDTEXTSTYLE0
 70
     0
 40
0.0
 41
0.75
 50
0.0
 71
     0
 42
0.0
  3
txt
  4

  0
ENDTAB
  0
TABLE
  2
VIEW
  5
5
330
0
100
AcDbSymbolTable
 70
     0
  0
ENDTAB
  0
TABLE
  2
UCS
  5
6
330
0
100
AcDbSymbolTable
 70
     0
  0
ENDTAB
  0
TABLE
  2
APPID
  5
8
330
0
100
AcDbSymbolTable
 70
     1
  0
APPID
  5
16
330
8
100
AcDbSymbolTableRecord
100
AcDbRegAppTableRecord
  2
ACAD
 70
     0
  0
ENDTAB
  0
TABLE
  2
DIMSTYLE
  5
9
330
0
100
AcDbSymbolTable
 70
     7
100
AcDbDimStyleTable
 71
     1
340
18
  0
DIMSTYLE
105
18
330
9
100
AcDbSymbolTableRecord
100
AcDbDimStyleTableRecord
  2
Standard
 70
     0
340
17
  0
DIMSTYLE
105
CF
102
{ACAD_REACTORS
330
D3
330
E0
330
FF
330
10D
330
126
102
}
330
9
100
AcDbSymbolTableRecord
100
AcDbDimStyleTableRecord
  2
SLDDIMSTYLE0
 70
     0
 41
2.25
 44
1.439999999999999
 78
    12
140
1.199999999999999
147
0.3
173
     1
176
     1
177
     1
178
     1
271
     3
284
    12
340
17
  0
DIMSTYLE
105
115
102
{ACAD_REACTORS
330
119
102
}
330
9
100
AcDbSymbolTableRecord
100
AcDbDimStyleTableRecord
  2
SLDDIMSTYLE1
 70
     0
 41
2.25
 44
1.439999999999999
 78
    12
140
1.199999999999999
147
0.3
173
     1
176
     7
177
     7
178
     7
271
     3
284
    12
340
17
  0
DIMSTYLE
105
3E9
330
9
100
AcDbSymbolTableRecord
100
AcDbDimStyleTableRecord
  2
SLDDIMSTYLE2
 70
     0
 41
2.25
 44
0.0
140
2.25
147
0.5625
173
     1
271
     0
272
     0
340
17
  0
DIMSTYLE
105
40C
102
{ACAD_REACTORS
330
410
330
41D
330
45E
330
46B
102
}
330
9
100
AcDbSymbolTableRecord
100
AcDbDimStyleTableRecord
  2
SLDDIMSTYLE3
 70
     0
 41
2.25
 44
1.439999999999999
 78
     4
140
1.199999999999999
147
0.3
173
     1
176
     1
177
     1
178
     1
271
     3
284
    12
340
17
  0
DIMSTYLE
105
428
102
{ACAD_REACTORS
330
42C
102
}
330
9
100
AcDbSymbolTableRecord
100
AcDbDimStyleTableRecord
  2
SLDDIMSTYLE4
 70
     0
 41
2.25
 44
1.439999999999999
 78
    12
140
1.199999999999999
147
0.3
172
     1
173
     1
176
     1
177
     1
178
     1
271
     3
284
    12
340
17
  0
DIMSTYLE
105
436
102
{ACAD_REACTORS
330
43A
330
479
102
}
330
9
100
AcDbSymbolTableRecord
100
AcDbDimStyleTableRecord
  2
SLDDIMSTYLE5
 70
     0
 41
2.25
 44
1.439999999999999
 78
     4
140
1.199999999999999
147
0.3
173
     1
176
     1
177
     1
178
     1
271
     2
284
    12
340
17
  0
ENDTAB
  0
TABLE
  2
BLOCK_RECORD
  5
1
330
0
100
AcDbSymbolTable
 70
    19
  0
BLOCK_RECORD
  5
A
330
1
100
AcDbSymbolTableRecord
100
AcDbBlockTableRecord
  2
*MODEL_SPACE
340
20
  0
BLOCK_RECORD
  5
B
330
1
100
AcDbSymbolTableRecord
100
AcDbBlockTableRecord
  2
*PAPER_SPACE
340
21
  0
BLOCK_RECORD
  5
AB
330
1
100
AcDbSymbolTableRecord
100
AcDbBlockTableRecord
  2
NOTE53
340
0
102
{BLKREFS
331
B1
102
}
  0
BLOCK_RECORD
  5
C6
330
1
100
AcDbSymbolTableRecord
100
AcDbBlockTableRecord
  2
*D1
340
0
  0
BLOCK_RECORD
  5
D4
330
1
100
AcDbSymbolTableRecord
100
AcDbBlockTableRecord
  2
*D2
340
0
  0
BLOCK_RECORD
  5
F2
330
1
100
AcDbSymbolTableRecord
100
AcDbBlockTableRecord
  2
*D3
340
0
  0
BLOCK_RECORD
  5
100
330
1
100
AcDbSymbolTableRecord
100
AcDbBlockTableRecord
  2
*D4
340
0
  0
BLOCK_RECORD
  5
10E
330
1
100
AcDbSymbolTableRecord
100
AcDbBlockTableRecord
  2
*D5
340
0
  0
BLOCK_RECORD
  5
11A
330
1
100
AcDbSymbolTableRecord
100
AcDbBlockTableRecord
  2
*D6
340
0
  0
BLOCK_RECORD
  5
127
330
1
100
AcDbSymbolTableRecord
100
AcDbBlockTableRecord
  2
SW_CENTERMARK0
340
0
102
{BLKREFS
331
12E
102
}
  0
BLOCK_RECORD
  5
12F
330
1
100
AcDbSymbolTableRecord
100
AcDbBlockTableRecord
  2
SW_CENTERMARK1
340
0
102
{BLKREFS
331
136
102
}
  0
BLOCK_RECORD
  5
3EA
330
1
100
AcDbSymbolTableRecord
100
AcDbBlockTableRecord
  2
NOTE72
340
0
102
{BLKREFS
331
3F0
102
}
  0
BLOCK_RECORD
  5
403
330
1
100
AcDbSymbolTableRecord
100
AcDbBlockTableRecord
  2
*D10
340
0
  0
BLOCK_RECORD
  5
411
330
1
100
AcDbSymbolTableRecord
100
AcDbBlockTableRecord
  2
*D11
340
0
  0
BLOCK_RECORD
  5
41E
330
1
100
AcDbSymbolTableRecord
100
AcDbBlockTableRecord
  2
*D12
340
0
  0
BLOCK_RECORD
  5
42D
330
1
100
AcDbSymbolTableRecord
100
AcDbBlockTableRecord
  2
*D13
340
0
  0
BLOCK_RECORD
  5
43B
330
1
100
AcDbSymbolTableRecord
100
AcDbBlockTableRecord
  2
NOTE73
340
0
102
{BLKREFS
331
43F
102
}
  0
BLOCK_RECORD
  5
440
330
1
100
AcDbSymbolTableRecord
100
AcDbBlockTableRecord
  2
NOTE74
340
0
102
{BLKREFS
331
444
102
}
  0
BLOCK_RECORD
  5
452
330
1
100
AcDbSymbolTableRecord
100
AcDbBlockTableRecord
  2
*D16
340
0
  0
BLOCK_RECORD
  5
45F
330
1
100
AcDbSymbolTableRecord
100
AcDbBlockTableRecord
  2
*D17
340
0
  0
BLOCK_RECORD
  5
46C
330
1
100
AcDbSymbolTableRecord
100
AcDbBlockTableRecord
  2
*D18
340
0
  0
ENDTAB
  0
ENDSEC
  0
SECTION
  2
BLOCKS
  0
BLOCK
  5
D
330
A
100
AcDbEntity
  8
0
100
AcDbBlockBegin
  2
*MODEL_SPACE
 70
     0
 10
0.0
 20
0.0
 30
0.0
  3
*MODEL_SPACE
  1

  0
ENDBLK
  5
E
330
A
100
AcDbEntity
  8
0
100
AcDbBlockEnd
  0
BLOCK
  5
F
330
B
100
AcDbEntity
 67
     1
  8
0
100
AcDbBlockBegin
  2
*PAPER_SPACE
 70
     0
 10
0.0
 20
0.0
 30
0.0
  3
*PAPER_SPACE
  1

  0
ENDBLK
  5
10
330
B
100
AcDbEntity
 67
     1
  8
0
100
AcDbBlockEnd
  0
BLOCK
  5
AC
330
AB
100
AcDbEntity
  8
0
 62
     0
100
AcDbBlockBegin
  2
NOTE53
 70
     0
 10
0.0
 20
0.0
 30
0.0
  3
NOTE53
  1

  0
MTEXT
  5
AD
330
AB
100
AcDbEntity
  8
0
 62
     7
100
AcDbMText
 10
0.0
 20
0.0
 30
0.0
 40
1.08
 41
0.0
 71
     1
 72
     1
  1
BREAK SHARP EDGES 0.010 RAD %%p 0.003
  7
SLDTEXTSTYLE0
 73
     1
 44
1.0
  0
MTEXT
  5
AE
330
AB
100
AcDbEntity
  8
0
 62
     7
100
AcDbMText
 10
0.0
 20
-1.62
 30
0.0
 40
1.08
 41
0.0
 71
     1
 72
     1
  1
MACHINED SURF FINISH  
  7
SLDTEXTSTYLE0
 73
     1
 44
1.0
  0
MTEXT
  5
AF
330
AB
100
AcDbEntity
  8
0
 62
     7
100
AcDbMText
 10
16.632
 20
-1.62
 30
0.0
 40
1.08
 41
0.0
 71
     1
 72
     1
  1
< 125 MICROINCH
  7
SLDTEXTSTYLE0
 73
     1
 44
1.0
  0
ENDBLK
  5
B0
330
AB
100
AcDbEntity
  8
0
100
AcDbBlockEnd
  0
BLOCK
  5
C7
330
C6
100
AcDbEntity
  8
0
 62
     1
100
AcDbBlockBegin
  2
*D1
 70
     1
 10
0.0
 20
0.0
 30
0.0
  3
*D1
  1

  0
MTEXT
  5
C8
330
C6
100
AcDbEntity
  8
0
100
AcDbMText
 10
107.7134166668
 20
53.8328936954
 30
0.0
 40
1.199999999999999
 41
0.0
 71
     7
 72
     1
  1
100 1/2"
  7
SLDTEXTSTYLE0
 73
     1
 44
1.0
  0
LINE
  5
C9
330
C6
100
AcDbEntity
  8
0
100
AcDbLine
 10
160.9715329814999
 20
49.5695609267
 30
0.0
 11
160.9715329814999
 21
55.81242614819999
 31
0.0
  0
LINE
  5
CA
330
C6
100
AcDbEntity
  8
0
100
AcDbLine
 10
60.4582120503
 20
49.5695609267
 30
0.0
 11
60.4582120503
 21
55.81242614819999
 31
0.0
  0
LINE
  5
CB
330
C6
100
AcDbEntity
  8
0
100
AcDbLine
 10
160.9715329814999
 20
54.3724261482
 30
0.0
 11
114.4663283649
 21
54.3724261482
 31
0.0
  0
LINE
  5
CC
330
C6
100
AcDbEntity
  8
0
100
AcDbLine
 10
60.4582120503
 20
54.3724261482
 30
0.0
 11
106.9634166668
 21
54.3724261482
 31
0.0
  0
SOLID
  5
CD
330
C6
100
AcDbEntity
  8
0
100
AcDbTrace
 10
160.9715329814999
 20
54.3724261482
 30
0.0
 11
158.7215329814999
 21
54.7474261482
 31
0.0
 12
158.7215329814999
 22
53.9974261482
 32
0.0
 13
158.7215329814999
 23
53.9974261482
 33
0.0
  0
SOLID
  5
CE
330
C6
100
AcDbEntity
  8
0
100
AcDbTrace
 10
60.4582120503
 20
54.3724261482
 30
0.0
 11
62.70821205029999
 21
53.9974261482
 31
0.0
 12
62.70821205029999
 22
54.7474261482
 32
0.0
 13
62.70821205029999
 23
54.7474261482
 33
0.0
  0
POINT
  5
D0
330
C6
100
AcDbEntity
  8
0
100
AcDbPoint
 10
160.9715329814999
 20
49.0895609267
 30
0.0
  0
POINT
  5
D1
330
C6
100
AcDbEntity
  8
0
100
AcDbPoint
 10
60.4582120503
 20
49.0895609267
 30
0.0
  0
ENDBLK
  5
D2
330
C6
100
AcDbEntity
  8
0
 62
     1
100
AcDbBlockEnd
  0
BLOCK
  5
D5
330
D4
100
AcDbEntity
  8
0
 62
     1
100
AcDbBlockBegin
  2
*D2
 70
     1
 10
0.0
 20
0.0
 30
0.0
  3
*D2
  1

  0
MTEXT
  5
D6
330
D4
100
AcDbEntity
  8
0
100
AcDbMText
 10
54.23138820630001
 20
44.55002847390001
 30
0.0
 40
1.199999999999999
 41
0.0
 71
     7
 72
     1
  1
8"
  7
SLDTEXTSTYLE0
 73
     1
 44
1.0
  0
LINE
  5
D7
330
D4
100
AcDbEntity
  8
0
100
AcDbLine
 10
59.9782120503
 20
49.0895609267
 30
0.0
 11
53.5716882063
 21
49.0895609267
 31
0.0
  0
LINE
  5
D8
330
D4
100
AcDbEntity
  8
0
100
AcDbLine
 10
59.9782120503
 20
41.0895609267
 30
0.0
 11
53.5716882063
 21
41.0895609267
 31
0.0
  0
LINE
  5
D9
330
D4
100
AcDbEntity
  8
0
100
AcDbLine
 10
55.0116882063
 20
49.0895609267
 30
0.0
 11
55.0116882063
 21
46.2290933795
 31
0.0
  0
LINE
  5
DA
330
D4
100
AcDbEntity
  8
0
100
AcDbLine
 10
55.0116882063
 20
41.0895609267
 30
0.0
 11
55.0116882063
 21
43.9500284739
 31
0.0
  0
SOLID
  5
DB
330
D4
100
AcDbEntity
  8
0
100
AcDbTrace
 10
55.0116882063
 20
49.0895609267
 30
0.0
 11
54.6366882063
 21
46.8395609267
 31
0.0
 12
55.3866882063
 22
46.8395609267
 32
0.0
 13
55.3866882063
 23
46.8395609267
 33
0.0
  0
SOLID
  5
DC
330
D4
100
AcDbEntity
  8
0
100
AcDbTrace
 10
55.0116882063
 20
41.0895609267
 30
0.0
 11
55.3866882063
 21
43.3395609267
 31
0.0
 12
54.6366882063
 22
43.3395609267
 32
0.0
 13
54.6366882063
 23
43.3395609267
 33
0.0
  0
POINT
  5
DD
330
D4
100
AcDbEntity
  8
0
100
AcDbPoint
 10
60.4582120503
 20
49.0895609267
 30
0.0
  0
POINT
  5
DE
330
D4
100
AcDbEntity
  8
0
100
AcDbPoint
 10
60.4582120503
 20
41.0895609267
 30
0.0
  0
ENDBLK
  5
DF
330
D4
100
AcDbEntity
  8
0
 62
     1
100
AcDbBlockEnd
  0
BLOCK
  5
F3
330
F2
100
AcDbEntity
  8
0
 62
     1
100
AcDbBlockBegin
  2
*D3
 70
     1
 10
0.0
 20
0.0
 30
0.0
  3
*D3
  1

  0
MTEXT
  5
F4
330
F2
100
AcDbEntity
  8
0
100
AcDbMText
 10
84.72324684070001
 20
112.6327924528
 30
0.0
 40
1.199999999999999
 41
0.0
 71
     7
 72
     1
  1
24 3/4"
  7
SLDTEXTSTYLE0
 73
     1
 44
1.0
  0
MTEXT
  5
F5
330
F2
100
AcDbEntity
  8
0
100
AcDbMText
 10
84.85185627459999
 20
110.3537275471999
 30
0.0
 40
1.199999999999999
 41
0.0
 71
     7
 72
     1
  1
OUTSIDE
  7
SLDTEXTSTYLE0
 73
     1
 44
1.0
  0
LINE
  5
F6
330
F2
100
AcDbEntity
  8
0
100
AcDbLine
 10
75.28884910479999
 20
92.55604872940001
 30
0.0
 11
75.28884910479999
 21
113.4727924528
 31
0.0
  0
LINE
  5
F7
330
F2
100
AcDbEntity
  8
0
100
AcDbLine
 10
100.0388491047999
 20
86.52454872940001
 30
0.0
 11
100.0388491047999
 21
113.4727924528
 31
0.0
  0
LINE
  5
F8
330
F2
100
AcDbEntity
  8
0
100
AcDbLine
 10
75.28884910479999
 20
112.0327924528
 30
0.0
 11
83.91435627459999
 21
112.0327924528
 31
0.0
  0
LINE
  5
F9
330
F2
100
AcDbEntity
  8
0
100
AcDbLine
 10
100.0388491047999
 20
112.0327924528
 30
0.0
 11
91.413341935
 21
112.0327924528
 31
0.0
  0
SOLID
  5
FA
330
F2
100
AcDbEntity
  8
0
100
AcDbTrace
 10
75.28884910479999
 20
112.0327924528
 30
0.0
 11
77.5388491048
 21
111.6577924528
 31
0.0
 12
77.5388491048
 22
112.4077924528
 32
0.0
 13
77.5388491048
 23
112.4077924528
 33
0.0
  0
SOLID
  5
FB
330
F2
100
AcDbEntity
  8
0
100
AcDbTrace
 10
100.0388491047999
 20
112.0327924528
 30
0.0
 11
97.7888491048
 21
112.4077924528
 31
0.0
 12
97.7888491048
 22
111.6577924528
 32
0.0
 13
97.7888491048
 23
111.6577924528
 33
0.0
  0
POINT
  5
FC
330
F2
100
AcDbEntity
  8
0
100
AcDbPoint
 10
75.28884910479999
 20
92.07604872940001
 30
0.0
  0
POINT
  5
FD
330
F2
100
AcDbEntity
  8
0
100
AcDbPoint
 10
100.0388491047999
 20
86.04454872940001
 30
0.0
  0
ENDBLK
  5
FE
330
F2
100
AcDbEntity
  8
0
 62
     1
100
AcDbBlockEnd
  0
BLOCK
  5
101
330
100
100
AcDbEntity
  8
0
 62
     1
100
AcDbBlockBegin
  2
*D4
 70
     1
 10
0.0
 20
0.0
 30
0.0
  3
*D4
  1

  0
MTEXT
  5
102
330
100
100
AcDbEntity
  8
0
100
AcDbMText
 10
109.8124698087999
 20
86.67604872940001
 30
0.0
 40
1.199999999999999
 41
0.0
 71
     7
 72
     1
  1
36 3/4"
  7
SLDTEXTSTYLE0
 73
     1
 44
1.0
  0
MTEXT
  5
103
330
100
100
AcDbEntity
  8
0
100
AcDbMText
 10
109.8812071672999
 20
84.39698382379999
 30
0.0
 40
1.199999999999999
 41
0.0
 71
     7
 72
     1
  1
OUTSIDE
  7
SLDTEXTSTYLE0
 73
     1
 44
1.0
  0
LINE
  5
104
330
100
100
AcDbEntity
  8
0
100
AcDbLine
 10
88.14384910479999
 20
104.4510487294
 30
0.0
 11
114.1331999975
 21
104.4510487294
 31
0.0
  0
LINE
  5
105
330
100
100
AcDbEntity
  8
0
100
AcDbLine
 10
88.14384910479999
 20
67.7010487294
 30
0.0
 11
114.1331999975
 21
67.7010487294
 31
0.0
  0
LINE
  5
106
330
100
100
AcDbEntity
  8
0
100
AcDbLine
 10
112.6931999975
 20
104.4510487294
 30
0.0
 11
112.6931999975
 21
88.35511363509999
 31
0.0
  0
LINE
  5
107
330
100
100
AcDbEntity
  8
0
100
AcDbLine
 10
112.6931999975
 20
67.7010487294
 30
0.0
 11
112.6931999975
 21
83.7969838238
 31
0.0
  0
SOLID
  5
108
330
100
100
AcDbEntity
  8
0
100
AcDbTrace
 10
112.6931999975
 20
104.4510487294
 30
0.0
 11
112.3181999975
 21
102.2010487294
 31
0.0
 12
113.0681999974999
 22
102.2010487294
 32
0.0
 13
113.0681999974999
 23
102.2010487294
 33
0.0
  0
SOLID
  5
109
330
100
100
AcDbEntity
  8
0
100
AcDbTrace
 10
112.6931999975
 20
67.7010487294
 30
0.0
 11
113.0681999974999
 21
69.9510487294
 31
0.0
 12
112.3181999975
 22
69.9510487294
 32
0.0
 13
112.3181999975
 23
69.9510487294
 33
0.0
  0
POINT
  5
10A
330
100
100
AcDbEntity
  8
0
100
AcDbPoint
 10
87.66384910479999
 20
104.4510487294
 30
0.0
  0
POINT
  5
10B
330
100
100
AcDbEntity
  8
0
100
AcDbPoint
 10
87.66384910479999
 20
67.7010487294
 30
0.0
  0
ENDBLK
  5
10C
330
100
100
AcDbEntity
  8
0
 62
     1
100
AcDbBlockEnd
  0
BLOCK
  5
10F
330
10E
100
AcDbEntity
  8
0
 62
     7
100
AcDbBlockBegin
  2
*D5
 70
     1
 10
0.0
 20
0.0
 30
0.0
  3
*D5
  1

  0
MTEXT
  5
110
330
10E
100
AcDbEntity
  8
0
 62
     7
100
AcDbMText
 10
80.6796637316
 20
96.74749126450002
 30
0.0
 40
1.199999999999999
 41
0.0
 71
     7
 72
     1
  1
12"
  7
SLDTEXTSTYLE0
 73
     1
 44
1.0
  0
MTEXT
  5
111
330
10E
100
AcDbEntity
  8
0
 62
     7
100
AcDbMText
 10
82.84094750520001
 20
96.74749126450002
 30
0.0
 40
1.199999999999999
 41
0.0
 71
     7
 72
     1
  1
 RAD
  7
SLDTEXTSTYLE0
 73
     1
 44
1.0
  0
LINE
  5
112
330
10E
100
AcDbEntity
  8
0
 62
     7
100
AcDbLine
 10
87.66384910479999
 20
92.07604872940001
 30
0.0
 11
84.50451398949999
 21
96.1474912645
 31
0.0
  0
LINE
  5
113
330
10E
100
AcDbEntity
  8
0
 62
     7
100
AcDbLine
 10
80.3072191981
 20
101.556554856
 30
0.0
 11
82.73601800199999
 21
98.42655617010001
 31
0.0
  0
SOLID
  5
114
330
10E
100
AcDbEntity
  8
0
 62
     7
100
AcDbTrace
 10
80.3072191981
 20
101.556554856
 30
0.0
 11
81.3903214892
 21
99.54906527270001
 31
0.0
 12
81.9828531221
 22
100.0088546419
 32
0.0
 13
81.9828531221
 23
100.0088546419
 33
0.0
  0
POINT
  5
116
330
10E
100
AcDbEntity
  8
0
 62
     7
100
AcDbPoint
 10
80.3072191981
 20
101.556554856
 30
0.0
  0
POINT
  5
117
330
10E
100
AcDbEntity
  8
0
 62
     7
100
AcDbPoint
 10
87.66384910479999
 20
92.07604872940001
 30
0.0
  0
ENDBLK
  5
118
330
10E
100
AcDbEntity
  8
0
100
AcDbBlockEnd
  0
BLOCK
  5
11B
330
11A
100
AcDbEntity
  8
0
 62
     7
100
AcDbBlockBegin
  2
*D6
 70
     1
 10
0.0
 20
0.0
 30
0.0
  3
*D6
  1

  0
MTEXT
  5
11C
330
11A
100
AcDbEntity
  8
0
 62
     7
100
AcDbMText
 10
92.5795422987
 20
85.7855397716
 30
0.0
 40
1.199999999999999
 41
0.0
 71
     7
 72
     1
  1
12"
  7
SLDTEXTSTYLE0
 73
     1
 44
1.0
  0
LINE
  5
11D
330
11A
100
AcDbEntity
  8
0
 62
     7
100
AcDbLine
 10
89.23157892430001
 20
92.07604872940001
 30
0.0
 11
95.1001841855
 21
92.07604872940001
 31
0.0
  0
LINE
  5
11E
330
11A
100
AcDbEntity
  8
0
 62
     7
100
AcDbLine
 10
89.62960853670001
 20
80.0760487294
 30
0.0
 11
95.1001841855
 21
80.0760487294
 31
0.0
  0
LINE
  5
11F
330
11A
100
AcDbEntity
  8
0
 62
     7
100
AcDbLine
 10
93.66018418549998
 20
92.07604872940001
 30
0.0
 11
93.66018418549998
 21
87.46460467719998
 31
0.0
  0
LINE
  5
120
330
11A
100
AcDbEntity
  8
0
 62
     7
100
AcDbLine
 10
93.66018418549998
 20
80.0760487294
 30
0.0
 11
93.66018418549998
 21
85.18553977160001
 31
0.0
  0
SOLID
  5
121
330
11A
100
AcDbEntity
  8
0
 62
     7
100
AcDbTrace
 10
93.66018418549998
 20
92.07604872940001
 30
0.0
 11
93.28518418549998
 21
89.82604872939999
 31
0.0
 12
94.03518418549998
 22
89.82604872939999
 32
0.0
 13
94.03518418549998
 23
89.82604872939999
 33
0.0
  0
SOLID
  5
122
330
11A
100
AcDbEntity
  8
0
 62
     7
100
AcDbTrace
 10
93.66018418549998
 20
80.0760487294
 30
0.0
 11
94.03518418549998
 21
82.32604872939999
 31
0.0
 12
93.28518418549998
 22
82.32604872939999
 32
0.0
 13
93.28518418549998
 23
82.32604872939999
 33
0.0
  0
POINT
  5
123
330
11A
100
AcDbEntity
  8
0
 62
     7
100
AcDbPoint
 10
87.66384910479999
 20
92.07604872940001
 30
0.0
  0
POINT
  5
124
330
11A
100
AcDbEntity
  8
0
 62
     7
100
AcDbPoint
 10
87.66384910479999
 20
80.0760487294
 30
0.0
  0
ENDBLK
  5
125
330
11A
100
AcDbEntity
  8
0
 62
     7
100
AcDbBlockEnd
  0
BLOCK
  5
128
330
127
100
AcDbEntity
  8
0
 62
     0
100
AcDbBlockBegin
  2
SW_CENTERMARK0
 70
     0
 10
0.0
 20
0.0
 30
0.0
  3
SW_CENTERMARK0
  1

  0
LINE
  5
129
330
127
100
AcDbEntity
  8
0
  6
Continuous
 62
     7
370
     0
100
AcDbLine
 10
87.66384910479999
 20
92.07604872940001
 30
0.0
 11
87.66384910479999
 21
93.0760487294
 31
0.0
  0
LINE
  5
12A
330
127
100
AcDbEntity
  8
0
  6
Continuous
 62
     7
370
     0
100
AcDbLine
 10
87.66384910479999
 20
92.07604872940001
 30
0.0
 11
86.66384910479999
 21
92.07604872940001
 31
0.0
  0
LINE
  5
12B
330
127
100
AcDbEntity
  8
0
  6
Continuous
 62
     7
370
     0
100
AcDbLine
 10
87.66384910479999
 20
92.07604872940001
 30
0.0
 11
87.66384910479999
 21
91.07604872939999
 31
0.0
  0
LINE
  5
12C
330
127
100
AcDbEntity
  8
0
  6
Continuous
 62
     7
370
     0
100
AcDbLine
 10
87.66384910479999
 20
92.07604872940001
 30
0.0
 11
88.66384910479998
 21
92.07604872940001
 31
0.0
  0
ENDBLK
  5
12D
330
127
100
AcDbEntity
  8
0
100
AcDbBlockEnd
  0
BLOCK
  5
130
330
12F
100
AcDbEntity
  8
0
 62
     0
100
AcDbBlockBegin
  2
SW_CENTERMARK1
 70
     0
 10
0.0
 20
0.0
 30
0.0
  3
SW_CENTERMARK1
  1

  0
LINE
  5
131
330
12F
100
AcDbEntity
  8
0
  6
Continuous
 62
     7
370
     0
100
AcDbLine
 10
87.66384910479999
 20
80.0760487294
 30
0.0
 11
87.66384910479999
 21
81.07604872939999
 31
0.0
  0
LINE
  5
132
330
12F
100
AcDbEntity
  8
0
  6
Continuous
 62
     7
370
     0
100
AcDbLine
 10
87.66384910479999
 20
80.0760487294
 30
0.0
 11
86.66384910479999
 21
80.0760487294
 31
0.0
  0
LINE
  5
133
330
12F
100
AcDbEntity
  8
0
  6
Continuous
 62
     7
370
     0
100
AcDbLine
 10
87.66384910479999
 20
80.0760487294
 30
0.0
 11
87.66384910479999
 21
79.0760487294
 31
0.0
  0
LINE
  5
134
330
12F
100
AcDbEntity
  8
0
  6
Continuous
 62
     7
370
     0
100
AcDbLine
 10
87.66384910479999
 20
80.0760487294
 30
0.0
 11
88.66384910479998
 21
80.0760487294
 31
0.0
  0
ENDBLK
  5
135
330
12F
100
AcDbEntity
  8
0
100
AcDbBlockEnd
  0
BLOCK
  5
3EB
330
3EA
100
AcDbEntity
  8
0
 62
     0
100
AcDbBlockBegin
  2
NOTE72
 70
     0
 10
0.0
 20
0.0
 30
0.0
  3
NOTE72
  1

  0
MTEXT
  5
3EC
330
3EA
100
AcDbEntity
  8
0
 62
     1
100
AcDbMText
 10
-30.1174487964
 20
5.830687871599999
 30
0.0
 40
1.75
 41
0.0
 71
     1
 72
     1
  1
RADIUS ALL EDGES 1/32 TO 1/16
  7
SLDTEXTSTYLE0
 73
     1
 44
1.0
  0
MTEXT
  5
3ED
330
3EA
100
AcDbEntity
  8
0
 62
     1
100
AcDbMText
 10
-30.1174487964
 20
3.4806878716
 30
0.0
 40
1.75
 41
0.0
 71
     1
 72
     1
  1
TO MAKE ENTRANCEWAY SAFE
  7
SLDTEXTSTYLE0
 73
     1
 44
1.0
  0
MTEXT
  5
3EE
330
3EA
100
AcDbEntity
  8
0
 62
     1
100
AcDbMText
 10
-30.1174487964
 20
1.130687871599999
 30
0.0
 40
1.75
 41
0.0
 71
     1
 72
     1
  1
SUGGEST FLAP DISK GRINDING
  7
SLDTEXTSTYLE0
 73
     1
 44
1.0
  0
ENDBLK
  5
3EF
330
3EA
100
AcDbEntity
  8
0
100
AcDbBlockEnd
  0
BLOCK
  5
404
330
403
100
AcDbEntity
  8
0
 62
     1
100
AcDbBlockBegin
  2
*D10
 70
     1
 10
0.0
 20
0.0
 30
0.0
  3
*D10
  1

  0
MTEXT
  5
405
330
403
100
AcDbEntity
  8
0
100
AcDbMText
 10
148.5503492303
 20
85.5365162766
 30
0.0
 40
1.199999999999999
 41
0.0
 71
     7
 72
     1
  1
4.00
  7
SLDTEXTSTYLE0
 73
     1
 44
1.0
  0
LINE
  5
406
330
403
100
AcDbEntity
  8
0
100
AcDbLine
 10
136.0632014854999
 20
88.0760487294
 30
0.0
 11
151.4900956453
 21
88.0760487294
 31
0.0
  0
LINE
  5
407
330
403
100
AcDbEntity
  8
0
100
AcDbLine
 10
136.0632014854999
 20
84.0760487294
 30
0.0
 11
151.4900956453
 21
84.0760487294
 31
0.0
  0
LINE
  5
408
330
403
100
AcDbEntity
  8
0
100
AcDbLine
 10
150.0500956453
 20
88.0760487294
 30
0.0
 11
150.0500956453
 21
94.0760487294
 31
0.0
  0
LINE
  5
409
330
403
100
AcDbEntity
  8
0
100
AcDbLine
 10
150.0500956453
 20
84.0760487294
 30
0.0
 11
150.0500956453
 21
78.0760487294
 31
0.0
  0
SOLID
  5
40A
330
403
100
AcDbEntity
  8
0
100
AcDbTrace
 10
150.0500956453
 20
88.0760487294
 30
0.0
 11
150.4250956453
 21
90.3260487294
 31
0.0
 12
149.6750956453
 22
90.3260487294
 32
0.0
 13
149.6750956453
 23
90.3260487294
 33
0.0
  0
SOLID
  5
40B
330
403
100
AcDbEntity
  8
0
100
AcDbTrace
 10
150.0500956453
 20
84.0760487294
 30
0.0
 11
149.6750956453
 21
81.8260487294
 31
0.0
 12
150.4250956453
 22
81.8260487294
 32
0.0
 13
150.4250956453
 23
81.8260487294
 33
0.0
  0
POINT
  5
40D
330
403
100
AcDbEntity
  8
0
100
AcDbPoint
 10
135.5832014854999
 20
88.0760487294
 30
0.0
  0
POINT
  5
40E
330
403
100
AcDbEntity
  8
0
100
AcDbPoint
 10
135.5832014854999
 20
84.0760487294
 30
0.0
  0
ENDBLK
  5
40F
330
403
100
AcDbEntity
  8
0
 62
     1
100
AcDbBlockEnd
  0
BLOCK
  5
412
330
411
100
AcDbEntity
  8
0
 62
     1
100
AcDbBlockBegin
  2
*D11
 70
     1
 10
0.0
 20
0.0
 30
0.0
  3
*D11
  1

  0
MTEXT
  5
413
330
411
100
AcDbEntity
  8
0
100
AcDbMText
 10
144.5143990722999
 20
100.9432397544
 30
0.0
 40
1.199999999999999
 41
0.0
 71
     7
 72
     1
  1
2.00
  7
SLDTEXTSTYLE0
 73
     1
 44
1.0
  0
LINE
  5
414
330
411
100
AcDbEntity
  8
0
100
AcDbLine
 10
137.5832014854999
 20
86.52454872940001
 30
0.0
 11
137.5832014854999
 21
102.9227722072
 31
0.0
  0
LINE
  5
415
330
411
100
AcDbEntity
  8
0
100
AcDbLine
 10
135.5832014854999
 20
84.55604872939998
 30
0.0
 11
135.5832014854999
 21
102.9227722072
 31
0.0
  0
LINE
  5
416
330
411
100
AcDbEntity
  8
0
100
AcDbLine
 10
137.5832014854999
 20
101.4827722072
 30
0.0
 11
143.7643990722999
 21
101.4827722072
 31
0.0
  0
LINE
  5
417
330
411
100
AcDbEntity
  8
0
100
AcDbLine
 10
135.5832014854999
 20
101.4827722072
 30
0.0
 11
129.5832014854999
 21
101.4827722072
 31
0.0
  0
SOLID
  5
418
330
411
100
AcDbEntity
  8
0
100
AcDbTrace
 10
137.5832014854999
 20
101.4827722072
 30
0.0
 11
139.8332014854999
 21
101.1077722071999
 31
0.0
 12
139.8332014854999
 22
101.8577722072
 32
0.0
 13
139.8332014854999
 23
101.8577722072
 33
0.0
  0
SOLID
  5
419
330
411
100
AcDbEntity
  8
0
100
AcDbTrace
 10
135.5832014854999
 20
101.4827722072
 30
0.0
 11
133.3332014854999
 21
101.8577722072
 31
0.0
 12
133.3332014854999
 22
101.1077722071999
 32
0.0
 13
133.3332014854999
 23
101.1077722071999
 33
0.0
  0
POINT
  5
41A
330
411
100
AcDbEntity
  8
0
100
AcDbPoint
 10
137.5832014854999
 20
86.04454872940001
 30
0.0
  0
POINT
  5
41B
330
411
100
AcDbEntity
  8
0
100
AcDbPoint
 10
135.5832014854999
 20
84.0760487294
 30
0.0
  0
ENDBLK
  5
41C
330
411
100
AcDbEntity
  8
0
 62
     1
100
AcDbBlockEnd
  0
BLOCK
  5
41F
330
41E
100
AcDbEntity
  8
0
 62
     1
100
AcDbBlockBegin
  2
*D12
 70
     1
 10
0.0
 20
0.0
 30
0.0
  3
*D12
  1

  0
MTEXT
  5
420
330
41E
100
AcDbEntity
  8
0
 62
     7
100
AcDbMText
 10
134.2183651100999
 20
64.1155884135
 30
0.0
 40
1.199999999999999
 41
0.0
 71
     7
 72
     1
  1
%%c
  7
SLDTEXTSTYLE0
 73
     1
 44
1.0
  0
MTEXT
  5
421
330
41E
100
AcDbEntity
  8
0
 62
     7
100
AcDbMText
 10
136.2677568082
 20
64.1155884135
 30
0.0
 40
1.199999999999999
 41
0.0
 71
     7
 72
     1
  1
7/16"
  7
SLDTEXTSTYLE0
 73
     1
 44
1.0
  0
MTEXT
  5
422
330
41E
100
AcDbEntity
  8
0
 62
     7
100
AcDbMText
 10
140.1093847327
 20
64.1155884135
 30
0.0
 40
1.199999999999999
 41
0.0
 71
     7
 72
     1
  1
 DRILL THRU, 4 PLACES
  7
SLDTEXTSTYLE0
 73
     1
 44
1.0
  0
MTEXT
  5
423
330
41E
100
AcDbEntity
  8
0
 62
     7
100
AcDbMText
 10
138.1611202043999
 20
61.8365235079
 30
0.0
 40
1.199999999999999
 41
0.0
 71
     7
 72
     1
  1
CAN BE DONE AFTER 
  7
SLDTEXTSTYLE0
 73
     1
 44
1.0
  0
MTEXT
  5
424
330
41E
100
AcDbEntity
  8
0
 62
     7
100
AcDbMText
 10
134.7425228459
 20
59.5574586022
 30
0.0
 40
1.199999999999999
 41
0.0
 71
     7
 72
     1
  1
WELDED INTO BASE ASSEMBLY
  7
SLDTEXTSTYLE0
 73
     1
 44
1.0
  0
LINE
  5
425
330
41E
100
AcDbEntity
  8
0
 62
     7
100
AcDbLine
 10
135.5329585181999
 20
83.8628899993
 30
0.0
 11
130.4683651101
 21
62.3760559607
 31
0.0
  0
LINE
  5
426
330
41E
100
AcDbEntity
  8
0
 62
     7
100
AcDbLine
 10
130.4683651101
 20
62.3760559607
 30
0.0
 11
133.4683651101
 21
62.3760559607
 31
0.0
  0
SOLID
  5
427
330
41E
100
AcDbEntity
  8
0
 62
     7
100
AcDbTrace
 10
135.5329585181999
 20
83.8628899993
 30
0.0
 11
134.6517658233
 21
81.7589355239
 31
0.0
 12
135.3817614745
 22
81.5868705675
 32
0.0
 13
135.3817614745
 23
81.5868705675
 33
0.0
  0
POINT
  5
429
330
41E
100
AcDbEntity
  8
0
 62
     7
100
AcDbPoint
 10
135.5329585181999
 20
83.8628899993
 30
0.0
  0
POINT
  5
42A
330
41E
100
AcDbEntity
  8
0
 62
     7
100
AcDbPoint
 10
135.6334444528
 20
84.28920745960001
 30
0.0
  0
ENDBLK
  5
42B
330
41E
100
AcDbEntity
  8
0
100
AcDbBlockEnd
  0
BLOCK
  5
42E
330
42D
100
AcDbEntity
  8
0
 62
     1
100
AcDbBlockBegin
  2
*D13
 70
     1
 10
0.0
 20
0.0
 30
0.0
  3
*D13
  1

  0
MTEXT
  5
42F
330
42D
100
AcDbEntity
  8
0
100
AcDbMText
 10
144.225119202
 20
94.8422334057
 30
0.0
 40
1.199999999999999
 41
0.0
 71
     7
 72
     1
  1
2.00
  7
SLDTEXTSTYLE0
 73
     1
 44
1.0
  0
LINE
  5
430
330
42D
100
AcDbEntity
  8
0
100
AcDbLine
 10
136.0632014854999
 20
88.0760487294
 30
0.0
 11
143.415119202
 21
88.0760487294
 31
0.0
  0
LINE
  5
431
330
42D
100
AcDbEntity
  8
0
100
AcDbLine
 10
143.475119202
 20
95.38176585850001
 30
0.0
 11
141.975119202
 21
95.38176585850001
 31
0.0
  0
LINE
  5
432
330
42D
100
AcDbEntity
  8
0
100
AcDbLine
 10
141.975119202
 20
95.38176585850001
 30
0.0
 11
141.975119202
 21
88.0760487294
 31
0.0
  0
LINE
  5
433
330
42D
100
AcDbEntity
  8
0
100
AcDbLine
 10
141.975119202
 20
86.07604872939999
 30
0.0
 11
141.975119202
 21
80.0760487294
 31
0.0
  0
SOLID
  5
434
330
42D
100
AcDbEntity
  8
0
100
AcDbTrace
 10
141.975119202
 20
88.0760487294
 30
0.0
 11
142.3501192019999
 21
90.3260487294
 31
0.0
 12
141.6001192019999
 22
90.3260487294
 32
0.0
 13
141.6001192019999
 23
90.3260487294
 33
0.0
  0
SOLID
  5
435
330
42D
100
AcDbEntity
  8
0
100
AcDbTrace
 10
141.975119202
 20
86.07604872939999
 30
0.0
 11
141.6001192019999
 21
83.8260487294
 31
0.0
 12
142.3501192019999
 22
83.8260487294
 32
0.0
 13
142.3501192019999
 23
83.8260487294
 33
0.0
  0
POINT
  5
437
330
42D
100
AcDbEntity
  8
0
100
AcDbPoint
 10
135.5832014854999
 20
88.0760487294
 30
0.0
  0
POINT
  5
438
330
42D
100
AcDbEntity
  8
0
100
AcDbPoint
 10
143.3159876787
 20
86.07604872939999
 30
0.0
  0
ENDBLK
  5
439
330
42D
100
AcDbEntity
  8
0
 62
     1
100
AcDbBlockEnd
  0
BLOCK
  5
43C
330
43B
100
AcDbEntity
  8
0
 62
     0
100
AcDbBlockBegin
  2
NOTE73
 70
     0
 10
0.0
 20
0.0
 30
0.0
  3
NOTE73
  1

  0
MTEXT
  5
43D
330
43B
100
AcDbEntity
  8
0
 62
     1
100
AcDbMText
 10
0.0
 20
0.0
 30
0.0
 40
2.0
 41
0.0
 71
     1
 72
     1
  1
{\Fgdt;q}
  7
SLDTEXTSTYLE0
 73
     1
 44
1.0
  0
ENDBLK
  5
43E
330
43B
100
AcDbEntity
  8
0
100
AcDbBlockEnd
  0
BLOCK
  5
441
330
440
100
AcDbEntity
  8
0
 62
     0
100
AcDbBlockBegin
  2
NOTE74
 70
     0
 10
0.0
 20
0.0
 30
0.0
  3
NOTE74
  1

  0
MTEXT
  5
442
330
440
100
AcDbEntity
  8
0
 62
     1
100
AcDbMText
 10
0.0
 20
0.0
 30
0.0
 40
2.0
 41
0.0
 71
     1
 72
     1
  1
{\Fgdt;q}
  7
SLDTEXTSTYLE0
 73
     1
 44
1.0
  0
ENDBLK
  5
443
330
440
100
AcDbEntity
  8
0
100
AcDbBlockEnd
  0
BLOCK
  5
453
330
452
100
AcDbEntity
  8
0
 62
     1
100
AcDbBlockBegin
  2
*D16
 70
     1
 10
0.0
 20
0.0
 30
0.0
  3
*D16
  1

  0
MTEXT
  5
454
330
452
100
AcDbEntity
  8
0
100
AcDbMText
 10
29.9088724198
 20
101.5059679633999
 30
0.0
 40
1.199999999999999
 41
0.0
 71
     7
 72
     1
  1
2.00
  7
SLDTEXTSTYLE0
 73
     1
 44
1.0
  0
LINE
  5
455
330
452
100
AcDbEntity
  8
0
100
AcDbLine
 10
43.23137592770001
 20
81.55604872939999
 30
0.0
 11
43.23137592770001
 21
103.4855004162
 31
0.0
  0
LINE
  5
456
330
452
100
AcDbEntity
  8
0
100
AcDbLine
 10
41.2313759277
 20
92.55604872940001
 30
0.0
 11
41.2313759277
 21
103.4855004162
 31
0.0
  0
LINE
  5
457
330
452
100
AcDbEntity
  8
0
100
AcDbLine
 10
43.23137592770001
 20
102.0455004162
 30
0.0
 11
49.2313759277
 21
102.0455004162
 31
0.0
  0
LINE
  5
458
330
452
100
AcDbEntity
  8
0
100
AcDbLine
 10
41.2313759277
 20
102.0455004162
 30
0.0
 11
33.538621099
 21
102.0455004162
 31
0.0
  0
SOLID
  5
459
330
452
100
AcDbEntity
  8
0
100
AcDbTrace
 10
43.23137592770001
 20
102.0455004162
 30
0.0
 11
45.4813759277
 21
101.6705004162
 31
0.0
 12
45.4813759277
 22
102.4205004162
 32
0.0
 13
45.4813759277
 23
102.4205004162
 33
0.0
  0
SOLID
  5
45A
330
452
100
AcDbEntity
  8
0
100
AcDbTrace
 10
41.2313759277
 20
102.0455004162
 30
0.0
 11
38.9813759277
 21
102.4205004162
 31
0.0
 12
38.9813759277
 22
101.6705004162
 32
0.0
 13
38.9813759277
 23
101.6705004162
 33
0.0
  0
POINT
  5
45B
330
452
100
AcDbEntity
  8
0
100
AcDbPoint
 10
43.23137592770001
 20
81.07604872939999
 30
0.0
  0
POINT
  5
45C
330
452
100
AcDbEntity
  8
0
100
AcDbPoint
 10
41.2313759277
 20
92.07604872940001
 30
0.0
  0
ENDBLK
  5
45D
330
452
100
AcDbEntity
  8
0
 62
     1
100
AcDbBlockEnd
  0
BLOCK
  5
460
330
45F
100
AcDbEntity
  8
0
 62
     1
100
AcDbBlockBegin
  2
*D17
 70
     1
 10
0.0
 20
0.0
 30
0.0
  3
*D17
  1

  0
MTEXT
  5
461
330
45F
100
AcDbEntity
  8
0
100
AcDbMText
 10
25.4938423503
 20
85.5365162766
 30
0.0
 40
1.199999999999999
 41
0.0
 71
     7
 72
     1
  1
10.00
  7
SLDTEXTSTYLE0
 73
     1
 44
1.0
  0
LINE
  5
462
330
45F
100
AcDbEntity
  8
0
100
AcDbLine
 10
42.7513759277
 20
91.07604872939999
 30
0.0
 11
25.7940585767
 21
91.07604872939999
 31
0.0
  0
LINE
  5
463
330
45F
100
AcDbEntity
  8
0
100
AcDbLine
 10
42.7513759277
 20
81.07604872939999
 30
0.0
 11
25.7940585767
 21
81.07604872939999
 31
0.0
  0
LINE
  5
464
330
45F
100
AcDbEntity
  8
0
100
AcDbLine
 10
27.2340585767
 20
91.07604872939999
 30
0.0
 11
27.2340585767
 21
87.21558118229999
 31
0.0
  0
LINE
  5
465
330
45F
100
AcDbEntity
  8
0
100
AcDbLine
 10
27.2340585767
 20
81.07604872939999
 30
0.0
 11
27.2340585767
 21
84.9365162766
 31
0.0
  0
SOLID
  5
466
330
45F
100
AcDbEntity
  8
0
100
AcDbTrace
 10
27.2340585767
 20
91.07604872939999
 30
0.0
 11
26.8590585767
 21
88.8260487294
 31
0.0
 12
27.6090585767
 22
88.8260487294
 32
0.0
 13
27.6090585767
 23
88.8260487294
 33
0.0
  0
SOLID
  5
467
330
45F
100
AcDbEntity
  8
0
100
AcDbTrace
 10
27.2340585767
 20
81.07604872939999
 30
0.0
 11
27.6090585767
 21
83.32604872940001
 31
0.0
 12
26.8590585767
 22
83.32604872940001
 32
0.0
 13
26.8590585767
 23
83.32604872940001
 33
0.0
  0
POINT
  5
468
330
45F
100
AcDbEntity
  8
0
100
AcDbPoint
 10
43.23137592770001
 20
91.07604872939999
 30
0.0
  0
POINT
  5
469
330
45F
100
AcDbEntity
  8
0
100
AcDbPoint
 10
43.23137592770001
 20
81.07604872939999
 30
0.0
  0
ENDBLK
  5
46A
330
45F
100
AcDbEntity
  8
0
 62
     1
100
AcDbBlockEnd
  0
BLOCK
  5
46D
330
46C
100
AcDbEntity
  8
0
 62
     1
100
AcDbBlockBegin
  2
*D18
 70
     1
 10
0.0
 20
0.0
 30
0.0
  3
*D18
  1

  0
MTEXT
  5
46E
330
46C
100
AcDbEntity
  8
0
100
AcDbMText
 10
30.5443643097
 20
97.28558154099999
 30
0.0
 40
1.199999999999999
 41
0.0
 71
     7
 72
     1
  1
5.00
  7
SLDTEXTSTYLE0
 73
     1
 44
1.0
  0
LINE
  5
46F
330
46C
100
AcDbEntity
  8
0
100
AcDbLine
 10
35.79761261979999
 20
86.07604872939999
 30
0.0
 11
34.2341129889
 21
86.07604872939999
 31
0.0
  0
LINE
  5
470
330
46C
100
AcDbEntity
  8
0
100
AcDbLine
 10
42.7513759277
 20
91.07604872939999
 30
0.0
 11
34.2341129889
 21
91.07604872939999
 31
0.0
  0
LINE
  5
471
330
46C
100
AcDbEntity
  8
0
100
AcDbLine
 10
34.1741129889
 20
97.82511399379998
 30
0.0
 11
35.6741129889
 21
97.82511399379998
 31
0.0
  0
LINE
  5
472
330
46C
100
AcDbEntity
  8
0
100
AcDbLine
 10
35.6741129889
 20
97.82511399379998
 30
0.0
 11
35.6741129889
 21
91.07604872939999
 31
0.0
  0
LINE
  5
473
330
46C
100
AcDbEntity
  8
0
100
AcDbLine
 10
35.6741129889
 20
86.07604872939999
 30
0.0
 11
35.6741129889
 21
80.0760487294
 31
0.0
  0
SOLID
  5
474
330
46C
100
AcDbEntity
  8
0
100
AcDbTrace
 10
35.6741129889
 20
86.07604872939999
 30
0.0
 11
35.2991129889
 21
83.8260487294
 31
0.0
 12
36.0491129889
 22
83.8260487294
 32
0.0
 13
36.0491129889
 23
83.8260487294
 33
0.0
  0
SOLID
  5
475
330
46C
100
AcDbEntity
  8
0
100
AcDbTrace
 10
35.6741129889
 20
91.07604872939999
 30
0.0
 11
36.0491129889
 21
93.32604872940001
 31
0.0
 12
35.2991129889
 22
93.32604872940001
 32
0.0
 13
35.2991129889
 23
93.32604872940001
 33
0.0
  0
POINT
  5
476
330
46C
100
AcDbEntity
  8
0
100
AcDbPoint
 10
36.2776126198
 20
86.07604872939999
 30
0.0
  0
POINT
  5
477
330
46C
100
AcDbEntity
  8
0
100
AcDbPoint
 10
43.23137592770001
 20
91.07604872939999
 30
0.0
  0
ENDBLK
  5
478
330
46C
100
AcDbEntity
  8
0
 62
     1
100
AcDbBlockEnd
  0
ENDSEC
  0
SECTION
  2
ENTITIES
  0
LINE
  5
2A
330
A
100
AcDbEntity
  8
0
  6
Continuous
 62
     7
370
     0
100
AcDbLine
 10
40.49999999999999
 20
127.5
 30
0.0
 11
18.0
 21
127.5
 31
0.0
  0
LINE
  5
2B
330
A
100
AcDbEntity
  8
0
  6
Continuous
 62
     7
370
     0
100
AcDbLine
 10
63.0
 20
127.5
 30
0.0
 11
40.49999999999999
 21
127.5
 31
0.0
  0
LINE
  5
2C
330
A
100
AcDbEntity
  8
0
  6
Continuous
 62
     7
370
     0
100
AcDbLine
 10
198.0
 20
4.5
 30
0.0
 11
175.5
 21
4.5
 31
0.0
  0
LINE
  5
2D
330
A
100
AcDbEntity
  8
0
  6
Continuous
 62
     7
370
     0
100
AcDbLine
 10
198.0
 20
4.5
 30
0.0
 11
198.0
 21
35.25
 31
0.0
  0
LINE
  5
2E
330
A
100
AcDbEntity
  8
0
  6
Continuous
 62
     7
370
     0
100
AcDbLine
 10
198.0
 20
96.75
 30
0.0
 11
199.5
 21
96.75
 31
0.0
  0
LINE
  5
2F
330
A
100
AcDbEntity
  8
0
  6
Continuous
 62
     7
370
     0
100
AcDbLine
 10
198.0
 20
66.0
 30
0.0
 11
199.5
 21
66.0
 31
0.0
  0
LINE
  5
30
330
A
100
AcDbEntity
  8
0
  6
Continuous
 62
     7
370
     0
100
AcDbLine
 10
85.5
 20
127.5
 30
0.0
 11
63.0
 21
127.5
 31
0.0
  0
LINE
  5
31
330
A
100
AcDbEntity
  8
0
  6
Continuous
 62
     7
370
     0
100
AcDbLine
 10
108.0
 20
127.5
 30
0.0
 11
85.5
 21
127.5
 31
0.0
  0
LINE
  5
32
330
A
100
AcDbEntity
  8
0
  6
Continuous
 62
     7
370
     0
100
AcDbLine
 10
130.4999999999999
 20
127.5
 30
0.0
 11
108.0
 21
127.5
 31
0.0
  0
LINE
  5
33
330
A
100
AcDbEntity
  8
0
  6
Continuous
 62
     7
370
     0
100
AcDbLine
 10
153.0
 20
127.5
 30
0.0
 11
130.4999999999999
 21
127.5
 31
0.0
  0
LINE
  5
34
330
A
100
AcDbEntity
  8
0
  6
Continuous
 62
     7
370
     0
100
AcDbLine
 10
175.5
 20
127.5
 30
0.0
 11
153.0
 21
127.5
 31
0.0
  0
LINE
  5
35
330
A
100
AcDbEntity
  8
0
  6
Continuous
 62
     7
370
     0
100
AcDbLine
 10
198.0
 20
35.25
 30
0.0
 11
199.5
 21
35.25
 31
0.0
  0
LINE
  5
36
330
A
100
AcDbEntity
  8
0
  6
Continuous
 62
     7
370
     0
100
AcDbLine
 10
198.0
 20
127.5
 30
0.0
 11
175.5
 21
127.5
 31
0.0
  0
LINE
  5
37
330
A
100
AcDbEntity
  8
0
  6
Continuous
 62
     7
370
     0
100
AcDbLine
 10
175.5
 20
127.5
 30
0.0
 11
175.5
 21
129.0
 31
0.0
  0
LINE
  5
38
330
A
100
AcDbEntity
  8
0
  6
Continuous
 62
     7
370
     0
100
AcDbLine
 10
153.0
 20
127.5
 30
0.0
 11
153.0
 21
129.0
 31
0.0
  0
LINE
  5
39
330
A
100
AcDbEntity
  8
0
  6
Continuous
 62
     7
370
     0
100
AcDbLine
 10
130.4999999999999
 20
127.5
 30
0.0
 11
130.4999999999999
 21
129.0
 31
0.0
  0
LINE
  5
3A
330
A
100
AcDbEntity
  8
0
  6
Continuous
 62
     7
370
     0
100
AcDbLine
 10
108.0
 20
127.5
 30
0.0
 11
108.0
 21
129.0
 31
0.0
  0
LINE
  5
3B
330
A
100
AcDbEntity
  8
0
  6
Continuous
 62
     7
370
     0
100
AcDbLine
 10
85.5
 20
127.5
 30
0.0
 11
85.5
 21
129.0
 31
0.0
  0
LINE
  5
3C
330
A
100
AcDbEntity
  8
0
  6
Continuous
 62
     7
370
     0
100
AcDbLine
 10
63.0
 20
127.5
 30
0.0
 11
63.0
 21
129.0
 31
0.0
  0
LINE
  5
3D
330
A
100
AcDbEntity
  8
0
  6
Continuous
 62
     7
370
     0
100
AcDbLine
 10
40.49999999999999
 20
127.5
 30
0.0
 11
40.49999999999999
 21
129.0
 31
0.0
  0
LINE
  5
3E
330
A
100
AcDbEntity
  8
0
  6
Continuous
 62
     7
370
     0
100
AcDbLine
 10
105.0
 20
20.28
 30
0.0
 11
105.0
 21
4.511999999999999
 31
0.0
  0
LINE
  5
3F
330
A
100
AcDbEntity
  8
0
  6
Continuous
 62
     7
370
     0
100
AcDbLine
 10
132.0
 20
28.5
 30
0.0
 11
198.0
 21
28.5
 31
0.0
  0
LINE
  5
40
330
A
100
AcDbEntity
  8
0
  6
Continuous
 62
     7
370
     0
100
AcDbLine
 10
132.0
 20
28.5
 30
0.0
 11
132.0
 21
4.5
 31
0.0
  0
LINE
  5
41
330
A
100
AcDbEntity
  8
0
  6
Continuous
 62
     7
370
     0
100
AcDbLine
 10
162.0
 20
28.5
 30
0.0
 11
162.0
 21
4.5
 31
0.0
  0
LINE
  5
42
330
A
100
AcDbEntity
  8
0
  6
Continuous
 62
     7
370
     0
100
AcDbLine
 10
162.0
 20
6.756
 30
0.0
 11
198.0
 21
6.756
 31
0.0
  0
LINE
  5
43
330
A
100
AcDbEntity
  8
0
  6
Continuous
 62
     7
370
     0
100
AcDbLine
 10
162.0
 20
11.25599999999999
 30
0.0
 11
198.0
 21
11.25599999999999
 31
0.0
  0
LINE
  5
44
330
A
100
AcDbEntity
  8
0
  6
Continuous
 62
     7
370
     0
100
AcDbLine
 10
162.0
 20
20.256
 30
0.0
 11
198.0
 21
20.256
 31
0.0
  0
LINE
  5
45
330
A
100
AcDbEntity
  8
0
  6
Continuous
 62
     7
370
     0
100
AcDbLine
 10
166.5
 20
11.25599999999999
 30
0.0
 11
166.5
 21
4.5
 31
0.0
  0
LINE
  5
46
330
A
100
AcDbEntity
  8
0
  6
Continuous
 62
     7
370
     0
100
AcDbLine
 10
105.0
 20
9.012
 30
0.0
 11
162.0
 21
9.012
 31
0.0
  0
LINE
  5
47
330
A
100
AcDbEntity
  8
0
  6
Continuous
 62
     7
370
     0
100
AcDbLine
 10
193.5
 20
11.25599999999999
 30
0.0
 11
193.5
 21
4.5
 31
0.0
  0
LINE
  5
48
330
A
100
AcDbEntity
  8
0
  6
Continuous
 62
     7
370
     0
100
AcDbLine
 10
162.0
 20
24.0
 30
0.0
 11
132.0
 21
24.0
 31
0.0
  0
LINE
  5
49
330
A
100
AcDbEntity
  8
0
  6
Continuous
 62
     7
370
     0
100
AcDbLine
 10
132.0
 20
14.244
 30
0.0
 11
162.0
 21
14.244
 31
0.0
  0
LINE
  5
4A
330
A
100
AcDbEntity
  8
0
  6
Continuous
 62
     7
370
     0
100
AcDbLine
 10
132.0
 20
6.756
 30
0.0
 11
162.0
 21
6.756
 31
0.0
  0
LINE
  5
4B
330
A
100
AcDbEntity
  8
0
  6
Continuous
 62
     7
370
     0
100
AcDbLine
 10
105.0
 20
15.76799999999999
 30
0.0
 11
132.0
 21
15.76799999999999
 31
0.0
  0
LINE
  5
4C
330
A
100
AcDbEntity
  8
0
  6
Continuous
 62
     7
370
     0
100
AcDbLine
 10
198.0
 20
35.25
 30
0.0
 11
198.0
 21
66.0
 31
0.0
  0
LINE
  5
4D
330
A
100
AcDbEntity
  8
0
  6
Continuous
 62
     7
370
     0
100
AcDbLine
 10
198.0
 20
66.0
 30
0.0
 11
198.0
 21
96.75
 31
0.0
  0
LINE
  5
4E
330
A
100
AcDbEntity
  8
0
  6
Continuous
 62
     7
370
     0
100
AcDbLine
 10
198.0
 20
96.75
 30
0.0
 11
198.0
 21
127.5
 31
0.0
  0
LINE
  5
4F
330
A
100
AcDbEntity
  8
0
  6
Continuous
 62
     7
370
     0
100
AcDbLine
 10
175.5
 20
4.5
 30
0.0
 11
153.0
 21
4.5
 31
0.0
  0
LINE
  5
50
330
A
100
AcDbEntity
  8
0
  6
Continuous
 62
     7
370
     0
100
AcDbLine
 10
153.0
 20
4.5
 30
0.0
 11
130.4999999999999
 21
4.5
 31
0.0
  0
LINE
  5
51
330
A
100
AcDbEntity
  8
0
  6
Continuous
 62
     7
370
     0
100
AcDbLine
 10
105.0
 20
18.024
 30
0.0
 11
132.0
 21
18.024
 31
0.0
  0
LINE
  5
52
330
A
100
AcDbEntity
  8
0
  6
Continuous
 62
     7
370
     0
100
AcDbLine
 10
105.0
 20
11.25
 30
0.0
 11
60.0
 21
11.25
 31
0.0
  0
LINE
  5
53
330
A
100
AcDbEntity
  8
0
  6
Continuous
 62
     7
370
     0
100
AcDbLine
 10
132.0
 20
20.28
 30
0.0
 11
105.0
 21
20.28
 31
0.0
  0
LINE
  5
54
330
A
100
AcDbEntity
  8
0
  6
Continuous
 62
     7
370
     0
100
AcDbLine
 10
123.0
 20
20.28
 30
0.0
 11
123.0
 21
13.512
 31
0.0
  0
LINE
  5
55
330
A
100
AcDbEntity
  8
0
  6
Continuous
 62
     7
370
     0
100
AcDbLine
 10
132.0
 20
21.74399999999999
 30
0.0
 11
162.0
 21
21.74399999999999
 31
0.0
  0
LINE
  5
56
330
A
100
AcDbEntity
  8
0
  6
Continuous
 62
     7
370
     0
100
AcDbLine
 10
105.0
 20
13.512
 30
0.0
 11
132.0
 21
13.512
 31
0.0
  0
LINE
  5
57
330
A
100
AcDbEntity
  8
0
  6
Continuous
 62
     7
370
     0
100
AcDbLine
 10
147.0
 20
24.0
 30
0.0
 11
147.0
 21
14.244
 31
0.0
  0
LINE
  5
58
330
A
100
AcDbEntity
  8
0
  6
Continuous
 62
     7
370
     0
100
AcDbLine
 10
130.4999999999999
 20
4.5
 30
0.0
 11
108.0
 21
4.5
 31
0.0
  0
LINE
  5
59
330
A
100
AcDbEntity
  8
0
  6
Continuous
 62
     7
370
     0
100
AcDbLine
 10
108.0
 20
4.5
 30
0.0
 11
85.5
 21
4.5
 31
0.0
  0
LINE
  5
5A
330
A
100
AcDbEntity
  8
0
  6
Continuous
 62
     7
370
     0
100
AcDbLine
 10
85.5
 20
4.5
 30
0.0
 11
63.0
 21
4.5
 31
0.0
  0
LINE
  5
5B
330
A
100
AcDbEntity
  8
0
  6
Continuous
 62
     7
370
     0
100
AcDbLine
 10
63.0
 20
4.5
 30
0.0
 11
40.49999999999999
 21
4.5
 31
0.0
  0
LINE
  5
5C
330
A
100
AcDbEntity
  8
0
  6
Continuous
 62
     7
370
     0
100
AcDbLine
 10
154.4999999999999
 20
24.0
 30
0.0
 11
154.4999999999999
 21
14.244
 31
0.0
  0
LINE
  5
5D
330
A
100
AcDbEntity
  8
0
  6
Continuous
 62
     7
370
     0
100
AcDbLine
 10
40.49999999999999
 20
4.5
 30
0.0
 11
18.0
 21
4.5
 31
0.0
  0
LINE
  5
5E
330
A
100
AcDbEntity
  8
0
  6
Continuous
 62
     7
370
     0
100
AcDbLine
 10
9.0
 20
127.5
 30
0.0
 11
9.0
 21
4.5
 31
0.0
  0
LINE
  5
5F
330
A
100
AcDbEntity
  8
0
  6
Continuous
 62
     7
370
     0
100
AcDbLine
 10
18.0
 20
35.25
 30
0.0
 11
18.0
 21
66.0
 31
0.0
  0
LINE
  5
60
330
A
100
AcDbEntity
  8
0
  6
Continuous
 62
     7
370
     0
100
AcDbLine
 10
18.0
 20
66.0
 30
0.0
 11
18.0
 21
96.75
 31
0.0
  0
LINE
  5
61
330
A
100
AcDbEntity
  8
0
  6
Continuous
 62
     7
370
     0
100
AcDbLine
 10
18.0
 20
96.75
 30
0.0
 11
18.0
 21
127.5
 31
0.0
  0
LINE
  5
62
330
A
100
AcDbEntity
  8
0
  6
Continuous
 62
     7
370
     0
100
AcDbLine
 10
18.0
 20
96.75
 30
0.0
 11
16.5
 21
96.75
 31
0.0
  0
LINE
  5
63
330
A
100
AcDbEntity
  8
0
  6
Continuous
 62
     7
370
     0
100
AcDbLine
 10
175.5
 20
4.5
 30
0.0
 11
175.5
 21
3.0
 31
0.0
  0
LINE
  5
64
330
A
100
AcDbEntity
  8
0
  6
Continuous
 62
     7
370
     0
100
AcDbLine
 10
153.0
 20
4.5
 30
0.0
 11
153.0
 21
3.0
 31
0.0
  0
LINE
  5
65
330
A
100
AcDbEntity
  8
0
  6
Continuous
 62
     7
370
     0
100
AcDbLine
 10
130.4999999999999
 20
4.5
 30
0.0
 11
130.4999999999999
 21
3.0
 31
0.0
  0
LINE
  5
66
330
A
100
AcDbEntity
  8
0
  6
CENTERX2
 62
     7
370
     0
100
AcDbLine
 10
108.0
 20
4.5
 30
0.0
 11
108.0
 21
3.0
 31
0.0
  0
LINE
  5
67
330
A
100
AcDbEntity
  8
0
  6
Continuous
 62
     7
370
     0
100
AcDbLine
 10
85.5
 20
4.5
 30
0.0
 11
85.5
 21
3.0
 31
0.0
  0
LINE
  5
68
330
A
100
AcDbEntity
  8
0
  6
Continuous
 62
     7
370
     0
100
AcDbLine
 10
63.0
 20
4.5
 30
0.0
 11
63.0
 21
3.0
 31
0.0
  0
LINE
  5
69
330
A
100
AcDbEntity
  8
0
  6
Continuous
 62
     7
370
     0
100
AcDbLine
 10
40.49999999999999
 20
4.5
 30
0.0
 11
40.49999999999999
 21
3.0
 31
0.0
  0
LINE
  5
6A
330
A
100
AcDbEntity
  8
0
  6
Continuous
 62
     7
370
     0
100
AcDbLine
 10
18.0
 20
66.0
 30
0.0
 11
16.5
 21
66.0
 31
0.0
  0
LINE
  5
6B
330
A
100
AcDbEntity
  8
0
  6
Continuous
 62
     7
370
     0
100
AcDbLine
 10
18.0
 20
35.25
 30
0.0
 11
16.5
 21
35.25
 31
0.0
  0
LINE
  5
6C
330
A
100
AcDbEntity
  8
0
  6
Continuous
 62
     7
370
     0
100
AcDbLine
 10
18.0
 20
4.5
 30
0.0
 11
18.0
 21
35.25
 31
0.0
  0
LINE
  5
6D
330
A
100
AcDbEntity
  8
0
  6
Continuous
 62
     7
370
     0
100
AcDbLine
 10
60.0
 20
11.25
 30
0.0
 11
60.0
 21
4.5
 31
0.0
  0
LINE
  5
6E
330
A
100
AcDbEntity
  8
0
  6
Continuous
 62
     7
370
     0
100
AcDbLine
 10
198.0
 20
125.2439999999999
 30
0.0
 11
150.0
 21
125.2439999999999
 31
0.0
  0
LINE
  5
6F
330
A
100
AcDbEntity
  8
0
  6
Continuous
 62
     7
370
     0
100
AcDbLine
 10
198.0
 20
122.988
 30
0.0
 11
150.0
 21
122.988
 31
0.0
  0
LINE
  5
70
330
A
100
AcDbEntity
  8
0
  6
Continuous
 62
     7
370
     0
100
AcDbLine
 10
198.0
 20
120.732
 30
0.0
 11
150.0
 21
120.732
 31
0.0
  0
LINE
  5
71
330
A
100
AcDbEntity
  8
0
  6
Continuous
 62
     7
370
     0
100
AcDbLine
 10
150.0
 20
127.5
 30
0.0
 11
150.0
 21
120.732
 31
0.0
  0
LINE
  5
72
330
A
100
AcDbEntity
  8
0
  6
Continuous
 62
     7
370
     0
100
AcDbLine
 10
154.4999999999999
 20
125.2439999999999
 30
0.0
 11
154.4999999999999
 21
120.732
 31
0.0
  0
LINE
  5
73
330
A
100
AcDbEntity
  8
0
  6
Continuous
 62
     7
370
     0
100
AcDbLine
 10
189.0
 20
125.2439999999999
 30
0.0
 11
189.0
 21
120.732
 31
0.0
  0
LINE
  5
74
330
A
100
AcDbEntity
  8
0
  6
Continuous
 62
     7
370
     0
100
AcDbLine
 10
181.4999999999999
 20
125.2439999999999
 30
0.0
 11
181.4999999999999
 21
120.732
 31
0.0
  0
MTEXT
  5
76
330
A
100
AcDbEntity
  8
0
 62
     1
100
AcDbMText
 10
107.1291823897045
 20
11.08685515041653
 30
0.0
 40
1.199999999999999
 41
0.0
 71
     1
 72
     1
  1
STEEL, A-36, 3/8 THICK
  7
SLDTEXTSTYLE0
 73
     1
 44
1.0
  0
MTEXT
  5
77
330
A
100
AcDbEntity
  8
0
 62
     1
100
AcDbMText
 10
139.2489028796622
 20
8.208564297882091
 30
0.0
 40
1.199999999999999
 41
0.0
 71
     1
 72
     1
  1
85.3 lbs
  7
SLDTEXTSTYLE0
 73
     1
 44
1.0
  0
MTEXT
  5
78
330
A
100
AcDbEntity
  8
0
 62
     1
100
AcDbMText
 10
63.01091400942159
 20
27.95749349869034
 30
0.0
 40
2.0
 41
0.0
 71
     1
 72
     1
  1
2 HALVES OK
  7
SLDTEXTSTYLE0
 73
     1
 44
1.0
  0
MTEXT
  5
79
330
A
100
AcDbEntity
  8
0
 62
     1
100
AcDbMText
 10
29.49217781703625
 20
76.55185011635428
 30
0.0
 40
1.199999999999999
 41
0.0
 71
     1
 72
     1
  1
HINGE SIDE
  7
SLDTEXTSTYLE0
 73
     1
 44
1.0
  0
MTEXT
  5
7A
330
A
100
AcDbEntity
  8
0
 62
     1
100
AcDbMText
 10
140.7218043120728
 20
77.47981350977735
 30
0.0
 40
1.199999999999999
 41
0.0
 71
     1
 72
     1
  1
LATCH SIDE
  7
SLDTEXTSTYLE0
 73
     1
 44
1.0
  0
MTEXT
  5
7B
330
A
100
AcDbEntity
  8
0
 62
     1
100
AcDbMText
 10
179.6017474420984
 20
37.53251220896281
 30
0.0
 40
2.0
 41
0.0
 71
     2
 72
     1
  1
1 REQUIRED\PPER ASSEM
  7
SLDTEXTSTYLE0
 73
     1
 44
1.0
  0
MTEXT
  5
7C
330
A
100
AcDbEntity
  8
0
 62
     7
100
AcDbMText
 10
200.5607409545
 20
109.0639535104999
 30
0.0
 40
1.125
 41
0.0
 71
     1
 72
     1
  1
D
  7
SLDTEXTSTYLE0
 73
     1
 44
1.0
  0
MTEXT
  5
7D
330
A
100
AcDbEntity
  8
0
 62
     7
100
AcDbMText
 10
200.3412701963
 20
78.554537697
 30
0.0
 40
1.125
 41
0.0
 71
     1
 72
     1
  1
C
  7
SLDTEXTSTYLE0
 73
     1
 44
1.0
  0
MTEXT
  5
7E
330
A
100
AcDbEntity
  8
0
 62
     7
100
AcDbMText
 10
200.4734496018
 20
50.6257819159
 30
0.0
 40
1.125
 41
0.0
 71
     1
 72
     1
  1
B
  7
SLDTEXTSTYLE0
 73
     1
 44
1.0
  0
MTEXT
  5
7F
330
A
100
AcDbEntity
  8
0
 62
     7
100
AcDbMText
 10
200.4666199212
 20
20.5652184994
 30
0.0
 40
1.125
 41
0.0
 71
     1
 72
     1
  1
A
  7
SLDTEXTSTYLE0
 73
     1
 44
1.0
  0
MTEXT
  5
80
330
A
100
AcDbEntity
  8
0
 62
     7
100
AcDbMText
 10
11.5722311841
 20
20.32097242249999
 30
0.0
 40
1.125
 41
0.0
 71
     1
 72
     1
  1
A
  7
SLDTEXTSTYLE0
 73
     1
 44
1.0
  0
MTEXT
  5
81
330
A
100
AcDbEntity
  8
0
 62
     7
100
AcDbMText
 10
11.533914077
 20
51.3335433676
 30
0.0
 40
1.125
 41
0.0
 71
     1
 72
     1
  1
B
  7
SLDTEXTSTYLE0
 73
     1
 44
1.0
  0
MTEXT
  5
82
330
A
100
AcDbEntity
  8
0
 62
     7
100
AcDbMText
 10
11.3859348652
 20
82.4908800791
 30
0.0
 40
1.125
 41
0.0
 71
     1
 72
     1
  1
C
  7
SLDTEXTSTYLE0
 73
     1
 44
1.0
  0
MTEXT
  5
83
330
A
100
AcDbEntity
  8
0
 62
     7
100
AcDbMText
 10
11.34658754559999
 20
111.6776206027999
 30
0.0
 40
1.125
 41
0.0
 71
     1
 72
     1
  1
D
  7
SLDTEXTSTYLE0
 73
     1
 44
1.0
  0
MTEXT
  5
84
330
A
100
AcDbEntity
  8
0
 62
     7
100
AcDbMText
 10
194.2296697383999
 20
6.236142707499999
 30
0.0
 40
1.08
 41
0.0
 71
     1
 72
     1
  1
REV.
  7
SLDTEXTSTYLE0
 73
     1
 44
1.0
  0
MTEXT
  5
85
330
A
100
AcDbEntity
  8
0
 62
     7
100
AcDbMText
 10
148.1889241420999
 20
21.1042916935
 30
0.0
 40
1.08
 41
0.0
 71
     1
 72
     1
  1
%%p\P%%p\P%%p\P%%p
  7
SLDTEXTSTYLE0
 73
     1
 44
1.0
  0
MTEXT
  5
86
330
A
100
AcDbEntity
  8
0
 62
     7
100
AcDbMText
 10
105.7432982981
 20
13.1698151996
 30
0.0
 40
1.08
 41
0.0
 71
     1
 72
     1
  1
MATERIAL
  7
SLDTEXTSTYLE0
 73
     1
 44
1.0
  0
MTEXT
  5
87
330
A
100
AcDbEntity
  8
0
 62
     7
100
AcDbMText
 10
105.7158408775
 20
8.780085682399999
 30
0.0
 40
1.08
 41
0.0
 71
     1
 72
     1
  1
FINISH
  7
SLDTEXTSTYLE0
 73
     1
 44
1.0
  0
MTEXT
  5
88
330
A
100
AcDbEntity
  8
0
 62
     7
100
AcDbMText
 10
189.60519604
 20
3.8612205716
 30
0.0
 40
1.125
 41
0.0
 71
     1
 72
     1
  1
1
  7
SLDTEXTSTYLE0
 73
     1
 44
1.0
  0
MTEXT
  5
89
330
A
100
AcDbEntity
  8
0
 62
     7
100
AcDbMText
 10
163.1326350483
 20
3.9781295376
 30
0.0
 40
1.125
 41
0.0
 71
     1
 72
     1
  1
2
  7
SLDTEXTSTYLE0
 73
     1
 44
1.0
  0
MTEXT
  5
8A
330
A
100
AcDbEntity
  8
0
 62
     7
100
AcDbMText
 10
138.4352601710999
 20
4.017099192899999
 30
0.0
 40
1.125
 41
0.0
 71
     1
 72
     1
  1
3
  7
SLDTEXTSTYLE0
 73
     1
 44
1.0
  0
MTEXT
  5
8B
330
A
100
AcDbEntity
  8
0
 62
     7
100
AcDbMText
 10
116.1801309687999
 20
4.040938528099999
 30
0.0
 40
1.125
 41
0.0
 71
     1
 72
     1
  1
4
  7
SLDTEXTSTYLE0
 73
     1
 44
1.0
  0
MTEXT
  5
8C
330
A
100
AcDbEntity
  8
0
 62
     7
100
AcDbMText
 10
92.77517602219999
 20
4.079908183399999
 30
0.0
 40
1.125
 41
0.0
 71
     1
 72
     1
  1
5
  7
SLDTEXTSTYLE0
 73
     1
 44
1.0
  0
MTEXT
  5
8D
330
A
100
AcDbEntity
  8
0
 62
     7
100
AcDbMText
 10
70.92258598319999
 20
3.8850599068
 30
0.0
 40
1.125
 41
0.0
 71
     1
 72
     1
  1
6
  7
SLDTEXTSTYLE0
 73
     1
 44
1.0
  0
MTEXT
  5
8E
330
A
100
AcDbEntity
  8
0
 62
     7
100
AcDbMText
 10
47.16277054369999
 20
4.056068848199999
 30
0.0
 40
1.125
 41
0.0
 71
     1
 72
     1
  1
7
  7
SLDTEXTSTYLE0
 73
     1
 44
1.0
  0
MTEXT
  5
8F
330
A
100
AcDbEntity
  8
0
 62
     7
100
AcDbMText
 10
25.7778163686
 20
4.079908183399999
 30
0.0
 40
1.125
 41
0.0
 71
     1
 72
     1
  1
8
  7
SLDTEXTSTYLE0
 73
     1
 44
1.0
  0
MTEXT
  5
90
330
A
100
AcDbEntity
  8
0
 62
     7
100
AcDbMText
 10
25.4073474369
 20
129.7042754558
 30
0.0
 40
1.125
 41
0.0
 71
     1
 72
     1
  1
8
  7
SLDTEXTSTYLE0
 73
     1
 44
1.0
  0
MTEXT
  5
91
330
A
100
AcDbEntity
  8
0
 62
     7
100
AcDbMText
 10
48.8454839731
 20
129.436828125
 30
0.0
 40
1.125
 41
0.0
 71
     1
 72
     1
  1
7
  7
SLDTEXTSTYLE0
 73
     1
 44
1.0
  0
MTEXT
  5
92
330
A
100
AcDbEntity
  8
0
 62
     7
100
AcDbMText
 10
71.42057687659999
 20
129.3584244792
 30
0.0
 40
1.125
 41
0.0
 71
     1
 72
     1
  1
6
  7
SLDTEXTSTYLE0
 73
     1
 44
1.0
  0
MTEXT
  5
93
330
A
100
AcDbEntity
  8
0
 62
     7
100
AcDbMText
 10
94.87433017089999
 20
129.2161307942
 30
0.0
 40
1.125
 41
0.0
 71
     1
 72
     1
  1
5
  7
SLDTEXTSTYLE0
 73
     1
 44
1.0
  0
MTEXT
  5
94
330
A
100
AcDbEntity
  8
0
 62
     7
100
AcDbMText
 10
118.1857897802
 20
129.5619817708
 30
0.0
 40
1.125
 41
0.0
 71
     1
 72
     1
  1
4
  7
SLDTEXTSTYLE0
 73
     1
 44
1.0
  0
MTEXT
  5
95
330
A
100
AcDbEntity
  8
0
 62
     7
100
AcDbMText
 10
141.6156268894
 20
129.3137597264999
 30
0.0
 40
1.125
 41
0.0
 71
     1
 72
     1
  1
3
  7
SLDTEXTSTYLE0
 73
     1
 44
1.0
  0
MTEXT
  5
96
330
A
100
AcDbEntity
  8
0
 62
     7
100
AcDbMText
 10
164.0525758213999
 20
129.4602031249999
 30
0.0
 40
1.125
 41
0.0
 71
     1
 72
     1
  1
2
  7
SLDTEXTSTYLE0
 73
     1
 44
1.0
  0
MTEXT
  5
97
330
A
100
AcDbEntity
  8
0
 62
     7
100
AcDbMText
 10
188.0027732043999
 20
129.2607955468
 30
0.0
 40
1.125
 41
0.0
 71
     1
 72
     1
  1
1
  7
SLDTEXTSTYLE0
 73
     1
 44
1.0
  0
MTEXT
  5
98
330
A
100
AcDbEntity
  8
0
 62
     7
100
AcDbMText
 10
163.8652081395999
 20
27.6086086317
 30
0.0
 40
2.0
 41
0.0
 71
     1
 72
     1
  1
RADIO  ASTRONOMY  LAB
  7
SLDTEXTSTYLE0
 73
     1
 44
1.0
  0
MTEXT
  5
99
330
A
100
AcDbEntity
  8
0
 62
     7
100
AcDbMText
 10
180.2730945056
 20
24.23458930849999
 30
0.0
 40
1.199999999999999
 41
0.0
 71
     2
 72
     1
  1
University of California - Berkeley\PTel: 510-642-5040    Fax: 510-642-3411
  7
SLDTEXTSTYLE0
 73
     1
 44
1.0
  0
MTEXT
  5
9A
330
A
100
AcDbEntity
  8
0
 62
     7
100
AcDbMText
 10
112.6078192877
 20
19.6531126338
 30
0.0
 40
1.08
 41
0.0
 71
     1
 72
     1
  1
NAME
  7
SLDTEXTSTYLE0
 73
     1
 44
1.0
  0
MTEXT
  5
9B
330
A
100
AcDbEntity
  8
0
 62
     7
100
AcDbMText
 10
125.9032706825
 20
19.5999411239
 30
0.0
 40
1.08
 41
0.0
 71
     1
 72
     1
  1
DATE
  7
SLDTEXTSTYLE0
 73
     1
 44
1.0
  0
MTEXT
  5
9C
330
A
100
AcDbEntity
  8
0
 62
     7
100
AcDbMText
 10
162.9519651887
 20
6.2898343584
 30
0.0
 40
1.08
 41
0.0
 71
     1
 72
     1
  1
SIZE
  7
SLDTEXTSTYLE0
 73
     1
 44
1.0
  0
MTEXT
  5
9D
330
A
100
AcDbEntity
  8
0
 62
     7
100
AcDbMText
 10
163.613998567
 20
10.129583607
 30
0.0
 40
2.25
 41
0.0
 71
     1
 72
     1
  1
B
  7
SLDTEXTSTYLE0
 73
     1
 44
1.0
  0
MTEXT
  5
9E
330
A
100
AcDbEntity
  8
0
 62
     7
100
AcDbMText
 10
132.9505542134
 20
6.1543940482
 30
0.0
 40
1.08
 41
0.0
 71
     1
 72
     1
  1
SCALE:
  7
SLDTEXTSTYLE0
 73
     1
 44
1.0
  0
MTEXT
  5
9F
330
A
100
AcDbEntity
  8
0
 62
     7
100
AcDbMText
 10
167.0926869366
 20
6.240003374299999
 30
0.0
 40
1.08
 41
0.0
 71
     1
 72
     1
  1
DWG NUM:      SHEET             OF
  7
SLDTEXTSTYLE0
 73
     1
 44
1.0
  0
MTEXT
  5
A0
330
A
100
AcDbEntity
  8
0
 62
     7
100
AcDbMText
 10
191.985377753
 20
124.6236322231999
 30
0.0
 40
1.08
 41
0.0
 71
     1
 72
     1
  1
DATE
  7
SLDTEXTSTYLE0
 73
     1
 44
1.0
  0
MTEXT
  5
A1
330
A
100
AcDbEntity
  8
0
 62
     7
100
AcDbMText
 10
183.6298629512999
 20
124.6184947241
 30
0.0
 40
1.08
 41
0.0
 71
     1
 72
     1
  1
NAME
  7
SLDTEXTSTYLE0
 73
     1
 44
1.0
  0
MTEXT
  5
A2
330
A
100
AcDbEntity
  8
0
 62
     7
100
AcDbMText
 10
168.3968862088999
 20
126.8635760481999
 30
0.0
 40
1.08
 41
0.0
 71
     1
 72
     1
  1
REVISIONS
  7
SLDTEXTSTYLE0
 73
     1
 44
1.0
  0
MTEXT
  5
A3
330
A
100
AcDbEntity
  8
0
 62
     7
100
AcDbMText
 10
150.9863830426
 20
124.6011988979999
 30
0.0
 40
1.08
 41
0.0
 71
     1
 72
     1
  1
REV
  7
SLDTEXTSTYLE0
 73
     1
 44
1.0
  0
MTEXT
  5
A4
330
A
100
AcDbEntity
  8
0
 62
     7
100
AcDbMText
 10
155.5494682989999
 20
124.594688103
 30
0.0
 40
1.08
 41
0.0
 71
     1
 72
     1
  1
DESCRIPTION
  7
SLDTEXTSTYLE0
 73
     1
 44
1.0
  0
MTEXT
  5
A5
330
A
100
AcDbEntity
  8
0
 62
     7
100
AcDbMText
 10
132.8882361331
 20
8.381349777999998
 30
0.0
 40
1.08
 41
0.0
 71
     1
 72
     1
  1
WEIGHT:
  7
SLDTEXTSTYLE0
 73
     1
 44
1.0
  0
MTEXT
  5
A6
330
A
100
AcDbEntity
  8
0
 62
     7
100
AcDbMText
 10
105.7291694114999
 20
17.3705335575
 30
0.0
 40
1.08
 41
0.0
 71
     1
 72
     1
  1
DRAWN
  7
SLDTEXTSTYLE0
 73
     1
 44
1.0
  0
MTEXT
  5
A7
330
A
100
AcDbEntity
  8
0
 62
     7
100
AcDbMText
 10
105.7264404080999
 20
15.1359650864
 30
0.0
 40
1.08
 41
0.0
 71
     1
 72
     1
  1
CHECKED
  7
SLDTEXTSTYLE0
 73
     1
 44
1.0
  0
MTEXT
  5
A8
330
A
100
AcDbEntity
  8
0
 62
     7
100
AcDbMText
 10
145.9833515090999
 20
21.0470461164
 30
0.0
 40
1.08
 41
0.0
 71
     3
 72
     1
  1
WHOLE & FRACTION\PDECIMAL   X.X\PDECIMAL   X.XX\PDECIMAL   X.XXX
  7
SLDTEXTSTYLE0
 73
     1
 44
1.0
  0
MTEXT
  5
A9
330
A
100
AcDbEntity
  8
0
 62
     7
100
AcDbMText
 10
151.0475708433
 20
23.5768323128
 30
0.0
 40
1.08
 41
0.0
 71
     2
 72
     1
  1
LINEAR
  7
SLDTEXTSTYLE0
 73
     1
 44
1.0
  0
MTEXT
  5
AA
330
A
100
AcDbEntity
  8
0
 62
     7
100
AcDbMText
 10
158.0136546164999
 20
23.64904518769999
 30
0.0
 40
1.08
 41
0.0
 71
     2
 72
     1
  1
ANGLE
  7
SLDTEXTSTYLE0
 73
     1
 44
1.0
  0
INSERT
  5
B1
330
A
100
AcDbEntity
  8
0
100
AcDbBlockReference
  2
NOTE53
 10
134.0039602288999
 20
13.1285370313
 30
0.0
  0
MTEXT
  5
B2
330
A
100
AcDbEntity
  8
0
 62
     7
100
AcDbMText
 10
146.9850418571
 20
27.7068341588
 30
0.0
 40
1.08
 41
0.0
 71
     2
 72
     1
  1
UNLESS OTHERWISE SPECIFIED\PDIMENSIONS ARE INCHES & DEGREES
  7
SLDTEXTSTYLE0
 73
     1
 44
1.0
  0
MTEXT
  5
B3
330
A
100
AcDbEntity
  8
0
 62
     7
100
AcDbMText
 10
134.4156013081
 20
23.5004214359
 30
0.0
 40
1.08
 41
0.0
 71
     1
 72
     1
  1
TOLERANCES:
  7
SLDTEXTSTYLE0
 73
     1
 44
1.0
  0
MTEXT
  5
B4
330
A
100
AcDbEntity
  8
0
 62
     7
100
AcDbMText
 10
155.4655422149999
 20
21.0937460132
 30
0.0
 40
1.08
 41
0.0
 71
     1
 72
     1
  1
%%p\P%%p\P%%p\P%%p
  7
SLDTEXTSTYLE0
 73
     1
 44
1.0
  0
MTEXT
  5
B5
330
A
100
AcDbEntity
  8
0
 62
     7
100
AcDbMText
 10
175.9608035224
 20
124.6347172235
 30
0.0
 40
1.08
 41
0.0
 71
     1
 72
     1
  1
ZONE
  7
SLDTEXTSTYLE0
 73
     1
 44
1.0
  0
MTEXT
  5
B6
330
A
100
AcDbEntity
  8
0
 62
     7
100
AcDbMText
 10
61.14261218319999
 20
10.3748000062
 30
0.0
 40
0.9599999999999999
 41
0.0
 71
     1
 72
     1
  1
THIS DRAWING IS THE PROPERTY OF AND CONTAINS CONFIDENTIAL\PINFORMATION PROPRIETARY TO THE UNIVERSITY OF CALIFORNIA AND\PSHALL BE USED ONLY FOR THE PURPOSE FOR WHICH IT WAS PROVIDED\PAND SHALL NOT BE REPRODUCED OR DISCLOSED TO OTHERS.
  7
SLDTEXTSTYLE0
 73
     1
 44
1.0
  0
MTEXT
  5
B7
330
A
100
AcDbEntity
  8
0
 62
     7
100
AcDbMText
 10
151.6675033550999
 20
122.4587901132
 30
0.0
 40
1.08
 41
0.0
 71
     1
 72
     1
  1
A
  7
SLDTEXTSTYLE0
 73
     1
 44
1.0
  0
MTEXT
  5
B8
330
A
100
AcDbEntity
  8
0
 62
     7
100
AcDbMText
 10
155.7359509669
 20
122.4558181004999
 30
0.0
 40
1.08
 41
0.0
 71
     1
 72
     1
  1
RELEASED
  7
SLDTEXTSTYLE0
 73
     1
 44
1.0
  0
MTEXT
  5
B9
330
A
100
AcDbEntity
  8
0
 62
     7
100
AcDbMText
 10
112.4300900778
 20
17.5215226719
 30
0.0
 40
1.25
 41
0.0
 71
     1
 72
     1
  1
M. C. FLEMING
  7
SLDTEXTSTYLE0
 73
     1
 44
1.0
  0
MTEXT
  5
BA
330
A
100
AcDbEntity
  8
0
 62
     7
100
AcDbMText
 10
195.0252526563
 20
9.9248453737
 30
0.0
 40
2.25
 41
0.0
 71
     1
 72
     1
  1
A
  7
SLDTEXTSTYLE0
 73
     1
 44
1.0
  0
MTEXT
  5
BB
330
A
100
AcDbEntity
  8
0
 62
     7
100
AcDbMText
 10
123.8656833236
 20
17.5008501141
 30
0.0
 40
1.25
 41
0.0
 71
     1
 72
     1
  1
2005-01-15
  7
SLDTEXTSTYLE0
 73
     1
 44
1.0
  0
MTEXT
  5
BC
330
A
100
AcDbEntity
  8
0
 62
     7
100
AcDbMText
 10
150.1489309589999
 20
21.1179206869
 30
0.0
 40
1.08
 41
0.0
 71
     1
 72
     1
  1
1/16\P0.1\P0.01\P0.005
  7
SLDTEXTSTYLE0
 73
     1
 44
1.0
  0
MTEXT
  5
BD
330
A
100
AcDbEntity
  8
0
 62
     7
100
AcDbMText
 10
157.2298106337
 20
21.0945012269
 30
0.0
 40
1.08
 41
0.0
 71
     1
 72
     1
  1
1%%d\P0.1%%d\P0.01%%d\P0.001%%d
  7
SLDTEXTSTYLE0
 73
     1
 44
1.0
  0
MTEXT
  5
BE
330
A
100
AcDbEntity
  8
0
 62
     7
100
AcDbMText
 10
168.9804361321999
 20
10.1419441352
 30
0.0
 40
2.25
 41
0.0
 71
     1
 72
     1
  1
24-09-219    1 of 1
  7
SLDTEXTSTYLE0
 73
     1
 44
1.0
  0
MTEXT
  5
BF
330
A
100
AcDbEntity
  8
0
 62
     7
100
AcDbMText
 10
183.5517389933
 20
122.4610338096
 30
0.0
 40
1.25
 41
0.0
 71
     1
 72
     1
  1
M.C.F.
  7
SLDTEXTSTYLE0
 73
     1
 44
1.0
  0
MTEXT
  5
C0
330
A
100
AcDbEntity
  8
0
 62
     7
100
AcDbMText
 10
190.1036881170999
 20
122.4498287577
 30
0.0
 40
1.25
 41
0.0
 71
     1
 72
     1
  1
2005-01-15
  7
SLDTEXTSTYLE0
 73
     1
 44
1.0
  0
MTEXT
  5
C1
330
A
100
AcDbEntity
  8
0
 62
     7
100
AcDbMText
 10
181.5955236546787
 20
18.3910358806
 30
0.0
 40
2.25
 41
0.0
 71
     2
 72
     1
  1
CARMA 6m Base,\PDoor Reinforcement Ring
  7
SLDTEXTSTYLE0
 73
     1
 44
1.0
  0
LINE
  5
C2
330
A
100
AcDbEntity
  8
0
  6
Continuous
 62
     7
370
    15
100
AcDbLine
 10
60.4582120503
 20
49.0895609267
 30
0.0
 11
60.4582120503
 21
41.0895609267
 31
0.0
  0
LINE
  5
C3
330
A
100
AcDbEntity
  8
0
  6
Continuous
 62
     7
370
    15
100
AcDbLine
 10
160.9715329814999
 20
49.0895609267
 30
0.0
 11
160.9715329814999
 21
41.0895609267
 31
0.0
  0
LINE
  5
C4
330
A
100
AcDbEntity
  8
0
  6
Continuous
 62
     7
370
    15
100
AcDbLine
 10
160.9715329814999
 20
49.0895609267
 30
0.0
 11
60.4582120503
 21
49.0895609267
 31
0.0
  0
LINE
  5
C5
330
A
100
AcDbEntity
  8
0
  6
Continuous
 62
     7
370
    15
100
AcDbLine
 10
160.9715329814999
 20
41.0895609267
 30
0.0
 11
60.4582120503
 21
41.0895609267
 31
0.0
  0
DIMENSION
  5
D3
330
A
100
AcDbEntity
  8
0
100
AcDbDimension
  2
*D1
 10
60.4582120503
 20
54.3724261482
 30
0.0
 11
110.7148725158999
 21
54.3724261482
 31
0.0
 70
   160
 71
     5
 42
0.0
  3
SLDDIMSTYLE0
100
AcDbAlignedDimension
 13
160.9715329814999
 23
49.0895609267
 33
0.0
 14
60.4582120503
 24
49.0895609267
 34
0.0
100
AcDbRotatedDimension
  0
DIMENSION
  5
E0
330
A
100
AcDbEntity
  8
0
100
AcDbDimension
  2
*D2
 10
55.0116882063
 20
41.0895609267
 30
0.0
 11
55.0116882063
 21
45.0895609267
 31
0.0
 70
   160
 71
     5
 42
0.0
  3
SLDDIMSTYLE0
100
AcDbAlignedDimension
 13
60.4582120503
 23
49.0895609267
 33
0.0
 14
60.4582120503
 24
41.0895609267
 34
0.0
 50
90.0
100
AcDbRotatedDimension
  0
MTEXT
  5
E1
330
A
100
AcDbEntity
  8
0
 62
     1
100
AcDbMText
 10
102.7570954583999
 20
36.5210133256
 30
0.0
 40
1.199999999999999
 41
0.0
 71
     1
 72
     1
  1
FLATTENED VIEW
  7
SLDTEXTSTYLE0
 73
     1
 44
1.0
  0
LINE
  5
E2
330
A
100
AcDbEntity
  8
0
  6
Continuous
 62
     7
370
    15
100
AcDbLine
 10
99.6638491048
 20
80.0760487294
 30
0.0
 11
100.0388491047999
 21
80.0760487294
 31
0.0
  0
ARC
  5
E3
330
A
100
AcDbEntity
  8
0
  6
Continuous
 62
     7
370
    15
100
AcDbCircle
 10
87.66384910479999
 20
80.0760487294
 30
0.0
 40
12.375
100
AcDbArc
 50
180.0
 51
0.0
  0
LINE
  5
E4
330
A
100
AcDbEntity
  8
0
  6
Continuous
 62
     7
370
    15
100
AcDbLine
 10
75.6638491048
 20
80.0760487294
 30
0.0
 11
75.28884910479999
 21
80.0760487294
 31
0.0
  0
ARC
  5
E5
330
A
100
AcDbEntity
  8
0
  6
Continuous
 62
     7
370
    15
100
AcDbCircle
 10
87.66384910479999
 20
80.0760487294
 30
0.0
 40
12.0
100
AcDbArc
 50
180.0
 51
0.0
  0
LINE
  5
E6
330
A
100
AcDbEntity
  8
0
  6
Continuous
 62
     7
370
    15
100
AcDbLine
 10
99.6638492531
 20
86.04454840870001
 30
0.0
 11
100.0388492944
 21
86.04454840870001
 31
0.0
  0
LINE
  5
E7
330
A
100
AcDbEntity
  8
0
  6
Continuous
 62
     7
370
    15
100
AcDbLine
 10
99.6638491048
 20
80.0760487294
 30
0.0
 11
99.6638492531
 21
86.04454840870001
 31
0.0
  0
LINE
  5
E8
330
A
100
AcDbEntity
  8
0
  6
Continuous
 62
     7
370
    15
100
AcDbLine
 10
100.0388491047999
 20
80.0760487294
 30
0.0
 11
100.0388492944
 21
86.04454840870001
 31
0.0
  0
LINE
  5
E9
330
A
100
AcDbEntity
  8
0
  6
Continuous
 62
     7
370
    15
100
AcDbLine
 10
99.6638492531
 20
86.10754864090001
 30
0.0
 11
99.6638491048
 21
92.07604872940001
 31
0.0
  0
LINE
  5
EA
330
A
100
AcDbEntity
  8
0
  6
Continuous
 62
     7
370
    15
100
AcDbLine
 10
99.6638491048
 20
92.07604872940001
 30
0.0
 11
100.0388491047999
 21
92.07604872940001
 31
0.0
  0
LINE
  5
EB
330
A
100
AcDbEntity
  8
0
  6
Continuous
 62
     7
370
    15
100
AcDbLine
 10
99.6638492531
 20
86.10754864090001
 30
0.0
 11
100.0388492944
 21
86.10754864090001
 31
0.0
  0
LINE
  5
EC
330
A
100
AcDbEntity
  8
0
  6
Continuous
 62
     7
370
    15
100
AcDbLine
 10
100.0388492944
 20
86.10754864090001
 30
0.0
 11
100.0388491047999
 21
92.07604872940001
 31
0.0
  0
LINE
  5
ED
330
A
100
AcDbEntity
  8
0
  6
Continuous
 62
     7
370
    15
100
AcDbLine
 10
75.28884910479999
 20
92.07604872940001
 30
0.0
 11
75.28884910479999
 21
80.0760487294
 31
0.0
  0
LINE
  5
EE
330
A
100
AcDbEntity
  8
0
  6
Continuous
 62
     7
370
    15
100
AcDbLine
 10
75.6638491048
 20
92.07604872940001
 30
0.0
 11
75.28884910479999
 21
92.07604872940001
 31
0.0
  0
LINE
  5
EF
330
A
100
AcDbEntity
  8
0
  6
Continuous
 62
     7
370
    15
100
AcDbLine
 10
75.6638491048
 20
92.07604872940001
 30
0.0
 11
75.6638491048
 21
80.0760487294
 31
0.0
  0
ARC
  5
F0
330
A
100
AcDbEntity
  8
0
  6
Continuous
 62
     7
370
    15
100
AcDbCircle
 10
87.66384910479999
 20
92.07604872940001
 30
0.0
 40
12.375
100
AcDbArc
 50
0.0
 51
180.0
  0
ARC
  5
F1
330
A
100
AcDbEntity
  8
0
  6
Continuous
 62
     7
370
    15
100
AcDbCircle
 10
87.66384910479999
 20
92.07604872940001
 30
0.0
 40
12.0
100
AcDbArc
 50
0.0
 51
180.0
  0
DIMENSION
  5
FF
330
A
100
AcDbEntity
  8
0
100
AcDbDimension
  2
*D3
 10
100.0388491047999
 20
112.0327924528
 30
0.0
 11
87.66384910479999
 21
112.0327924528
 31
0.0
 70
   160
  1
<>\POUTSIDE
 71
     5
 42
0.0
  3
SLDDIMSTYLE0
100
AcDbAlignedDimension
 13
75.28884910479999
 23
92.07604872940001
 33
0.0
 14
100.0388491047999
 24
86.04454872940001
 34
0.0
100
AcDbRotatedDimension
  0
DIMENSION
  5
10D
330
A
100
AcDbEntity
  8
0
100
AcDbDimension
  2
*D4
 10
112.6931999975
 20
67.7010487294
 30
0.0
 11
112.6931999975
 21
86.07604872939999
 31
0.0
 70
   160
  1
<>\POUTSIDE
 71
     5
 42
0.0
  3
SLDDIMSTYLE0
100
AcDbAlignedDimension
 13
87.66384910479999
 23
104.4510487294
 33
0.0
 14
87.66384910479999
 24
67.7010487294
 34
0.0
 50
-90.0
100
AcDbRotatedDimension
  0
DIMENSION
  5
119
330
A
100
AcDbEntity
  8
0
100
AcDbDimension
  2
*D5
 10
87.66384910479999
 20
92.07604872940001
 30
0.0
 11
83.6202659958
 21
97.28702371730001
 31
0.0
 70
   164
  1
<> RAD
 71
     5
 42
0.0
  3
SLDDIMSTYLE1
100
AcDbRadialDimension
 15
80.3072191981
 25
101.556554856
 35
0.0
 40
0.0
  0
DIMENSION
  5
126
330
A
100
AcDbEntity
  8
0
 62
     7
100
AcDbDimension
  2
*D6
 10
93.66018418549998
 20
80.0760487294
 30
0.0
 11
93.66018418549998
 21
86.32507222440001
 31
0.0
 70
   160
 71
     5
 42
0.0
  3
SLDDIMSTYLE0
100
AcDbAlignedDimension
 13
87.66384910479999
 23
92.07604872940001
 33
0.0
 14
87.66384910479999
 24
80.0760487294
 34
0.0
 50
-90.0
100
AcDbRotatedDimension
  0
INSERT
  5
12E
330
A
100
AcDbEntity
  8
0
100
AcDbBlockReference
  2
SW_CENTERMARK0
 10
0.0
 20
0.0
 30
0.0
  0
INSERT
  5
136
330
A
100
AcDbEntity
  8
0
100
AcDbBlockReference
  2
SW_CENTERMARK1
 10
0.0
 20
0.0
 30
0.0
  0
LINE
  5
137
330
A
100
AcDbEntity
  8
0
  6
Continuous
 62
     7
370
    15
100
AcDbLine
 10
173.1753214419
 20
113.2561842781999
 30
0.0
 11
167.5184671924
 21
109.9905518309
 31
0.0
  0
LINE
  5
138
330
A
100
AcDbEntity
  8
0
  6
Continuous
 62
     7
370
    15
100
AcDbLine
 10
179.8924615086999
 20
78.7573527444
 30
0.0
 11
185.5493157582
 21
82.0229851917
 31
0.0
  0
LINE
  5
139
330
A
100
AcDbEntity
  8
0
  6
Continuous
 62
     7
370
    15
100
AcDbLine
 10
165.2201829762999
 20
104.1716458298999
 30
0.0
 11
164.9550179333999
 21
104.3247223509
 31
0.0
  0
POLYLINE
  5
13A
330
A
100
AcDbEntity
  8
0
  6
Continuous
 62
     7
100
AcDb2dPolyline
 66
     1
 10
0.0
 20
0.0
 30
0.0
 70
   128
 40
0.0708661417
 41
0.0708661417
  0
VERTEX
  5
13B
330
13A
100
AcDbEntity
  8
0
100
AcDbVertex
100
AcDb2dVertex
 10
164.9550179333999
 20
104.3247223509
 30
0.0
  0
VERTEX
  5
13C
330
13A
100
AcDbEntity
  8
0
100
AcDbVertex
100
AcDb2dVertex
 10
164.9599044999999
 20
104.6595494651
 30
0.0
  0
VERTEX
  5
13D
330
13A
100
AcDbEntity
  8
0
100
AcDbVertex
100
AcDb2dVertex
 10
164.9745587423
 20
104.9883607104
 30
0.0
  0
VERTEX
  5
13E
330
13A
100
AcDbEntity
  8
0
100
AcDbVertex
100
AcDb2dVertex
 10
164.9989642932999
 20
105.3107888463999
 30
0.0
  0
VERTEX
  5
13F
330
13A
100
AcDbEntity
  8
0
100
AcDbVertex
100
AcDb2dVertex
 10
165.0330938952
 20
105.6264737620999
 30
0.0
  0
VERTEX
  5
140
330
13A
100
AcDbEntity
  8
0
100
AcDbVertex
100
AcDb2dVertex
 10
165.0769094294
 20
105.9350628775999
 30
0.0
  0
VERTEX
  5
141
330
13A
100
AcDbEntity
  8
0
100
AcDbVertex
100
AcDb2dVertex
 10
165.1303619596999
 20
106.2362115381999
 30
0.0
  0
VERTEX
  5
142
330
13A
100
AcDbEntity
  8
0
100
AcDbVertex
100
AcDb2dVertex
 10
165.1933917863999
 20
106.5295833993
 30
0.0
  0
VERTEX
  5
143
330
13A
100
AcDbEntity
  8
0
100
AcDbVertex
100
AcDb2dVertex
 10
165.2659285132
 20
106.8148508017999
 30
0.0
  0
VERTEX
  5
144
330
13A
100
AcDbEntity
  8
0
100
AcDbVertex
100
AcDb2dVertex
 10
165.3478911258
 20
107.0916951385
 30
0.0
  0
VERTEX
  5
145
330
13A
100
AcDbEntity
  8
0
100
AcDbVertex
100
AcDb2dVertex
 10
165.4391880825
 20
107.3598072095
 30
0.0
  0
VERTEX
  5
146
330
13A
100
AcDbEntity
  8
0
100
AcDbVertex
100
AcDb2dVertex
 10
165.5397174161
 20
107.6188875678
 30
0.0
  0
VERTEX
  5
147
330
13A
100
AcDbEntity
  8
0
100
AcDbVertex
100
AcDb2dVertex
 10
165.6493668481999
 20
107.8686468537
 30
0.0
  0
VERTEX
  5
148
330
13A
100
AcDbEntity
  8
0
100
AcDbVertex
100
AcDb2dVertex
 10
165.7680139144
 20
108.1088061178
 30
0.0
  0
VERTEX
  5
149
330
13A
100
AcDbEntity
  8
0
100
AcDbVertex
100
AcDb2dVertex
 10
165.895526101
 20
108.3390971329
 30
0.0
  0
VERTEX
  5
14A
330
13A
100
AcDbEntity
  8
0
100
AcDbVertex
100
AcDb2dVertex
 10
166.0317609932
 20
108.5592626933
 30
0.0
  0
VERTEX
  5
14B
330
13A
100
AcDbEntity
  8
0
100
AcDbVertex
100
AcDb2dVertex
 10
166.176566434
 20
108.769056902
 30
0.0
  0
VERTEX
  5
14C
330
13A
100
AcDbEntity
  8
0
100
AcDbVertex
100
AcDb2dVertex
 10
166.3297806941
 20
108.9682454457999
 30
0.0
  0
VERTEX
  5
14D
330
13A
100
AcDbEntity
  8
0
100
AcDbVertex
100
AcDb2dVertex
 10
166.4912326527
 20
109.1566058563999
 30
0.0
  0
VERTEX
  5
14E
330
13A
100
AcDbEntity
  8
0
100
AcDbVertex
100
AcDb2dVertex
 10
166.6607419885999
 20
109.3339277591999
 30
0.0
  0
VERTEX
  5
14F
330
13A
100
AcDbEntity
  8
0
100
AcDbVertex
100
AcDb2dVertex
 10
166.8381193813999
 20
109.5000131082999
 30
0.0
  0
VERTEX
  5
150
330
13A
100
AcDbEntity
  8
0
100
AcDbVertex
100
AcDb2dVertex
 10
167.0231667232999
 20
109.6546764075
 30
0.0
  0
VERTEX
  5
151
330
13A
100
AcDbEntity
  8
0
100
AcDbVertex
100
AcDb2dVertex
 10
167.2156773398999
 20
109.7977449175999
 30
0.0
  0
VERTEX
  5
152
330
13A
100
AcDbEntity
  8
0
100
AcDbVertex
100
AcDb2dVertex
 10
167.4154362214
 20
109.9290588492999
 30
0.0
  0
VERTEX
  5
153
330
13A
100
AcDbEntity
  8
0
100
AcDbVertex
100
AcDb2dVertex
 10
167.6222202626
 20
110.0484715416999
 30
0.0
  0
VERTEX
  5
154
330
13A
100
AcDbEntity
  8
0
100
AcDbVertex
100
AcDb2dVertex
 10
167.8357985119999
 20
110.1558496261
 30
0.0
  0
VERTEX
  5
155
330
13A
100
AcDbEntity
  8
0
100
AcDbVertex
100
AcDb2dVertex
 10
168.0559324300999
 20
110.2510731746999
 30
0.0
  0
VERTEX
  5
156
330
13A
100
AcDbEntity
  8
0
100
AcDbVertex
100
AcDb2dVertex
 10
168.2823761552
 20
110.3340358350999
 30
0.0
  0
VERTEX
  5
157
330
13A
100
AcDbEntity
  8
0
100
AcDbVertex
100
AcDb2dVertex
 10
168.5148767784999
 20
110.4046449485
 30
0.0
  0
VERTEX
  5
158
330
13A
100
AcDbEntity
  8
0
100
AcDbVertex
100
AcDb2dVertex
 10
168.7531746267
 20
110.4628216535999
 30
0.0
  0
VERTEX
  5
159
330
13A
100
AcDbEntity
  8
0
100
AcDbVertex
100
AcDb2dVertex
 10
168.9970035512
 20
110.5085009743
 30
0.0
  0
VERTEX
  5
15A
330
13A
100
AcDbEntity
  8
0
100
AcDbVertex
100
AcDb2dVertex
 10
169.2460912262999
 20
110.5416318927
 30
0.0
  0
VERTEX
  5
15B
330
13A
100
AcDbEntity
  8
0
100
AcDbVertex
100
AcDb2dVertex
 10
169.5001594527
 20
110.5621774058
 30
0.0
  0
VERTEX
  5
15C
330
13A
100
AcDbEntity
  8
0
100
AcDbVertex
100
AcDb2dVertex
 10
169.7589244687999
 20
110.5701145667999
 30
0.0
  0
VERTEX
  5
15D
330
13A
100
AcDbEntity
  8
0
100
AcDbVertex
100
AcDb2dVertex
 10
170.0220972668
 20
110.5654345111
 30
0.0
  0
VERTEX
  5
15E
330
13A
100
AcDbEntity
  8
0
100
AcDbVertex
100
AcDb2dVertex
 10
170.2893839164
 20
110.5481424654999
 30
0.0
  0
VERTEX
  5
15F
330
13A
100
AcDbEntity
  8
0
100
AcDbVertex
100
AcDb2dVertex
 10
170.5604858924
 20
110.5182577431
 30
0.0
  0
VERTEX
  5
160
330
13A
100
AcDbEntity
  8
0
100
AcDbVertex
100
AcDb2dVertex
 10
170.8351004085
 20
110.4758137213999
 30
0.0
  0
VERTEX
  5
161
330
13A
100
AcDbEntity
  8
0
100
AcDbVertex
100
AcDb2dVertex
 10
171.1129207553
 20
110.4208578047999
 30
0.0
  0
VERTEX
  5
162
330
13A
100
AcDbEntity
  8
0
100
AcDbVertex
100
AcDb2dVertex
 10
171.3936366428
 20
110.3534513722
 30
0.0
  0
VERTEX
  5
163
330
13A
100
AcDbEntity
  8
0
100
AcDbVertex
100
AcDb2dVertex
 10
171.6769345472
 20
110.2736697079
 30
0.0
  0
VERTEX
  5
164
330
13A
100
AcDbEntity
  8
0
100
AcDbVertex
100
AcDb2dVertex
 10
171.9624980608999
 20
110.1816019179
 30
0.0
  0
VERTEX
  5
165
330
13A
100
AcDbEntity
  8
0
100
AcDbVertex
100
AcDb2dVertex
 10
172.2500082457
 20
110.0773508302
 30
0.0
  0
VERTEX
  5
166
330
13A
100
AcDbEntity
  8
0
100
AcDbVertex
100
AcDb2dVertex
 10
172.5391439895
 20
109.9610328798999
 30
0.0
  0
VERTEX
  5
167
330
13A
100
AcDbEntity
  8
0
100
AcDbVertex
100
AcDb2dVertex
 10
172.8295823643999
 20
109.8327779795
 30
0.0
  0
VERTEX
  5
168
330
13A
100
AcDbEntity
  8
0
100
AcDbVertex
100
AcDb2dVertex
 10
173.1209989879
 20
109.6927293730999
 30
0.0
  0
VERTEX
  5
169
330
13A
100
AcDbEntity
  8
0
100
AcDbVertex
100
AcDb2dVertex
 10
173.4130683847
 20
109.5410434773999
 30
0.0
  0
VERTEX
  5
16A
330
13A
100
AcDbEntity
  8
0
100
AcDbVertex
100
AcDb2dVertex
 10
173.7054643506
 20
109.3778897061
 30
0.0
  0
VERTEX
  5
16B
330
13A
100
AcDbEntity
  8
0
100
AcDbVertex
100
AcDb2dVertex
 10
173.9978603163999
 20
109.2034502811
 30
0.0
  0
VERTEX
  5
16C
330
13A
100
AcDbEntity
  8
0
100
AcDbVertex
100
AcDb2dVertex
 10
174.2899297132
 20
109.0179200291
 30
0.0
  0
VERTEX
  5
16D
330
13A
100
AcDbEntity
  8
0
100
AcDbVertex
100
AcDb2dVertex
 10
174.5813463366999
 20
108.8215061637999
 30
0.0
  0
VERTEX
  5
16E
330
13A
100
AcDbEntity
  8
0
100
AcDbVertex
100
AcDb2dVertex
 10
174.8717847116999
 20
108.6144280543
 30
0.0
  0
VERTEX
  5
16F
330
13A
100
AcDbEntity
  8
0
100
AcDbVertex
100
AcDb2dVertex
 10
175.1609204554
 20
108.3969169805
 30
0.0
  0
VERTEX
  5
170
330
13A
100
AcDbEntity
  8
0
100
AcDbVertex
100
AcDb2dVertex
 10
175.4484306403
 20
108.1692158746999
 30
0.0
  0
VERTEX
  5
171
330
13A
100
AcDbEntity
  8
0
100
AcDbVertex
100
AcDb2dVertex
 10
175.7339941539
 20
107.9315790497999
 30
0.0
  0
VERTEX
  5
172
330
13A
100
AcDbEntity
  8
0
100
AcDbVertex
100
AcDb2dVertex
 10
176.0172920583
 20
107.6842719158999
 30
0.0
  0
VERTEX
  5
173
330
13A
100
AcDbEntity
  8
0
100
AcDbVertex
100
AcDb2dVertex
 10
176.2980079458
 20
107.4275706836
 30
0.0
  0
VERTEX
  5
174
330
13A
100
AcDbEntity
  8
0
100
AcDbVertex
100
AcDb2dVertex
 10
176.5758282925999
 20
107.1617620554999
 30
0.0
  0
VERTEX
  5
175
330
13A
100
AcDbEntity
  8
0
100
AcDbVertex
100
AcDb2dVertex
 10
176.8504428086999
 20
106.8871429058
 30
0.0
  0
VERTEX
  5
176
330
13A
100
AcDbEntity
  8
0
100
AcDbVertex
100
AcDb2dVertex
 10
177.1215447847
 20
106.6040199491999
 30
0.0
  0
VERTEX
  5
177
330
13A
100
AcDbEntity
  8
0
100
AcDbVertex
100
AcDb2dVertex
 10
177.3888314343
 20
106.3127093979999
 30
0.0
  0
VERTEX
  5
178
330
13A
100
AcDbEntity
  8
0
100
AcDbVertex
100
AcDb2dVertex
 10
177.6520042323999
 20
106.0135366087999
 30
0.0
  0
VERTEX
  5
179
330
13A
100
AcDbEntity
  8
0
100
AcDbVertex
100
AcDb2dVertex
 10
177.9107692484
 20
105.7068357196
 30
0.0
  0
VERTEX
  5
17A
330
13A
100
AcDbEntity
  8
0
100
AcDbVertex
100
AcDb2dVertex
 10
178.1648374749
 20
105.3929492762
 30
0.0
  0
VERTEX
  5
17B
330
13A
100
AcDbEntity
  8
0
100
AcDbVertex
100
AcDb2dVertex
 10
178.4139251499
 20
105.0722278495999
 30
0.0
  0
VERTEX
  5
17C
330
13A
100
AcDbEntity
  8
0
100
AcDbVertex
100
AcDb2dVertex
 10
178.6577540745
 20
104.745029645
 30
0.0
  0
VERTEX
  5
17D
330
13A
100
AcDbEntity
  8
0
100
AcDbVertex
100
AcDb2dVertex
 10
178.8960519225999
 20
104.4117201009
 30
0.0
  0
VERTEX
  5
17E
330
13A
100
AcDbEntity
  8
0
100
AcDbVertex
100
AcDb2dVertex
 10
179.1285525459999
 20
104.0726714815999
 30
0.0
  0
VERTEX
  5
17F
330
13A
100
AcDbEntity
  8
0
100
AcDbVertex
100
AcDb2dVertex
 10
179.3549962710999
 20
103.7282624613
 30
0.0
  0
VERTEX
  5
180
330
13A
100
AcDbEntity
  8
0
100
AcDbVertex
100
AcDb2dVertex
 10
179.5751301891
 20
103.3788777008
 30
0.0
  0
VERTEX
  5
181
330
13A
100
AcDbEntity
  8
0
100
AcDbVertex
100
AcDb2dVertex
 10
179.7887084385999
 20
103.0249074185
 30
0.0
  0
VERTEX
  5
182
330
13A
100
AcDbEntity
  8
0
100
AcDbVertex
100
AcDb2dVertex
 10
179.9954924797
 20
102.6667469539999
 30
0.0
  0
VERTEX
  5
183
330
13A
100
AcDbEntity
  8
0
100
AcDbVertex
100
AcDb2dVertex
 10
180.1952513611999
 20
102.304796327
 30
0.0
  0
VERTEX
  5
184
330
13A
100
AcDbEntity
  8
0
100
AcDbVertex
100
AcDb2dVertex
 10
180.3877619777999
 20
101.9394597900999
 30
0.0
  0
VERTEX
  5
185
330
13A
100
AcDbEntity
  8
0
100
AcDbVertex
100
AcDb2dVertex
 10
180.5728093197
 20
101.5711453777
 30
0.0
  0
VERTEX
  5
186
330
13A
100
AcDbEntity
  8
0
100
AcDbVertex
100
AcDb2dVertex
 10
180.7501867124999
 20
101.20026445
 30
0.0
  0
VERTEX
  5
187
330
13A
100
AcDbEntity
  8
0
100
AcDbVertex
100
AcDb2dVertex
 10
180.9196960483999
 20
100.8272312337999
 30
0.0
  0
VERTEX
  5
188
330
13A
100
AcDbEntity
  8
0
100
AcDbVertex
100
AcDb2dVertex
 10
181.0811480070999
 20
100.4524623595999
 30
0.0
  0
VERTEX
  5
189
330
13A
100
AcDbEntity
  8
0
100
AcDbVertex
100
AcDb2dVertex
 10
181.2343622670999
 20
100.0763763964999
 30
0.0
  0
VERTEX
  5
18A
330
13A
100
AcDbEntity
  8
0
100
AcDbVertex
100
AcDb2dVertex
 10
181.3791677078999
 20
99.69939338450002
 30
0.0
  0
VERTEX
  5
18B
330
13A
100
AcDbEntity
  8
0
100
AcDbVertex
100
AcDb2dVertex
 10
181.5154026000999
 20
99.32193436570001
 30
0.0
  0
VERTEX
  5
18C
330
13A
100
AcDbEntity
  8
0
100
AcDbVertex
100
AcDb2dVertex
 10
181.6429147866999
 20
98.94442091360001
 30
0.0
  0
VERTEX
  5
18D
330
13A
100
AcDbEntity
  8
0
100
AcDbVertex
100
AcDb2dVertex
 10
181.7615618529
 20
98.56727466270001
 30
0.0
  0
VERTEX
  5
18E
330
13A
100
AcDbEntity
  8
0
100
AcDbVertex
100
AcDb2dVertex
 10
181.8712112849999
 20
98.1909168373
 30
0.0
  0
VERTEX
  5
18F
330
13A
100
AcDbEntity
  8
0
100
AcDbVertex
100
AcDb2dVertex
 10
181.9717406186
 20
97.81576778100001
 30
0.0
  0
VERTEX
  5
190
330
13A
100
AcDbEntity
  8
0
100
AcDbVertex
100
AcDb2dVertex
 10
182.0630375752999
 20
97.4422464875
 30
0.0
  0
VERTEX
  5
191
330
13A
100
AcDbEntity
  8
0
100
AcDbVertex
100
AcDb2dVertex
 10
182.1450001879
 20
97.07077013260001
 30
0.0
  0
VERTEX
  5
192
330
13A
100
AcDbEntity
  8
0
100
AcDbVertex
100
AcDb2dVertex
 10
182.2175369147
 20
96.701753608
 30
0.0
  0
VERTEX
  5
193
330
13A
100
AcDbEntity
  8
0
100
AcDbVertex
100
AcDb2dVertex
 10
182.2805667413999
 20
96.33560905799999
 30
0.0
  0
VERTEX
  5
194
330
13A
100
AcDbEntity
  8
0
100
AcDbVertex
100
AcDb2dVertex
 10
182.3340192716999
 20
95.97274541959999
 30
0.0
  0
VERTEX
  5
195
330
13A
100
AcDbEntity
  8
0
100
AcDbVertex
100
AcDb2dVertex
 10
182.3778348059
 20
95.613567965
 30
0.0
  0
VERTEX
  5
196
330
13A
100
AcDbEntity
  8
0
100
AcDbVertex
100
AcDb2dVertex
 10
182.4119644077999
 20
95.25847784979999
 30
0.0
  0
VERTEX
  5
197
330
13A
100
AcDbEntity
  8
0
100
AcDbVertex
100
AcDb2dVertex
 10
182.4363699588
 20
94.9078716644
 30
0.0
  0
VERTEX
  5
198
330
13A
100
AcDbEntity
  8
0
100
AcDbVertex
100
AcDb2dVertex
 10
182.4510242011
 20
94.56214099110001
 30
0.0
  0
VERTEX
  5
199
330
13A
100
AcDbEntity
  8
0
100
AcDbVertex
100
AcDb2dVertex
 10
182.4559107677
 20
94.22167196709999
 30
0.0
  0
SEQEND
  5
19A
330
13A
100
AcDbEntity
  8
0
  0
LINE
  5
19B
330
A
100
AcDbEntity
  8
0
  6
Continuous
 62
     7
370
    15
100
AcDbLine
 10
182.1907457248
 20
94.37474848799999
 30
0.0
 11
182.4559107677
 21
94.22167196709999
 31
0.0
  0
POLYLINE
  5
19C
330
A
100
AcDbEntity
  8
0
  6
Continuous
 62
     7
100
AcDb2dPolyline
 66
     1
 10
0.0
 20
0.0
 30
0.0
 70
   128
 40
0.0708661417
 41
0.0708661417
  0
VERTEX
  5
19D
330
19C
100
AcDbEntity
  8
0
100
AcDbVertex
100
AcDb2dVertex
 10
165.2201829762999
 20
104.1716458298999
 30
0.0
  0
VERTEX
  5
19E
330
19C
100
AcDbEntity
  8
0
100
AcDbVertex
100
AcDb2dVertex
 10
165.2251297055999
 20
104.5033214619
 30
0.0
  0
VERTEX
  5
19F
330
19C
100
AcDbEntity
  8
0
100
AcDbVertex
100
AcDb2dVertex
 10
165.2399641257
 20
104.8288990027999
 30
0.0
  0
VERTEX
  5
1A0
330
19C
100
AcDbEntity
  8
0
100
AcDbVertex
100
AcDb2dVertex
 10
165.2646689404
 20
105.147998844
 30
0.0
  0
VERTEX
  5
1A1
330
19C
100
AcDbEntity
  8
0
100
AcDbVertex
100
AcDb2dVertex
 10
165.2992153449
 20
105.4602489290999
 30
0.0
  0
VERTEX
  5
1A2
330
19C
100
AcDbEntity
  8
0
100
AcDbVertex
100
AcDb2dVertex
 10
165.3435630598
 20
105.7652851887
 30
0.0
  0
VERTEX
  5
1A3
330
19C
100
AcDbEntity
  8
0
100
AcDbVertex
100
AcDb2dVertex
 10
165.3976603774999
 20
106.062751964
 30
0.0
  0
VERTEX
  5
1A4
330
19C
100
AcDbEntity
  8
0
100
AcDbVertex
100
AcDb2dVertex
 10
165.4614442230999
 20
106.3523024220999
 30
0.0
  0
VERTEX
  5
1A5
330
19C
100
AcDbEntity
  8
0
100
AcDbVertex
100
AcDb2dVertex
 10
165.5348402273
 20
106.6335989602
 30
0.0
  0
VERTEX
  5
1A6
330
19C
100
AcDbEntity
  8
0
100
AcDbVertex
100
AcDb2dVertex
 10
165.6177628138
 20
106.906313599
 30
0.0
  0
VERTEX
  5
1A7
330
19C
100
AcDbEntity
  8
0
100
AcDbVertex
100
AcDb2dVertex
 10
165.7101152984
 20
107.1701283654999
 30
0.0
  0
VERTEX
  5
1A8
330
19C
100
AcDbEntity
  8
0
100
AcDbVertex
100
AcDb2dVertex
 10
165.8117900025
 20
107.4247356634
 30
0.0
  0
VERTEX
  5
1A9
330
19C
100
AcDbEntity
  8
0
100
AcDbVertex
100
AcDb2dVertex
 10
165.9226683776999
 20
107.6698386321
 30
0.0
  0
VERTEX
  5
1AA
330
19C
100
AcDbEntity
  8
0
100
AcDbVertex
100
AcDb2dVertex
 10
166.0426211447999
 20
107.9051514923999
 30
0.0
  0
VERTEX
  5
1AB
330
19C
100
AcDbEntity
  8
0
100
AcDbVertex
100
AcDb2dVertex
 10
166.1715084444
 20
108.1303998802
 30
0.0
  0
VERTEX
  5
1AC
330
19C
100
AcDbEntity
  8
0
100
AcDbVertex
100
AcDb2dVertex
 10
166.3091799995
 20
108.3453211656999
 30
0.0
  0
VERTEX
  5
1AD
330
19C
100
AcDbEntity
  8
0
100
AcDbVertex
100
AcDb2dVertex
 10
166.4554752914
 20
108.5496647604999
 30
0.0
  0
VERTEX
  5
1AE
330
19C
100
AcDbEntity
  8
0
100
AcDbVertex
100
AcDb2dVertex
 10
166.6102237461999
 20
108.743192409
 30
0.0
  0
VERTEX
  5
1AF
330
19C
100
AcDbEntity
  8
0
100
AcDbVertex
100
AcDb2dVertex
 10
166.7732449341
 20
108.9256784666
 30
0.0
  0
VERTEX
  5
1B0
330
19C
100
AcDbEntity
  8
0
100
AcDbVertex
100
AcDb2dVertex
 10
166.9443487798
 20
109.0969101628
 30
0.0
  0
VERTEX
  5
1B1
330
19C
100
AcDbEntity
  8
0
100
AcDbVertex
100
AcDb2dVertex
 10
167.1233357838
 20
109.2566878491
 30
0.0
  0
VERTEX
  5
1B2
330
19C
100
AcDbEntity
  8
0
100
AcDbVertex
100
AcDb2dVertex
 10
167.3099972552
 20
109.4048252319
 30
0.0
  0
VERTEX
  5
1B3
330
19C
100
AcDbEntity
  8
0
100
AcDbVertex
100
AcDb2dVertex
 10
167.5041155551999
 20
109.5411495895
 30
0.0
  0
VERTEX
  5
1B4
330
19C
100
AcDbEntity
  8
0
100
AcDbVertex
100
AcDb2dVertex
 10
167.7054643505999
 20
109.6655019738999
 30
0.0
  0
VERTEX
  5
1B5
330
19C
100
AcDbEntity
  8
0
100
AcDbVertex
100
AcDb2dVertex
 10
167.9138088774999
 20
109.7777373957
 30
0.0
  0
VERTEX
  5
1B6
330
19C
100
AcDbEntity
  8
0
100
AcDbVertex
100
AcDb2dVertex
 10
168.1289062155999
 20
109.8777249936
 30
0.0
  0
VERTEX
  5
1B7
330
19C
100
AcDbEntity
  8
0
100
AcDbVertex
100
AcDb2dVertex
 10
168.3505055711
 20
109.9653481862999
 30
0.0
  0
VERTEX
  5
1B8
330
19C
100
AcDbEntity
  8
0
100
AcDbVertex
100
AcDb2dVertex
 10
168.5783485688999
 20
110.0405048092
 30
0.0
  0
VERTEX
  5
1B9
330
19C
100
AcDbEntity
  8
0
100
AcDbVertex
100
AcDb2dVertex
 10
168.8121695544
 20
110.1031072330999
 30
0.0
  0
VERTEX
  5
1BA
330
19C
100
AcDbEntity
  8
0
100
AcDbVertex
100
AcDb2dVertex
 10
169.0516959028
 20
110.1530824663
 30
0.0
  0
VERTEX
  5
1BB
330
19C
100
AcDbEntity
  8
0
100
AcDbVertex
100
AcDb2dVertex
 10
169.296648337
 20
110.1903722397999
 30
0.0
  0
VERTEX
  5
1BC
330
19C
100
AcDbEntity
  8
0
100
AcDbVertex
100
AcDb2dVertex
 10
169.5467412534
 20
110.2149330755999
 30
0.0
  0
VERTEX
  5
1BD
330
19C
100
AcDbEntity
  8
0
100
AcDbVertex
100
AcDb2dVertex
 10
169.801683055
 20
110.2267363366999
 30
0.0
  0
VERTEX
  5
1BE
330
19C
100
AcDbEntity
  8
0
100
AcDbVertex
100
AcDb2dVertex
 10
170.0611764909
 20
110.2257682612
 30
0.0
  0
VERTEX
  5
1BF
330
19C
100
AcDbEntity
  8
0
100
AcDbVertex
100
AcDb2dVertex
 10
170.3249190034
 20
110.2120299777
 30
0.0
  0
VERTEX
  5
1C0
330
19C
100
AcDbEntity
  8
0
100
AcDbVertex
100
AcDb2dVertex
 10
170.5926030805999
 20
110.1855375044
 30
0.0
  0
VERTEX
  5
1C1
330
19C
100
AcDbEntity
  8
0
100
AcDbVertex
100
AcDb2dVertex
 10
170.8639166148
 20
110.1463217303999
 30
0.0
  0
VERTEX
  5
1C2
330
19C
100
AcDbEntity
  8
0
100
AcDbVertex
100
AcDb2dVertex
 10
171.1385432664999
 20
110.0944283795
 30
0.0
  0
VERTEX
  5
1C3
330
19C
100
AcDbEntity
  8
0
100
AcDbVertex
100
AcDb2dVertex
 10
171.4161628333999
 20
110.0299179572
 30
0.0
  0
VERTEX
  5
1C4
330
19C
100
AcDbEntity
  8
0
100
AcDbVertex
100
AcDb2dVertex
 10
171.6964516235
 20
109.9528656795
 30
0.0
  0
VERTEX
  5
1C5
330
19C
100
AcDbEntity
  8
0
100
AcDbVertex
100
AcDb2dVertex
 10
171.9790828325
 20
109.863361386
 30
0.0
  0
VERTEX
  5
1C6
330
19C
100
AcDbEntity
  8
0
100
AcDbVertex
100
AcDb2dVertex
 10
172.2637269252
 20
109.7615094347999
 30
0.0
  0
VERTEX
  5
1C7
330
19C
100
AcDbEntity
  8
0
100
AcDbVertex
100
AcDb2dVertex
 10
172.5500520191999
 20
109.6474285807
 30
0.0
  0
VERTEX
  5
1C8
330
19C
100
AcDbEntity
  8
0
100
AcDbVertex
100
AcDb2dVertex
 10
172.8377242722999
 20
109.5212518367
 30
0.0
  0
VERTEX
  5
1C9
330
19C
100
AcDbEntity
  8
0
100
AcDbVertex
100
AcDb2dVertex
 10
173.1264082715
 20
109.3831263195
 30
0.0
  0
VERTEX
  5
1CA
330
19C
100
AcDbEntity
  8
0
100
AcDbVertex
100
AcDb2dVertex
 10
173.4157674241999
 20
109.2332130770999
 30
0.0
  0
VERTEX
  5
1CB
330
19C
100
AcDbEntity
  8
0
100
AcDbVertex
100
AcDb2dVertex
 10
173.7054643506
 20
109.0716869016
 30
0.0
  0
VERTEX
  5
1CC
330
19C
100
AcDbEntity
  8
0
100
AcDbVertex
100
AcDb2dVertex
 10
173.9951612768999
 20
108.8987361254
 30
0.0
  0
VERTEX
  5
1CD
330
19C
100
AcDbEntity
  8
0
100
AcDbVertex
100
AcDb2dVertex
 10
174.2845204295999
 20
108.7145624013999
 30
0.0
  0
VERTEX
  5
1CE
330
19C
100
AcDbEntity
  8
0
100
AcDbVertex
100
AcDb2dVertex
 10
174.5732044288
 20
108.5193804678
 30
0.0
  0
VERTEX
  5
1CF
330
19C
100
AcDbEntity
  8
0
100
AcDbVertex
100
AcDb2dVertex
 10
174.8608766818999
 20
108.3134178981
 30
0.0
  0
VERTEX
  5
1D0
330
19C
100
AcDbEntity
  8
0
100
AcDbVertex
100
AcDb2dVertex
 10
175.1472017759
 20
108.0969148354
 30
0.0
  0
VERTEX
  5
1D1
330
19C
100
AcDbEntity
  8
0
100
AcDbVertex
100
AcDb2dVertex
 10
175.4318458685999
 20
107.8701237126
 30
0.0
  0
VERTEX
  5
1D2
330
19C
100
AcDbEntity
  8
0
100
AcDbVertex
100
AcDb2dVertex
 10
175.7144770775999
 20
107.6333089579999
 30
0.0
  0
VERTEX
  5
1D3
330
19C
100
AcDbEntity
  8
0
100
AcDbVertex
100
AcDb2dVertex
 10
175.9947658677
 20
107.386746687
 30
0.0
  0
VERTEX
  5
1D4
330
19C
100
AcDbEntity
  8
0
100
AcDbVertex
100
AcDb2dVertex
 10
176.2723854345999
 20
107.1307243801
 30
0.0
  0
VERTEX
  5
1D5
330
19C
100
AcDbEntity
  8
0
100
AcDbVertex
100
AcDb2dVertex
 10
176.5470120863
 20
106.8655405481
 30
0.0
  0
VERTEX
  5
1D6
330
19C
100
AcDbEntity
  8
0
100
AcDbVertex
100
AcDb2dVertex
 10
176.8183256204999
 20
106.5915043831999
 30
0.0
  0
VERTEX
  5
1D7
330
19C
100
AcDbEntity
  8
0
100
AcDbVertex
100
AcDb2dVertex
 10
177.0860096977
 20
106.3089353994999
 30
0.0
  0
VERTEX
  5
1D8
330
19C
100
AcDbEntity
  8
0
100
AcDbVertex
100
AcDb2dVertex
 10
177.3497522101999
 20
106.0181630597999
 30
0.0
  0
VERTEX
  5
1D9
330
19C
100
AcDbEntity
  8
0
100
AcDbVertex
100
AcDb2dVertex
 10
177.6092456461999
 20
105.7195263914999
 30
0.0
  0
VERTEX
  5
1DA
330
19C
100
AcDbEntity
  8
0
100
AcDbVertex
100
AcDb2dVertex
 10
177.8641874477
 20
105.4133735916999
 30
0.0
  0
VERTEX
  5
1DB
330
19C
100
AcDbEntity
  8
0
100
AcDbVertex
100
AcDb2dVertex
 10
178.1142803641
 20
105.1000616208
 30
0.0
  0
VERTEX
  5
1DC
330
19C
100
AcDbEntity
  8
0
100
AcDbVertex
100
AcDb2dVertex
 10
178.3592327983
 20
104.7799557867
 30
0.0
  0
VERTEX
  5
1DD
330
19C
100
AcDbEntity
  8
0
100
AcDbVertex
100
AcDb2dVertex
 10
178.5987591467
 20
104.4534293182999
 30
0.0
  0
VERTEX
  5
1DE
330
19C
100
AcDbEntity
  8
0
100
AcDbVertex
100
AcDb2dVertex
 10
178.8325801322
 20
104.1208629309
 30
0.0
  0
VERTEX
  5
1DF
330
19C
100
AcDbEntity
  8
0
100
AcDbVertex
100
AcDb2dVertex
 10
179.0604231300999
 20
103.7826443820999
 30
0.0
  0
VERTEX
  5
1E0
330
19C
100
AcDbEntity
  8
0
100
AcDbVertex
100
AcDb2dVertex
 10
179.2820224855
 20
103.4391680194999
 30
0.0
  0
VERTEX
  5
1E1
330
19C
100
AcDbEntity
  8
0
100
AcDbVertex
100
AcDb2dVertex
 10
179.4971198236
 20
103.0908343212999
 30
0.0
  0
VERTEX
  5
1E2
330
19C
100
AcDbEntity
  8
0
100
AcDbVertex
100
AcDb2dVertex
 10
179.7054643506
 20
102.7380494288999
 30
0.0
  0
VERTEX
  5
1E3
330
19C
100
AcDbEntity
  8
0
100
AcDbVertex
100
AcDb2dVertex
 10
179.9068131459
 20
102.3812246737
 30
0.0
  0
VERTEX
  5
1E4
330
19C
100
AcDbEntity
  8
0
100
AcDbVertex
100
AcDb2dVertex
 10
180.1009314458999
 20
102.0207760974999
 30
0.0
  0
VERTEX
  5
1E5
330
19C
100
AcDbEntity
  8
0
100
AcDbVertex
100
AcDb2dVertex
 10
180.2875929174
 20
101.6571239671999
 30
0.0
  0
VERTEX
  5
1E6
330
19C
100
AcDbEntity
  8
0
100
AcDbVertex
100
AcDb2dVertex
 10
180.4665799213999
 20
101.2906922848
 30
0.0
  0
VERTEX
  5
1E7
330
19C
100
AcDbEntity
  8
0
100
AcDbVertex
100
AcDb2dVertex
 10
180.637683767
 20
100.9219082934
 30
0.0
  0
VERTEX
  5
1E8
330
19C
100
AcDbEntity
  8
0
100
AcDbVertex
100
AcDb2dVertex
 10
180.8007049549999
 20
100.5512019785
 30
0.0
  0
VERTEX
  5
1E9
330
19C
100
AcDbEntity
  8
0
100
AcDbVertex
100
AcDb2dVertex
 10
180.9554534097
 20
100.1790055671999
 30
0.0
  0
VERTEX
  5
1EA
330
19C
100
AcDbEntity
  8
0
100
AcDbVertex
100
AcDb2dVertex
 10
181.1017487016
 20
99.8057530238
 30
0.0
  0
VERTEX
  5
1EB
330
19C
100
AcDbEntity
  8
0
100
AcDbVertex
100
AcDb2dVertex
 10
181.2394202566999
 20
99.43187954409999
 30
0.0
  0
VERTEX
  5
1EC
330
19C
100
AcDbEntity
  8
0
100
AcDbVertex
100
AcDb2dVertex
 10
181.3683075563
 20
99.05782104780001
 30
0.0
  0
VERTEX
  5
1ED
330
19C
100
AcDbEntity
  8
0
100
AcDbVertex
100
AcDb2dVertex
 10
181.4882603234999
 20
98.68401367049999
 30
0.0
  0
VERTEX
  5
1EE
330
19C
100
AcDbEntity
  8
0
100
AcDbVertex
100
AcDb2dVertex
 10
181.5991386986999
 20
98.31089325469999
 30
0.0
  0
VERTEX
  5
1EF
330
19C
100
AcDbEntity
  8
0
100
AcDbVertex
100
AcDb2dVertex
 10
181.7008134026999
 20
97.93889484220001
 30
0.0
  0
VERTEX
  5
1F0
330
19C
100
AcDbEntity
  8
0
100
AcDbVertex
100
AcDb2dVertex
 10
181.7931658874
 20
97.5684521666
 30
0.0
  0
VERTEX
  5
1F1
330
19C
100
AcDbEntity
  8
0
100
AcDbVertex
100
AcDb2dVertex
 10
181.8760884738
 20
97.19999714730001
 30
0.0
  0
VERTEX
  5
1F2
330
19C
100
AcDbEntity
  8
0
100
AcDbVertex
100
AcDb2dVertex
 10
181.9494844780999
 20
96.83395938650001
 30
0.0
  0
VERTEX
  5
1F3
330
19C
100
AcDbEntity
  8
0
100
AcDbVertex
100
AcDb2dVertex
 10
182.0132683236
 20
96.47076566790001
 30
0.0
  0
VERTEX
  5
1F4
330
19C
100
AcDbEntity
  8
0
100
AcDbVertex
100
AcDb2dVertex
 10
182.0673656412999
 20
96.11083945899999
 30
0.0
  0
VERTEX
  5
1F5
330
19C
100
AcDbEntity
  8
0
100
AcDbVertex
100
AcDb2dVertex
 10
182.1117133561999
 20
95.75460041780001
 30
0.0
  0
VERTEX
  5
1F6
330
19C
100
AcDbEntity
  8
0
100
AcDbVertex
100
AcDb2dVertex
 10
182.1462597606999
 20
95.4024639029
 30
0.0
  0
VERTEX
  5
1F7
330
19C
100
AcDbEntity
  8
0
100
AcDbVertex
100
AcDb2dVertex
 10
182.1709645754
 20
95.0548404899
 30
0.0
  0
VERTEX
  5
1F8
330
19C
100
AcDbEntity
  8
0
100
AcDbVertex
100
AcDb2dVertex
 10
182.1857989955
 20
94.71213549199999
 30
0.0
  0
VERTEX
  5
1F9
330
19C
100
AcDbEntity
  8
0
100
AcDbVertex
100
AcDb2dVertex
 10
182.1907457248
 20
94.37474848799999
 30
0.0
  0
SEQEND
  5
1FA
330
19C
100
AcDbEntity
  8
0
  0
POLYLINE
  5
1FB
330
A
100
AcDbEntity
  8
0
  6
Continuous
 62
     7
100
AcDb2dPolyline
 66
     1
 10
0.0
 20
0.0
 30
0.0
 70
   128
 40
0.0708661417
 41
0.0708661417
  0
VERTEX
  5
1FC
330
1FB
100
AcDbEntity
  8
0
100
AcDbVertex
100
AcDb2dVertex
 10
188.1127650172
 20
97.48730441440001
 30
0.0
  0
VERTEX
  5
1FD
330
1FB
100
AcDbEntity
  8
0
100
AcDbVertex
100
AcDb2dVertex
 10
188.1078784506
 20
97.82777343840001
 30
0.0
  0
VERTEX
  5
1FE
330
1FB
100
AcDbEntity
  8
0
100
AcDbVertex
100
AcDb2dVertex
 10
188.0932242083
 20
98.1735041117
 30
0.0
  0
VERTEX
  5
1FF
330
1FB
100
AcDbEntity
  8
0
100
AcDbVertex
100
AcDb2dVertex
 10
188.0688186573
 20
98.52411029709999
 30
0.0
  0
VERTEX
  5
200
330
1FB
100
AcDbEntity
  8
0
100
AcDbVertex
100
AcDb2dVertex
 10
188.0346890554
 20
98.8792004123
 30
0.0
  0
VERTEX
  5
201
330
1FB
100
AcDbEntity
  8
0
100
AcDbVertex
100
AcDb2dVertex
 10
187.9908735212
 20
99.2383778669
 30
0.0
  0
VERTEX
  5
202
330
1FB
100
AcDbEntity
  8
0
100
AcDbVertex
100
AcDb2dVertex
 10
187.9374209909
 20
99.60124150530001
 30
0.0
  0
VERTEX
  5
203
330
1FB
100
AcDbEntity
  8
0
100
AcDbVertex
100
AcDb2dVertex
 10
187.8743911641999
 20
99.96738605530001
 30
0.0
  0
VERTEX
  5
204
330
1FB
100
AcDbEntity
  8
0
100
AcDbVertex
100
AcDb2dVertex
 10
187.8018544374
 20
100.3364025798999
 30
0.0
  0
VERTEX
  5
205
330
1FB
100
AcDbEntity
  8
0
100
AcDbVertex
100
AcDb2dVertex
 10
187.7198918248
 20
100.7078789347999
 30
0.0
  0
VERTEX
  5
206
330
1FB
100
AcDbEntity
  8
0
100
AcDbVertex
100
AcDb2dVertex
 10
187.6285948681
 20
101.0814002282999
 30
0.0
  0
VERTEX
  5
207
330
1FB
100
AcDbEntity
  8
0
100
AcDbVertex
100
AcDb2dVertex
 10
187.5280655345
 20
101.4565492845999
 30
0.0
  0
VERTEX
  5
208
330
1FB
100
AcDbEntity
  8
0
100
AcDbVertex
100
AcDb2dVertex
 10
187.4184161024
 20
101.8329071099999
 30
0.0
  0
VERTEX
  5
209
330
1FB
100
AcDbEntity
  8
0
100
AcDbVertex
100
AcDb2dVertex
 10
187.2997690362
 20
102.2100533609
 30
0.0
  0
VERTEX
  5
20A
330
1FB
100
AcDbEntity
  8
0
100
AcDbVertex
100
AcDb2dVertex
 10
187.1722568495999
 20
102.5875668129999
 30
0.0
  0
VERTEX
  5
20B
330
1FB
100
AcDbEntity
  8
0
100
AcDbVertex
100
AcDb2dVertex
 10
187.0360219574
 20
102.9650258318
 30
0.0
  0
VERTEX
  5
20C
330
1FB
100
AcDbEntity
  8
0
100
AcDbVertex
100
AcDb2dVertex
 10
186.8912165165999
 20
103.3420088437999
 30
0.0
  0
VERTEX
  5
20D
330
1FB
100
AcDbEntity
  8
0
100
AcDbVertex
100
AcDb2dVertex
 10
186.7380022565
 20
103.7180948069
 30
0.0
  0
VERTEX
  5
20E
330
1FB
100
AcDbEntity
  8
0
100
AcDbVertex
100
AcDb2dVertex
 10
186.5765502979
 20
104.0928636811
 30
0.0
  0
VERTEX
  5
20F
330
1FB
100
AcDbEntity
  8
0
100
AcDbVertex
100
AcDb2dVertex
 10
186.407040962
 20
104.4658968972999
 30
0.0
  0
VERTEX
  5
210
330
1FB
100
AcDbEntity
  8
0
100
AcDbVertex
100
AcDb2dVertex
 10
186.2296635691999
 20
104.836777825
 30
0.0
  0
VERTEX
  5
211
330
1FB
100
AcDbEntity
  8
0
100
AcDbVertex
100
AcDb2dVertex
 10
186.0446162272999
 20
105.2050922373999
 30
0.0
  0
VERTEX
  5
212
330
1FB
100
AcDbEntity
  8
0
100
AcDbVertex
100
AcDb2dVertex
 10
185.8521056106999
 20
105.5704287743
 30
0.0
  0
VERTEX
  5
213
330
1FB
100
AcDbEntity
  8
0
100
AcDbVertex
100
AcDb2dVertex
 10
185.6523467291999
 20
105.9323794013
 30
0.0
  0
VERTEX
  5
214
330
1FB
100
AcDbEntity
  8
0
100
AcDbVertex
100
AcDb2dVertex
 10
185.4455626881
 20
106.2905398657999
 30
0.0
  0
VERTEX
  5
215
330
1FB
100
AcDbEntity
  8
0
100
AcDbVertex
100
AcDb2dVertex
 10
185.2319844386
 20
106.6445101480999
 30
0.0
  0
VERTEX
  5
216
330
1FB
100
AcDbEntity
  8
0
100
AcDbVertex
100
AcDb2dVertex
 10
185.0118505206
 20
106.9938949085
 30
0.0
  0
VERTEX
  5
217
330
1FB
100
AcDbEntity
  8
0
100
AcDbVertex
100
AcDb2dVertex
 10
184.7854067954999
 20
107.3383039289
 30
0.0
  0
VERTEX
  5
218
330
1FB
100
AcDbEntity
  8
0
100
AcDbVertex
100
AcDb2dVertex
 10
184.5529061721
 20
107.6773525481999
 30
0.0
  0
VERTEX
  5
219
330
1FB
100
AcDbEntity
  8
0
100
AcDbVertex
100
AcDb2dVertex
 10
184.314608324
 20
108.0106620922999
 30
0.0
  0
VERTEX
  5
21A
330
1FB
100
AcDbEntity
  8
0
100
AcDbVertex
100
AcDb2dVertex
 10
184.0707793993999
 20
108.3378602969
 30
0.0
  0
VERTEX
  5
21B
330
1FB
100
AcDbEntity
  8
0
100
AcDbVertex
100
AcDb2dVertex
 10
183.8216917243999
 20
108.6585817235
 30
0.0
  0
VERTEX
  5
21C
330
1FB
100
AcDbEntity
  8
0
100
AcDbVertex
100
AcDb2dVertex
 10
183.5676234979
 20
108.9724681669
 30
0.0
  0
VERTEX
  5
21D
330
1FB
100
AcDbEntity
  8
0
100
AcDbVertex
100
AcDb2dVertex
 10
183.3088584819
 20
109.2791690561
 30
0.0
  0
VERTEX
  5
21E
330
1FB
100
AcDbEntity
  8
0
100
AcDbVertex
100
AcDb2dVertex
 10
183.0456856837999
 20
109.5783418452999
 30
0.0
  0
VERTEX
  5
21F
330
1FB
100
AcDbEntity
  8
0
100
AcDbVertex
100
AcDb2dVertex
 10
182.7783990341999
 20
109.8696523964999
 30
0.0
  0
VERTEX
  5
220
330
1FB
100
AcDbEntity
  8
0
100
AcDbVertex
100
AcDb2dVertex
 10
182.5072970582
 20
110.1527753530999
 30
0.0
  0
VERTEX
  5
221
330
1FB
100
AcDbEntity
  8
0
100
AcDbVertex
100
AcDb2dVertex
 10
182.2326825420999
 20
110.4273945028
 30
0.0
  0
VERTEX
  5
222
330
1FB
100
AcDbEntity
  8
0
100
AcDbVertex
100
AcDb2dVertex
 10
181.9548621953
 20
110.6932031309
 30
0.0
  0
VERTEX
  5
223
330
1FB
100
AcDbEntity
  8
0
100
AcDbVertex
100
AcDb2dVertex
 10
181.6741463077999
 20
110.9499043632
 30
0.0
  0
VERTEX
  5
224
330
1FB
100
AcDbEntity
  8
0
100
AcDbVertex
100
AcDb2dVertex
 10
181.3908484034
 20
111.1972114970999
 30
0.0
  0
VERTEX
  5
225
330
1FB
100
AcDbEntity
  8
0
100
AcDbVertex
100
AcDb2dVertex
 10
181.1052848898
 20
111.434848322
 30
0.0
  0
VERTEX
  5
226
330
1FB
100
AcDbEntity
  8
0
100
AcDbVertex
100
AcDb2dVertex
 10
180.8177747049
 20
111.6625494278
 30
0.0
  0
VERTEX
  5
227
330
1FB
100
AcDbEntity
  8
0
100
AcDbVertex
100
AcDb2dVertex
 10
180.5286389611999
 20
111.8800605015999
 30
0.0
  0
VERTEX
  5
228
330
1FB
100
AcDbEntity
  8
0
100
AcDbVertex
100
AcDb2dVertex
 10
180.2382005862
 20
112.0871386111
 30
0.0
  0
VERTEX
  5
229
330
1FB
100
AcDbEntity
  8
0
100
AcDbVertex
100
AcDb2dVertex
 10
179.9467839627
 20
112.2835524763999
 30
0.0
  0
VERTEX
  5
22A
330
1FB
100
AcDbEntity
  8
0
100
AcDbVertex
100
AcDb2dVertex
 10
179.6547145659
 20
112.4690827283999
 30
0.0
  0
VERTEX
  5
22B
330
1FB
100
AcDbEntity
  8
0
100
AcDbVertex
100
AcDb2dVertex
 10
179.3623186000999
 20
112.6435221534
 30
0.0
  0
VERTEX
  5
22C
330
1FB
100
AcDbEntity
  8
0
100
AcDbVertex
100
AcDb2dVertex
 10
179.0699226341999
 20
112.8066759246999
 30
0.0
  0
VERTEX
  5
22D
330
1FB
100
AcDbEntity
  8
0
100
AcDbVertex
100
AcDb2dVertex
 10
178.7778532374
 20
112.9583618204
 30
0.0
  0
VERTEX
  5
22E
330
1FB
100
AcDbEntity
  8
0
100
AcDbVertex
100
AcDb2dVertex
 10
178.4864366138999
 20
113.0984104266999
 30
0.0
  0
VERTEX
  5
22F
330
1FB
100
AcDbEntity
  8
0
100
AcDbVertex
100
AcDb2dVertex
 10
178.1959982388999
 20
113.2266653272
 30
0.0
  0
VERTEX
  5
230
330
1FB
100
AcDbEntity
  8
0
100
AcDbVertex
100
AcDb2dVertex
 10
177.9068624952
 20
113.3429832775
 30
0.0
  0
VERTEX
  5
231
330
1FB
100
AcDbEntity
  8
0
100
AcDbVertex
100
AcDb2dVertex
 10
177.6193523103
 20
113.4472343652
 30
0.0
  0
VERTEX
  5
232
330
1FB
100
AcDbEntity
  8
0
100
AcDbVertex
100
AcDb2dVertex
 10
177.3337887966999
 20
113.5393021552
 30
0.0
  0
VERTEX
  5
233
330
1FB
100
AcDbEntity
  8
0
100
AcDbVertex
100
AcDb2dVertex
 10
177.0504908922999
 20
113.6190838195
 30
0.0
  0
VERTEX
  5
234
330
1FB
100
AcDbEntity
  8
0
100
AcDbVertex
100
AcDb2dVertex
 10
176.7697750047999
 20
113.6864902520999
 30
0.0
  0
VERTEX
  5
235
330
1FB
100
AcDbEntity
  8
0
100
AcDbVertex
100
AcDb2dVertex
 10
176.491954658
 20
113.7414461686
 30
0.0
  0
VERTEX
  5
236
330
1FB
100
AcDbEntity
  8
0
100
AcDbVertex
100
AcDb2dVertex
 10
176.2173401419
 20
113.7838901904
 30
0.0
  0
VERTEX
  5
237
330
1FB
100
AcDbEntity
  8
0
100
AcDbVertex
100
AcDb2dVertex
 10
175.9462381659
 20
113.8137749128
 30
0.0
  0
VERTEX
  5
238
330
1FB
100
AcDbEntity
  8
0
100
AcDbVertex
100
AcDb2dVertex
 10
175.6789515162999
 20
113.8310669583999
 30
0.0
  0
VERTEX
  5
239
330
1FB
100
AcDbEntity
  8
0
100
AcDbVertex
100
AcDb2dVertex
 10
175.4157787181999
 20
113.8357470140999
 30
0.0
  0
VERTEX
  5
23A
330
1FB
100
AcDbEntity
  8
0
100
AcDbVertex
100
AcDb2dVertex
 10
175.1570137022
 20
113.8278098530999
 30
0.0
  0
VERTEX
  5
23B
330
1FB
100
AcDbEntity
  8
0
100
AcDbVertex
100
AcDb2dVertex
 10
174.9029454757
 20
113.80726434
 30
0.0
  0
VERTEX
  5
23C
330
1FB
100
AcDbEntity
  8
0
100
AcDbVertex
100
AcDb2dVertex
 10
174.6538578006999
 20
113.7741334216
 30
0.0
  0
VERTEX
  5
23D
330
1FB
100
AcDbEntity
  8
0
100
AcDbVertex
100
AcDb2dVertex
 10
174.4100288761999
 20
113.7284541009
 30
0.0
  0
VERTEX
  5
23E
330
1FB
100
AcDbEntity
  8
0
100
AcDbVertex
100
AcDb2dVertex
 10
174.1717310279999
 20
113.6702773958
 30
0.0
  0
VERTEX
  5
23F
330
1FB
100
AcDbEntity
  8
0
100
AcDbVertex
100
AcDb2dVertex
 10
173.9392304047
 20
113.5996682824
 30
0.0
  0
VERTEX
  5
240
330
1FB
100
AcDbEntity
  8
0
100
AcDbVertex
100
AcDb2dVertex
 10
173.7127866795
 20
113.516705622
 30
0.0
  0
VERTEX
  5
241
330
1FB
100
AcDbEntity
  8
0
100
AcDbVertex
100
AcDb2dVertex
 10
173.4926527615
 20
113.4214820733999
 30
0.0
  0
VERTEX
  5
242
330
1FB
100
AcDbEntity
  8
0
100
AcDbVertex
100
AcDb2dVertex
 10
173.2790745120999
 20
113.314103989
 30
0.0
  0
VERTEX
  5
243
330
1FB
100
AcDbEntity
  8
0
100
AcDbVertex
100
AcDb2dVertex
 10
173.1753214419
 20
113.2561842781999
 30
0.0
  0
SEQEND
  5
244
330
1FB
100
AcDbEntity
  8
0
  0
LINE
  5
245
330
A
100
AcDbEntity
  8
0
  6
Continuous
 62
     7
370
    15
100
AcDbLine
 10
182.4559107677
 20
94.22167196709999
 30
0.0
 11
188.1127650172
 21
97.48730441440001
 31
0.0
  0
POLYLINE
  5
246
330
A
100
AcDbEntity
  8
0
  6
Continuous
 62
     7
100
AcDb2dPolyline
 66
     1
 10
0.0
 20
0.0
 30
0.0
 70
   128
 40
0.0708661417
 41
0.0708661417
  0
VERTEX
  5
247
330
246
100
AcDbEntity
  8
0
100
AcDbVertex
100
AcDb2dVertex
 10
171.2426960512999
 20
110.0716258029999
 30
0.0
  0
VERTEX
  5
248
330
246
100
AcDbEntity
  8
0
100
AcDbVertex
100
AcDb2dVertex
 10
171.1916944768
 20
109.8992314074999
 30
0.0
  0
VERTEX
  5
249
330
246
100
AcDbEntity
  8
0
100
AcDbVertex
100
AcDb2dVertex
 10
171.1182984726
 20
109.6179348694
 30
0.0
  0
VERTEX
  5
24A
330
246
100
AcDbEntity
  8
0
100
AcDbVertex
100
AcDb2dVertex
 10
171.054514627
 20
109.3283844112999
 30
0.0
  0
VERTEX
  5
24B
330
246
100
AcDbEntity
  8
0
100
AcDbVertex
100
AcDb2dVertex
 10
171.0004173093
 20
109.0309176359999
 30
0.0
  0
VERTEX
  5
24C
330
246
100
AcDbEntity
  8
0
100
AcDbVertex
100
AcDb2dVertex
 10
170.9560695943999
 20
108.7258813764
 30
0.0
  0
VERTEX
  5
24D
330
246
100
AcDbEntity
  8
0
100
AcDbVertex
100
AcDb2dVertex
 10
170.9215231898999
 20
108.4136312912
 30
0.0
  0
VERTEX
  5
24E
330
246
100
AcDbEntity
  8
0
100
AcDbVertex
100
AcDb2dVertex
 10
170.8968183752
 20
108.0945314501
 30
0.0
  0
VERTEX
  5
24F
330
246
100
AcDbEntity
  8
0
100
AcDbVertex
100
AcDb2dVertex
 10
170.8819839550999
 20
107.7689539090999
 30
0.0
  0
VERTEX
  5
250
330
246
100
AcDbEntity
  8
0
100
AcDbVertex
100
AcDb2dVertex
 10
170.8770372257999
 20
107.4372782771999
 30
0.0
  0
SEQEND
  5
251
330
246
100
AcDbEntity
  8
0
  0
LINE
  5
252
330
A
100
AcDbEntity
  8
0
  6
Continuous
 62
     7
370
    15
100
AcDbLine
 10
165.2201829762999
 20
104.1716458298999
 30
0.0
 11
170.8770372257999
 21
107.4372782771999
 31
0.0
  0
LINE
  5
253
330
A
100
AcDbEntity
  8
0
  6
Continuous
 62
     7
370
    15
100
AcDbLine
 10
182.4559107677
 20
89.3481481313
 30
0.0
 11
188.1127650172
 21
92.6137805786
 31
0.0
  0
LINE
  5
254
330
A
100
AcDbEntity
  8
0
  6
Continuous
 62
     7
370
    15
100
AcDbLine
 10
182.4559107677
 20
89.3481481313
 30
0.0
 11
182.4559107677
 21
94.22167196709999
 31
0.0
  0
LINE
  5
255
330
A
100
AcDbEntity
  8
0
  6
Continuous
 62
     7
370
    15
100
AcDbLine
 10
188.1127650172
 20
92.6137805786
 30
0.0
 11
188.1127650172
 21
97.48730441440001
 31
0.0
  0
POLYLINE
  5
256
330
A
100
AcDbEntity
  8
0
  6
Continuous
 62
     7
100
AcDb2dPolyline
 66
     1
 10
0.0
 20
0.0
 30
0.0
 70
   128
 40
0.0708661417
 41
0.0708661417
  0
VERTEX
  5
257
330
256
100
AcDbEntity
  8
0
100
AcDbVertex
100
AcDb2dVertex
 10
186.6985514549
 20
93.5835554928
 30
0.0
  0
VERTEX
  5
258
330
256
100
AcDbEntity
  8
0
100
AcDbVertex
100
AcDb2dVertex
 10
186.6584716731
 20
93.55432470049999
 30
0.0
  0
VERTEX
  5
259
330
256
100
AcDbEntity
  8
0
100
AcDbVertex
100
AcDb2dVertex
 10
186.6211232622999
 20
93.51489948479999
 30
0.0
  0
VERTEX
  5
25A
330
256
100
AcDbEntity
  8
0
100
AcDbVertex
100
AcDb2dVertex
 10
186.5890514549
 20
93.46796660889999
 30
0.0
  0
VERTEX
  5
25B
330
256
100
AcDbEntity
  8
0
100
AcDbVertex
100
AcDb2dVertex
 10
186.5644418913999
 20
93.41672447090001
 30
0.0
  0
VERTEX
  5
25C
330
256
100
AcDbEntity
  8
0
100
AcDbVertex
100
AcDb2dVertex
 10
186.5489716731
 20
93.36466513759999
 30
0.0
  0
VERTEX
  5
25D
330
256
100
AcDbEntity
  8
0
100
AcDbVertex
100
AcDb2dVertex
 10
186.5436950698
 20
93.31533636679999
 30
0.0
  0
VERTEX
  5
25E
330
256
100
AcDbEntity
  8
0
100
AcDbVertex
100
AcDb2dVertex
 10
186.5489716731
 20
93.27209983240001
 30
0.0
  0
VERTEX
  5
25F
330
256
100
AcDbEntity
  8
0
100
AcDbVertex
100
AcDb2dVertex
 10
186.5644418913999
 20
93.2379020331
 30
0.0
  0
VERTEX
  5
260
330
256
100
AcDbEntity
  8
0
100
AcDbVertex
100
AcDb2dVertex
 10
186.5890514549
 20
93.2150734921
 30
0.0
  0
VERTEX
  5
261
330
256
100
AcDbEntity
  8
0
100
AcDbVertex
100
AcDb2dVertex
 10
186.6211232622999
 20
93.20516993700001
 30
0.0
  0
VERTEX
  5
262
330
256
100
AcDbEntity
  8
0
100
AcDbVertex
100
AcDb2dVertex
 10
186.6584716731
 20
93.20886627849999
 30
0.0
  0
VERTEX
  5
263
330
256
100
AcDbEntity
  8
0
100
AcDbVertex
100
AcDb2dVertex
 10
186.6985514549
 20
93.22591061719998
 30
0.0
  0
VERTEX
  5
264
330
256
100
AcDbEntity
  8
0
100
AcDbVertex
100
AcDb2dVertex
 10
186.7386312365999
 20
93.25514140950001
 30
0.0
  0
VERTEX
  5
265
330
256
100
AcDbEntity
  8
0
100
AcDbVertex
100
AcDb2dVertex
 10
186.7759796474
 20
93.2945666252
 30
0.0
  0
VERTEX
  5
266
330
256
100
AcDbEntity
  8
0
100
AcDbVertex
100
AcDb2dVertex
 10
186.8080514548999
 20
93.34149950110001
 30
0.0
  0
VERTEX
  5
267
330
256
100
AcDbEntity
  8
0
100
AcDbVertex
100
AcDb2dVertex
 10
186.8326610183
 20
93.39274163909999
 30
0.0
  0
VERTEX
  5
268
330
256
100
AcDbEntity
  8
0
100
AcDbVertex
100
AcDb2dVertex
 10
186.8481312366
 20
93.44480097239999
 30
0.0
  0
VERTEX
  5
269
330
256
100
AcDbEntity
  8
0
100
AcDbVertex
100
AcDb2dVertex
 10
186.8534078399
 20
93.49412974319999
 30
0.0
  0
VERTEX
  5
26A
330
256
100
AcDbEntity
  8
0
100
AcDbVertex
100
AcDb2dVertex
 10
186.8481312366
 20
93.5373662776
 30
0.0
  0
VERTEX
  5
26B
330
256
100
AcDbEntity
  8
0
100
AcDbVertex
100
AcDb2dVertex
 10
186.8326610183
 20
93.5715640769
 30
0.0
  0
VERTEX
  5
26C
330
256
100
AcDbEntity
  8
0
100
AcDbVertex
100
AcDb2dVertex
 10
186.8080514548999
 20
93.59439261790001
 30
0.0
  0
VERTEX
  5
26D
330
256
100
AcDbEntity
  8
0
100
AcDbVertex
100
AcDb2dVertex
 10
186.7759796474
 20
93.60429617299999
 30
0.0
  0
VERTEX
  5
26E
330
256
100
AcDbEntity
  8
0
100
AcDbVertex
100
AcDb2dVertex
 10
186.7386312365999
 20
93.6005998315
 30
0.0
  0
VERTEX
  5
26F
330
256
100
AcDbEntity
  8
0
100
AcDbVertex
100
AcDb2dVertex
 10
186.6985514549
 20
93.5835554928
 30
0.0
  0
SEQEND
  5
270
330
256
100
AcDbEntity
  8
0
  0
LINE
  5
271
330
A
100
AcDbEntity
  8
0
  6
Continuous
 62
     7
370
    15
100
AcDbLine
 10
182.1907457248
 20
89.5012246523
 30
0.0
 11
182.1907457248
 21
94.37474848799999
 31
0.0
  0
LINE
  5
272
330
A
100
AcDbEntity
  8
0
  6
Continuous
 62
     7
370
    15
100
AcDbLine
 10
182.1907457248
 20
89.5012246523
 30
0.0
 11
182.4559107677
 21
89.3481481313
 31
0.0
  0
LINE
  5
273
330
A
100
AcDbEntity
  8
0
  6
Continuous
 62
     7
370
    15
100
AcDbLine
 10
182.4559107677
 20
84.42318222439999
 30
0.0
 11
188.1127650172
 21
87.6888146717
 31
0.0
  0
LINE
  5
274
330
A
100
AcDbEntity
  8
0
  6
Continuous
 62
     7
370
    15
100
AcDbLine
 10
182.4559107677
 20
84.42318222439999
 30
0.0
 11
182.4559107677
 21
89.29670606020001
 31
0.0
  0
LINE
  5
275
330
A
100
AcDbEntity
  8
0
  6
Continuous
 62
     7
370
    15
100
AcDbLine
 10
182.4559107677
 20
89.29670606020001
 30
0.0
 11
188.1127650172
 21
92.5623385075
 31
0.0
  0
LINE
  5
276
330
A
100
AcDbEntity
  8
0
  6
Continuous
 62
     7
370
    15
100
AcDbLine
 10
188.1127650172
 20
87.6888146717
 30
0.0
 11
188.1127650172
 21
92.5623385075
 31
0.0
  0
POLYLINE
  5
277
330
A
100
AcDbEntity
  8
0
  6
Continuous
 62
     7
100
AcDb2dPolyline
 66
     1
 10
0.0
 20
0.0
 30
0.0
 70
   128
 40
0.0708661417
 41
0.0708661417
  0
VERTEX
  5
278
330
277
100
AcDbEntity
  8
0
100
AcDbVertex
100
AcDb2dVertex
 10
186.6985514549
 20
90.31739224530001
 30
0.0
  0
VERTEX
  5
279
330
277
100
AcDbEntity
  8
0
100
AcDbVertex
100
AcDb2dVertex
 10
186.6584716731
 20
90.28816145299998
 30
0.0
  0
VERTEX
  5
27A
330
277
100
AcDbEntity
  8
0
100
AcDbVertex
100
AcDb2dVertex
 10
186.6211232622999
 20
90.24873623719999
 30
0.0
  0
VERTEX
  5
27B
330
277
100
AcDbEntity
  8
0
100
AcDbVertex
100
AcDb2dVertex
 10
186.5890514549
 20
90.20180336139999
 30
0.0
  0
VERTEX
  5
27C
330
277
100
AcDbEntity
  8
0
100
AcDbVertex
100
AcDb2dVertex
 10
186.5644418913999
 20
90.15056122329999
 30
0.0
  0
VERTEX
  5
27D
330
277
100
AcDbEntity
  8
0
100
AcDbVertex
100
AcDb2dVertex
 10
186.5489716731
 20
90.0985018901
 30
0.0
  0
VERTEX
  5
27E
330
277
100
AcDbEntity
  8
0
100
AcDbVertex
100
AcDb2dVertex
 10
186.5436950698
 20
90.04917311920001
 30
0.0
  0
VERTEX
  5
27F
330
277
100
AcDbEntity
  8
0
100
AcDbVertex
100
AcDb2dVertex
 10
186.5489716731
 20
90.0059365849
 30
0.0
  0
VERTEX
  5
280
330
277
100
AcDbEntity
  8
0
100
AcDbVertex
100
AcDb2dVertex
 10
186.5644418913999
 20
89.97173878549999
 30
0.0
  0
VERTEX
  5
281
330
277
100
AcDbEntity
  8
0
100
AcDbVertex
100
AcDb2dVertex
 10
186.5890514549
 20
89.94891024459999
 30
0.0
  0
VERTEX
  5
282
330
277
100
AcDbEntity
  8
0
100
AcDbVertex
100
AcDb2dVertex
 10
186.6211232622999
 20
89.9390066894
 30
0.0
  0
VERTEX
  5
283
330
277
100
AcDbEntity
  8
0
100
AcDbVertex
100
AcDb2dVertex
 10
186.6584716731
 20
89.942703031
 30
0.0
  0
VERTEX
  5
284
330
277
100
AcDbEntity
  8
0
100
AcDbVertex
100
AcDb2dVertex
 10
186.6985514549
 20
89.9597473697
 30
0.0
  0
VERTEX
  5
285
330
277
100
AcDbEntity
  8
0
100
AcDbVertex
100
AcDb2dVertex
 10
186.7386312365999
 20
89.9889781619
 30
0.0
  0
VERTEX
  5
286
330
277
100
AcDbEntity
  8
0
100
AcDbVertex
100
AcDb2dVertex
 10
186.7759796474
 20
90.02840337770001
 30
0.0
  0
VERTEX
  5
287
330
277
100
AcDbEntity
  8
0
100
AcDbVertex
100
AcDb2dVertex
 10
186.8080514548999
 20
90.07533625349999
 30
0.0
  0
VERTEX
  5
288
330
277
100
AcDbEntity
  8
0
100
AcDbVertex
100
AcDb2dVertex
 10
186.8326610183
 20
90.12657839159999
 30
0.0
  0
VERTEX
  5
289
330
277
100
AcDbEntity
  8
0
100
AcDbVertex
100
AcDb2dVertex
 10
186.8481312366
 20
90.1786377248
 30
0.0
  0
VERTEX
  5
28A
330
277
100
AcDbEntity
  8
0
100
AcDbVertex
100
AcDb2dVertex
 10
186.8534078399
 20
90.2279664957
 30
0.0
  0
VERTEX
  5
28B
330
277
100
AcDbEntity
  8
0
100
AcDbVertex
100
AcDb2dVertex
 10
186.8481312366
 20
90.27120303
 30
0.0
  0
VERTEX
  5
28C
330
277
100
AcDbEntity
  8
0
100
AcDbVertex
100
AcDb2dVertex
 10
186.8326610183
 20
90.30540082939999
 30
0.0
  0
VERTEX
  5
28D
330
277
100
AcDbEntity
  8
0
100
AcDbVertex
100
AcDb2dVertex
 10
186.8080514548999
 20
90.32822937030001
 30
0.0
  0
VERTEX
  5
28E
330
277
100
AcDbEntity
  8
0
100
AcDbVertex
100
AcDb2dVertex
 10
186.7759796474
 20
90.33813292549998
 30
0.0
  0
VERTEX
  5
28F
330
277
100
AcDbEntity
  8
0
100
AcDbVertex
100
AcDb2dVertex
 10
186.7386312365999
 20
90.3344365839
 30
0.0
  0
VERTEX
  5
290
330
277
100
AcDbEntity
  8
0
100
AcDbVertex
100
AcDb2dVertex
 10
186.6985514549
 20
90.31739224530001
 30
0.0
  0
SEQEND
  5
291
330
277
100
AcDbEntity
  8
0
  0
LINE
  5
292
330
A
100
AcDbEntity
  8
0
  6
Continuous
 62
     7
370
    15
100
AcDbLine
 10
182.1907457248
 20
89.4497825812
 30
0.0
 11
182.2353006929
 21
89.4755036167
 31
0.0
  0
LINE
  5
293
330
A
100
AcDbEntity
  8
0
  6
Continuous
 62
     7
370
    15
100
AcDbLine
 10
188.0682100491999
 20
92.5880595431
 30
0.0
 11
188.1127650172
 21
92.5623385075
 31
0.0
  0
LINE
  5
294
330
A
100
AcDbEntity
  8
0
  6
Continuous
 62
     7
370
    15
100
AcDbLine
 10
182.1907457248
 20
89.4497825812
 30
0.0
 11
182.4559107677
 21
89.29670606020001
 31
0.0
  0
LINE
  5
295
330
A
100
AcDbEntity
  8
0
  6
Continuous
 62
     7
370
    15
100
AcDbLine
 10
182.1907457248
 20
84.57625874539999
 30
0.0
 11
182.1907457248
 21
89.4497825812
 31
0.0
  0
LINE
  5
296
330
A
100
AcDbEntity
  8
0
  6
Continuous
 62
     7
370
    15
100
AcDbLine
 10
182.1907457248
 20
84.57625874539999
 30
0.0
 11
182.4559107677
 21
84.42318222439999
 31
0.0
  0
POLYLINE
  5
297
330
A
100
AcDbEntity
  8
0
  6
Continuous
 62
     7
100
AcDb2dPolyline
 66
     1
 10
0.0
 20
0.0
 30
0.0
 70
   128
 40
0.0708661417
 41
0.0708661417
  0
VERTEX
  5
298
330
297
100
AcDbEntity
  8
0
100
AcDbVertex
100
AcDb2dVertex
 10
185.5493157582
 20
82.0229851917
 30
0.0
  0
VERTEX
  5
299
330
297
100
AcDbEntity
  8
0
100
AcDbVertex
100
AcDb2dVertex
 10
185.6523467291999
 20
82.0844781733
 30
0.0
  0
VERTEX
  5
29A
330
297
100
AcDbEntity
  8
0
100
AcDbVertex
100
AcDb2dVertex
 10
185.8521056106999
 20
82.21579210500001
 30
0.0
  0
VERTEX
  5
29B
330
297
100
AcDbEntity
  8
0
100
AcDbVertex
100
AcDb2dVertex
 10
186.0446162272999
 20
82.35886061509999
 30
0.0
  0
VERTEX
  5
29C
330
297
100
AcDbEntity
  8
0
100
AcDbVertex
100
AcDb2dVertex
 10
186.2296635691999
 20
82.51352391430001
 30
0.0
  0
VERTEX
  5
29D
330
297
100
AcDbEntity
  8
0
100
AcDbVertex
100
AcDb2dVertex
 10
186.407040962
 20
82.6796092634
 30
0.0
  0
VERTEX
  5
29E
330
297
100
AcDbEntity
  8
0
100
AcDbVertex
100
AcDb2dVertex
 10
186.5765502979
 20
82.8569311662
 30
0.0
  0
VERTEX
  5
29F
330
297
100
AcDbEntity
  8
0
100
AcDbVertex
100
AcDb2dVertex
 10
186.7380022565
 20
83.04529157679999
 30
0.0
  0
VERTEX
  5
2A0
330
297
100
AcDbEntity
  8
0
100
AcDbVertex
100
AcDb2dVertex
 10
186.8912165165999
 20
83.24448012060001
 30
0.0
  0
VERTEX
  5
2A1
330
297
100
AcDbEntity
  8
0
100
AcDbVertex
100
AcDb2dVertex
 10
187.0360219574
 20
83.45427432939999
 30
0.0
  0
VERTEX
  5
2A2
330
297
100
AcDbEntity
  8
0
100
AcDbVertex
100
AcDb2dVertex
 10
187.1722568495999
 20
83.6744398897
 30
0.0
  0
VERTEX
  5
2A3
330
297
100
AcDbEntity
  8
0
100
AcDbVertex
100
AcDb2dVertex
 10
187.2997690362
 20
83.90473090479998
 30
0.0
  0
VERTEX
  5
2A4
330
297
100
AcDbEntity
  8
0
100
AcDbVertex
100
AcDb2dVertex
 10
187.4184161024
 20
84.14489016899999
 30
0.0
  0
VERTEX
  5
2A5
330
297
100
AcDbEntity
  8
0
100
AcDbVertex
100
AcDb2dVertex
 10
187.5280655345
 20
84.39464945479999
 30
0.0
  0
VERTEX
  5
2A6
330
297
100
AcDbEntity
  8
0
100
AcDbVertex
100
AcDb2dVertex
 10
187.6285948681
 20
84.6537298131
 30
0.0
  0
VERTEX
  5
2A7
330
297
100
AcDbEntity
  8
0
100
AcDbVertex
100
AcDb2dVertex
 10
187.7198918248
 20
84.9218418841
 30
0.0
  0
VERTEX
  5
2A8
330
297
100
AcDbEntity
  8
0
100
AcDbVertex
100
AcDb2dVertex
 10
187.8018544374
 20
85.1986862208
 30
0.0
  0
VERTEX
  5
2A9
330
297
100
AcDbEntity
  8
0
100
AcDbVertex
100
AcDb2dVertex
 10
187.8743911641999
 20
85.48395362329999
 30
0.0
  0
VERTEX
  5
2AA
330
297
100
AcDbEntity
  8
0
100
AcDbVertex
100
AcDb2dVertex
 10
187.9374209909
 20
85.7773254844
 30
0.0
  0
VERTEX
  5
2AB
330
297
100
AcDbEntity
  8
0
100
AcDbVertex
100
AcDb2dVertex
 10
187.9908735212
 20
86.078474145
 30
0.0
  0
VERTEX
  5
2AC
330
297
100
AcDbEntity
  8
0
100
AcDbVertex
100
AcDb2dVertex
 10
188.0346890554
 20
86.38706326049998
 30
0.0
  0
VERTEX
  5
2AD
330
297
100
AcDbEntity
  8
0
100
AcDbVertex
100
AcDb2dVertex
 10
188.0688186573
 20
86.70274817620001
 30
0.0
  0
VERTEX
  5
2AE
330
297
100
AcDbEntity
  8
0
100
AcDbVertex
100
AcDb2dVertex
 10
188.0932242083
 20
87.02517631219999
 30
0.0
  0
VERTEX
  5
2AF
330
297
100
AcDbEntity
  8
0
100
AcDbVertex
100
AcDb2dVertex
 10
188.1078784506
 20
87.35398755750001
 30
0.0
  0
VERTEX
  5
2B0
330
297
100
AcDbEntity
  8
0
100
AcDbVertex
100
AcDb2dVertex
 10
188.1127650172
 20
87.6888146717
 30
0.0
  0
SEQEND
  5
2B1
330
297
100
AcDbEntity
  8
0
  0
POLYLINE
  5
2B2
330
A
100
AcDbEntity
  8
0
  6
Continuous
 62
     7
100
AcDb2dPolyline
 66
     1
 10
0.0
 20
0.0
 30
0.0
 70
   128
 40
0.0708661417
 41
0.0708661417
  0
VERTEX
  5
2B3
330
2B2
100
AcDbEntity
  8
0
100
AcDbVertex
100
AcDb2dVertex
 10
182.4559107677
 20
84.42318222439999
 30
0.0
  0
VERTEX
  5
2B4
330
2B2
100
AcDbEntity
  8
0
100
AcDbVertex
100
AcDb2dVertex
 10
182.4510242011
 20
84.08835511019999
 30
0.0
  0
VERTEX
  5
2B5
330
2B2
100
AcDbEntity
  8
0
100
AcDbVertex
100
AcDb2dVertex
 10
182.4363699588
 20
83.75954386489999
 30
0.0
  0
VERTEX
  5
2B6
330
2B2
100
AcDbEntity
  8
0
100
AcDbVertex
100
AcDb2dVertex
 10
182.4119644077999
 20
83.43711572889999
 30
0.0
  0
VERTEX
  5
2B7
330
2B2
100
AcDbEntity
  8
0
100
AcDbVertex
100
AcDb2dVertex
 10
182.3778348059
 20
83.1214308132
 30
0.0
  0
VERTEX
  5
2B8
330
2B2
100
AcDbEntity
  8
0
100
AcDbVertex
100
AcDb2dVertex
 10
182.3340192716999
 20
82.81284169770001
 30
0.0
  0
VERTEX
  5
2B9
330
2B2
100
AcDbEntity
  8
0
100
AcDbVertex
100
AcDb2dVertex
 10
182.2805667413999
 20
82.5116930371
 30
0.0
  0
VERTEX
  5
2BA
330
2B2
100
AcDbEntity
  8
0
100
AcDbVertex
100
AcDb2dVertex
 10
182.2175369147
 20
82.21832117599999
 30
0.0
  0
VERTEX
  5
2BB
330
2B2
100
AcDbEntity
  8
0
100
AcDbVertex
100
AcDb2dVertex
 10
182.1450001879
 20
81.9330537735
 30
0.0
  0
VERTEX
  5
2BC
330
2B2
100
AcDbEntity
  8
0
100
AcDbVertex
100
AcDb2dVertex
 10
182.0630375752999
 20
81.6562094368
 30
0.0
  0
VERTEX
  5
2BD
330
2B2
100
AcDbEntity
  8
0
100
AcDbVertex
100
AcDb2dVertex
 10
181.9717406186
 20
81.38809736579998
 30
0.0
  0
VERTEX
  5
2BE
330
2B2
100
AcDbEntity
  8
0
100
AcDbVertex
100
AcDb2dVertex
 10
181.8712112849999
 20
81.12901700749999
 30
0.0
  0
VERTEX
  5
2BF
330
2B2
100
AcDbEntity
  8
0
100
AcDbVertex
100
AcDb2dVertex
 10
181.7615618529
 20
80.87925772170001
 30
0.0
  0
VERTEX
  5
2C0
330
2B2
100
AcDbEntity
  8
0
100
AcDbVertex
100
AcDb2dVertex
 10
181.6429147866999
 20
80.63909845759999
 30
0.0
  0
VERTEX
  5
2C1
330
2B2
100
AcDbEntity
  8
0
100
AcDbVertex
100
AcDb2dVertex
 10
181.5154026000999
 20
80.40880744250001
 30
0.0
  0
VERTEX
  5
2C2
330
2B2
100
AcDbEntity
  8
0
100
AcDbVertex
100
AcDb2dVertex
 10
181.3791677078999
 20
80.18864188210001
 30
0.0
  0
VERTEX
  5
2C3
330
2B2
100
AcDbEntity
  8
0
100
AcDbVertex
100
AcDb2dVertex
 10
181.2343622670999
 20
79.97884767329999
 30
0.0
  0
VERTEX
  5
2C4
330
2B2
100
AcDbEntity
  8
0
100
AcDbVertex
100
AcDb2dVertex
 10
181.0811480070999
 20
79.77965912950001
 30
0.0
  0
VERTEX
  5
2C5
330
2B2
100
AcDbEntity
  8
0
100
AcDbVertex
100
AcDb2dVertex
 10
180.9196960483999
 20
79.5912987189
 30
0.0
  0
VERTEX
  5
2C6
330
2B2
100
AcDbEntity
  8
0
100
AcDbVertex
100
AcDb2dVertex
 10
180.7501867124999
 20
79.4139768161
 30
0.0
  0
VERTEX
  5
2C7
330
2B2
100
AcDbEntity
  8
0
100
AcDbVertex
100
AcDb2dVertex
 10
180.5728093197
 20
79.247891467
 30
0.0
  0
VERTEX
  5
2C8
330
2B2
100
AcDbEntity
  8
0
100
AcDbVertex
100
AcDb2dVertex
 10
180.3877619777999
 20
79.09322816779999
 30
0.0
  0
VERTEX
  5
2C9
330
2B2
100
AcDbEntity
  8
0
100
AcDbVertex
100
AcDb2dVertex
 10
180.1952513611999
 20
78.95015965769999
 30
0.0
  0
VERTEX
  5
2CA
330
2B2
100
AcDbEntity
  8
0
100
AcDbVertex
100
AcDb2dVertex
 10
179.9954924797
 20
78.818845726
 30
0.0
  0
VERTEX
  5
2CB
330
2B2
100
AcDbEntity
  8
0
100
AcDbVertex
100
AcDb2dVertex
 10
179.7887084385999
 20
78.6994330336
 30
0.0
  0
VERTEX
  5
2CC
330
2B2
100
AcDbEntity
  8
0
100
AcDbVertex
100
AcDb2dVertex
 10
179.5751301891
 20
78.59205494920001
 30
0.0
  0
VERTEX
  5
2CD
330
2B2
100
AcDbEntity
  8
0
100
AcDbVertex
100
AcDb2dVertex
 10
179.3549962710999
 20
78.4968314006
 30
0.0
  0
VERTEX
  5
2CE
330
2B2
100
AcDbEntity
  8
0
100
AcDbVertex
100
AcDb2dVertex
 10
179.1285525459999
 20
78.4138687402
 30
0.0
  0
VERTEX
  5
2CF
330
2B2
100
AcDbEntity
  8
0
100
AcDbVertex
100
AcDb2dVertex
 10
178.8960519225999
 20
78.34325962680001
 30
0.0
  0
VERTEX
  5
2D0
330
2B2
100
AcDbEntity
  8
0
100
AcDbVertex
100
AcDb2dVertex
 10
178.6577540745
 20
78.2850829218
 30
0.0
  0
VERTEX
  5
2D1
330
2B2
100
AcDbEntity
  8
0
100
AcDbVertex
100
AcDb2dVertex
 10
178.4139251499
 20
78.239403601
 30
0.0
  0
VERTEX
  5
2D2
330
2B2
100
AcDbEntity
  8
0
100
AcDbVertex
100
AcDb2dVertex
 10
178.1648374749
 20
78.2062726826
 30
0.0
  0
VERTEX
  5
2D3
330
2B2
100
AcDbEntity
  8
0
100
AcDbVertex
100
AcDb2dVertex
 10
177.9107692484
 20
78.1857271695
 30
0.0
  0
VERTEX
  5
2D4
330
2B2
100
AcDbEntity
  8
0
100
AcDbVertex
100
AcDb2dVertex
 10
177.6520042323999
 20
78.17779000849999
 30
0.0
  0
VERTEX
  5
2D5
330
2B2
100
AcDbEntity
  8
0
100
AcDbVertex
100
AcDb2dVertex
 10
177.3888314343
 20
78.1824700643
 30
0.0
  0
VERTEX
  5
2D6
330
2B2
100
AcDbEntity
  8
0
100
AcDbVertex
100
AcDb2dVertex
 10
177.1215447847
 20
78.19976210979999
 30
0.0
  0
VERTEX
  5
2D7
330
2B2
100
AcDbEntity
  8
0
100
AcDbVertex
100
AcDb2dVertex
 10
176.8504428086999
 20
78.2296468322
 30
0.0
  0
VERTEX
  5
2D8
330
2B2
100
AcDbEntity
  8
0
100
AcDbVertex
100
AcDb2dVertex
 10
176.5758282925999
 20
78.27209085399999
 30
0.0
  0
VERTEX
  5
2D9
330
2B2
100
AcDbEntity
  8
0
100
AcDbVertex
100
AcDb2dVertex
 10
176.2980079458
 20
78.3270467705
 30
0.0
  0
VERTEX
  5
2DA
330
2B2
100
AcDbEntity
  8
0
100
AcDbVertex
100
AcDb2dVertex
 10
176.0172920583
 20
78.3944532031
 30
0.0
  0
VERTEX
  5
2DB
330
2B2
100
AcDbEntity
  8
0
100
AcDbVertex
100
AcDb2dVertex
 10
175.7339941539
 20
78.4742348674
 30
0.0
  0
VERTEX
  5
2DC
330
2B2
100
AcDbEntity
  8
0
100
AcDbVertex
100
AcDb2dVertex
 10
175.4484306403
 20
78.5663026574
 30
0.0
  0
VERTEX
  5
2DD
330
2B2
100
AcDbEntity
  8
0
100
AcDbVertex
100
AcDb2dVertex
 10
175.1609204554
 20
78.67055374510001
 30
0.0
  0
VERTEX
  5
2DE
330
2B2
100
AcDbEntity
  8
0
100
AcDbVertex
100
AcDb2dVertex
 10
174.8717847116999
 20
78.7868716954
 30
0.0
  0
VERTEX
  5
2DF
330
2B2
100
AcDbEntity
  8
0
100
AcDbVertex
100
AcDb2dVertex
 10
174.5813463366999
 20
78.9151265959
 30
0.0
  0
VERTEX
  5
2E0
330
2B2
100
AcDbEntity
  8
0
100
AcDbVertex
100
AcDb2dVertex
 10
174.2899297132
 20
79.0551752022
 30
0.0
  0
VERTEX
  5
2E1
330
2B2
100
AcDbEntity
  8
0
100
AcDbVertex
100
AcDb2dVertex
 10
173.9978603163999
 20
79.2068610979
 30
0.0
  0
VERTEX
  5
2E2
330
2B2
100
AcDbEntity
  8
0
100
AcDbVertex
100
AcDb2dVertex
 10
173.7054643506
 20
79.3700148693
 30
0.0
  0
VERTEX
  5
2E3
330
2B2
100
AcDbEntity
  8
0
100
AcDbVertex
100
AcDb2dVertex
 10
173.4130683847
 20
79.54445429419999
 30
0.0
  0
VERTEX
  5
2E4
330
2B2
100
AcDbEntity
  8
0
100
AcDbVertex
100
AcDb2dVertex
 10
173.1209989879
 20
79.7299845462
 30
0.0
  0
VERTEX
  5
2E5
330
2B2
100
AcDbEntity
  8
0
100
AcDbVertex
100
AcDb2dVertex
 10
172.8295823643999
 20
79.9263984115
 30
0.0
  0
VERTEX
  5
2E6
330
2B2
100
AcDbEntity
  8
0
100
AcDbVertex
100
AcDb2dVertex
 10
172.5391439895
 20
80.133476521
 30
0.0
  0
VERTEX
  5
2E7
330
2B2
100
AcDbEntity
  8
0
100
AcDbVertex
100
AcDb2dVertex
 10
172.2500082457
 20
80.35098759479998
 30
0.0
  0
VERTEX
  5
2E8
330
2B2
100
AcDbEntity
  8
0
100
AcDbVertex
100
AcDb2dVertex
 10
171.9624980608999
 20
80.5786887007
 30
0.0
  0
VERTEX
  5
2E9
330
2B2
100
AcDbEntity
  8
0
100
AcDbVertex
100
AcDb2dVertex
 10
171.6769345472
 20
80.8163255256
 30
0.0
  0
VERTEX
  5
2EA
330
2B2
100
AcDbEntity
  8
0
100
AcDbVertex
100
AcDb2dVertex
 10
171.3936366428
 20
81.0636326594
 30
0.0
  0
VERTEX
  5
2EB
330
2B2
100
AcDbEntity
  8
0
100
AcDbVertex
100
AcDb2dVertex
 10
171.1129207553
 20
81.3203338917
 30
0.0
  0
VERTEX
  5
2EC
330
2B2
100
AcDbEntity
  8
0
100
AcDbVertex
100
AcDb2dVertex
 10
170.8351004085
 20
81.5861425199
 30
0.0
  0
VERTEX
  5
2ED
330
2B2
100
AcDbEntity
  8
0
100
AcDbVertex
100
AcDb2dVertex
 10
170.5604858924
 20
81.8607616695
 30
0.0
  0
VERTEX
  5
2EE
330
2B2
100
AcDbEntity
  8
0
100
AcDbVertex
100
AcDb2dVertex
 10
170.2893839164
 20
82.14388462609999
 30
0.0
  0
VERTEX
  5
2EF
330
2B2
100
AcDbEntity
  8
0
100
AcDbVertex
100
AcDb2dVertex
 10
170.0220972668
 20
82.43519517740001
 30
0.0
  0
VERTEX
  5
2F0
330
2B2
100
AcDbEntity
  8
0
100
AcDbVertex
100
AcDb2dVertex
 10
169.7589244687999
 20
82.73436796650001
 30
0.0
  0
VERTEX
  5
2F1
330
2B2
100
AcDbEntity
  8
0
100
AcDbVertex
100
AcDb2dVertex
 10
169.5001594527
 20
83.04106885569998
 30
0.0
  0
VERTEX
  5
2F2
330
2B2
100
AcDbEntity
  8
0
100
AcDbVertex
100
AcDb2dVertex
 10
169.2460912262999
 20
83.35495529920001
 30
0.0
  0
VERTEX
  5
2F3
330
2B2
100
AcDbEntity
  8
0
100
AcDbVertex
100
AcDb2dVertex
 10
168.9970035512
 20
83.6756767257
 30
0.0
  0
VERTEX
  5
2F4
330
2B2
100
AcDbEntity
  8
0
100
AcDbVertex
100
AcDb2dVertex
 10
168.7531746267
 20
84.00287493029999
 30
0.0
  0
VERTEX
  5
2F5
330
2B2
100
AcDbEntity
  8
0
100
AcDbVertex
100
AcDb2dVertex
 10
168.5148767784999
 20
84.33618447449999
 30
0.0
  0
VERTEX
  5
2F6
330
2B2
100
AcDbEntity
  8
0
100
AcDbVertex
100
AcDb2dVertex
 10
168.2823761552
 20
84.67523309369999
 30
0.0
  0
VERTEX
  5
2F7
330
2B2
100
AcDbEntity
  8
0
100
AcDbVertex
100
AcDb2dVertex
 10
168.0559324300999
 20
85.01964211409999
 30
0.0
  0
VERTEX
  5
2F8
330
2B2
100
AcDbEntity
  8
0
100
AcDbVertex
100
AcDb2dVertex
 10
167.8357985119999
 20
85.3690268745
 30
0.0
  0
VERTEX
  5
2F9
330
2B2
100
AcDbEntity
  8
0
100
AcDbVertex
100
AcDb2dVertex
 10
167.6222202626
 20
85.72299715680001
 30
0.0
  0
VERTEX
  5
2FA
330
2B2
100
AcDbEntity
  8
0
100
AcDbVertex
100
AcDb2dVertex
 10
167.4154362214
 20
86.08115762129999
 30
0.0
  0
VERTEX
  5
2FB
330
2B2
100
AcDbEntity
  8
0
100
AcDbVertex
100
AcDb2dVertex
 10
167.2156773398999
 20
86.44310824829998
 30
0.0
  0
VERTEX
  5
2FC
330
2B2
100
AcDbEntity
  8
0
100
AcDbVertex
100
AcDb2dVertex
 10
167.0231667232999
 20
86.8084447852
 30
0.0
  0
VERTEX
  5
2FD
330
2B2
100
AcDbEntity
  8
0
100
AcDbVertex
100
AcDb2dVertex
 10
166.8381193813999
 20
87.17675919760001
 30
0.0
  0
VERTEX
  5
2FE
330
2B2
100
AcDbEntity
  8
0
100
AcDbVertex
100
AcDb2dVertex
 10
166.6607419885999
 20
87.54764012530001
 30
0.0
  0
VERTEX
  5
2FF
330
2B2
100
AcDbEntity
  8
0
100
AcDbVertex
100
AcDb2dVertex
 10
166.4912326527
 20
87.92067334149999
 30
0.0
  0
VERTEX
  5
300
330
2B2
100
AcDbEntity
  8
0
100
AcDbVertex
100
AcDb2dVertex
 10
166.3297806941
 20
88.29544221569999
 30
0.0
  0
VERTEX
  5
301
330
2B2
100
AcDbEntity
  8
0
100
AcDbVertex
100
AcDb2dVertex
 10
166.176566434
 20
88.6715281789
 30
0.0
  0
VERTEX
  5
302
330
2B2
100
AcDbEntity
  8
0
100
AcDbVertex
100
AcDb2dVertex
 10
166.0317609932
 20
89.04851119079999
 30
0.0
  0
VERTEX
  5
303
330
2B2
100
AcDbEntity
  8
0
100
AcDbVertex
100
AcDb2dVertex
 10
165.895526101
 20
89.42597020959999
 30
0.0
  0
VERTEX
  5
304
330
2B2
100
AcDbEntity
  8
0
100
AcDbVertex
100
AcDb2dVertex
 10
165.7680139144
 20
89.8034836617
 30
0.0
  0
VERTEX
  5
305
330
2B2
100
AcDbEntity
  8
0
100
AcDbVertex
100
AcDb2dVertex
 10
165.6493668481999
 20
90.1806299126
 30
0.0
  0
VERTEX
  5
306
330
2B2
100
AcDbEntity
  8
0
100
AcDbVertex
100
AcDb2dVertex
 10
165.5397174161
 20
90.55698773809998
 30
0.0
  0
VERTEX
  5
307
330
2B2
100
AcDbEntity
  8
0
100
AcDbVertex
100
AcDb2dVertex
 10
165.4391880825
 20
90.9321367943
 30
0.0
  0
VERTEX
  5
308
330
2B2
100
AcDbEntity
  8
0
100
AcDbVertex
100
AcDb2dVertex
 10
165.3478911258
 20
91.30565808780001
 30
0.0
  0
VERTEX
  5
309
330
2B2
100
AcDbEntity
  8
0
100
AcDbVertex
100
AcDb2dVertex
 10
165.2659285132
 20
91.67713444270001
 30
0.0
  0
VERTEX
  5
30A
330
2B2
100
AcDbEntity
  8
0
100
AcDbVertex
100
AcDb2dVertex
 10
165.1933917863999
 20
92.0461509673
 30
0.0
  0
VERTEX
  5
30B
330
2B2
100
AcDbEntity
  8
0
100
AcDbVertex
100
AcDb2dVertex
 10
165.1303619596999
 20
92.41229551729999
 30
0.0
  0
VERTEX
  5
30C
330
2B2
100
AcDbEntity
  8
0
100
AcDbVertex
100
AcDb2dVertex
 10
165.0769094294
 20
92.77515915569999
 30
0.0
  0
VERTEX
  5
30D
330
2B2
100
AcDbEntity
  8
0
100
AcDbVertex
100
AcDb2dVertex
 10
165.0330938952
 20
93.13433661030002
 30
0.0
  0
VERTEX
  5
30E
330
2B2
100
AcDbEntity
  8
0
100
AcDbVertex
100
AcDb2dVertex
 10
164.9989642932999
 20
93.4894267255
 30
0.0
  0
VERTEX
  5
30F
330
2B2
100
AcDbEntity
  8
0
100
AcDbVertex
100
AcDb2dVertex
 10
164.9745587423
 20
93.840032911
 30
0.0
  0
VERTEX
  5
310
330
2B2
100
AcDbEntity
  8
0
100
AcDbVertex
100
AcDb2dVertex
 10
164.9599044999999
 20
94.18576358420001
 30
0.0
  0
VERTEX
  5
311
330
2B2
100
AcDbEntity
  8
0
100
AcDbVertex
100
AcDb2dVertex
 10
164.9550179333999
 20
94.5262326083
 30
0.0
  0
SEQEND
  5
312
330
2B2
100
AcDbEntity
  8
0
  0
LINE
  5
313
330
A
100
AcDbEntity
  8
0
  6
Continuous
 62
     7
370
    15
100
AcDbLine
 10
165.2201829762999
 20
94.37315608729999
 30
0.0
 11
164.9550179333999
 21
94.5262326083
 31
0.0
  0
POLYLINE
  5
314
330
A
100
AcDbEntity
  8
0
  6
Continuous
 62
     7
100
AcDb2dPolyline
 66
     1
 10
0.0
 20
0.0
 30
0.0
 70
   128
 40
0.0708661417
 41
0.0708661417
  0
VERTEX
  5
315
330
314
100
AcDbEntity
  8
0
100
AcDbVertex
100
AcDb2dVertex
 10
182.1907457248
 20
84.57625874539999
 30
0.0
  0
VERTEX
  5
316
330
314
100
AcDbEntity
  8
0
100
AcDbVertex
100
AcDb2dVertex
 10
182.1857989955
 20
84.24458311349999
 30
0.0
  0
VERTEX
  5
317
330
314
100
AcDbEntity
  8
0
100
AcDbVertex
100
AcDb2dVertex
 10
182.1709645754
 20
83.9190055725
 30
0.0
  0
VERTEX
  5
318
330
314
100
AcDbEntity
  8
0
100
AcDbVertex
100
AcDb2dVertex
 10
182.1462597606999
 20
83.59990573140001
 30
0.0
  0
VERTEX
  5
319
330
314
100
AcDbEntity
  8
0
100
AcDbVertex
100
AcDb2dVertex
 10
182.1117133561999
 20
83.28765564619999
 30
0.0
  0
VERTEX
  5
31A
330
314
100
AcDbEntity
  8
0
100
AcDbVertex
100
AcDb2dVertex
 10
182.0673656412999
 20
82.9826193867
 30
0.0
  0
VERTEX
  5
31B
330
314
100
AcDbEntity
  8
0
100
AcDbVertex
100
AcDb2dVertex
 10
182.0132683236
 20
82.6851526113
 30
0.0
  0
VERTEX
  5
31C
330
314
100
AcDbEntity
  8
0
100
AcDbVertex
100
AcDb2dVertex
 10
181.9494844780999
 20
82.3956021532
 30
0.0
  0
VERTEX
  5
31D
330
314
100
AcDbEntity
  8
0
100
AcDbVertex
100
AcDb2dVertex
 10
181.8760884738
 20
82.11430561510001
 30
0.0
  0
VERTEX
  5
31E
330
314
100
AcDbEntity
  8
0
100
AcDbVertex
100
AcDb2dVertex
 10
181.7931658874
 20
81.84159097629999
 30
0.0
  0
VERTEX
  5
31F
330
314
100
AcDbEntity
  8
0
100
AcDbVertex
100
AcDb2dVertex
 10
181.7008134026999
 20
81.57777620979999
 30
0.0
  0
VERTEX
  5
320
330
314
100
AcDbEntity
  8
0
100
AcDbVertex
100
AcDb2dVertex
 10
181.5991386986999
 20
81.32316891189999
 30
0.0
  0
VERTEX
  5
321
330
314
100
AcDbEntity
  8
0
100
AcDbVertex
100
AcDb2dVertex
 10
181.4882603234999
 20
81.07806594320001
 30
0.0
  0
VERTEX
  5
322
330
314
100
AcDbEntity
  8
0
100
AcDbVertex
100
AcDb2dVertex
 10
181.3683075563
 20
80.84275308290001
 30
0.0
  0
VERTEX
  5
323
330
314
100
AcDbEntity
  8
0
100
AcDbVertex
100
AcDb2dVertex
 10
181.2394202566999
 20
80.61750469520001
 30
0.0
  0
VERTEX
  5
324
330
314
100
AcDbEntity
  8
0
100
AcDbVertex
100
AcDb2dVertex
 10
181.1017487016
 20
80.40258340959999
 30
0.0
  0
VERTEX
  5
325
330
314
100
AcDbEntity
  8
0
100
AcDbVertex
100
AcDb2dVertex
 10
180.9554534097
 20
80.19823981489999
 30
0.0
  0
VERTEX
  5
326
330
314
100
AcDbEntity
  8
0
100
AcDbVertex
100
AcDb2dVertex
 10
180.8007049549999
 20
80.00471216639999
 30
0.0
  0
VERTEX
  5
327
330
314
100
AcDbEntity
  8
0
100
AcDbVertex
100
AcDb2dVertex
 10
180.637683767
 20
79.8222261087
 30
0.0
  0
VERTEX
  5
328
330
314
100
AcDbEntity
  8
0
100
AcDbVertex
100
AcDb2dVertex
 10
180.4665799213999
 20
79.6509944125
 30
0.0
  0
VERTEX
  5
329
330
314
100
AcDbEntity
  8
0
100
AcDbVertex
100
AcDb2dVertex
 10
180.2875929174
 20
79.49121672619999
 30
0.0
  0
VERTEX
  5
32A
330
314
100
AcDbEntity
  8
0
100
AcDbVertex
100
AcDb2dVertex
 10
180.1009314458999
 20
79.34307934340001
 30
0.0
  0
VERTEX
  5
32B
330
314
100
AcDbEntity
  8
0
100
AcDbVertex
100
AcDb2dVertex
 10
179.9068131459
 20
79.2067549858
 30
0.0
  0
VERTEX
  5
32C
330
314
100
AcDbEntity
  8
0
100
AcDbVertex
100
AcDb2dVertex
 10
179.7054643506
 20
79.08240260140001
 30
0.0
  0
VERTEX
  5
32D
330
314
100
AcDbEntity
  8
0
100
AcDbVertex
100
AcDb2dVertex
 10
179.4971198236
 20
78.97016717959999
 30
0.0
  0
VERTEX
  5
32E
330
314
100
AcDbEntity
  8
0
100
AcDbVertex
100
AcDb2dVertex
 10
179.2820224855
 20
78.8701795818
 30
0.0
  0
VERTEX
  5
32F
330
314
100
AcDbEntity
  8
0
100
AcDbVertex
100
AcDb2dVertex
 10
179.0604231300999
 20
78.78255638899999
 30
0.0
  0
VERTEX
  5
330
330
314
100
AcDbEntity
  8
0
100
AcDbVertex
100
AcDb2dVertex
 10
178.8325801322
 20
78.7073997661
 30
0.0
  0
VERTEX
  5
331
330
314
100
AcDbEntity
  8
0
100
AcDbVertex
100
AcDb2dVertex
 10
178.5987591467
 20
78.64479734220001
 30
0.0
  0
VERTEX
  5
332
330
314
100
AcDbEntity
  8
0
100
AcDbVertex
100
AcDb2dVertex
 10
178.3592327983
 20
78.59482210909999
 30
0.0
  0
VERTEX
  5
333
330
314
100
AcDbEntity
  8
0
100
AcDbVertex
100
AcDb2dVertex
 10
178.1142803641
 20
78.5575323355
 30
0.0
  0
VERTEX
  5
334
330
314
100
AcDbEntity
  8
0
100
AcDbVertex
100
AcDb2dVertex
 10
177.8641874477
 20
78.5329714997
 30
0.0
  0
VERTEX
  5
335
330
314
100
AcDbEntity
  8
0
100
AcDbVertex
100
AcDb2dVertex
 10
177.6092456461999
 20
78.5211682386
 30
0.0
  0
VERTEX
  5
336
330
314
100
AcDbEntity
  8
0
100
AcDbVertex
100
AcDb2dVertex
 10
177.3497522101999
 20
78.52213631409999
 30
0.0
  0
VERTEX
  5
337
330
314
100
AcDbEntity
  8
0
100
AcDbVertex
100
AcDb2dVertex
 10
177.0860096977
 20
78.5358745977
 30
0.0
  0
VERTEX
  5
338
330
314
100
AcDbEntity
  8
0
100
AcDbVertex
100
AcDb2dVertex
 10
176.8183256204999
 20
78.56236707089999
 30
0.0
  0
VERTEX
  5
339
330
314
100
AcDbEntity
  8
0
100
AcDbVertex
100
AcDb2dVertex
 10
176.5470120863
 20
78.60158284489999
 30
0.0
  0
VERTEX
  5
33A
330
314
100
AcDbEntity
  8
0
100
AcDbVertex
100
AcDb2dVertex
 10
176.2723854345999
 20
78.65347619579999
 30
0.0
  0
VERTEX
  5
33B
330
314
100
AcDbEntity
  8
0
100
AcDbVertex
100
AcDb2dVertex
 10
175.9947658677
 20
78.7179866182
 30
0.0
  0
VERTEX
  5
33C
330
314
100
AcDbEntity
  8
0
100
AcDbVertex
100
AcDb2dVertex
 10
175.7144770775999
 20
78.7950388958
 30
0.0
  0
VERTEX
  5
33D
330
314
100
AcDbEntity
  8
0
100
AcDbVertex
100
AcDb2dVertex
 10
175.4318458685999
 20
78.8845431893
 30
0.0
  0
VERTEX
  5
33E
330
314
100
AcDbEntity
  8
0
100
AcDbVertex
100
AcDb2dVertex
 10
175.1472017759
 20
78.9863951405
 30
0.0
  0
VERTEX
  5
33F
330
314
100
AcDbEntity
  8
0
100
AcDbVertex
100
AcDb2dVertex
 10
174.8608766818999
 20
79.10047599470001
 30
0.0
  0
VERTEX
  5
340
330
314
100
AcDbEntity
  8
0
100
AcDbVertex
100
AcDb2dVertex
 10
174.5732044288
 20
79.22665273859999
 30
0.0
  0
VERTEX
  5
341
330
314
100
AcDbEntity
  8
0
100
AcDbVertex
100
AcDb2dVertex
 10
174.2845204295999
 20
79.3647782558
 30
0.0
  0
VERTEX
  5
342
330
314
100
AcDbEntity
  8
0
100
AcDbVertex
100
AcDb2dVertex
 10
173.9951612768999
 20
79.5146914983
 30
0.0
  0
VERTEX
  5
343
330
314
100
AcDbEntity
  8
0
100
AcDbVertex
100
AcDb2dVertex
 10
173.7054643506
 20
79.67621767369999
 30
0.0
  0
VERTEX
  5
344
330
314
100
AcDbEntity
  8
0
100
AcDbVertex
100
AcDb2dVertex
 10
173.4157674241999
 20
79.84916844989999
 30
0.0
  0
VERTEX
  5
345
330
314
100
AcDbEntity
  8
0
100
AcDbVertex
100
AcDb2dVertex
 10
173.1264082715
 20
80.03334217390001
 30
0.0
  0
VERTEX
  5
346
330
314
100
AcDbEntity
  8
0
100
AcDbVertex
100
AcDb2dVertex
 10
172.8377242722999
 20
80.22852410749999
 30
0.0
  0
VERTEX
  5
347
330
314
100
AcDbEntity
  8
0
100
AcDbVertex
100
AcDb2dVertex
 10
172.5500520191999
 20
80.43448667719999
 30
0.0
  0
VERTEX
  5
348
330
314
100
AcDbEntity
  8
0
100
AcDbVertex
100
AcDb2dVertex
 10
172.2637269252
 20
80.6509897399
 30
0.0
  0
VERTEX
  5
349
330
314
100
AcDbEntity
  8
0
100
AcDbVertex
100
AcDb2dVertex
 10
171.9790828325
 20
80.8777808628
 30
0.0
  0
VERTEX
  5
34A
330
314
100
AcDbEntity
  8
0
100
AcDbVertex
100
AcDb2dVertex
 10
171.6964516235
 20
81.1145956174
 30
0.0
  0
VERTEX
  5
34B
330
314
100
AcDbEntity
  8
0
100
AcDbVertex
100
AcDb2dVertex
 10
171.4161628333999
 20
81.36115788839999
 30
0.0
  0
VERTEX
  5
34C
330
314
100
AcDbEntity
  8
0
100
AcDbVertex
100
AcDb2dVertex
 10
171.1385432664999
 20
81.6171801952
 30
0.0
  0
VERTEX
  5
34D
330
314
100
AcDbEntity
  8
0
100
AcDbVertex
100
AcDb2dVertex
 10
170.8639166148
 20
81.88236402719999
 30
0.0
  0
VERTEX
  5
34E
330
314
100
AcDbEntity
  8
0
100
AcDbVertex
100
AcDb2dVertex
 10
170.5926030805999
 20
82.15640019209999
 30
0.0
  0
VERTEX
  5
34F
330
314
100
AcDbEntity
  8
0
100
AcDbVertex
100
AcDb2dVertex
 10
170.3249190034
 20
82.4389691758
 30
0.0
  0
VERTEX
  5
350
330
314
100
AcDbEntity
  8
0
100
AcDbVertex
100
AcDb2dVertex
 10
170.0611764909
 20
82.7297415155
 30
0.0
  0
VERTEX
  5
351
330
314
100
AcDbEntity
  8
0
100
AcDbVertex
100
AcDb2dVertex
 10
169.801683055
 20
83.0283781838
 30
0.0
  0
VERTEX
  5
352
330
314
100
AcDbEntity
  8
0
100
AcDbVertex
100
AcDb2dVertex
 10
169.5467412534
 20
83.33453098359999
 30
0.0
  0
VERTEX
  5
353
330
314
100
AcDbEntity
  8
0
100
AcDbVertex
100
AcDb2dVertex
 10
169.296648337
 20
83.64784295449998
 30
0.0
  0
VERTEX
  5
354
330
314
100
AcDbEntity
  8
0
100
AcDbVertex
100
AcDb2dVertex
 10
169.0516959028
 20
83.9679487887
 30
0.0
  0
VERTEX
  5
355
330
314
100
AcDbEntity
  8
0
100
AcDbVertex
100
AcDb2dVertex
 10
168.8121695544
 20
84.29447525710001
 30
0.0
  0
VERTEX
  5
356
330
314
100
AcDbEntity
  8
0
100
AcDbVertex
100
AcDb2dVertex
 10
168.5783485688999
 20
84.62704164439999
 30
0.0
  0
VERTEX
  5
357
330
314
100
AcDbEntity
  8
0
100
AcDbVertex
100
AcDb2dVertex
 10
168.3505055711
 20
84.9652601933
 30
0.0
  0
VERTEX
  5
358
330
314
100
AcDbEntity
  8
0
100
AcDbVertex
100
AcDb2dVertex
 10
168.1289062155999
 20
85.3087365558
 30
0.0
  0
VERTEX
  5
359
330
314
100
AcDbEntity
  8
0
100
AcDbVertex
100
AcDb2dVertex
 10
167.9138088774999
 20
85.65707025409999
 30
0.0
  0
VERTEX
  5
35A
330
314
100
AcDbEntity
  8
0
100
AcDbVertex
100
AcDb2dVertex
 10
167.7054643505999
 20
86.0098551465
 30
0.0
  0
VERTEX
  5
35B
330
314
100
AcDbEntity
  8
0
100
AcDbVertex
100
AcDb2dVertex
 10
167.5041155551999
 20
86.36667990159999
 30
0.0
  0
VERTEX
  5
35C
330
314
100
AcDbEntity
  8
0
100
AcDbVertex
100
AcDb2dVertex
 10
167.3099972552
 20
86.72712847780001
 30
0.0
  0
VERTEX
  5
35D
330
314
100
AcDbEntity
  8
0
100
AcDbVertex
100
AcDb2dVertex
 10
167.1233357838
 20
87.09078060819999
 30
0.0
  0
VERTEX
  5
35E
330
314
100
AcDbEntity
  8
0
100
AcDbVertex
100
AcDb2dVertex
 10
166.9443487798
 20
87.45721229049999
 30
0.0
  0
VERTEX
  5
35F
330
314
100
AcDbEntity
  8
0
100
AcDbVertex
100
AcDb2dVertex
 10
166.7732449341
 20
87.8259962819
 30
0.0
  0
VERTEX
  5
360
330
314
100
AcDbEntity
  8
0
100
AcDbVertex
100
AcDb2dVertex
 10
166.6102237461999
 20
88.1967025968
 30
0.0
  0
VERTEX
  5
361
330
314
100
AcDbEntity
  8
0
100
AcDbVertex
100
AcDb2dVertex
 10
166.4554752914
 20
88.56889900809999
 30
0.0
  0
VERTEX
  5
362
330
314
100
AcDbEntity
  8
0
100
AcDbVertex
100
AcDb2dVertex
 10
166.3091799995
 20
88.94215155149998
 30
0.0
  0
VERTEX
  5
363
330
314
100
AcDbEntity
  8
0
100
AcDbVertex
100
AcDb2dVertex
 10
166.1715084444
 20
89.31602503120002
 30
0.0
  0
VERTEX
  5
364
330
314
100
AcDbEntity
  8
0
100
AcDbVertex
100
AcDb2dVertex
 10
166.0426211447999
 20
89.6900835275
 30
0.0
  0
VERTEX
  5
365
330
314
100
AcDbEntity
  8
0
100
AcDbVertex
100
AcDb2dVertex
 10
165.9226683776999
 20
90.06389090489999
 30
0.0
  0
VERTEX
  5
366
330
314
100
AcDbEntity
  8
0
100
AcDbVertex
100
AcDb2dVertex
 10
165.8117900025
 20
90.43701132059998
 30
0.0
  0
VERTEX
  5
367
330
314
100
AcDbEntity
  8
0
100
AcDbVertex
100
AcDb2dVertex
 10
165.7101152984
 20
90.80900973309999
 30
0.0
  0
VERTEX
  5
368
330
314
100
AcDbEntity
  8
0
100
AcDbVertex
100
AcDb2dVertex
 10
165.6177628138
 20
91.17945240879999
 30
0.0
  0
VERTEX
  5
369
330
314
100
AcDbEntity
  8
0
100
AcDbVertex
100
AcDb2dVertex
 10
165.5348402273
 20
91.54790742799999
 30
0.0
  0
VERTEX
  5
36A
330
314
100
AcDbEntity
  8
0
100
AcDbVertex
100
AcDb2dVertex
 10
165.4614442230999
 20
91.91394518879999
 30
0.0
  0
VERTEX
  5
36B
330
314
100
AcDbEntity
  8
0
100
AcDbVertex
100
AcDb2dVertex
 10
165.3976603774999
 20
92.2771389074
 30
0.0
  0
VERTEX
  5
36C
330
314
100
AcDbEntity
  8
0
100
AcDbVertex
100
AcDb2dVertex
 10
165.3435630598
 20
92.63706511629999
 30
0.0
  0
VERTEX
  5
36D
330
314
100
AcDbEntity
  8
0
100
AcDbVertex
100
AcDb2dVertex
 10
165.2992153449
 20
92.99330415760001
 30
0.0
  0
VERTEX
  5
36E
330
314
100
AcDbEntity
  8
0
100
AcDbVertex
100
AcDb2dVertex
 10
165.2646689404
 20
93.34544067240001
 30
0.0
  0
VERTEX
  5
36F
330
314
100
AcDbEntity
  8
0
100
AcDbVertex
100
AcDb2dVertex
 10
165.2399641257
 20
93.6930640855
 30
0.0
  0
VERTEX
  5
370
330
314
100
AcDbEntity
  8
0
100
AcDbVertex
100
AcDb2dVertex
 10
165.2251297055999
 20
94.0357690833
 30
0.0
  0
VERTEX
  5
371
330
314
100
AcDbEntity
  8
0
100
AcDbVertex
100
AcDb2dVertex
 10
165.2201829762999
 20
94.37315608729999
 30
0.0
  0
SEQEND
  5
372
330
314
100
AcDbEntity
  8
0
  0
LINE
  5
373
330
A
100
AcDbEntity
  8
0
  6
Continuous
 62
     7
370
    15
100
AcDbLine
 10
165.2201829762999
 20
94.37315608729999
 30
0.0
 11
170.8770372257999
 21
97.63878853459999
 31
0.0
  0
POLYLINE
  5
374
330
A
100
AcDbEntity
  8
0
  6
Continuous
 62
     7
100
AcDb2dPolyline
 66
     1
 10
0.0
 20
0.0
 30
0.0
 70
   128
 40
0.0708661417
 41
0.0708661417
  0
VERTEX
  5
375
330
374
100
AcDbEntity
  8
0
100
AcDbVertex
100
AcDb2dVertex
 10
170.8770372257999
 20
97.63878853459999
 30
0.0
  0
VERTEX
  5
376
330
374
100
AcDbEntity
  8
0
100
AcDbVertex
100
AcDb2dVertex
 10
170.8819839550999
 20
97.30140153059998
 30
0.0
  0
VERTEX
  5
377
330
374
100
AcDbEntity
  8
0
100
AcDbVertex
100
AcDb2dVertex
 10
170.8968183752
 20
96.95869653270001
 30
0.0
  0
VERTEX
  5
378
330
374
100
AcDbEntity
  8
0
100
AcDbVertex
100
AcDb2dVertex
 10
170.9215231898999
 20
96.61107311969999
 30
0.0
  0
VERTEX
  5
379
330
374
100
AcDbEntity
  8
0
100
AcDbVertex
100
AcDb2dVertex
 10
170.9560695943999
 20
96.2589366049
 30
0.0
  0
VERTEX
  5
37A
330
374
100
AcDbEntity
  8
0
100
AcDbVertex
100
AcDb2dVertex
 10
171.0004173093
 20
95.90269756359999
 30
0.0
  0
VERTEX
  5
37B
330
374
100
AcDbEntity
  8
0
100
AcDbVertex
100
AcDb2dVertex
 10
171.054514627
 20
95.5427713547
 30
0.0
  0
VERTEX
  5
37C
330
374
100
AcDbEntity
  8
0
100
AcDbVertex
100
AcDb2dVertex
 10
171.1182984726
 20
95.17957763610001
 30
0.0
  0
VERTEX
  5
37D
330
374
100
AcDbEntity
  8
0
100
AcDbVertex
100
AcDb2dVertex
 10
171.1916944768
 20
94.81353987530001
 30
0.0
  0
VERTEX
  5
37E
330
374
100
AcDbEntity
  8
0
100
AcDbVertex
100
AcDb2dVertex
 10
171.2746170633
 20
94.44508485600001
 30
0.0
  0
VERTEX
  5
37F
330
374
100
AcDbEntity
  8
0
100
AcDbVertex
100
AcDb2dVertex
 10
171.3669695479
 20
94.07464218040001
 30
0.0
  0
VERTEX
  5
380
330
374
100
AcDbEntity
  8
0
100
AcDbVertex
100
AcDb2dVertex
 10
171.4686442519
 20
93.70264376790002
 30
0.0
  0
VERTEX
  5
381
330
374
100
AcDbEntity
  8
0
100
AcDbVertex
100
AcDb2dVertex
 10
171.5795226271
 20
93.32952335219999
 30
0.0
  0
VERTEX
  5
382
330
374
100
AcDbEntity
  8
0
100
AcDbVertex
100
AcDb2dVertex
 10
171.6994753943
 20
92.9557159748
 30
0.0
  0
VERTEX
  5
383
330
374
100
AcDbEntity
  8
0
100
AcDbVertex
100
AcDb2dVertex
 10
171.8283626939
 20
92.5816574785
 30
0.0
  0
VERTEX
  5
384
330
374
100
AcDbEntity
  8
0
100
AcDbVertex
100
AcDb2dVertex
 10
171.966034249
 20
92.2077839988
 30
0.0
  0
VERTEX
  5
385
330
374
100
AcDbEntity
  8
0
100
AcDbVertex
100
AcDb2dVertex
 10
172.1123295408999
 20
91.83453145540001
 30
0.0
  0
VERTEX
  5
386
330
374
100
AcDbEntity
  8
0
100
AcDbVertex
100
AcDb2dVertex
 10
172.2670779956
 20
91.4623350441
 30
0.0
  0
VERTEX
  5
387
330
374
100
AcDbEntity
  8
0
100
AcDbVertex
100
AcDb2dVertex
 10
172.4300991835999
 20
91.0916287292
 30
0.0
  0
VERTEX
  5
388
330
374
100
AcDbEntity
  8
0
100
AcDbVertex
100
AcDb2dVertex
 10
172.6012030292999
 20
90.72284473779999
 30
0.0
  0
VERTEX
  5
389
330
374
100
AcDbEntity
  8
0
100
AcDbVertex
100
AcDb2dVertex
 10
172.7801900333
 20
90.35641305540002
 30
0.0
  0
VERTEX
  5
38A
330
374
100
AcDbEntity
  8
0
100
AcDbVertex
100
AcDb2dVertex
 10
172.9668515047
 20
89.99276092509999
 30
0.0
  0
VERTEX
  5
38B
330
374
100
AcDbEntity
  8
0
100
AcDbVertex
100
AcDb2dVertex
 10
173.1609698047
 20
89.63231234889999
 30
0.0
  0
VERTEX
  5
38C
330
374
100
AcDbEntity
  8
0
100
AcDbVertex
100
AcDb2dVertex
 10
173.3623186001
 20
89.2754875938
 30
0.0
  0
VERTEX
  5
38D
330
374
100
AcDbEntity
  8
0
100
AcDbVertex
100
AcDb2dVertex
 10
173.570663127
 20
88.9227027014
 30
0.0
  0
VERTEX
  5
38E
330
374
100
AcDbEntity
  8
0
100
AcDbVertex
100
AcDb2dVertex
 10
173.7857604650999
 20
88.57436900309998
 30
0.0
  0
VERTEX
  5
38F
330
374
100
AcDbEntity
  8
0
100
AcDbVertex
100
AcDb2dVertex
 10
174.0073598206
 20
88.2308926406
 30
0.0
  0
VERTEX
  5
390
330
374
100
AcDbEntity
  8
0
100
AcDbVertex
100
AcDb2dVertex
 10
174.2352028184
 20
87.89267409169999
 30
0.0
  0
VERTEX
  5
391
330
374
100
AcDbEntity
  8
0
100
AcDbVertex
100
AcDb2dVertex
 10
174.4690238039
 20
87.56010770440001
 30
0.0
  0
VERTEX
  5
392
330
374
100
AcDbEntity
  8
0
100
AcDbVertex
100
AcDb2dVertex
 10
174.7085501523
 20
87.233581236
 30
0.0
  0
VERTEX
  5
393
330
374
100
AcDbEntity
  8
0
100
AcDbVertex
100
AcDb2dVertex
 10
174.9535025865
 20
86.9134754018
 30
0.0
  0
VERTEX
  5
394
330
374
100
AcDbEntity
  8
0
100
AcDbVertex
100
AcDb2dVertex
 10
175.2035955029
 20
86.60016343089999
 30
0.0
  0
VERTEX
  5
395
330
374
100
AcDbEntity
  8
0
100
AcDbVertex
100
AcDb2dVertex
 10
175.4585373045
 20
86.2940106311
 30
0.0
  0
VERTEX
  5
396
330
374
100
AcDbEntity
  8
0
100
AcDbVertex
100
AcDb2dVertex
 10
175.7180307403999
 20
85.9953739628
 30
0.0
  0
VERTEX
  5
397
330
374
100
AcDbEntity
  8
0
100
AcDbVertex
100
AcDb2dVertex
 10
175.9817732529
 20
85.7046016231
 30
0.0
  0
VERTEX
  5
398
330
374
100
AcDbEntity
  8
0
100
AcDbVertex
100
AcDb2dVertex
 10
176.2494573300999
 20
85.42203263940001
 30
0.0
  0
VERTEX
  5
399
330
374
100
AcDbEntity
  8
0
100
AcDbVertex
100
AcDb2dVertex
 10
176.5207708643
 20
85.14799647450001
 30
0.0
  0
VERTEX
  5
39A
330
374
100
AcDbEntity
  8
0
100
AcDbVertex
100
AcDb2dVertex
 10
176.7953975159999
 20
84.8828126425
 30
0.0
  0
VERTEX
  5
39B
330
374
100
AcDbEntity
  8
0
100
AcDbVertex
100
AcDb2dVertex
 10
177.0730170829
 20
84.62679033569999
 30
0.0
  0
VERTEX
  5
39C
330
374
100
AcDbEntity
  8
0
100
AcDbVertex
100
AcDb2dVertex
 10
177.3533058729999
 20
84.3802280647
 30
0.0
  0
VERTEX
  5
39D
330
374
100
AcDbEntity
  8
0
100
AcDbVertex
100
AcDb2dVertex
 10
177.635937082
 20
84.14341331000001
 30
0.0
  0
VERTEX
  5
39E
330
374
100
AcDbEntity
  8
0
100
AcDbVertex
100
AcDb2dVertex
 10
177.9205811746999
 20
83.9166221872
 30
0.0
  0
VERTEX
  5
39F
330
374
100
AcDbEntity
  8
0
100
AcDbVertex
100
AcDb2dVertex
 10
178.2069062686999
 20
83.70011912449999
 30
0.0
  0
VERTEX
  5
3A0
330
374
100
AcDbEntity
  8
0
100
AcDbVertex
100
AcDb2dVertex
 10
178.4945785218
 20
83.49415655479999
 30
0.0
  0
VERTEX
  5
3A1
330
374
100
AcDbEntity
  8
0
100
AcDbVertex
100
AcDb2dVertex
 10
178.7832625209999
 20
83.29897462119999
 30
0.0
  0
VERTEX
  5
3A2
330
374
100
AcDbEntity
  8
0
100
AcDbVertex
100
AcDb2dVertex
 10
179.0726216736999
 20
83.11480089719999
 30
0.0
  0
VERTEX
  5
3A3
330
374
100
AcDbEntity
  8
0
100
AcDbVertex
100
AcDb2dVertex
 10
179.3623186000999
 20
82.94185012099999
 30
0.0
  0
VERTEX
  5
3A4
330
374
100
AcDbEntity
  8
0
100
AcDbVertex
100
AcDb2dVertex
 10
179.6520155263999
 20
82.7803239456
 30
0.0
  0
VERTEX
  5
3A5
330
374
100
AcDbEntity
  8
0
100
AcDbVertex
100
AcDb2dVertex
 10
179.9413746791
 20
82.6304107031
 30
0.0
  0
VERTEX
  5
3A6
330
374
100
AcDbEntity
  8
0
100
AcDbVertex
100
AcDb2dVertex
 10
180.2300586783
 20
82.49228518589999
 30
0.0
  0
VERTEX
  5
3A7
330
374
100
AcDbEntity
  8
0
100
AcDbVertex
100
AcDb2dVertex
 10
180.5177309313999
 20
82.3661084419
 30
0.0
  0
VERTEX
  5
3A8
330
374
100
AcDbEntity
  8
0
100
AcDbVertex
100
AcDb2dVertex
 10
180.8040560253999
 20
82.2520275878
 30
0.0
  0
VERTEX
  5
3A9
330
374
100
AcDbEntity
  8
0
100
AcDbVertex
100
AcDb2dVertex
 10
181.0887001181
 20
82.1501756366
 30
0.0
  0
VERTEX
  5
3AA
330
374
100
AcDbEntity
  8
0
100
AcDbVertex
100
AcDb2dVertex
 10
181.3713313270999
 20
82.0606713431
 30
0.0
  0
VERTEX
  5
3AB
330
374
100
AcDbEntity
  8
0
100
AcDbVertex
100
AcDb2dVertex
 10
181.6516201172
 20
81.98361906550001
 30
0.0
  0
VERTEX
  5
3AC
330
374
100
AcDbEntity
  8
0
100
AcDbVertex
100
AcDb2dVertex
 10
181.8250868993
 20
81.9419112197
 30
0.0
  0
SEQEND
  5
3AD
330
374
100
AcDbEntity
  8
0
  0
POLYLINE
  5
3AE
330
A
100
AcDbEntity
  8
0
  6
Continuous
 62
     7
100
AcDb2dPolyline
 66
     1
 10
0.0
 20
0.0
 30
0.0
 70
   128
 40
0.0708661417
 41
0.0708661417
  0
VERTEX
  5
3AF
330
3AE
100
AcDbEntity
  8
0
100
AcDbVertex
100
AcDb2dVertex
 10
169.6176800485
 20
97.7283179229
 30
0.0
  0
VERTEX
  5
3B0
330
3AE
100
AcDbEntity
  8
0
100
AcDbVertex
100
AcDb2dVertex
 10
169.6124034452
 20
97.67898915200001
 30
0.0
  0
VERTEX
  5
3B1
330
3AE
100
AcDbEntity
  8
0
100
AcDbVertex
100
AcDb2dVertex
 10
169.5969332269
 20
97.6269298188
 30
0.0
  0
VERTEX
  5
3B2
330
3AE
100
AcDbEntity
  8
0
100
AcDbVertex
100
AcDb2dVertex
 10
169.5723236634
 20
97.57568768070001
 30
0.0
  0
VERTEX
  5
3B3
330
3AE
100
AcDbEntity
  8
0
100
AcDbVertex
100
AcDb2dVertex
 10
169.5402518559999
 20
97.52875480490001
 30
0.0
  0
VERTEX
  5
3B4
330
3AE
100
AcDbEntity
  8
0
100
AcDbVertex
100
AcDb2dVertex
 10
169.5029034452
 20
97.4893295891
 30
0.0
  0
VERTEX
  5
3B5
330
3AE
100
AcDbEntity
  8
0
100
AcDbVertex
100
AcDb2dVertex
 10
169.4628236634
 20
97.4600987968
 30
0.0
  0
VERTEX
  5
3B6
330
3AE
100
AcDbEntity
  8
0
100
AcDbVertex
100
AcDb2dVertex
 10
169.4227438817
 20
97.4430544582
 30
0.0
  0
VERTEX
  5
3B7
330
3AE
100
AcDbEntity
  8
0
100
AcDbVertex
100
AcDb2dVertex
 10
169.3853954708999
 20
97.43935811660001
 30
0.0
  0
VERTEX
  5
3B8
330
3AE
100
AcDbEntity
  8
0
100
AcDbVertex
100
AcDb2dVertex
 10
169.3533236634
 20
97.4492616718
 30
0.0
  0
VERTEX
  5
3B9
330
3AE
100
AcDbEntity
  8
0
100
AcDbVertex
100
AcDb2dVertex
 10
169.3287140999999
 20
97.47209021270002
 30
0.0
  0
VERTEX
  5
3BA
330
3AE
100
AcDbEntity
  8
0
100
AcDbVertex
100
AcDb2dVertex
 10
169.3132438817
 20
97.50628801209998
 30
0.0
  0
VERTEX
  5
3BB
330
3AE
100
AcDbEntity
  8
0
100
AcDbVertex
100
AcDb2dVertex
 10
169.3079672784
 20
97.54952454639999
 30
0.0
  0
VERTEX
  5
3BC
330
3AE
100
AcDbEntity
  8
0
100
AcDbVertex
100
AcDb2dVertex
 10
169.3132438817
 20
97.5988533173
 30
0.0
  0
VERTEX
  5
3BD
330
3AE
100
AcDbEntity
  8
0
100
AcDbVertex
100
AcDb2dVertex
 10
169.3287140999999
 20
97.65091265049999
 30
0.0
  0
VERTEX
  5
3BE
330
3AE
100
AcDbEntity
  8
0
100
AcDbVertex
100
AcDb2dVertex
 10
169.3533236634
 20
97.70215478860002
 30
0.0
  0
VERTEX
  5
3BF
330
3AE
100
AcDbEntity
  8
0
100
AcDbVertex
100
AcDb2dVertex
 10
169.3853954708999
 20
97.74908766440001
 30
0.0
  0
VERTEX
  5
3C0
330
3AE
100
AcDbEntity
  8
0
100
AcDbVertex
100
AcDb2dVertex
 10
169.4227438817
 20
97.78851288010001
 30
0.0
  0
VERTEX
  5
3C1
330
3AE
100
AcDbEntity
  8
0
100
AcDbVertex
100
AcDb2dVertex
 10
169.4628236634
 20
97.8177436724
 30
0.0
  0
VERTEX
  5
3C2
330
3AE
100
AcDbEntity
  8
0
100
AcDbVertex
100
AcDb2dVertex
 10
169.5029034452
 20
97.8347880111
 30
0.0
  0
VERTEX
  5
3C3
330
3AE
100
AcDbEntity
  8
0
100
AcDbVertex
100
AcDb2dVertex
 10
169.5402518559999
 20
97.83848435270002
 30
0.0
  0
VERTEX
  5
3C4
330
3AE
100
AcDbEntity
  8
0
100
AcDbVertex
100
AcDb2dVertex
 10
169.5723236634
 20
97.82858079749999
 30
0.0
  0
VERTEX
  5
3C5
330
3AE
100
AcDbEntity
  8
0
100
AcDbVertex
100
AcDb2dVertex
 10
169.5969332269
 20
97.80575225660001
 30
0.0
  0
VERTEX
  5
3C6
330
3AE
100
AcDbEntity
  8
0
100
AcDbVertex
100
AcDb2dVertex
 10
169.6124034452
 20
97.7715544572
 30
0.0
  0
VERTEX
  5
3C7
330
3AE
100
AcDbEntity
  8
0
100
AcDbVertex
100
AcDb2dVertex
 10
169.6176800485
 20
97.7283179229
 30
0.0
  0
SEQEND
  5
3C8
330
3AE
100
AcDbEntity
  8
0
  0
LINE
  5
3C9
330
A
100
AcDbEntity
  8
0
  6
Continuous
 62
     7
370
    15
100
AcDbLine
 10
165.2201829762999
 20
104.1716458298999
 30
0.0
 11
165.2201829762999
 21
94.37315608729999
 31
0.0
  0
LINE
  5
3CA
330
A
100
AcDbEntity
  8
0
  6
Continuous
 62
     7
370
    15
100
AcDbLine
 10
170.8770372257999
 20
107.4372782771999
 30
0.0
 11
170.8770372257999
 21
97.63878853459999
 31
0.0
  0
POLYLINE
  5
3CB
330
A
100
AcDbEntity
  8
0
  6
Continuous
 62
     7
100
AcDb2dPolyline
 66
     1
 10
0.0
 20
0.0
 30
0.0
 70
   128
 40
0.0708661417
 41
0.0708661417
  0
VERTEX
  5
3CC
330
3CB
100
AcDbEntity
  8
0
100
AcDbVertex
100
AcDb2dVertex
 10
169.6176800485
 20
105.8937260416999
 30
0.0
  0
VERTEX
  5
3CD
330
3CB
100
AcDbEntity
  8
0
100
AcDbVertex
100
AcDb2dVertex
 10
169.6124034452
 20
105.8443972709
 30
0.0
  0
VERTEX
  5
3CE
330
3CB
100
AcDbEntity
  8
0
100
AcDbVertex
100
AcDb2dVertex
 10
169.5969332269
 20
105.7923379375999
 30
0.0
  0
VERTEX
  5
3CF
330
3CB
100
AcDbEntity
  8
0
100
AcDbVertex
100
AcDb2dVertex
 10
169.5723236634
 20
105.7410957995999
 30
0.0
  0
VERTEX
  5
3D0
330
3CB
100
AcDbEntity
  8
0
100
AcDbVertex
100
AcDb2dVertex
 10
169.5402518559999
 20
105.6941629236999
 30
0.0
  0
VERTEX
  5
3D1
330
3CB
100
AcDbEntity
  8
0
100
AcDbVertex
100
AcDb2dVertex
 10
169.5029034452
 20
105.654737708
 30
0.0
  0
VERTEX
  5
3D2
330
3CB
100
AcDbEntity
  8
0
100
AcDbVertex
100
AcDb2dVertex
 10
169.4628236634
 20
105.6255069157
 30
0.0
  0
VERTEX
  5
3D3
330
3CB
100
AcDbEntity
  8
0
100
AcDbVertex
100
AcDb2dVertex
 10
169.4227438817
 20
105.608462577
 30
0.0
  0
VERTEX
  5
3D4
330
3CB
100
AcDbEntity
  8
0
100
AcDbVertex
100
AcDb2dVertex
 10
169.3853954708999
 20
105.6047662354999
 30
0.0
  0
VERTEX
  5
3D5
330
3CB
100
AcDbEntity
  8
0
100
AcDbVertex
100
AcDb2dVertex
 10
169.3533236634
 20
105.6146697905999
 30
0.0
  0
VERTEX
  5
3D6
330
3CB
100
AcDbEntity
  8
0
100
AcDbVertex
100
AcDb2dVertex
 10
169.3287140999999
 20
105.6374983316
 30
0.0
  0
VERTEX
  5
3D7
330
3CB
100
AcDbEntity
  8
0
100
AcDbVertex
100
AcDb2dVertex
 10
169.3132438817
 20
105.6716961308999
 30
0.0
  0
VERTEX
  5
3D8
330
3CB
100
AcDbEntity
  8
0
100
AcDbVertex
100
AcDb2dVertex
 10
169.3079672784
 20
105.7149326653
 30
0.0
  0
VERTEX
  5
3D9
330
3CB
100
AcDbEntity
  8
0
100
AcDbVertex
100
AcDb2dVertex
 10
169.3132438817
 20
105.7642614361
 30
0.0
  0
VERTEX
  5
3DA
330
3CB
100
AcDbEntity
  8
0
100
AcDbVertex
100
AcDb2dVertex
 10
169.3287140999999
 20
105.8163207694
 30
0.0
  0
VERTEX
  5
3DB
330
3CB
100
AcDbEntity
  8
0
100
AcDbVertex
100
AcDb2dVertex
 10
169.3533236634
 20
105.8675629074
 30
0.0
  0
VERTEX
  5
3DC
330
3CB
100
AcDbEntity
  8
0
100
AcDbVertex
100
AcDb2dVertex
 10
169.3853954708999
 20
105.9144957832999
 30
0.0
  0
VERTEX
  5
3DD
330
3CB
100
AcDbEntity
  8
0
100
AcDbVertex
100
AcDb2dVertex
 10
169.4227438817
 20
105.9539209989999
 30
0.0
  0
VERTEX
  5
3DE
330
3CB
100
AcDbEntity
  8
0
100
AcDbVertex
100
AcDb2dVertex
 10
169.4628236634
 20
105.9831517913
 30
0.0
  0
VERTEX
  5
3DF
330
3CB
100
AcDbEntity
  8
0
100
AcDbVertex
100
AcDb2dVertex
 10
169.5029034452
 20
106.00019613
 30
0.0
  0
VERTEX
  5
3E0
330
3CB
100
AcDbEntity
  8
0
100
AcDbVertex
100
AcDb2dVertex
 10
169.5402518559999
 20
106.0038924714999
 30
0.0
  0
VERTEX
  5
3E1
330
3CB
100
AcDbEntity
  8
0
100
AcDbVertex
100
AcDb2dVertex
 10
169.5723236634
 20
105.9939889163999
 30
0.0
  0
VERTEX
  5
3E2
330
3CB
100
AcDbEntity
  8
0
100
AcDbVertex
100
AcDb2dVertex
 10
169.5969332269
 20
105.9711603753999
 30
0.0
  0
VERTEX
  5
3E3
330
3CB
100
AcDbEntity
  8
0
100
AcDbVertex
100
AcDb2dVertex
 10
169.6124034452
 20
105.9369625761
 30
0.0
  0
VERTEX
  5
3E4
330
3CB
100
AcDbEntity
  8
0
100
AcDbVertex
100
AcDb2dVertex
 10
169.6176800485
 20
105.8937260416999
 30
0.0
  0
SEQEND
  5
3E5
330
3CB
100
AcDbEntity
  8
0
  0
LINE
  5
3E6
330
A
100
AcDbEntity
  8
0
  6
Continuous
 62
     7
370
    15
100
AcDbLine
 10
164.9550179333999
 20
104.3247223509
 30
0.0
 11
164.9550179333999
 21
94.5262326083
 31
0.0
  0
MTEXT
  5
3E7
330
A
100
AcDbEntity
  8
0
 62
     1
100
AcDbMText
 10
167.8555648529
 20
74.1414882858
 30
0.0
 40
1.75
 41
0.0
 71
     1
 72
     1
  1
MUST FIT\PEAST WALL OPNING\PMAY WISH TO FIT OPENING\PTHEN WLELD & DRILL.
  7
SLDTEXTSTYLE0
 73
     1
 44
1.0
  0
LEADER
  5
3E8
330
A
100
AcDbEntity
  8
0
 62
     1
100
AcDbLeader
  3
SLDDIMSTYLE2
 73
     2
 76
     3
 10
169.5441855687
 20
110.5644335618
 30
0.0
 10
151.7597676423
 20
112.541849434
 30
0.0
 10
148.7597676423
 20
112.541849434
 30
0.0
340
3F0
  0
INSERT
  5
3F0
102
{ACAD_REACTORS
330
3E8
102
}
330
A
100
AcDbEntity
  8
0
100
AcDbBlockReference
  2
NOTE72
 10
148.7597676423
 20
112.541849434
 30
0.0
  0
LINE
  5
3F1
330
A
100
AcDbEntity
  8
0
  6
Continuous
 62
     7
370
    15
100
AcDbLine
 10
137.5832014854999
 20
104.4510487294
 30
0.0
 11
129.5832014854999
 21
104.4510487294
 31
0.0
  0
LINE
  5
3F2
330
A
100
AcDbEntity
  8
0
  6
Continuous
 62
     7
370
    15
100
AcDbLine
 10
129.5832014854999
 20
67.7010487294
 30
0.0
 11
137.5832014854999
 21
67.7010487294
 31
0.0
  0
LINE
  5
3F3
330
A
100
AcDbEntity
  8
0
  6
Continuous
 62
     7
370
    15
100
AcDbLine
 10
129.5832014854999
 20
80.0760487294
 30
0.0
 11
137.5832014854999
 21
80.0760487294
 31
0.0
  0
LINE
  5
3F4
330
A
100
AcDbEntity
  8
0
  6
Continuous
 62
     7
370
    15
100
AcDbLine
 10
129.5832014854999
 20
80.0760487294
 30
0.0
 11
129.5832015822
 21
86.04454840870001
 31
0.0
  0
LINE
  5
3F5
330
A
100
AcDbEntity
  8
0
  6
Continuous
 62
     7
370
    15
100
AcDbLine
 10
129.5832015822
 20
86.04454840870001
 30
0.0
 11
137.5832014854999
 21
86.04454840870001
 31
0.0
  0
LINE
  5
3F6
330
A
100
AcDbEntity
  8
0
  6
Continuous
 62
     7
370
    15
100
AcDbLine
 10
137.5832014854999
 20
80.0760487294
 30
0.0
 11
137.5832014854999
 21
86.04454840870001
 31
0.0
  0
CIRCLE
  5
3F7
330
A
100
AcDbEntity
  8
0
  6
Continuous
 62
     7
370
    15
100
AcDbCircle
 10
135.5832014854999
 20
84.0760487294
 30
0.0
 40
0.2189999999999999
  0
LINE
  5
3F8
330
A
100
AcDbEntity
  8
0
  6
Continuous
 62
     7
370
    15
100
AcDbLine
 10
137.5832014854999
 20
92.07604872940001
 30
0.0
 11
137.5832014854999
 21
104.4510487294
 31
0.0
  0
LINE
  5
3F9
330
A
100
AcDbEntity
  8
0
  6
Continuous
 62
     7
370
    15
100
AcDbLine
 10
129.5832014854999
 20
92.07604872940001
 30
0.0
 11
137.5832014854999
 21
92.07604872940001
 31
0.0
  0
LINE
  5
3FA
330
A
100
AcDbEntity
  8
0
  6
Continuous
 62
     7
370
    15
100
AcDbLine
 10
129.5832014854999
 20
104.4510487294
 30
0.0
 11
129.5832014854999
 21
92.07604872940001
 31
0.0
  0
LINE
  5
3FB
330
A
100
AcDbEntity
  8
0
  6
Continuous
 62
     7
370
    15
100
AcDbLine
 10
129.5832015822
 20
86.10754864090001
 30
0.0
 11
137.5832014854999
 21
86.10754864090001
 31
0.0
  0
LINE
  5
3FC
330
A
100
AcDbEntity
  8
0
  6
Continuous
 62
     7
370
    15
100
AcDbLine
 10
129.5832015822
 20
86.10754864090001
 30
0.0
 11
129.5832014854999
 21
92.07604872940001
 31
0.0
  0
CIRCLE
  5
3FD
330
A
100
AcDbEntity
  8
0
  6
Continuous
 62
     7
370
    15
100
AcDbCircle
 10
135.5832014854999
 20
88.0760487294
 30
0.0
 40
0.2189999999999999
  0
LINE
  5
3FE
330
A
100
AcDbEntity
  8
0
  6
Continuous
 62
     7
370
    15
100
AcDbLine
 10
137.5832014854999
 20
86.10754864090001
 30
0.0
 11
137.5832014854999
 21
92.07604872940001
 31
0.0
  0
LINE
  5
3FF
330
A
100
AcDbEntity
  8
0
  6
Continuous
 62
     7
370
    15
100
AcDbLine
 10
137.5832014854999
 20
67.7010487294
 30
0.0
 11
137.5832014854999
 21
80.0760487294
 31
0.0
  0
LINE
  5
400
330
A
100
AcDbEntity
  8
0
  6
Continuous
 62
     7
370
    15
100
AcDbLine
 10
129.5832014854999
 20
80.0760487294
 30
0.0
 11
129.5832014854999
 21
67.7010487294
 31
0.0
  0
LINE
  5
401
330
A
100
AcDbEntity
  8
0
  6
Continuous
 62
     7
370
    15
100
AcDbLine
 10
129.5832015822
 20
86.10754864090001
 30
0.0
 11
129.5832015822
 21
86.04454840870001
 31
0.0
  0
LINE
  5
402
330
A
100
AcDbEntity
  8
0
  6
Continuous
 62
     7
370
    15
100
AcDbLine
 10
137.5832014854999
 20
86.10754864090001
 30
0.0
 11
137.5832014854999
 21
86.04454840870001
 31
0.0
  0
DIMENSION
  5
410
330
A
100
AcDbEntity
  8
0
100
AcDbDimension
  2
*D10
 10
150.0500956453
 20
84.0760487294
 30
0.0
 11
150.0500956453
 21
86.07604872939999
 31
0.0
 70
   160
 71
     5
 42
0.0
  3
SLDDIMSTYLE3
100
AcDbAlignedDimension
 13
135.5832014854999
 23
88.0760487294
 33
0.0
 14
135.5832014854999
 24
84.0760487294
 34
0.0
 50
90.0
100
AcDbRotatedDimension
  0
DIMENSION
  5
41D
330
A
100
AcDbEntity
  8
0
100
AcDbDimension
  2
*D11
 10
135.5832014854999
 20
101.4827722072
 30
0.0
 11
145.954273412
 21
101.4827722072
 31
0.0
 70
   160
 71
     5
 42
0.0
  3
SLDDIMSTYLE3
100
AcDbAlignedDimension
 13
137.5832014854999
 23
86.04454872940001
 33
0.0
 14
135.5832014854999
 24
84.0760487294
 34
0.0
100
AcDbRotatedDimension
  0
DIMENSION
  5
42C
330
A
100
AcDbEntity
  8
0
100
AcDbDimension
  2
*D12
 10
135.6334444528
 20
84.28920745960001
 30
0.0
 11
145.954273412
 21
62.3760559607
 31
0.0
 70
   163
  1
<> DRILL THRU, 4 PLACES\PCAN BE DONE AFTER \PWELDED INTO BASE ASSEMBLY
 71
     5
 42
0.0
  3
SLDDIMSTYLE4
100
AcDbDiametricDimension
 15
135.5329585181999
 25
83.8628899993
 35
0.0
 40
0.0
  0
DIMENSION
  5
43A
330
A
100
AcDbEntity
  8
0
100
AcDbDimension
  2
*D13
 10
141.975119202
 20
86.07604872939999
 30
0.0
 11
141.975119202
 21
95.38176585850001
 31
0.0
 70
   160
 71
     5
 42
0.0
  3
SLDDIMSTYLE5
100
AcDbAlignedDimension
 13
135.5832014854999
 23
88.0760487294
 33
0.0
 14
143.3159876787
 24
86.07604872939999
 34
0.0
 50
90.0
100
AcDbRotatedDimension
  0
INSERT
  5
43F
330
A
100
AcDbEntity
  8
0
100
AcDbBlockReference
  2
NOTE73
 10
123.9656727078
 20
89.28031777900001
 30
0.0
  0
INSERT
  5
444
330
A
100
AcDbEntity
  8
0
100
AcDbBlockReference
  2
NOTE74
 10
50.58980954319999
 20
88.90277075799998
 30
0.0
  0
LINE
  5
445
330
A
100
AcDbEntity
  8
0
  6
CENTERX2
 62
     7
370
     0
100
AcDbLine
 10
122.5227046304
 20
86.07604872939999
 30
0.0
 11
143.3159876787
 21
86.07604872939999
 31
0.0
  0
LINE
  5
446
330
A
100
AcDbEntity
  8
0
  6
Continuous
 62
     7
370
    15
100
AcDbLine
 10
49.2313759277
 20
104.4510487294
 30
0.0
 11
41.2313759277
 21
104.4510487294
 31
0.0
  0
LINE
  5
447
330
A
100
AcDbEntity
  8
0
  6
Continuous
 62
     7
370
    15
100
AcDbLine
 10
41.2313759277
 20
67.7010487294
 30
0.0
 11
49.2313759277
 21
67.7010487294
 31
0.0
  0
CIRCLE
  5
448
330
A
100
AcDbEntity
  8
0
  6
Continuous
 62
     7
370
    15
100
AcDbCircle
 10
43.23137592770001
 20
81.07604872939999
 30
0.0
 40
0.2189999999999999
  0
LINE
  5
449
330
A
100
AcDbEntity
  8
0
  6
Continuous
 62
     7
370
    15
100
AcDbLine
 10
49.2313759277
 20
92.07604872940001
 30
0.0
 11
41.2313759277
 21
92.07604872940001
 31
0.0
  0
LINE
  5
44A
330
A
100
AcDbEntity
  8
0
  6
Continuous
 62
     7
370
    15
100
AcDbLine
 10
49.2313759277
 20
92.07604872940001
 30
0.0
 11
49.2313759277
 21
80.0760487294
 31
0.0
  0
LINE
  5
44B
330
A
100
AcDbEntity
  8
0
  6
Continuous
 62
     7
370
    15
100
AcDbLine
 10
49.2313759277
 20
80.0760487294
 30
0.0
 11
41.2313759277
 21
80.0760487294
 31
0.0
  0
LINE
  5
44C
330
A
100
AcDbEntity
  8
0
  6
Continuous
 62
     7
370
    15
100
AcDbLine
 10
41.2313759277
 20
92.07604872940001
 30
0.0
 11
41.2313759277
 21
80.0760487294
 31
0.0
  0
CIRCLE
  5
44D
330
A
100
AcDbEntity
  8
0
  6
Continuous
 62
     7
370
    15
100
AcDbCircle
 10
43.23137592770001
 20
91.07604872939999
 30
0.0
 40
0.2189999999999999
  0
LINE
  5
44E
330
A
100
AcDbEntity
  8
0
  6
Continuous
 62
     7
370
    15
100
AcDbLine
 10
41.2313759277
 20
104.4510487294
 30
0.0
 11
41.2313759277
 21
92.07604872940001
 31
0.0
  0
LINE
  5
44F
330
A
100
AcDbEntity
  8
0
  6
Continuous
 62
     7
370
    15
100
AcDbLine
 10
49.2313759277
 20
92.07604872940001
 30
0.0
 11
49.2313759277
 21
104.4510487294
 31
0.0
  0
LINE
  5
450
330
A
100
AcDbEntity
  8
0
  6
Continuous
 62
     7
370
    15
100
AcDbLine
 10
41.2313759277
 20
80.0760487294
 30
0.0
 11
41.2313759277
 21
67.7010487294
 31
0.0
  0
LINE
  5
451
330
A
100
AcDbEntity
  8
0
  6
Continuous
 62
     7
370
    15
100
AcDbLine
 10
49.2313759277
 20
67.7010487294
 30
0.0
 11
49.2313759277
 21
80.0760487294
 31
0.0
  0
DIMENSION
  5
45E
330
A
100
AcDbEntity
  8
0
100
AcDbDimension
  2
*D16
 10
41.2313759277
 20
102.0455004162
 30
0.0
 11
31.3487467594
 21
102.0455004162
 31
0.0
 70
   160
 71
     5
 42
0.0
  3
SLDDIMSTYLE3
100
AcDbAlignedDimension
 13
43.23137592770001
 23
81.07604872939999
 33
0.0
 14
41.2313759277
 24
92.07604872940001
 34
0.0
100
AcDbRotatedDimension
  0
DIMENSION
  5
46B
330
A
100
AcDbEntity
  8
0
100
AcDbDimension
  2
*D17
 10
27.2340585767
 20
81.07604872939999
 30
0.0
 11
27.2340585767
 21
86.07604872939999
 31
0.0
 70
   160
 71
     5
 42
0.0
  3
SLDDIMSTYLE3
100
AcDbAlignedDimension
 13
43.23137592770001
 23
91.07604872939999
 33
0.0
 14
43.23137592770001
 24
81.07604872939999
 34
0.0
 50
90.0
100
AcDbRotatedDimension
  0
DIMENSION
  5
479
330
A
100
AcDbEntity
  8
0
100
AcDbDimension
  2
*D18
 10
35.6741129889
 20
91.07604872939999
 30
0.0
 11
35.6741129889
 21
97.82511399379998
 31
0.0
 70
   160
 71
     5
 42
0.0
  3
SLDDIMSTYLE5
100
AcDbAlignedDimension
 13
36.2776126198
 23
86.07604872939999
 33
0.0
 14
43.23137592770001
 24
91.07604872939999
 34
0.0
 50
90.0
100
AcDbRotatedDimension
  0
LINE
  5
47A
330
A
100
AcDbEntity
  8
0
  6
CENTERX2
 62
     7
370
     0
100
AcDbLine
 10
54.92520008159999
 20
86.07604872939999
 30
0.0
 11
36.2776126198
 21
86.07604872939999
 31
0.0
  0
ENDSEC
  0
SECTION
  2
OBJECTS
  0
DICTIONARY
  5
19
330
0
100
AcDbDictionary
281
     1
  3
ACAD_GROUP
350
1A
  3
ACAD_LAYOUT
350
1E
  3
ACAD_MLINESTYLE
350
1B
  3
ACAD_PLOTSETTINGS
350
22
  3
ACAD_PLOTSTYLENAME
350
1F
  3
ACAD_WIPEOUT_VARS
350
23
  0
DICTIONARY
  5
1A
102
{ACAD_REACTORS
330
19
102
}
330
19
100
AcDbDictionary
281
     1
  0
DICTIONARY
  5
1E
102
{ACAD_REACTORS
330
19
102
}
330
19
100
AcDbDictionary
281
     1
  3
Layout1
350
21
  3
Model
350
20
  0
DICTIONARY
  5
1B
102
{ACAD_REACTORS
330
19
102
}
330
19
100
AcDbDictionary
281
     1
  3
Standard
350
1C
  0
DICTIONARY
  5
22
102
{ACAD_REACTORS
330
19
102
}
330
19
100
AcDbDictionary
281
     1
  0
ACDBDICTIONARYWDFLT
  5
1F
102
{ACAD_REACTORS
330
19
102
}
330
19
100
AcDbDictionary
281
     1
  3
Normal
350
1D
100
AcDbDictionaryWithDefault
340
1D
  0
WIPEOUTVARIABLES
  5
23
330
19
100
AcDbWipeoutVariables
 70
     1
  0
LAYOUT
  5
21
102
{ACAD_REACTORS
330
1E
102
}
330
1E
100
AcDbPlotSettings
  1

  2

  4

  6

 40
0.0
 41
0.0
 42
0.0
 43
0.0
 44
0.0
 45
0.0
 46
0.0
 47
0.0
 48
0.0
 49
0.0
140
0.0
141
0.0
142
1.0
143
1.0
 70
     0
 72
     0
 73
     0
 74
     0
  7

 75
     0
147
1.0
148
0.0
149
0.0
100
AcDbLayout
  1
Layout1
 70
     1
 71
     1
 10
0.0
 20
0.0
 11
12.0
 21
9.0
 12
0.0
 22
0.0
 32
0.0
 14
1.000000000000000E+20
 24
1.000000000000000E+20
 34
1.000000000000000E+20
 15
-1.000000000000000E+20
 25
-1.000000000000000E+20
 35
-1.000000000000000E+20
146
0.0
 13
0.0
 23
0.0
 33
0.0
 16
1.0
 26
0.0
 36
0.0
 17
0.0
 27
1.0
 37
0.0
 76
     0
330
B
  0
LAYOUT
  5
20
102
{ACAD_REACTORS
330
1E
102
}
330
1E
100
AcDbPlotSettings
  1

  2

  4

  6

 40
0.0
 41
0.0
 42
0.0
 43
0.0
 44
0.0
 45
0.0
 46
0.0
 47
0.0
 48
0.0
 49
0.0
140
0.0
141
0.0
142
1.0
143
1.0
 70
  1024
 72
     0
 73
     0
 74
     0
  7

 75
     0
147
1.0
148
0.0
149
0.0
100
AcDbLayout
  1
Model
 70
     0
 71
     0
 10
0.0
 20
0.0
 11
0.0
 21
0.0
 12
0.0
 22
0.0
 32
0.0
 14
0.0
 24
0.0
 34
0.0
 15
0.0
 25
0.0
 35
0.0
146
0.0
 13
0.0
 23
0.0
 33
0.0
 16
0.0
 26
0.0
 36
0.0
 17
0.0
 27
0.0
 37
0.0
 76
     0
330
A
  0
MLINESTYLE
  5
1C
102
{ACAD_REACTORS
330
1B
102
}
330
1B
100
AcDbMlineStyle
  2
STANDARD
 70
     0
  3

 62
     0
 51
90.0
 52
90.0
 71
     2
 49
0.5
 62
   256
  6
BYLAYER
 49
-0.5
 62
   256
  6
BYLAYER
  0
ACDBPLACEHOLDER
  5
1D
102
{ACAD_REACTORS
330
1F
102
}
330
1F
  0
ENDSEC
  0
EOF
