  0
SECTION
  2
HEADER
  9
$ACADVER
  1
AC1015
  9
$ACADMAINTVER
 70
    10
  9
$DWGCODEPAGE
  3
ANSI_1252
  9
$INSBASE
 10
0.0
 20
0.0
 30
0.0
  9
$EXTMIN
 10
1.872863870664573
 20
0.5698395422308665
 30
-0.0015258207003583
  9
$EXTMAX
 10
41.90143595030699
 20
27.02247625976157
 30
0.0000000349246037
  9
$LIMMIN
 10
0.0
 20
0.0
  9
$LIMMAX
 10
0.0
 20
0.0
  9
$ORTHOMODE
 70
     0
  9
$REGENMODE
 70
     1
  9
$FILLMODE
 70
     1
  9
$QTEXTMODE
 70
     0
  9
$MIRRTEXT
 70
     1
  9
$LTSCALE
 40
1.0
  9
$ATTMODE
 70
     1
  9
$TEXTSIZE
 40
0.0
  9
$TRACEWID
 40
0.05
  9
$TEXTSTYLE
  7
Standard
  9
$CLAYER
  8
0
  9
$CELTYPE
  6
Continuous
  9
$CECOLOR
 62
   256
  9
$CELTSCALE
 40
1.0
  9
$DISPSILH
 70
     0
  9
$DIMSCALE
 40
1.0
  9
$DIMASZ
 40
0.0
  9
$DIMEXO
 40
0.0
  9
$DIMDLI
 40
0.38
  9
$DIMRND
 40
0.0
  9
$DIMDLE
 40
0.0
  9
$DIMEXE
 40
0.18
  9
$DIMTP
 40
0.0
  9
$DIMTM
 40
0.0
  9
$DIMTXT
 40
0.25
  9
$DIMCEN
 40
0.09
  9
$DIMTSZ
 40
0.0
  9
$DIMTOL
 70
     0
  9
$DIMLIM
 70
     0
  9
$DIMTIH
 70
     1
  9
$DIMTOH
 70
     1
  9
$DIMSE1
 70
     0
  9
$DIMSE2
 70
     0
  9
$DIMTAD
 70
     0
  9
$DIMZIN
 70
     0
  9
$DIMBLK
  1

  9
$DIMASO
 70
     1
  9
$DIMSHO
 70
     1
  9
$DIMPOST
  1

  9
$DIMAPOST
  1

  9
$DIMALT
 70
     0
  9
$DIMALTD
 70
     2
  9
$DIMALTF
 40
25.4
  9
$DIMLFAC
 40
1.0
  9
$DIMTOFL
 70
     0
  9
$DIMTVP
 40
0.0
  9
$DIMTIX
 70
     0
  9
$DIMSOXD
 70
     0
  9
$DIMSAH
 70
     0
  9
$DIMBLK1
  1

  9
$DIMBLK2
  1

  9
$DIMSTYLE
  2
Standard
  9
$DIMCLRD
 70
     0
  9
$DIMCLRE
 70
     0
  9
$DIMCLRT
 70
     0
  9
$DIMTFAC
 40
1.0
  9
$DIMGAP
 40
0.0
  9
$DIMJUST
 70
     0
  9
$DIMSD1
 70
     0
  9
$DIMSD2
 70
     0
  9
$DIMTOLJ
 70
     1
  9
$DIMTZIN
 70
     0
  9
$DIMALTZ
 70
     0
  9
$DIMALTTZ
 70
     0
  9
$DIMUPT
 70
     0
  9
$DIMDEC
 70
     4
  9
$DIMTDEC
 70
     4
  9
$DIMALTU
 70
     2
  9
$DIMALTTD
 70
     2
  9
$DIMTXSTY
  7
Standard
  9
$DIMAUNIT
 70
     0
  9
$DIMADEC
 70
     0
  9
$DIMALTRND
 40
0.0
  9
$DIMAZIN
 70
     0
  9
$DIMDSEP
 70
     0
  9
$DIMATFIT
 70
     3
  9
$DIMFRAC
 70
     0
  9
$DIMLDRBLK
  1

  9
$DIMLUNIT
 70
     2
  9
$DIMLWD
 70
     0
  9
$DIMLWE
 70
     0
  9
$DIMTMOVE
 70
     0
  9
$LUNITS
 70
     2
  9
$LUPREC
 70
     3
  9
$SKETCHINC
 40
0.1
  9
$FILLETRAD
 40
0.0
  9
$AUNITS
 70
     0
  9
$AUPREC
 70
     2
  9
$MENU
  1
acad
  9
$ELEVATION
 40
0.0
  9
$PELEVATION
 40
0.0
  9
$THICKNESS
 40
0.0
  9
$LIMCHECK
 70
     0
  9
$CHAMFERA
 40
0.0
  9
$CHAMFERB
 40
0.0
  9
$CHAMFERC
 40
0.0
  9
$CHAMFERD
 40
0.0
  9
$SKPOLY
 70
     0
  9
$TDCREATE
 40
2453398.543495729
  9
$TDUCREATE
 40
2453398.876829062
  9
$TDUPDATE
 40
2453398.544493090
  9
$TDUUPDATE
 40
2453398.877826423
  9
$TDINDWG
 40
0.0010013310
  9
$TDUSRTIMER
 40
0.0010013310
  9
$USRTIMER
 70
     1
  9
$ANGBASE
 50
0.0
  9
$ANGDIR
 70
     0
  9
$PDMODE
 70
     0
  9
$PDSIZE
 40
-1.0
  9
$PLINEWID
 40
0.0
  9
$SPLFRAME
 70
     0
  9
$SPLINETYPE
 70
     6
  9
$SPLINESEGS
 70
     8
  9
$HANDSEED
  5
19D
  9
$SURFTAB1
 70
     6
  9
$SURFTAB2
 70
     6
  9
$SURFTYPE
 70
     6
  9
$SURFU
 70
     6
  9
$SURFV
 70
     6
  9
$UCSBASE
  2

  9
$UCSNAME
  2

  9
$UCSORG
 10
0.0
 20
0.0
 30
0.0
  9
$UCSXDIR
 10
1.0
 20
0.0
 30
0.0
  9
$UCSYDIR
 10
0.0
 20
1.0
 30
0.0
  9
$UCSORTHOREF
  2

  9
$UCSORTHOVIEW
 70
     0
  9
$UCSORGTOP
 10
0.0
 20
0.0
 30
0.0
  9
$UCSORGBOTTOM
 10
0.0
 20
0.0
 30
0.0
  9
$UCSORGLEFT
 10
0.0
 20
0.0
 30
0.0
  9
$UCSORGRIGHT
 10
0.0
 20
0.0
 30
0.0
  9
$UCSORGFRONT
 10
0.0
 20
0.0
 30
0.0
  9
$UCSORGBACK
 10
0.0
 20
0.0
 30
0.0
  9
$PUCSBASE
  2

  9
$PUCSNAME
  2

  9
$PUCSORG
 10
0.0
 20
0.0
 30
0.0
  9
$PUCSXDIR
 10
1.0
 20
0.0
 30
0.0
  9
$PUCSYDIR
 10
0.0
 20
1.0
 30
0.0
  9
$PUCSORTHOREF
  2

  9
$PUCSORTHOVIEW
 70
     0
  9
$PUCSORGTOP
 10
0.0
 20
0.0
 30
0.0
  9
$PUCSORGBOTTOM
 10
0.0
 20
0.0
 30
0.0
  9
$PUCSORGLEFT
 10
0.0
 20
0.0
 30
0.0
  9
$PUCSORGRIGHT
 10
0.0
 20
0.0
 30
0.0
  9
$PUCSORGFRONT
 10
0.0
 20
0.0
 30
0.0
  9
$PUCSORGBACK
 10
0.0
 20
0.0
 30
0.0
  9
$USERI1
 70
     0
  9
$USERI2
 70
     0
  9
$USERI3
 70
     0
  9
$USERI4
 70
     0
  9
$USERI5
 70
     0
  9
$USERR1
 40
0.0
  9
$USERR2
 40
0.0
  9
$USERR3
 40
0.0
  9
$USERR4
 40
0.0
  9
$USERR5
 40
0.0
  9
$WORLDVIEW
 70
     1
  9
$SHADEDGE
 70
     3
  9
$SHADEDIF
 70
    70
  9
$TILEMODE
 70
     1
  9
$MAXACTVP
 70
    16
  9
$PINSBASE
 10
0.0
 20
0.0
 30
0.0
  9
$PLIMCHECK
 70
     0
  9
$PEXTMIN
 10
1.000000000000000E+20
 20
1.000000000000000E+20
 30
1.000000000000000E+20
  9
$PEXTMAX
 10
-1.000000000000000E+20
 20
-1.000000000000000E+20
 30
-1.000000000000000E+20
  9
$PLIMMIN
 10
0.0
 20
0.0
  9
$PLIMMAX
 10
12.0
 20
9.0
  9
$UNITMODE
 70
     0
  9
$VISRETAIN
 70
     0
  9
$PLINEGEN
 70
     1
  9
$PSLTSCALE
 70
     1
  9
$TREEDEPTH
 70
  3020
  9
$CMLSTYLE
  2
Standard
  9
$CMLJUST
 70
     0
  9
$CMLSCALE
 40
1.0
  9
$PROXYGRAPHICS
 70
     0
  9
$MEASUREMENT
 70
     0
  9
$CELWEIGHT
370
     0
  9
$ENDCAPS
280
     0
  9
$JOINSTYLE
280
     0
  9
$LWDISPLAY
290
     1
  9
$INSUNITS
 70
     0
  9
$HYPERLINKBASE
  1

  9
$STYLESHEET
  1

  9
$XEDIT
290
     1
  9
$CEPSNTYPE
380
     0
  9
$PSTYLEMODE
290
     1
  9
$FINGERPRINTGUID
  2

  9
$VERSIONGUID
  2
{793C2654-F162-46E8-AC26-3944FF18E0B4}
  9
$EXTNAMES
290
     1
  9
$PSVPSCALE
 40
0.0
  9
$OLESTARTUP
290
     0
  0
ENDSEC
  0
SECTION
  2
CLASSES
  0
CLASS
  1
LWPOLYLINE
  2
AcDbPolyline
  3
AutoCAD 2000
 90
    32768
280
     0
281
     1
  0
CLASS
  1
IMAGE
  2
AcDbRasterImage
  3
ISM
 90
    32895
280
     0
281
     1
  0
CLASS
  1
OLE2FRAME
  2
AcDbOle2Frame
  3
AutoCAD 2000
 90
    32768
280
     0
281
     1
  0
CLASS
  1
HATCH
  2
AcDbHatch
  3
AutoCAD 2000
 90
    32768
280
     0
281
     1
  0
CLASS
  1
DICTIONARYVAR
  2
AcDbDictionaryVar
  3
AutoCAD 2000
 90
    32768
280
     0
281
     0
  0
CLASS
  1
RASTERVARIABLES
  2
AcDbRasterVariables
  3
ISM
 90
    32768
280
     0
281
     0
  0
CLASS
  1
IMAGEDEF
  2
AcDbRasterImageDef
  3
ISM
 90
    32768
280
     0
281
     0
  0
CLASS
  1
IMAGEDEF_REACTOR
  2
AcDbRasterImageDefReactor
  3
ISM
 90
    32769
280
     0
281
     0
  0
CLASS
  1
IDBUFFER
  2
AcDbIdBuffer
  3
AutoCAD 2000
 90
    32768
280
     0
281
     0
  0
CLASS
  1
SPATIAL_FILTER
  2
AcDbSpatialFilter
  3
AutoCAD 2000
 90
    32768
280
     0
281
     0
  0
CLASS
  1
XRECORD
  2
AcDbXrecord
  3
AutoCAD 2000
 90
    32768
280
     0
281
     0
  0
CLASS
  1
SORTENTSTABLE
  2
AcDbSortentsTable
  3
AutoCAD 2000
 90
    32768
280
     0
281
     0
  0
CLASS
  1
LAYER_INDEX
  2
AcDbLayerIndex
  3
AutoCAD 2000
 90
    32768
280
     0
281
     0
  0
CLASS
  1
SPATIAL_INDEX
  2
AcDbSpatialIndex
  3
AutoCAD 2000
 90
    32768
280
     0
281
     0
  0
CLASS
  1
OBJECT_PTR
  2
CAseDLPNTableRecord
  3
"ASE-LPNTableRecord"
 90
    32769
280
     0
281
     0
  0
CLASS
  1
LAYOUT
  2
AcDbLayout
  3
AutoCAD 2000
 90
        0
280
     0
281
     0
  0
CLASS
  1
PLOTSETTINGS
  2
AcDbPlotSettings
  3
AutoCAD 2000
 90
    32768
280
     0
281
     0
  0
CLASS
  1
ACDBDICTIONARYWDFLT
  2
AcDbDictionaryWithDefault
  3
AutoCAD 2000
 90
        0
280
     0
281
     0
  0
CLASS
  1
ACDBPLACEHOLDER
  2
AcDbPlaceHolder
  3
AutoCAD 2000
 90
        0
280
     0
281
     0
  0
CLASS
  1
VBA_PROJECT
  2
AcDbVbaProject
  3
acadvba
 90
    32768
280
     0
281
     0
  0
CLASS
  1
WIPEOUT
  2
AcDbWipeout
  3
WipeOut|AutoCAD Express Tool|expresstools@autodesk.com
 90
    32895
280
     0
281
     1
  0
CLASS
  1
WIPEOUTVARIABLES
  2
AcDbWipeoutVariables
  3
WipeOut|AutoCAD Express Tool|expresstools@autodesk.com
 90
        0
280
     0
281
     0
  0
CLASS
  1
RTEXT
  2
RText
  3
RText|AutoCAD Express Tool|expresstools@autodesk.com
 90
    32768
280
     0
281
     1
  0
CLASS
  1
ARCALIGNEDTEXT
  2
AcDbArcAlignedText
  3
ATEXT|AutoCAD Express Tool|expresstools@autodesk.com
 90
    32768
280
     0
281
     1
  0
ENDSEC
  0
SECTION
  2
TABLES
  0
TABLE
  2
VPORT
  5
7
330
0
100
AcDbSymbolTable
 70
     4
  0
VPORT
  5
19C
330
7
100
AcDbSymbolTableRecord
100
AcDbViewportTableRecord
  2
*Active
 70
     0
 10
0.0
 20
0.0
 11
1.0
 21
1.0
 12
21.88714991048577
 22
13.79615790099622
 13
0.0
 23
0.0
 14
1.0
 24
1.0
 15
0.0
 25
0.0
 16
0.0
 26
0.0
 36
1.0
 17
0.0
 27
0.0
 37
0.0
 40
26.82032109918033
 41
1.5
 42
50.0
 43
0.0
 44
0.0
 50
0.0
 51
0.0
 71
     0
 72
  2000
 73
     1
 74
     1
 75
     0
 76
     0
 77
     0
 78
     0
281
     0
 65
     0
110
0.0
120
0.0
130
0.0
111
1.0
121
0.0
131
0.0
112
0.0
122
1.0
132
0.0
 79
     0
146
0.0
  0
ENDTAB
  0
TABLE
  2
LTYPE
  5
4
330
0
100
AcDbSymbolTable
 70
     6
  0
LTYPE
  5
11
330
4
100
AcDbSymbolTableRecord
100
AcDbLinetypeTableRecord
  2
ByBlock
 70
     0
  3

 72
    65
 73
     0
 40
0.0
  0
LTYPE
  5
12
330
4
100
AcDbSymbolTableRecord
100
AcDbLinetypeTableRecord
  2
ByLayer
 70
     0
  3

 72
    65
 73
     0
 40
0.0
  0
LTYPE
  5
13
330
4
100
AcDbSymbolTableRecord
100
AcDbLinetypeTableRecord
  2
Continuous
 70
     0
  3
Solid line
 72
    65
 73
     0
 40
0.0
  0
LTYPE
  5
24
330
4
100
AcDbSymbolTableRecord
100
AcDbLinetypeTableRecord
  2
HIDDEN
 70
     0
  3
Hidden __ __ __ __ __ __ __ __ __ __ __ __ __ __
 72
    65
 73
     2
 40
0.075
 49
0.05
 74
     0
 49
-0.025
 74
     0
  0
LTYPE
  5
25
330
4
100
AcDbSymbolTableRecord
100
AcDbLinetypeTableRecord
  2
PHANTOM
 70
     0
  3
Phantom ______  __  __  ______  __  __  ______
 72
    65
 73
     6
 40
0.5
 49
0.25
 74
     0
 49
-0.05
 74
     0
 49
0.05
 74
     0
 49
-0.05
 74
     0
 49
0.05
 74
     0
 49
-0.05
 74
     0
  0
LTYPE
  5
26
330
4
100
AcDbSymbolTableRecord
100
AcDbLinetypeTableRecord
  2
CENTER
 70
     0
  3
Center ____ _ ____ _ ____ _ ____ _ ____ _ ____
 72
    65
 73
     4
 40
0.4
 49
0.25
 74
     0
 49
-0.05
 74
     0
 49
0.05
 74
     0
 49
-0.05
 74
     0
  0
LTYPE
  5
27
330
4
100
AcDbSymbolTableRecord
100
AcDbLinetypeTableRecord
  2
CENTERX2
 70
     0
  3
Center (2x) ________  __  ________  __  _____
 72
    65
 73
     4
 40
0.8
 49
0.5
 74
     0
 49
-0.1
 74
     0
 49
0.1
 74
     0
 49
-0.1
 74
     0
  0
LTYPE
  5
28
330
4
100
AcDbSymbolTableRecord
100
AcDbLinetypeTableRecord
  2
DOT2
 70
     0
  3
Dot (.5x) ........................................
 72
    65
 73
     2
 40
0.025
 49
0.0
 74
     0
 49
-0.025
 74
     0
  0
ENDTAB
  0
TABLE
  2
LAYER
  5
2
330
0
100
AcDbSymbolTable
 70
     1
  0
LAYER
  5
14
330
2
100
AcDbSymbolTableRecord
100
AcDbLayerTableRecord
  2
0
 70
     0
 62
     7
  6
Continuous
370
    -3
390
1D
  0
ENDTAB
  0
TABLE
  2
STYLE
  5
3
330
0
100
AcDbSymbolTable
 70
     2
  0
STYLE
  5
17
330
3
100
AcDbSymbolTableRecord
100
AcDbTextStyleTableRecord
  2
Standard
 70
     0
 40
0.0
 41
1.0
 50
0.0
 71
     0
 42
0.0
  3
txt
  4

  0
STYLE
  5
75
330
3
100
AcDbSymbolTableRecord
100
AcDbTextStyleTableRecord
  2
SLDTEXTSTYLE0
 70
     0
 40
0.0
 41
0.75
 50
0.0
 71
     0
 42
0.0
  3
txt
  4

  0
ENDTAB
  0
TABLE
  2
VIEW
  5
5
330
0
100
AcDbSymbolTable
 70
     0
  0
ENDTAB
  0
TABLE
  2
UCS
  5
6
330
0
100
AcDbSymbolTable
 70
     0
  0
ENDTAB
  0
TABLE
  2
APPID
  5
8
330
0
100
AcDbSymbolTable
 70
     1
  0
APPID
  5
16
330
8
100
AcDbSymbolTableRecord
100
AcDbRegAppTableRecord
  2
ACAD
 70
     0
  0
ENDTAB
  0
TABLE
  2
DIMSTYLE
  5
9
330
0
100
AcDbSymbolTable
 70
     4
100
AcDbDimStyleTable
 71
     1
340
18
  0
DIMSTYLE
105
18
330
9
100
AcDbSymbolTableRecord
100
AcDbDimStyleTableRecord
  2
Standard
 70
     0
340
17
  0
DIMSTYLE
105
CF
102
{ACAD_REACTORS
330
D3
330
E0
330
105
102
}
330
9
100
AcDbSymbolTableRecord
100
AcDbDimStyleTableRecord
  2
SLDDIMSTYLE0
 70
     0
 41
0.46875
 44
0.3
 78
    12
140
0.25
147
0.0625
173
     1
176
     1
177
     1
178
     1
271
     3
284
    12
340
17
  0
DIMSTYLE
105
E9
102
{ACAD_REACTORS
330
ED
102
}
330
9
100
AcDbSymbolTableRecord
100
AcDbDimStyleTableRecord
  2
SLDDIMSTYLE1
 70
     0
 41
0.46875
 44
0.3
 78
    12
140
0.25
147
0.0625
173
     1
176
     1
177
     1
178
     1
271
     3
284
    12
340
17
  0
DIMSTYLE
105
194
330
9
100
AcDbSymbolTableRecord
100
AcDbDimStyleTableRecord
  2
SLDDIMSTYLE2
 70
     0
 41
0.46875
 44
0.0
140
0.46875
147
0.1171875
173
     1
271
     0
272
     0
340
17
  0
ENDTAB
  0
TABLE
  2
BLOCK_RECORD
  5
1
330
0
100
AcDbSymbolTable
 70
     5
  0
BLOCK_RECORD
  5
A
330
1
100
AcDbSymbolTableRecord
100
AcDbBlockTableRecord
  2
*MODEL_SPACE
340
20
  0
BLOCK_RECORD
  5
B
330
1
100
AcDbSymbolTableRecord
100
AcDbBlockTableRecord
  2
*PAPER_SPACE
340
21
  0
BLOCK_RECORD
  5
A7
330
1
100
AcDbSymbolTableRecord
100
AcDbBlockTableRecord
  2
NOTE49
340
0
102
{BLKREFS
331
AD
102
}
  0
BLOCK_RECORD
  5
C6
330
1
100
AcDbSymbolTableRecord
100
AcDbBlockTableRecord
  2
*D1
340
0
  0
BLOCK_RECORD
  5
D4
330
1
100
AcDbSymbolTableRecord
100
AcDbBlockTableRecord
  2
*D2
340
0
  0
BLOCK_RECORD
  5
E1
330
1
100
AcDbSymbolTableRecord
100
AcDbBlockTableRecord
  2
*D3
340
0
  0
BLOCK_RECORD
  5
F9
330
1
100
AcDbSymbolTableRecord
100
AcDbBlockTableRecord
  2
*D4
340
0
  0
ENDTAB
  0
ENDSEC
  0
SECTION
  2
BLOCKS
  0
BLOCK
  5
D
330
A
100
AcDbEntity
  8
0
100
AcDbBlockBegin
  2
*MODEL_SPACE
 70
     0
 10
0.0
 20
0.0
 30
0.0
  3
*MODEL_SPACE
  1

  0
ENDBLK
  5
E
330
A
100
AcDbEntity
  8
0
100
AcDbBlockEnd
  0
BLOCK
  5
F
330
B
100
AcDbEntity
 67
     1
  8
0
100
AcDbBlockBegin
  2
*PAPER_SPACE
 70
     0
 10
0.0
 20
0.0
 30
0.0
  3
*PAPER_SPACE
  1

  0
ENDBLK
  5
10
330
B
100
AcDbEntity
 67
     1
  8
0
100
AcDbBlockEnd
  0
BLOCK
  5
A8
330
A7
100
AcDbEntity
  8
0
 62
     0
100
AcDbBlockBegin
  2
NOTE49
 70
     0
 10
0.0
 20
0.0
 30
0.0
  3
NOTE49
  1

  0
MTEXT
  5
A9
330
A7
100
AcDbEntity
  8
0
 62
     7
100
AcDbMText
 10
0.0
 20
0.0
 30
0.0
 40
0.225
 41
0.0
 71
     1
 72
     1
  1
BREAK SHARP EDGES 0.010 RAD %%p 0.003
  7
SLDTEXTSTYLE0
 73
     1
 44
1.0
  0
MTEXT
  5
AA
330
A7
100
AcDbEntity
  8
0
 62
     7
100
AcDbMText
 10
0.0
 20
-0.3375
 30
0.0
 40
0.225
 41
0.0
 71
     1
 72
     1
  1
MACHINED SURF FINISH  
  7
SLDTEXTSTYLE0
 73
     1
 44
1.0
  0
MTEXT
  5
AB
330
A7
100
AcDbEntity
  8
0
 62
     7
100
AcDbMText
 10
3.464999999999999
 20
-0.3375
 30
0.0
 40
0.225
 41
0.0
 71
     1
 72
     1
  1
< 125 MICROINCH
  7
SLDTEXTSTYLE0
 73
     1
 44
1.0
  0
ENDBLK
  5
AC
330
A7
100
AcDbEntity
  8
0
100
AcDbBlockEnd
  0
BLOCK
  5
C7
330
C6
100
AcDbEntity
  8
0
 62
     1
100
AcDbBlockBegin
  2
*D1
 70
     1
 10
0.0
 20
0.0
 30
0.0
  3
*D1
  1

  0
MTEXT
  5
C8
330
C6
100
AcDbEntity
  8
0
100
AcDbMText
 10
19.030795375
 20
22.8918622501
 30
0.0
 40
0.25
 41
0.0
 71
     7
 72
     1
  1
14"
  7
SLDTEXTSTYLE0
 73
     1
 44
1.0
  0
LINE
  5
C9
330
C6
100
AcDbEntity
  8
0
100
AcDbLine
 10
12.2684024505
 20
19.5670358153
 30
0.0
 11
12.2684024505
 21
23.30426484449999
 31
0.0
  0
LINE
  5
CA
330
C6
100
AcDbEntity
  8
0
100
AcDbLine
 10
26.2684024505
 20
19.5670358153
 30
0.0
 11
26.2684024505
 21
23.30426484449999
 31
0.0
  0
LINE
  5
CB
330
C6
100
AcDbEntity
  8
0
100
AcDbLine
 10
12.2684024505
 20
23.00426484449999
 30
0.0
 11
18.874545375
 21
23.00426484449999
 31
0.0
  0
LINE
  5
CC
330
C6
100
AcDbEntity
  8
0
100
AcDbLine
 10
26.2684024505
 20
23.00426484449999
 30
0.0
 11
19.662259526
 21
23.00426484449999
 31
0.0
  0
SOLID
  5
CD
330
C6
100
AcDbEntity
  8
0
100
AcDbTrace
 10
12.2684024505
 20
23.00426484449999
 30
0.0
 11
12.7371524505
 21
22.92613984449999
 31
0.0
 12
12.7371524505
 22
23.08238984449999
 32
0.0
 13
12.7371524505
 23
23.08238984449999
 33
0.0
  0
SOLID
  5
CE
330
C6
100
AcDbEntity
  8
0
100
AcDbTrace
 10
26.2684024505
 20
23.00426484449999
 30
0.0
 11
25.7996524505
 21
23.08238984449999
 31
0.0
 12
25.7996524505
 22
22.92613984449999
 32
0.0
 13
25.7996524505
 23
22.92613984449999
 33
0.0
  0
POINT
  5
D0
330
C6
100
AcDbEntity
  8
0
100
AcDbPoint
 10
12.2684024505
 20
19.4670358153
 30
0.0
  0
POINT
  5
D1
330
C6
100
AcDbEntity
  8
0
100
AcDbPoint
 10
26.2684024505
 20
19.4670358153
 30
0.0
  0
ENDBLK
  5
D2
330
C6
100
AcDbEntity
  8
0
 62
     1
100
AcDbBlockEnd
  0
BLOCK
  5
D5
330
D4
100
AcDbEntity
  8
0
 62
     1
100
AcDbBlockBegin
  2
*D2
 70
     1
 10
0.0
 20
0.0
 30
0.0
  3
*D2
  1

  0
MTEXT
  5
D6
330
D4
100
AcDbEntity
  8
0
100
AcDbMText
 10
10.0872649541
 20
16.35463322089999
 30
0.0
 40
0.25
 41
0.0
 71
     7
 72
     1
  1
10"
  7
SLDTEXTSTYLE0
 73
     1
 44
1.0
  0
LINE
  5
D7
330
D4
100
AcDbEntity
  8
0
100
AcDbLine
 10
14.1684024505
 20
21.4670358153
 30
0.0
 11
10.01239868049999
 21
21.4670358153
 31
0.0
  0
LINE
  5
D8
330
D4
100
AcDbEntity
  8
0
100
AcDbLine
 10
14.1684024505
 20
11.46703581529999
 30
0.0
 11
10.01239868049999
 21
11.46703581529999
 31
0.0
  0
LINE
  5
D9
330
D4
100
AcDbEntity
  8
0
100
AcDbLine
 10
10.31239868049999
 20
21.4670358153
 30
0.0
 11
10.31239868049999
 21
16.7044384096
 31
0.0
  0
LINE
  5
DA
330
D4
100
AcDbEntity
  8
0
100
AcDbLine
 10
10.31239868049999
 20
11.46703581529999
 30
0.0
 11
10.31239868049999
 21
16.22963322089999
 31
0.0
  0
SOLID
  5
DB
330
D4
100
AcDbEntity
  8
0
100
AcDbTrace
 10
10.31239868049999
 20
21.4670358153
 30
0.0
 11
10.23427368049999
 21
20.9982858153
 31
0.0
 12
10.39052368049999
 22
20.9982858153
 32
0.0
 13
10.39052368049999
 23
20.9982858153
 33
0.0
  0
SOLID
  5
DC
330
D4
100
AcDbEntity
  8
0
100
AcDbTrace
 10
10.31239868049999
 20
11.46703581529999
 30
0.0
 11
10.39052368049999
 21
11.93578581529999
 31
0.0
 12
10.23427368049999
 22
11.93578581529999
 32
0.0
 13
10.23427368049999
 23
11.93578581529999
 33
0.0
  0
POINT
  5
DD
330
D4
100
AcDbEntity
  8
0
100
AcDbPoint
 10
14.2684024505
 20
21.4670358153
 30
0.0
  0
POINT
  5
DE
330
D4
100
AcDbEntity
  8
0
100
AcDbPoint
 10
14.2684024505
 20
11.46703581529999
 30
0.0
  0
ENDBLK
  5
DF
330
D4
100
AcDbEntity
  8
0
 62
     1
100
AcDbBlockEnd
  0
BLOCK
  5
E2
330
E1
100
AcDbEntity
  8
0
 62
     1
100
AcDbBlockBegin
  2
*D3
 70
     1
 10
0.0
 20
0.0
 30
0.0
  3
*D3
  1

  0
MTEXT
  5
E3
330
E1
100
AcDbEntity
  8
0
 62
     7
100
AcDbMText
 10
27.2494320884
 20
10.8719604147
 30
0.0
 40
0.25
 41
0.0
 71
     7
 72
     1
  1
2"
  7
SLDTEXTSTYLE0
 73
     1
 44
1.0
  0
MTEXT
  5
E4
330
E1
100
AcDbEntity
  8
0
 62
     7
100
AcDbMText
 10
27.5745570884
 20
10.8719604147
 30
0.0
 40
0.25
 41
0.0
 71
     7
 72
     1
  1
 RAD
  7
SLDTEXTSTYLE0
 73
     1
 44
1.0
  0
MTEXT
  5
E5
330
E1
100
AcDbEntity
  8
0
 62
     7
100
AcDbMText
 10
27.0885120412
 20
10.397155226
 30
0.0
 40
0.25
 41
0.0
 71
     7
 72
     1
  1
4 PLACES
  7
SLDTEXTSTYLE0
 73
     1
 44
1.0
  0
LINE
  5
E6
330
E1
100
AcDbEntity
  8
0
 62
     7
100
AcDbLine
 10
25.4530840103
 20
11.8556607497
 30
0.0
 11
26.2681995412
 21
10.74696041469999
 31
0.0
  0
LINE
  5
E7
330
E1
100
AcDbEntity
  8
0
 62
     7
100
AcDbLine
 10
26.2681995412
 20
10.74696041469999
 30
0.0
 11
26.8931995412
 21
10.74696041469999
 31
0.0
  0
SOLID
  5
E8
330
E1
100
AcDbEntity
  8
0
 62
     7
100
AcDbTrace
 10
25.4530840103
 20
11.8556607497
 30
0.0
 11
25.6677994123
 21
11.43171809529999
 31
0.0
 12
25.79368808929999
 22
11.5242713421
 32
0.0
 13
25.79368808929999
 23
11.5242713421
 33
0.0
  0
POINT
  5
EA
330
E1
100
AcDbEntity
  8
0
 62
     7
100
AcDbPoint
 10
25.4530840103
 20
11.8556607497
 30
0.0
  0
POINT
  5
EB
330
E1
100
AcDbEntity
  8
0
 62
     7
100
AcDbPoint
 10
24.2684024505
 20
13.46703581529999
 30
0.0
  0
ENDBLK
  5
EC
330
E1
100
AcDbEntity
  8
0
100
AcDbBlockEnd
  0
BLOCK
  5
FA
330
F9
100
AcDbEntity
  8
0
 62
     1
100
AcDbBlockBegin
  2
*D4
 70
     1
 10
0.0
 20
0.0
 30
0.0
  3
*D4
  1

  0
MTEXT
  5
FB
330
F9
100
AcDbEntity
  8
0
100
AcDbMText
 10
36.2910168976
 20
21.91127789579999
 30
0.0
 40
0.25
 41
0.0
 71
     7
 72
     1
  1
3/4"
  7
SLDTEXTSTYLE0
 73
     1
 44
1.0
  0
LINE
  5
FC
330
F9
100
AcDbEntity
  8
0
100
AcDbLine
 10
34.5010367578
 20
19.5670358153
 30
0.0
 11
34.5010367578
 21
22.3236804901
 31
0.0
  0
LINE
  5
FD
330
F9
100
AcDbEntity
  8
0
100
AcDbLine
 10
35.2510367578
 20
19.5670358153
 30
0.0
 11
35.2510367578
 21
22.3236804901
 31
0.0
  0
LINE
  5
FE
330
F9
100
AcDbEntity
  8
0
100
AcDbLine
 10
34.5010367578
 20
22.0236804901
 30
0.0
 11
33.2510367578
 21
22.0236804901
 31
0.0
  0
LINE
  5
FF
330
F9
100
AcDbEntity
  8
0
100
AcDbLine
 10
35.2510367578
 20
22.0236804901
 30
0.0
 11
36.1347668976
 21
22.0236804901
 31
0.0
  0
SOLID
  5
100
330
F9
100
AcDbEntity
  8
0
100
AcDbTrace
 10
34.5010367578
 20
22.0236804901
 30
0.0
 11
34.0322867578
 21
22.1018054901
 31
0.0
 12
34.0322867578
 22
21.9455554901
 32
0.0
 13
34.0322867578
 23
21.9455554901
 33
0.0
  0
SOLID
  5
101
330
F9
100
AcDbEntity
  8
0
100
AcDbTrace
 10
35.2510367578
 20
22.0236804901
 30
0.0
 11
35.7197867578
 21
21.9455554901
 31
0.0
 12
35.7197867578
 22
22.1018054901
 32
0.0
 13
35.7197867578
 23
22.1018054901
 33
0.0
  0
POINT
  5
102
330
F9
100
AcDbEntity
  8
0
100
AcDbPoint
 10
34.5010367578
 20
19.4670358153
 30
0.0
  0
POINT
  5
103
330
F9
100
AcDbEntity
  8
0
100
AcDbPoint
 10
35.2510367578
 20
19.4670358153
 30
0.0
  0
ENDBLK
  5
104
330
F9
100
AcDbEntity
  8
0
 62
     1
100
AcDbBlockEnd
  0
ENDSEC
  0
SECTION
  2
ENTITIES
  0
LINE
  5
2A
330
A
100
AcDbEntity
  8
0
  6
Continuous
 62
     7
370
     0
100
AcDbLine
 10
8.4375
 20
26.5625
 30
0.0
 11
3.75
 21
26.5625
 31
0.0
  0
LINE
  5
2B
330
A
100
AcDbEntity
  8
0
  6
Continuous
 62
     7
370
     0
100
AcDbLine
 10
13.125
 20
26.5625
 30
0.0
 11
8.4375
 21
26.5625
 31
0.0
  0
LINE
  5
2C
330
A
100
AcDbEntity
  8
0
  6
Continuous
 62
     7
370
     0
100
AcDbLine
 10
41.25
 20
0.9375
 30
0.0
 11
36.5625
 21
0.9375
 31
0.0
  0
LINE
  5
2D
330
A
100
AcDbEntity
  8
0
  6
Continuous
 62
     7
370
     0
100
AcDbLine
 10
41.25
 20
0.9375
 30
0.0
 11
41.25
 21
7.34375
 31
0.0
  0
LINE
  5
2E
330
A
100
AcDbEntity
  8
0
  6
Continuous
 62
     7
370
     0
100
AcDbLine
 10
41.25
 20
20.15625
 30
0.0
 11
41.5625
 21
20.15625
 31
0.0
  0
LINE
  5
2F
330
A
100
AcDbEntity
  8
0
  6
Continuous
 62
     7
370
     0
100
AcDbLine
 10
41.25
 20
13.75
 30
0.0
 11
41.5625
 21
13.75
 31
0.0
  0
LINE
  5
30
330
A
100
AcDbEntity
  8
0
  6
Continuous
 62
     7
370
     0
100
AcDbLine
 10
17.8125
 20
26.5625
 30
0.0
 11
13.125
 21
26.5625
 31
0.0
  0
LINE
  5
31
330
A
100
AcDbEntity
  8
0
  6
Continuous
 62
     7
370
     0
100
AcDbLine
 10
22.5
 20
26.5625
 30
0.0
 11
17.8125
 21
26.5625
 31
0.0
  0
LINE
  5
32
330
A
100
AcDbEntity
  8
0
  6
Continuous
 62
     7
370
     0
100
AcDbLine
 10
27.1875
 20
26.5625
 30
0.0
 11
22.5
 21
26.5625
 31
0.0
  0
LINE
  5
33
330
A
100
AcDbEntity
  8
0
  6
Continuous
 62
     7
370
     0
100
AcDbLine
 10
31.875
 20
26.5625
 30
0.0
 11
27.1875
 21
26.5625
 31
0.0
  0
LINE
  5
34
330
A
100
AcDbEntity
  8
0
  6
Continuous
 62
     7
370
     0
100
AcDbLine
 10
36.5625
 20
26.5625
 30
0.0
 11
31.875
 21
26.5625
 31
0.0
  0
LINE
  5
35
330
A
100
AcDbEntity
  8
0
  6
Continuous
 62
     7
370
     0
100
AcDbLine
 10
41.25
 20
7.34375
 30
0.0
 11
41.5625
 21
7.34375
 31
0.0
  0
LINE
  5
36
330
A
100
AcDbEntity
  8
0
  6
Continuous
 62
     7
370
     0
100
AcDbLine
 10
41.25
 20
26.5625
 30
0.0
 11
36.5625
 21
26.5625
 31
0.0
  0
LINE
  5
37
330
A
100
AcDbEntity
  8
0
  6
Continuous
 62
     7
370
     0
100
AcDbLine
 10
36.5625
 20
26.5625
 30
0.0
 11
36.5625
 21
26.875
 31
0.0
  0
LINE
  5
38
330
A
100
AcDbEntity
  8
0
  6
Continuous
 62
     7
370
     0
100
AcDbLine
 10
31.875
 20
26.5625
 30
0.0
 11
31.875
 21
26.875
 31
0.0
  0
LINE
  5
39
330
A
100
AcDbEntity
  8
0
  6
Continuous
 62
     7
370
     0
100
AcDbLine
 10
27.1875
 20
26.5625
 30
0.0
 11
27.1875
 21
26.875
 31
0.0
  0
LINE
  5
3A
330
A
100
AcDbEntity
  8
0
  6
Continuous
 62
     7
370
     0
100
AcDbLine
 10
22.5
 20
26.5625
 30
0.0
 11
22.5
 21
26.875
 31
0.0
  0
LINE
  5
3B
330
A
100
AcDbEntity
  8
0
  6
Continuous
 62
     7
370
     0
100
AcDbLine
 10
17.8125
 20
26.5625
 30
0.0
 11
17.8125
 21
26.875
 31
0.0
  0
LINE
  5
3C
330
A
100
AcDbEntity
  8
0
  6
Continuous
 62
     7
370
     0
100
AcDbLine
 10
13.125
 20
26.5625
 30
0.0
 11
13.125
 21
26.875
 31
0.0
  0
LINE
  5
3D
330
A
100
AcDbEntity
  8
0
  6
Continuous
 62
     7
370
     0
100
AcDbLine
 10
8.4375
 20
26.5625
 30
0.0
 11
8.4375
 21
26.875
 31
0.0
  0
LINE
  5
3E
330
A
100
AcDbEntity
  8
0
  6
Continuous
 62
     7
370
     0
100
AcDbLine
 10
21.875
 20
4.224999999999999
 30
0.0
 11
21.875
 21
0.9399999999999998
 31
0.0
  0
LINE
  5
3F
330
A
100
AcDbEntity
  8
0
  6
Continuous
 62
     7
370
     0
100
AcDbLine
 10
27.5
 20
5.9375
 30
0.0
 11
41.25
 21
5.9375
 31
0.0
  0
LINE
  5
40
330
A
100
AcDbEntity
  8
0
  6
Continuous
 62
     7
370
     0
100
AcDbLine
 10
27.5
 20
5.9375
 30
0.0
 11
27.5
 21
0.9375
 31
0.0
  0
LINE
  5
41
330
A
100
AcDbEntity
  8
0
  6
Continuous
 62
     7
370
     0
100
AcDbLine
 10
33.75
 20
5.9375
 30
0.0
 11
33.75
 21
0.9375
 31
0.0
  0
LINE
  5
42
330
A
100
AcDbEntity
  8
0
  6
Continuous
 62
     7
370
     0
100
AcDbLine
 10
33.75
 20
1.407499999999999
 30
0.0
 11
41.25
 21
1.407499999999999
 31
0.0
  0
LINE
  5
43
330
A
100
AcDbEntity
  8
0
  6
Continuous
 62
     7
370
     0
100
AcDbLine
 10
33.75
 20
2.345
 30
0.0
 11
41.25
 21
2.345
 31
0.0
  0
LINE
  5
44
330
A
100
AcDbEntity
  8
0
  6
Continuous
 62
     7
370
     0
100
AcDbLine
 10
33.75
 20
4.219999999999999
 30
0.0
 11
41.25
 21
4.219999999999999
 31
0.0
  0
LINE
  5
45
330
A
100
AcDbEntity
  8
0
  6
Continuous
 62
     7
370
     0
100
AcDbLine
 10
34.6875
 20
2.345
 30
0.0
 11
34.6875
 21
0.9375
 31
0.0
  0
LINE
  5
46
330
A
100
AcDbEntity
  8
0
  6
Continuous
 62
     7
370
     0
100
AcDbLine
 10
21.875
 20
1.877499999999999
 30
0.0
 11
33.75
 21
1.877499999999999
 31
0.0
  0
LINE
  5
47
330
A
100
AcDbEntity
  8
0
  6
Continuous
 62
     7
370
     0
100
AcDbLine
 10
40.3125
 20
2.345
 30
0.0
 11
40.3125
 21
0.9375
 31
0.0
  0
LINE
  5
48
330
A
100
AcDbEntity
  8
0
  6
Continuous
 62
     7
370
     0
100
AcDbLine
 10
33.75
 20
5.0
 30
0.0
 11
27.5
 21
5.0
 31
0.0
  0
LINE
  5
49
330
A
100
AcDbEntity
  8
0
  6
Continuous
 62
     7
370
     0
100
AcDbLine
 10
27.5
 20
2.967499999999999
 30
0.0
 11
33.75
 21
2.967499999999999
 31
0.0
  0
LINE
  5
4A
330
A
100
AcDbEntity
  8
0
  6
Continuous
 62
     7
370
     0
100
AcDbLine
 10
27.5
 20
1.407499999999999
 30
0.0
 11
33.75
 21
1.407499999999999
 31
0.0
  0
LINE
  5
4B
330
A
100
AcDbEntity
  8
0
  6
Continuous
 62
     7
370
     0
100
AcDbLine
 10
21.875
 20
3.285
 30
0.0
 11
27.5
 21
3.285
 31
0.0
  0
LINE
  5
4C
330
A
100
AcDbEntity
  8
0
  6
Continuous
 62
     7
370
     0
100
AcDbLine
 10
41.25
 20
7.34375
 30
0.0
 11
41.25
 21
13.75
 31
0.0
  0
LINE
  5
4D
330
A
100
AcDbEntity
  8
0
  6
Continuous
 62
     7
370
     0
100
AcDbLine
 10
41.25
 20
13.75
 30
0.0
 11
41.25
 21
20.15625
 31
0.0
  0
LINE
  5
4E
330
A
100
AcDbEntity
  8
0
  6
Continuous
 62
     7
370
     0
100
AcDbLine
 10
41.25
 20
20.15625
 30
0.0
 11
41.25
 21
26.5625
 31
0.0
  0
LINE
  5
4F
330
A
100
AcDbEntity
  8
0
  6
Continuous
 62
     7
370
     0
100
AcDbLine
 10
36.5625
 20
0.9375
 30
0.0
 11
31.875
 21
0.9375
 31
0.0
  0
LINE
  5
50
330
A
100
AcDbEntity
  8
0
  6
Continuous
 62
     7
370
     0
100
AcDbLine
 10
31.875
 20
0.9375
 30
0.0
 11
27.1875
 21
0.9375
 31
0.0
  0
LINE
  5
51
330
A
100
AcDbEntity
  8
0
  6
Continuous
 62
     7
370
     0
100
AcDbLine
 10
21.875
 20
3.754999999999999
 30
0.0
 11
27.5
 21
3.754999999999999
 31
0.0
  0
LINE
  5
52
330
A
100
AcDbEntity
  8
0
  6
Continuous
 62
     7
370
     0
100
AcDbLine
 10
21.875
 20
2.34375
 30
0.0
 11
12.5
 21
2.34375
 31
0.0
  0
LINE
  5
53
330
A
100
AcDbEntity
  8
0
  6
Continuous
 62
     7
370
     0
100
AcDbLine
 10
27.5
 20
4.224999999999999
 30
0.0
 11
21.875
 21
4.224999999999999
 31
0.0
  0
LINE
  5
54
330
A
100
AcDbEntity
  8
0
  6
Continuous
 62
     7
370
     0
100
AcDbLine
 10
25.625
 20
4.224999999999999
 30
0.0
 11
25.625
 21
2.814999999999999
 31
0.0
  0
LINE
  5
55
330
A
100
AcDbEntity
  8
0
  6
Continuous
 62
     7
370
     0
100
AcDbLine
 10
27.5
 20
4.53
 30
0.0
 11
33.75
 21
4.53
 31
0.0
  0
LINE
  5
56
330
A
100
AcDbEntity
  8
0
  6
Continuous
 62
     7
370
     0
100
AcDbLine
 10
21.875
 20
2.814999999999999
 30
0.0
 11
27.5
 21
2.814999999999999
 31
0.0
  0
LINE
  5
57
330
A
100
AcDbEntity
  8
0
  6
Continuous
 62
     7
370
     0
100
AcDbLine
 10
30.625
 20
5.0
 30
0.0
 11
30.625
 21
2.967499999999999
 31
0.0
  0
LINE
  5
58
330
A
100
AcDbEntity
  8
0
  6
Continuous
 62
     7
370
     0
100
AcDbLine
 10
27.1875
 20
0.9375
 30
0.0
 11
22.5
 21
0.9375
 31
0.0
  0
LINE
  5
59
330
A
100
AcDbEntity
  8
0
  6
Continuous
 62
     7
370
     0
100
AcDbLine
 10
22.5
 20
0.9375
 30
0.0
 11
17.8125
 21
0.9375
 31
0.0
  0
LINE
  5
5A
330
A
100
AcDbEntity
  8
0
  6
Continuous
 62
     7
370
     0
100
AcDbLine
 10
17.8125
 20
0.9375
 30
0.0
 11
13.125
 21
0.9375
 31
0.0
  0
LINE
  5
5B
330
A
100
AcDbEntity
  8
0
  6
Continuous
 62
     7
370
     0
100
AcDbLine
 10
13.125
 20
0.9375
 30
0.0
 11
8.4375
 21
0.9375
 31
0.0
  0
LINE
  5
5C
330
A
100
AcDbEntity
  8
0
  6
Continuous
 62
     7
370
     0
100
AcDbLine
 10
32.1875
 20
5.0
 30
0.0
 11
32.1875
 21
2.967499999999999
 31
0.0
  0
LINE
  5
5D
330
A
100
AcDbEntity
  8
0
  6
Continuous
 62
     7
370
     0
100
AcDbLine
 10
8.4375
 20
0.9375
 30
0.0
 11
3.75
 21
0.9375
 31
0.0
  0
LINE
  5
5E
330
A
100
AcDbEntity
  8
0
  6
Continuous
 62
     7
370
     0
100
AcDbLine
 10
1.875
 20
26.5625
 30
0.0
 11
1.875
 21
0.9375
 31
0.0
  0
LINE
  5
5F
330
A
100
AcDbEntity
  8
0
  6
Continuous
 62
     7
370
     0
100
AcDbLine
 10
3.75
 20
7.34375
 30
0.0
 11
3.75
 21
13.75
 31
0.0
  0
LINE
  5
60
330
A
100
AcDbEntity
  8
0
  6
Continuous
 62
     7
370
     0
100
AcDbLine
 10
3.75
 20
13.75
 30
0.0
 11
3.75
 21
20.15625
 31
0.0
  0
LINE
  5
61
330
A
100
AcDbEntity
  8
0
  6
Continuous
 62
     7
370
     0
100
AcDbLine
 10
3.75
 20
20.15625
 30
0.0
 11
3.75
 21
26.5625
 31
0.0
  0
LINE
  5
62
330
A
100
AcDbEntity
  8
0
  6
Continuous
 62
     7
370
     0
100
AcDbLine
 10
3.75
 20
20.15625
 30
0.0
 11
3.4375
 21
20.15625
 31
0.0
  0
LINE
  5
63
330
A
100
AcDbEntity
  8
0
  6
Continuous
 62
     7
370
     0
100
AcDbLine
 10
36.5625
 20
0.9375
 30
0.0
 11
36.5625
 21
0.625
 31
0.0
  0
LINE
  5
64
330
A
100
AcDbEntity
  8
0
  6
Continuous
 62
     7
370
     0
100
AcDbLine
 10
31.875
 20
0.9375
 30
0.0
 11
31.875
 21
0.625
 31
0.0
  0
LINE
  5
65
330
A
100
AcDbEntity
  8
0
  6
Continuous
 62
     7
370
     0
100
AcDbLine
 10
27.1875
 20
0.9375
 30
0.0
 11
27.1875
 21
0.625
 31
0.0
  0
LINE
  5
66
330
A
100
AcDbEntity
  8
0
  6
CENTERX2
 62
     7
370
     0
100
AcDbLine
 10
22.5
 20
0.9375
 30
0.0
 11
22.5
 21
0.625
 31
0.0
  0
LINE
  5
67
330
A
100
AcDbEntity
  8
0
  6
Continuous
 62
     7
370
     0
100
AcDbLine
 10
17.8125
 20
0.9375
 30
0.0
 11
17.8125
 21
0.625
 31
0.0
  0
LINE
  5
68
330
A
100
AcDbEntity
  8
0
  6
Continuous
 62
     7
370
     0
100
AcDbLine
 10
13.125
 20
0.9375
 30
0.0
 11
13.125
 21
0.625
 31
0.0
  0
LINE
  5
69
330
A
100
AcDbEntity
  8
0
  6
Continuous
 62
     7
370
     0
100
AcDbLine
 10
8.4375
 20
0.9375
 30
0.0
 11
8.4375
 21
0.625
 31
0.0
  0
LINE
  5
6A
330
A
100
AcDbEntity
  8
0
  6
Continuous
 62
     7
370
     0
100
AcDbLine
 10
3.75
 20
13.75
 30
0.0
 11
3.4375
 21
13.75
 31
0.0
  0
LINE
  5
6B
330
A
100
AcDbEntity
  8
0
  6
Continuous
 62
     7
370
     0
100
AcDbLine
 10
3.75
 20
7.34375
 30
0.0
 11
3.4375
 21
7.34375
 31
0.0
  0
LINE
  5
6C
330
A
100
AcDbEntity
  8
0
  6
Continuous
 62
     7
370
     0
100
AcDbLine
 10
3.75
 20
0.9375
 30
0.0
 11
3.75
 21
7.34375
 31
0.0
  0
LINE
  5
6D
330
A
100
AcDbEntity
  8
0
  6
Continuous
 62
     7
370
     0
100
AcDbLine
 10
12.5
 20
2.34375
 30
0.0
 11
12.5
 21
0.9375
 31
0.0
  0
LINE
  5
6E
330
A
100
AcDbEntity
  8
0
  6
Continuous
 62
     7
370
     0
100
AcDbLine
 10
41.25
 20
26.0925
 30
0.0
 11
31.25
 21
26.0925
 31
0.0
  0
LINE
  5
6F
330
A
100
AcDbEntity
  8
0
  6
Continuous
 62
     7
370
     0
100
AcDbLine
 10
41.25
 20
25.6225
 30
0.0
 11
31.25
 21
25.6225
 31
0.0
  0
LINE
  5
70
330
A
100
AcDbEntity
  8
0
  6
Continuous
 62
     7
370
     0
100
AcDbLine
 10
41.25
 20
25.15249999999999
 30
0.0
 11
31.25
 21
25.15249999999999
 31
0.0
  0
LINE
  5
71
330
A
100
AcDbEntity
  8
0
  6
Continuous
 62
     7
370
     0
100
AcDbLine
 10
31.25
 20
26.5625
 30
0.0
 11
31.25
 21
25.15249999999999
 31
0.0
  0
LINE
  5
72
330
A
100
AcDbEntity
  8
0
  6
Continuous
 62
     7
370
     0
100
AcDbLine
 10
32.1875
 20
26.0925
 30
0.0
 11
32.1875
 21
25.15249999999999
 31
0.0
  0
LINE
  5
73
330
A
100
AcDbEntity
  8
0
  6
Continuous
 62
     7
370
     0
100
AcDbLine
 10
39.375
 20
26.0925
 30
0.0
 11
39.375
 21
25.15249999999999
 31
0.0
  0
LINE
  5
74
330
A
100
AcDbEntity
  8
0
  6
Continuous
 62
     7
370
     0
100
AcDbLine
 10
37.8125
 20
26.0925
 30
0.0
 11
37.8125
 21
25.15249999999999
 31
0.0
  0
MTEXT
  5
76
330
A
100
AcDbEntity
  8
0
 62
     1
100
AcDbMText
 10
22.11278365389953
 20
2.333290710155166
 30
0.0
 40
0.25
 41
0.0
 71
     1
 72
     1
  1
STEEL A-36 3/4" THICK BURNED
  7
SLDTEXTSTYLE0
 73
     1
 44
1.0
  0
MTEXT
  5
77
330
A
100
AcDbEntity
  8
0
 62
     1
100
AcDbMText
 10
29.121649802721
 20
1.73314416731489
 30
0.0
 40
0.25
 41
0.0
 71
     1
 72
     1
  1
 29.0 lbs
  7
SLDTEXTSTYLE0
 73
     1
 44
1.0
  0
MTEXT
  5
78
330
A
100
AcDbEntity
  8
0
 62
     7
100
AcDbMText
 10
41.7834876988
 20
22.72165698139999
 30
0.0
 40
0.234375
 41
0.0
 71
     1
 72
     1
  1
D
  7
SLDTEXTSTYLE0
 73
     1
 44
1.0
  0
MTEXT
  5
79
330
A
100
AcDbEntity
  8
0
 62
     7
100
AcDbMText
 10
41.7377646242
 20
16.36552868689999
 30
0.0
 40
0.234375
 41
0.0
 71
     1
 72
     1
  1
C
  7
SLDTEXTSTYLE0
 73
     1
 44
1.0
  0
MTEXT
  5
7A
330
A
100
AcDbEntity
  8
0
 62
     7
100
AcDbMText
 10
41.7653020004
 20
10.5470378992
 30
0.0
 40
0.234375
 41
0.0
 71
     1
 72
     1
  1
B
  7
SLDTEXTSTYLE0
 73
     1
 44
1.0
  0
MTEXT
  5
7B
330
A
100
AcDbEntity
  8
0
 62
     7
100
AcDbMText
 10
41.7638791502
 20
4.2844205207
 30
0.0
 40
0.234375
 41
0.0
 71
     1
 72
     1
  1
A
  7
SLDTEXTSTYLE0
 73
     1
 44
1.0
  0
MTEXT
  5
7C
330
A
100
AcDbEntity
  8
0
 62
     7
100
AcDbMText
 10
2.4108814967
 20
4.233535921399999
 30
0.0
 40
0.234375
 41
0.0
 71
     1
 72
     1
  1
A
  7
SLDTEXTSTYLE0
 73
     1
 44
1.0
  0
MTEXT
  5
7D
330
A
100
AcDbEntity
  8
0
 62
     7
100
AcDbMText
 10
2.402898765999999
 20
10.6944882016
 30
0.0
 40
0.234375
 41
0.0
 71
     1
 72
     1
  1
B
  7
SLDTEXTSTYLE0
 73
     1
 44
1.0
  0
MTEXT
  5
7E
330
A
100
AcDbEntity
  8
0
 62
     7
100
AcDbMText
 10
2.3720697636
 20
17.1856000165
 30
0.0
 40
0.234375
 41
0.0
 71
     1
 72
     1
  1
C
  7
SLDTEXTSTYLE0
 73
     1
 44
1.0
  0
MTEXT
  5
7F
330
A
100
AcDbEntity
  8
0
 62
     7
100
AcDbMText
 10
2.363872405299999
 20
23.2661709589
 30
0.0
 40
0.234375
 41
0.0
 71
     1
 72
     1
  1
D
  7
SLDTEXTSTYLE0
 73
     1
 44
1.0
  0
MTEXT
  5
80
330
A
100
AcDbEntity
  8
0
 62
     7
100
AcDbMText
 10
40.4645145288
 20
1.2991963974
 30
0.0
 40
0.225
 41
0.0
 71
     1
 72
     1
  1
REV.
  7
SLDTEXTSTYLE0
 73
     1
 44
1.0
  0
MTEXT
  5
81
330
A
100
AcDbEntity
  8
0
 62
     7
100
AcDbMText
 10
30.8726925296
 20
4.396727436199999
 30
0.0
 40
0.225
 41
0.0
 71
     1
 72
     1
  1
%%p\P%%p\P%%p\P%%p
  7
SLDTEXTSTYLE0
 73
     1
 44
1.0
  0
MTEXT
  5
82
330
A
100
AcDbEntity
  8
0
 62
     7
100
AcDbMText
 10
22.02985381209999
 20
2.7437114999
 30
0.0
 40
0.225
 41
0.0
 71
     1
 72
     1
  1
MATERIAL
  7
SLDTEXTSTYLE0
 73
     1
 44
1.0
  0
MTEXT
  5
83
330
A
100
AcDbEntity
  8
0
 62
     7
100
AcDbMText
 10
22.0241335162
 20
1.8291845172
 30
0.0
 40
0.225
 41
0.0
 71
     1
 72
     1
  1
FINISH
  7
SLDTEXTSTYLE0
 73
     1
 44
1.0
  0
MTEXT
  5
84
330
A
100
AcDbEntity
  8
0
 62
     7
100
AcDbMText
 10
39.5010825083
 20
0.8044209523999999
 30
0.0
 40
0.234375
 41
0.0
 71
     1
 72
     1
  1
1
  7
SLDTEXTSTYLE0
 73
     1
 44
1.0
  0
MTEXT
  5
85
330
A
100
AcDbEntity
  8
0
 62
     7
100
AcDbMText
 10
33.9859656351
 20
0.8287769869999999
 30
0.0
 40
0.234375
 41
0.0
 71
     1
 72
     1
  1
2
  7
SLDTEXTSTYLE0
 73
     1
 44
1.0
  0
MTEXT
  5
86
330
A
100
AcDbEntity
  8
0
 62
     7
100
AcDbMText
 10
28.8406792023
 20
0.8368956651999999
 30
0.0
 40
0.234375
 41
0.0
 71
     1
 72
     1
  1
3
  7
SLDTEXTSTYLE0
 73
     1
 44
1.0
  0
MTEXT
  5
87
330
A
100
AcDbEntity
  8
0
 62
     7
100
AcDbMText
 10
24.20419395179999
 20
0.8418621934
 30
0.0
 40
0.234375
 41
0.0
 71
     1
 72
     1
  1
4
  7
SLDTEXTSTYLE0
 73
     1
 44
1.0
  0
MTEXT
  5
88
330
A
100
AcDbEntity
  8
0
 62
     7
100
AcDbMText
 10
19.3281616713
 20
0.8499808715
 30
0.0
 40
0.234375
 41
0.0
 71
     1
 72
     1
  1
5
  7
SLDTEXTSTYLE0
 73
     1
 44
1.0
  0
MTEXT
  5
89
330
A
100
AcDbEntity
  8
0
 62
     7
100
AcDbMText
 10
14.7755387465
 20
0.8093874806
 30
0.0
 40
0.234375
 41
0.0
 71
     1
 72
     1
  1
6
  7
SLDTEXTSTYLE0
 73
     1
 44
1.0
  0
MTEXT
  5
8A
330
A
100
AcDbEntity
  8
0
 62
     7
100
AcDbMText
 10
9.825577196599999
 20
0.8450143434000001
 30
0.0
 40
0.234375
 41
0.0
 71
     1
 72
     1
  1
7
  7
SLDTEXTSTYLE0
 73
     1
 44
1.0
  0
MTEXT
  5
8B
330
A
100
AcDbEntity
  8
0
 62
     7
100
AcDbMText
 10
5.370378410099999
 20
0.8499808715
 30
0.0
 40
0.234375
 41
0.0
 71
     1
 72
     1
  1
8
  7
SLDTEXTSTYLE0
 73
     1
 44
1.0
  0
MTEXT
  5
8C
330
A
100
AcDbEntity
  8
0
 62
     7
100
AcDbMText
 10
5.293197382699999
 20
27.02172405329999
 30
0.0
 40
0.234375
 41
0.0
 71
     1
 72
     1
  1
8
  7
SLDTEXTSTYLE0
 73
     1
 44
1.0
  0
MTEXT
  5
8D
330
A
100
AcDbEntity
  8
0
 62
     7
100
AcDbMText
 10
10.1761424944
 20
26.9660058594
 30
0.0
 40
0.234375
 41
0.0
 71
     1
 72
     1
  1
7
  7
SLDTEXTSTYLE0
 73
     1
 44
1.0
  0
MTEXT
  5
8E
330
A
100
AcDbEntity
  8
0
 62
     7
100
AcDbMText
 10
14.8792868493
 20
26.9496717665
 30
0.0
 40
0.234375
 41
0.0
 71
     1
 72
     1
  1
6
  7
SLDTEXTSTYLE0
 73
     1
 44
1.0
  0
MTEXT
  5
8F
330
A
100
AcDbEntity
  8
0
 62
     7
100
AcDbMText
 10
19.7654854523
 20
26.9200272488
 30
0.0
 40
0.234375
 41
0.0
 71
     1
 72
     1
  1
5
  7
SLDTEXTSTYLE0
 73
     1
 44
1.0
  0
MTEXT
  5
90
330
A
100
AcDbEntity
  8
0
 62
     7
100
AcDbMText
 10
24.6220395375
 20
26.9920795356
 30
0.0
 40
0.234375
 41
0.0
 71
     1
 72
     1
  1
4
  7
SLDTEXTSTYLE0
 73
     1
 44
1.0
  0
MTEXT
  5
91
330
A
100
AcDbEntity
  8
0
 62
     7
100
AcDbMText
 10
29.50325560199999
 20
26.94036660969999
 30
0.0
 40
0.234375
 41
0.0
 71
     1
 72
     1
  1
3
  7
SLDTEXTSTYLE0
 73
     1
 44
1.0
  0
MTEXT
  5
92
330
A
100
AcDbEntity
  8
0
 62
     7
100
AcDbMText
 10
34.1776199628
 20
26.970875651
 30
0.0
 40
0.234375
 41
0.0
 71
     1
 72
     1
  1
2
  7
SLDTEXTSTYLE0
 73
     1
 44
1.0
  0
MTEXT
  5
93
330
A
100
AcDbEntity
  8
0
 62
     7
100
AcDbMText
 10
39.1672444176
 20
26.9293324056
 30
0.0
 40
0.234375
 41
0.0
 71
     1
 72
     1
  1
1
  7
SLDTEXTSTYLE0
 73
     1
 44
1.0
  0
MTEXT
  5
94
330
A
100
AcDbEntity
  8
0
 62
     7
100
AcDbMText
 10
34.1385850291
 20
5.7517934649
 30
0.0
 40
0.4166666667000001
 41
0.0
 71
     1
 72
     1
  1
RADIO  ASTRONOMY  LAB
  7
SLDTEXTSTYLE0
 73
     1
 44
1.0
  0
MTEXT
  5
95
330
A
100
AcDbEntity
  8
0
 62
     7
100
AcDbMText
 10
37.55689468869999
 20
5.0488727726
 30
0.0
 40
0.25
 41
0.0
 71
     2
 72
     1
  1
University of California - Berkeley\PTel: 510-642-5040    Fax: 510-642-3411
  7
SLDTEXTSTYLE0
 73
     1
 44
1.0
  0
MTEXT
  5
96
330
A
100
AcDbEntity
  8
0
 62
     7
100
AcDbMText
 10
23.45996235159999
 20
4.0943984654
 30
0.0
 40
0.225
 41
0.0
 71
     1
 72
     1
  1
NAME
  7
SLDTEXTSTYLE0
 73
     1
 44
1.0
  0
MTEXT
  5
97
330
A
100
AcDbEntity
  8
0
 62
     7
100
AcDbMText
 10
26.2298480589
 20
4.0833210675
 30
0.0
 40
0.225
 41
0.0
 71
     1
 72
     1
  1
DATE
  7
SLDTEXTSTYLE0
 73
     1
 44
1.0
  0
MTEXT
  5
98
330
A
100
AcDbEntity
  8
0
 62
     7
100
AcDbMText
 10
33.94832608099999
 20
1.310382157999999
 30
0.0
 40
0.225
 41
0.0
 71
     1
 72
     1
  1
SIZE
  7
SLDTEXTSTYLE0
 73
     1
 44
1.0
  0
MTEXT
  5
99
330
A
100
AcDbEntity
  8
0
 62
     7
100
AcDbMText
 10
34.0862497015
 20
2.1103299181
 30
0.0
 40
0.46875
 41
0.0
 71
     1
 72
     1
  1
B
  7
SLDTEXTSTYLE0
 73
     1
 44
1.0
  0
MTEXT
  5
9A
330
A
100
AcDbEntity
  8
0
 62
     7
100
AcDbMText
 10
27.6980321278
 20
1.282165426699999
 30
0.0
 40
0.225
 41
0.0
 71
     1
 72
     1
  1
SCALE:
  7
SLDTEXTSTYLE0
 73
     1
 44
1.0
  0
MTEXT
  5
9B
330
A
100
AcDbEntity
  8
0
 62
     7
100
AcDbMText
 10
34.8109764451
 20
1.300000703
 30
0.0
 40
0.225
 41
0.0
 71
     1
 72
     1
  1
DWG NUM:      SHEET             OF
  7
SLDTEXTSTYLE0
 73
     1
 44
1.0
  0
MTEXT
  5
9C
330
A
100
AcDbEntity
  8
0
 62
     7
100
AcDbMText
 10
39.9969536985
 20
25.9632567132
 30
0.0
 40
0.225
 41
0.0
 71
     1
 72
     1
  1
DATE
  7
SLDTEXTSTYLE0
 73
     1
 44
1.0
  0
MTEXT
  5
9D
330
A
100
AcDbEntity
  8
0
 62
     7
100
AcDbMText
 10
38.2562214482
 20
25.9621864009
 30
0.0
 40
0.225
 41
0.0
 71
     1
 72
     1
  1
NAME
  7
SLDTEXTSTYLE0
 73
     1
 44
1.0
  0
MTEXT
  5
9E
330
A
100
AcDbEntity
  8
0
 62
     7
100
AcDbMText
 10
35.08268462689999
 20
26.4299116767
 30
0.0
 40
0.225
 41
0.0
 71
     1
 72
     1
  1
REVISIONS
  7
SLDTEXTSTYLE0
 73
     1
 44
1.0
  0
MTEXT
  5
9F
330
A
100
AcDbEntity
  8
0
 62
     7
100
AcDbMText
 10
31.45549646719999
 20
25.9585831038
 30
0.0
 40
0.225
 41
0.0
 71
     1
 72
     1
  1
REV
  7
SLDTEXTSTYLE0
 73
     1
 44
1.0
  0
MTEXT
  5
A0
330
A
100
AcDbEntity
  8
0
 62
     7
100
AcDbMText
 10
32.406139229
 20
25.9572266881
 30
0.0
 40
0.225
 41
0.0
 71
     1
 72
     1
  1
DESCRIPTION
  7
SLDTEXTSTYLE0
 73
     1
 44
1.0
  0
MTEXT
  5
A1
330
A
100
AcDbEntity
  8
0
 62
     7
100
AcDbMText
 10
27.6850491944
 20
1.746114537099999
 30
0.0
 40
0.225
 41
0.0
 71
     1
 72
     1
  1
WEIGHT:
  7
SLDTEXTSTYLE0
 73
     1
 44
1.0
  0
MTEXT
  5
A2
330
A
100
AcDbEntity
  8
0
 62
     7
100
AcDbMText
 10
22.02691029409999
 20
3.618861157799999
 30
0.0
 40
0.225
 41
0.0
 71
     1
 72
     1
  1
DRAWN
  7
SLDTEXTSTYLE0
 73
     1
 44
1.0
  0
MTEXT
  5
A3
330
A
100
AcDbEntity
  8
0
 62
     7
100
AcDbMText
 10
22.0263417517
 20
3.1533260597
 30
0.0
 40
0.225
 41
0.0
 71
     1
 72
     1
  1
CHECKED
  7
SLDTEXTSTYLE0
 73
     1
 44
1.0
  0
MTEXT
  5
A4
330
A
100
AcDbEntity
  8
0
 62
     7
100
AcDbMText
 10
30.4131982311
 20
4.384801274199999
 30
0.0
 40
0.225
 41
0.0
 71
     3
 72
     1
  1
WHOLE & FRACTION\PDECIMAL   X.X\PDECIMAL   X.XX\PDECIMAL   X.XXX
  7
SLDTEXTSTYLE0
 73
     1
 44
1.0
  0
MTEXT
  5
A5
330
A
100
AcDbEntity
  8
0
 62
     7
100
AcDbMText
 10
31.4682439257
 20
4.911840065199999
 30
0.0
 40
0.225
 41
0.0
 71
     2
 72
     1
  1
LINEAR
  7
SLDTEXTSTYLE0
 73
     1
 44
1.0
  0
MTEXT
  5
A6
330
A
100
AcDbEntity
  8
0
 62
     7
100
AcDbMText
 10
32.9195113784
 20
4.926884414099999
 30
0.0
 40
0.225
 41
0.0
 71
     2
 72
     1
  1
ANGLE
  7
SLDTEXTSTYLE0
 73
     1
 44
1.0
  0
INSERT
  5
AD
330
A
100
AcDbEntity
  8
0
100
AcDbBlockReference
  2
NOTE49
 10
27.9174917144
 20
2.735111881499999
 30
0.0
  0
MTEXT
  5
AE
330
A
100
AcDbEntity
  8
0
 62
     7
100
AcDbMText
 10
30.6218837202
 20
5.772257116399999
 30
0.0
 40
0.225
 41
0.0
 71
     2
 72
     1
  1
UNLESS OTHERWISE SPECIFIED\PDIMENSIONS ARE INCHES & DEGREES
  7
SLDTEXTSTYLE0
 73
     1
 44
1.0
  0
MTEXT
  5
AF
330
A
100
AcDbEntity
  8
0
 62
     7
100
AcDbMText
 10
28.0032502725
 20
4.895921132499999
 30
0.0
 40
0.225
 41
0.0
 71
     1
 72
     1
  1
TOLERANCES:
  7
SLDTEXTSTYLE0
 73
     1
 44
1.0
  0
MTEXT
  5
B0
330
A
100
AcDbEntity
  8
0
 62
     7
100
AcDbMText
 10
32.3886546281
 20
4.394530419399999
 30
0.0
 40
0.225
 41
0.0
 71
     1
 72
     1
  1
%%p\P%%p\P%%p\P%%p
  7
SLDTEXTSTYLE0
 73
     1
 44
1.0
  0
MTEXT
  5
B1
330
A
100
AcDbEntity
  8
0
 62
     7
100
AcDbMText
 10
36.6585007338
 20
25.9655660882
 30
0.0
 40
0.225
 41
0.0
 71
     1
 72
     1
  1
ZONE
  7
SLDTEXTSTYLE0
 73
     1
 44
1.0
  0
MTEXT
  5
B2
330
A
100
AcDbEntity
  8
0
 62
     7
100
AcDbMText
 10
12.7380442048
 20
2.161416668
 30
0.0
 40
0.2
 41
0.0
 71
     1
 72
     1
  1
THIS DRAWING IS THE PROPERTY OF AND CONTAINS CONFIDENTIAL\PINFORMATION PROPRIETARY TO THE UNIVERSITY OF CALIFORNIA AND\PSHALL BE USED ONLY FOR THE PURPOSE FOR WHICH IT WAS PROVIDED\PAND SHALL NOT BE REPRODUCED OR DISCLOSED TO OTHERS.
  7
SLDTEXTSTYLE0
 73
     1
 44
1.0
  0
MTEXT
  5
B3
330
A
100
AcDbEntity
  8
0
 62
     7
100
AcDbMText
 10
31.59739653229999
 20
25.51224794019999
 30
0.0
 40
0.225
 41
0.0
 71
     1
 72
     1
  1
A
  7
SLDTEXTSTYLE0
 73
     1
 44
1.0
  0
MTEXT
  5
B4
330
A
100
AcDbEntity
  8
0
 62
     7
100
AcDbMText
 10
32.4449897848
 20
25.5116287709
 30
0.0
 40
0.225
 41
0.0
 71
     1
 72
     1
  1
RELEASED
  7
SLDTEXTSTYLE0
 73
     1
 44
1.0
  0
MTEXT
  5
B5
330
A
100
AcDbEntity
  8
0
 62
     7
100
AcDbMText
 10
23.4229354329
 20
3.650317223299999
 30
0.0
 40
0.2604166667
 41
0.0
 71
     1
 72
     1
  1
M. C. FLEMING
  7
SLDTEXTSTYLE0
 73
     1
 44
1.0
  0
MTEXT
  5
B6
330
A
100
AcDbEntity
  8
0
 62
     7
100
AcDbMText
 10
40.6302609701
 20
2.067676119499999
 30
0.0
 40
0.46875
 41
0.0
 71
     1
 72
     1
  1
A
  7
SLDTEXTSTYLE0
 73
     1
 44
1.0
  0
MTEXT
  5
B7
330
A
100
AcDbEntity
  8
0
 62
     7
100
AcDbMText
 10
25.80535069239999
 20
3.646010440399999
 30
0.0
 40
0.2604166667
 41
0.0
 71
     1
 72
     1
  1
2005-01-18
  7
SLDTEXTSTYLE0
 73
     1
 44
1.0
  0
MTEXT
  5
B8
330
A
100
AcDbEntity
  8
0
 62
     7
100
AcDbMText
 10
31.2810272831
 20
4.3995668098
 30
0.0
 40
0.225
 41
0.0
 71
     1
 72
     1
  1
1/16\P0.1\P0.01\P0.005
  7
SLDTEXTSTYLE0
 73
     1
 44
1.0
  0
MTEXT
  5
B9
330
A
100
AcDbEntity
  8
0
 62
     7
100
AcDbMText
 10
32.75621054869999
 20
4.394687755599999
 30
0.0
 40
0.225
 41
0.0
 71
     1
 72
     1
  1
1%%d\P0.1%%d\P0.01%%d\P0.001%%d
  7
SLDTEXTSTYLE0
 73
     1
 44
1.0
  0
MTEXT
  5
BA
330
A
100
AcDbEntity
  8
0
 62
     7
100
AcDbMText
 10
35.2042575275
 20
2.1129050282
 30
0.0
 40
0.46875
 41
0.0
 71
     1
 72
     1
  1
24-09-222   1 of 1
  7
SLDTEXTSTYLE0
 73
     1
 44
1.0
  0
MTEXT
  5
BB
330
A
100
AcDbEntity
  8
0
 62
     7
100
AcDbMText
 10
38.2399456236
 20
25.51271537699999
 30
0.0
 40
0.2604166667
 41
0.0
 71
     1
 72
     1
  1
M.C.F.
  7
SLDTEXTSTYLE0
 73
     1
 44
1.0
  0
MTEXT
  5
BC
330
A
100
AcDbEntity
  8
0
 62
     7
100
AcDbMText
 10
39.6049350244
 20
25.51038099119999
 30
0.0
 40
0.2604166667
 41
0.0
 71
     1
 72
     1
  1
2005-01-18
  7
SLDTEXTSTYLE0
 73
     1
 44
1.0
  0
MTEXT
  5
BD
330
A
100
AcDbEntity
  8
0
 62
     7
100
AcDbMText
 10
37.34669850369999
 20
3.8314658085
 30
0.0
 40
0.46875
 41
0.0
 71
     2
 72
     1
  1
CARMA 6m Base,\PSupport Pad
  7
SLDTEXTSTYLE0
 73
     1
 44
1.0
  0
LINE
  5
BE
330
A
100
AcDbEntity
  8
0
  6
Continuous
 62
     7
370
    15
100
AcDbLine
 10
14.2684024505
 20
11.46703581529999
 30
0.0
 11
24.2684024505
 21
11.46703581529999
 31
0.0
  0
ARC
  5
BF
330
A
100
AcDbEntity
  8
0
  6
Continuous
 62
     7
370
    15
100
AcDbCircle
 10
14.2684024505
 20
13.46703581529999
 30
0.0
 40
2.0
100
AcDbArc
 50
180.0
 51
270.0
  0
LINE
  5
C0
330
A
100
AcDbEntity
  8
0
  6
Continuous
 62
     7
370
    15
100
AcDbLine
 10
12.2684024505
 20
19.4670358153
 30
0.0
 11
12.2684024505
 21
13.46703581529999
 31
0.0
  0
ARC
  5
C1
330
A
100
AcDbEntity
  8
0
  6
Continuous
 62
     7
370
    15
100
AcDbCircle
 10
14.2684024505
 20
19.4670358153
 30
0.0
 40
2.0
100
AcDbArc
 50
90.0
 51
180.0
  0
LINE
  5
C2
330
A
100
AcDbEntity
  8
0
  6
Continuous
 62
     7
370
    15
100
AcDbLine
 10
24.2684024505
 20
21.4670358153
 30
0.0
 11
14.2684024505
 21
21.4670358153
 31
0.0
  0
ARC
  5
C3
330
A
100
AcDbEntity
  8
0
  6
Continuous
 62
     7
370
    15
100
AcDbCircle
 10
24.2684024505
 20
19.4670358153
 30
0.0
 40
2.0
100
AcDbArc
 50
0.0
 51
90.0
  0
LINE
  5
C4
330
A
100
AcDbEntity
  8
0
  6
Continuous
 62
     7
370
    15
100
AcDbLine
 10
26.2684024505
 20
13.46703581529999
 30
0.0
 11
26.2684024505
 21
19.4670358153
 31
0.0
  0
ARC
  5
C5
330
A
100
AcDbEntity
  8
0
  6
Continuous
 62
     7
370
    15
100
AcDbCircle
 10
24.2684024505
 20
13.46703581529999
 30
0.0
 40
2.0
100
AcDbArc
 50
270.0
 51
0.0
  0
DIMENSION
  5
D3
330
A
100
AcDbEntity
  8
0
100
AcDbDimension
  2
*D1
 10
26.2684024505
 20
23.00426484449999
 30
0.0
 11
19.2684024505
 21
23.00426484449999
 31
0.0
 70
   160
 71
     5
 42
0.0
  3
SLDDIMSTYLE0
100
AcDbAlignedDimension
 13
12.2684024505
 23
19.4670358153
 33
0.0
 14
26.2684024505
 24
19.4670358153
 34
0.0
100
AcDbRotatedDimension
  0
DIMENSION
  5
E0
330
A
100
AcDbEntity
  8
0
100
AcDbDimension
  2
*D2
 10
10.31239868049999
 20
11.46703581529999
 30
0.0
 11
10.31239868049999
 21
16.4670358153
 31
0.0
 70
   160
 71
     5
 42
0.0
  3
SLDDIMSTYLE0
100
AcDbAlignedDimension
 13
14.2684024505
 23
21.4670358153
 33
0.0
 14
14.2684024505
 24
11.46703581529999
 34
0.0
 50
90.0
100
AcDbRotatedDimension
  0
DIMENSION
  5
ED
330
A
100
AcDbEntity
  8
0
100
AcDbDimension
  2
*D3
 10
24.2684024505
 20
13.46703581529999
 30
0.0
 11
27.7994863336
 21
10.74696041469999
 31
0.0
 70
   164
  1
<> RAD\P4 PLACES
 71
     5
 42
0.0
  3
SLDDIMSTYLE1
100
AcDbRadialDimension
 15
25.4530840103
 25
11.8556607497
 35
0.0
 40
0.0
  0
MTEXT
  5
EE
330
A
100
AcDbEntity
  8
0
 62
     1
100
AcDbMText
 10
37.41012251709999
 20
7.7460140624
 30
0.0
 40
0.4166666667000001
 41
0.0
 71
     2
 72
     1
  1
2 REQUIRED\PPER ASSEM
  7
SLDTEXTSTYLE0
 73
     1
 44
1.0
  0
LINE
  5
EF
330
A
100
AcDbEntity
  8
0
  6
Continuous
 62
     7
370
    15
100
AcDbLine
 10
34.5010367578
 20
11.46703581529999
 30
0.0
 11
35.2510367578
 21
11.46703581529999
 31
0.0
  0
LINE
  5
F0
330
A
100
AcDbEntity
  8
0
  6
Continuous
 62
     7
370
    15
100
AcDbLine
 10
34.5010367578
 20
11.46703581529999
 30
0.0
 11
34.5010367578
 21
13.46703581529999
 31
0.0
  0
LINE
  5
F1
330
A
100
AcDbEntity
  8
0
  6
Continuous
 62
     7
370
    15
100
AcDbLine
 10
34.5010367578
 20
13.46703581529999
 30
0.0
 11
35.2510367578
 21
13.46703581529999
 31
0.0
  0
LINE
  5
F2
330
A
100
AcDbEntity
  8
0
  6
Continuous
 62
     7
370
    15
100
AcDbLine
 10
35.2510367578
 20
11.46703581529999
 30
0.0
 11
35.2510367578
 21
13.46703581529999
 31
0.0
  0
LINE
  5
F3
330
A
100
AcDbEntity
  8
0
  6
Continuous
 62
     7
370
    15
100
AcDbLine
 10
34.5010367578
 20
13.46703581529999
 30
0.0
 11
34.5010367578
 21
19.4670358153
 31
0.0
  0
LINE
  5
F4
330
A
100
AcDbEntity
  8
0
  6
Continuous
 62
     7
370
    15
100
AcDbLine
 10
34.5010367578
 20
19.4670358153
 30
0.0
 11
35.2510367578
 21
19.4670358153
 31
0.0
  0
LINE
  5
F5
330
A
100
AcDbEntity
  8
0
  6
Continuous
 62
     7
370
    15
100
AcDbLine
 10
35.2510367578
 20
13.46703581529999
 30
0.0
 11
35.2510367578
 21
19.4670358153
 31
0.0
  0
LINE
  5
F6
330
A
100
AcDbEntity
  8
0
  6
Continuous
 62
     7
370
    15
100
AcDbLine
 10
34.5010367578
 20
19.4670358153
 30
0.0
 11
34.5010367578
 21
21.4670358153
 31
0.0
  0
LINE
  5
F7
330
A
100
AcDbEntity
  8
0
  6
Continuous
 62
     7
370
    15
100
AcDbLine
 10
34.5010367578
 20
21.4670358153
 30
0.0
 11
35.2510367578
 21
21.4670358153
 31
0.0
  0
LINE
  5
F8
330
A
100
AcDbEntity
  8
0
  6
Continuous
 62
     7
370
    15
100
AcDbLine
 10
35.2510367578
 20
19.4670358153
 30
0.0
 11
35.2510367578
 21
21.4670358153
 31
0.0
  0
DIMENSION
  5
105
330
A
100
AcDbEntity
  8
0
100
AcDbDimension
  2
*D4
 10
35.2510367578
 20
22.0236804901
 30
0.0
 11
36.6410885957
 21
22.0236804901
 31
0.0
 70
   160
 71
     5
 42
0.0
  3
SLDDIMSTYLE0
100
AcDbAlignedDimension
 13
34.5010367578
 23
19.4670358153
 33
0.0
 14
35.2510367578
 24
19.4670358153
 34
0.0
100
AcDbRotatedDimension
  0
LINE
  5
106
330
A
100
AcDbEntity
  8
0
  6
Continuous
 62
     7
370
    15
100
AcDbLine
 10
15.3002772786
 20
5.787244169
 30
0.0
 11
15.3002772786
 21
6.1699976746
 31
0.0
  0
LINE
  5
107
330
A
100
AcDbEntity
  8
0
  6
Continuous
 62
     7
370
    15
100
AcDbLine
 10
5.729209466799999
 20
7.1905078144
 30
0.0
 11
5.729209466799999
 21
6.807754308799999
 31
0.0
  0
LINE
  5
108
330
A
100
AcDbEntity
  8
0
  6
Continuous
 62
     7
370
    15
100
AcDbLine
 10
10.51474337269999
 20
4.128977394999999
 30
0.0
 11
10.51474337269999
 21
3.746223889499999
 31
0.0
  0
POLYLINE
  5
109
330
A
100
AcDbEntity
  8
0
  6
Continuous
 62
     7
100
AcDb2dPolyline
 66
     1
 10
0.0
 20
0.0
 30
0.0
 70
   128
 40
0.001476378
 41
0.001476378
  0
VERTEX
  5
10A
330
109
100
AcDbEntity
  8
0
100
AcDbVertex
100
AcDb2dVertex
 10
10.51474337269999
 20
4.128977394999999
 30
0.0
  0
VERTEX
  5
10B
330
109
100
AcDbEntity
  8
0
100
AcDbVertex
100
AcDb2dVertex
 10
10.5951423371
 20
4.086447409999999
 30
0.0
  0
VERTEX
  5
10C
330
109
100
AcDbEntity
  8
0
100
AcDbVertex
100
AcDb2dVertex
 10
10.6816563038
 20
4.048124452999999
 30
0.0
  0
VERTEX
  5
10D
330
109
100
AcDbEntity
  8
0
100
AcDbVertex
100
AcDb2dVertex
 10
10.7736268492
 20
4.014300184999999
 30
0.0
  0
VERTEX
  5
10E
330
109
100
AcDbEntity
  8
0
100
AcDbVertex
100
AcDb2dVertex
 10
10.870354022
 20
3.9852320289
 30
0.0
  0
VERTEX
  5
10F
330
109
100
AcDbEntity
  8
0
100
AcDbVertex
100
AcDb2dVertex
 10
10.97110167
 20
3.961141211
 30
0.0
  0
VERTEX
  5
110
330
109
100
AcDbEntity
  8
0
100
AcDbVertex
100
AcDb2dVertex
 10
11.0751030428
 20
3.942211076999999
 30
0.0
  0
VERTEX
  5
111
330
109
100
AcDbEntity
  8
0
100
AcDbVertex
100
AcDb2dVertex
 10
11.1815666271
 20
3.9285856967
 30
0.0
  0
VERTEX
  5
112
330
109
100
AcDbEntity
  8
0
100
AcDbVertex
100
AcDb2dVertex
 10
11.28968217079999
 20
3.9203687674
 30
0.0
  0
VERTEX
  5
113
330
109
100
AcDbEntity
  8
0
100
AcDbVertex
100
AcDb2dVertex
 10
11.3986268492
 20
3.9176228248
 30
0.0
  0
VERTEX
  5
114
330
109
100
AcDbEntity
  8
0
100
AcDbVertex
100
AcDb2dVertex
 10
11.5075715276
 20
3.9203687674
 30
0.0
  0
VERTEX
  5
115
330
109
100
AcDbEntity
  8
0
100
AcDbVertex
100
AcDb2dVertex
 10
11.6156870713
 20
3.9285856967
 30
0.0
  0
VERTEX
  5
116
330
109
100
AcDbEntity
  8
0
100
AcDbVertex
100
AcDb2dVertex
 10
11.7221506556
 20
3.942211076999999
 30
0.0
  0
VERTEX
  5
117
330
109
100
AcDbEntity
  8
0
100
AcDbVertex
100
AcDb2dVertex
 10
11.82615202839999
 20
3.961141211
 30
0.0
  0
VERTEX
  5
118
330
109
100
AcDbEntity
  8
0
100
AcDbVertex
100
AcDb2dVertex
 10
11.9268996764
 20
3.9852320289
 30
0.0
  0
VERTEX
  5
119
330
109
100
AcDbEntity
  8
0
100
AcDbVertex
100
AcDb2dVertex
 10
12.0236268492
 20
4.014300184999999
 30
0.0
  0
VERTEX
  5
11A
330
109
100
AcDbEntity
  8
0
100
AcDbVertex
100
AcDb2dVertex
 10
12.1155973946
 20
4.048124452999999
 30
0.0
  0
VERTEX
  5
11B
330
109
100
AcDbEntity
  8
0
100
AcDbVertex
100
AcDb2dVertex
 10
12.2021113613
 20
4.086447409999999
 30
0.0
  0
VERTEX
  5
11C
330
109
100
AcDbEntity
  8
0
100
AcDbVertex
100
AcDb2dVertex
 10
12.2825103257
 20
4.128977394999999
 30
0.0
  0
SEQEND
  5
11D
330
109
100
AcDbEntity
  8
0
  0
LINE
  5
11E
330
A
100
AcDbEntity
  8
0
  6
Continuous
 62
     7
370
    15
100
AcDbLine
 10
12.2825103257
 20
4.128977394999999
 30
0.0
 11
12.2825103257
 21
3.746223889499999
 31
0.0
  0
POLYLINE
  5
11F
330
A
100
AcDbEntity
  8
0
  6
Continuous
 62
     7
100
AcDb2dPolyline
 66
     1
 10
0.0
 20
0.0
 30
0.0
 70
   128
 40
0.001476378
 41
0.001476378
  0
VERTEX
  5
120
330
11F
100
AcDbEntity
  8
0
100
AcDbVertex
100
AcDb2dVertex
 10
10.51474337269999
 20
3.746223889499999
 30
0.0
  0
VERTEX
  5
121
330
11F
100
AcDbEntity
  8
0
100
AcDbVertex
100
AcDb2dVertex
 10
10.5951423371
 20
3.7036939044
 30
0.0
  0
VERTEX
  5
122
330
11F
100
AcDbEntity
  8
0
100
AcDbVertex
100
AcDb2dVertex
 10
10.6816563038
 20
3.6653709475
 30
0.0
  0
VERTEX
  5
123
330
11F
100
AcDbEntity
  8
0
100
AcDbVertex
100
AcDb2dVertex
 10
10.7736268492
 20
3.631546679399999
 30
0.0
  0
VERTEX
  5
124
330
11F
100
AcDbEntity
  8
0
100
AcDbVertex
100
AcDb2dVertex
 10
10.870354022
 20
3.602478523299999
 30
0.0
  0
VERTEX
  5
125
330
11F
100
AcDbEntity
  8
0
100
AcDbVertex
100
AcDb2dVertex
 10
10.97110167
 20
3.578387705499999
 30
0.0
  0
VERTEX
  5
126
330
11F
100
AcDbEntity
  8
0
100
AcDbVertex
100
AcDb2dVertex
 10
11.0751030428
 20
3.559457571499999
 30
0.0
  0
VERTEX
  5
127
330
11F
100
AcDbEntity
  8
0
100
AcDbVertex
100
AcDb2dVertex
 10
11.1815666271
 20
3.5458321911
 30
0.0
  0
VERTEX
  5
128
330
11F
100
AcDbEntity
  8
0
100
AcDbVertex
100
AcDb2dVertex
 10
11.28968217079999
 20
3.5376152618
 30
0.0
  0
VERTEX
  5
129
330
11F
100
AcDbEntity
  8
0
100
AcDbVertex
100
AcDb2dVertex
 10
11.3986268492
 20
3.5348693192
 30
0.0
  0
VERTEX
  5
12A
330
11F
100
AcDbEntity
  8
0
100
AcDbVertex
100
AcDb2dVertex
 10
11.5075715276
 20
3.5376152618
 30
0.0
  0
VERTEX
  5
12B
330
11F
100
AcDbEntity
  8
0
100
AcDbVertex
100
AcDb2dVertex
 10
11.6156870713
 20
3.5458321911
 30
0.0
  0
VERTEX
  5
12C
330
11F
100
AcDbEntity
  8
0
100
AcDbVertex
100
AcDb2dVertex
 10
11.7221506556
 20
3.559457571499999
 30
0.0
  0
VERTEX
  5
12D
330
11F
100
AcDbEntity
  8
0
100
AcDbVertex
100
AcDb2dVertex
 10
11.82615202839999
 20
3.578387705499999
 30
0.0
  0
VERTEX
  5
12E
330
11F
100
AcDbEntity
  8
0
100
AcDbVertex
100
AcDb2dVertex
 10
11.9268996764
 20
3.602478523299999
 30
0.0
  0
VERTEX
  5
12F
330
11F
100
AcDbEntity
  8
0
100
AcDbVertex
100
AcDb2dVertex
 10
12.0236268492
 20
3.631546679399999
 30
0.0
  0
VERTEX
  5
130
330
11F
100
AcDbEntity
  8
0
100
AcDbVertex
100
AcDb2dVertex
 10
12.1155973946
 20
3.6653709475
 30
0.0
  0
VERTEX
  5
131
330
11F
100
AcDbEntity
  8
0
100
AcDbVertex
100
AcDb2dVertex
 10
12.2021113613
 20
3.7036939044
 30
0.0
  0
VERTEX
  5
132
330
11F
100
AcDbEntity
  8
0
100
AcDbVertex
100
AcDb2dVertex
 10
12.2825103257
 20
3.746223889499999
 30
0.0
  0
SEQEND
  5
133
330
11F
100
AcDbEntity
  8
0
  0
LINE
  5
134
330
A
100
AcDbEntity
  8
0
  6
Continuous
 62
     7
370
    15
100
AcDbLine
 10
6.0953259903
 20
6.6802527445
 30
0.0
 11
10.51474337269999
 21
4.128977394999999
 31
0.0
  0
POLYLINE
  5
135
330
A
100
AcDbEntity
  8
0
  6
Continuous
 62
     7
100
AcDb2dPolyline
 66
     1
 10
0.0
 20
0.0
 30
0.0
 70
   128
 40
0.001476378
 41
0.001476378
  0
VERTEX
  5
136
330
135
100
AcDbEntity
  8
0
100
AcDbVertex
100
AcDb2dVertex
 10
6.0953259903
 20
7.700762884299999
 30
0.0
  0
VERTEX
  5
137
330
135
100
AcDbEntity
  8
0
100
AcDbVertex
100
AcDb2dVertex
 10
6.021653912899999
 20
7.6543495501
 30
0.0
  0
VERTEX
  5
138
330
135
100
AcDbEntity
  8
0
100
AcDbVertex
100
AcDb2dVertex
 10
5.955269411399999
 20
7.604406100199999
 30
0.0
  0
VERTEX
  5
139
330
135
100
AcDbEntity
  8
0
100
AcDbVertex
100
AcDb2dVertex
 10
5.896677712
 20
7.5513126344
 30
0.0
  0
VERTEX
  5
13A
330
135
100
AcDbEntity
  8
0
100
AcDbVertex
100
AcDb2dVertex
 10
5.846324732999999
 20
7.4954732261
 30
0.0
  0
VERTEX
  5
13B
330
135
100
AcDbEntity
  8
0
100
AcDbVertex
100
AcDb2dVertex
 10
5.8045936908
 20
7.4373128469
 30
0.0
  0
VERTEX
  5
13C
330
135
100
AcDbEntity
  8
0
100
AcDbVertex
100
AcDb2dVertex
 10
5.7718021839
 20
7.3772741324
 30
0.0
  0
VERTEX
  5
13D
330
135
100
AcDbEntity
  8
0
100
AcDbVertex
100
AcDb2dVertex
 10
5.748199775499999
 20
7.3158140134
 30
0.0
  0
VERTEX
  5
13E
330
135
100
AcDbEntity
  8
0
100
AcDbVertex
100
AcDb2dVertex
 10
5.733966094199999
 20
7.2534002385
 30
0.0
  0
VERTEX
  5
13F
330
135
100
AcDbEntity
  8
0
100
AcDbVertex
100
AcDb2dVertex
 10
5.729209466799999
 20
7.1905078144
 30
0.0
  0
VERTEX
  5
140
330
135
100
AcDbEntity
  8
0
100
AcDbVertex
100
AcDb2dVertex
 10
5.733966094199999
 20
7.127615390199999
 30
0.0
  0
VERTEX
  5
141
330
135
100
AcDbEntity
  8
0
100
AcDbVertex
100
AcDb2dVertex
 10
5.748199775499999
 20
7.065201615399999
 30
0.0
  0
VERTEX
  5
142
330
135
100
AcDbEntity
  8
0
100
AcDbVertex
100
AcDb2dVertex
 10
5.7718021839
 20
7.003741496399999
 30
0.0
  0
VERTEX
  5
143
330
135
100
AcDbEntity
  8
0
100
AcDbVertex
100
AcDb2dVertex
 10
5.8045936908
 20
6.943702781799999
 30
0.0
  0
VERTEX
  5
144
330
135
100
AcDbEntity
  8
0
100
AcDbVertex
100
AcDb2dVertex
 10
5.846324732999999
 20
6.885542402599999
 30
0.0
  0
VERTEX
  5
145
330
135
100
AcDbEntity
  8
0
100
AcDbVertex
100
AcDb2dVertex
 10
5.896677712
 20
6.829702994299999
 30
0.0
  0
VERTEX
  5
146
330
135
100
AcDbEntity
  8
0
100
AcDbVertex
100
AcDb2dVertex
 10
5.955269411399999
 20
6.776609528599999
 30
0.0
  0
VERTEX
  5
147
330
135
100
AcDbEntity
  8
0
100
AcDbVertex
100
AcDb2dVertex
 10
6.021653912899999
 20
6.7266660787
 30
0.0
  0
VERTEX
  5
148
330
135
100
AcDbEntity
  8
0
100
AcDbVertex
100
AcDb2dVertex
 10
6.0953259903
 20
6.6802527445
 30
0.0
  0
SEQEND
  5
149
330
135
100
AcDbEntity
  8
0
  0
LINE
  5
14A
330
A
100
AcDbEntity
  8
0
  6
Continuous
 62
     7
370
    15
100
AcDbLine
 10
8.746976419700001
 20
9.231528093899999
 30
0.0
 11
6.0953259903
 21
7.700762884299999
 31
0.0
  0
POLYLINE
  5
14B
330
A
100
AcDbEntity
  8
0
  6
Continuous
 62
     7
100
AcDb2dPolyline
 66
     1
 10
0.0
 20
0.0
 30
0.0
 70
   128
 40
0.001476378
 41
0.001476378
  0
VERTEX
  5
14C
330
14B
100
AcDbEntity
  8
0
100
AcDbVertex
100
AcDb2dVertex
 10
10.51474337269999
 20
9.231528093899999
 30
0.0
  0
VERTEX
  5
14D
330
14B
100
AcDbEntity
  8
0
100
AcDbVertex
100
AcDb2dVertex
 10
10.4343444083
 20
9.274058078899999
 30
0.0
  0
VERTEX
  5
14E
330
14B
100
AcDbEntity
  8
0
100
AcDbVertex
100
AcDb2dVertex
 10
10.34783044169999
 20
9.312381035899999
 30
0.0
  0
VERTEX
  5
14F
330
14B
100
AcDbEntity
  8
0
100
AcDbVertex
100
AcDb2dVertex
 10
10.2558598962
 20
9.346205303999999
 30
0.0
  0
VERTEX
  5
150
330
14B
100
AcDbEntity
  8
0
100
AcDbVertex
100
AcDb2dVertex
 10
10.1591327234
 20
9.3752734601
 30
0.0
  0
VERTEX
  5
151
330
14B
100
AcDbEntity
  8
0
100
AcDbVertex
100
AcDb2dVertex
 10
10.0583850754
 20
9.3993642779
 30
0.0
  0
VERTEX
  5
152
330
14B
100
AcDbEntity
  8
0
100
AcDbVertex
100
AcDb2dVertex
 10
9.954383702599999
 20
9.418294411899999
 30
0.0
  0
VERTEX
  5
153
330
14B
100
AcDbEntity
  8
0
100
AcDbVertex
100
AcDb2dVertex
 10
9.847920118300001
 20
9.4319197923
 30
0.0
  0
VERTEX
  5
154
330
14B
100
AcDbEntity
  8
0
100
AcDbVertex
100
AcDb2dVertex
 10
9.7398045747
 20
9.4401367216
 30
0.0
  0
VERTEX
  5
155
330
14B
100
AcDbEntity
  8
0
100
AcDbVertex
100
AcDb2dVertex
 10
9.6308598962
 20
9.442882664099998
 30
0.0
  0
VERTEX
  5
156
330
14B
100
AcDbEntity
  8
0
100
AcDbVertex
100
AcDb2dVertex
 10
9.5219152178
 20
9.4401367216
 30
0.0
  0
VERTEX
  5
157
330
14B
100
AcDbEntity
  8
0
100
AcDbVertex
100
AcDb2dVertex
 10
9.413799674099999
 20
9.4319197923
 30
0.0
  0
VERTEX
  5
158
330
14B
100
AcDbEntity
  8
0
100
AcDbVertex
100
AcDb2dVertex
 10
9.307336089799999
 20
9.418294411899999
 30
0.0
  0
VERTEX
  5
159
330
14B
100
AcDbEntity
  8
0
100
AcDbVertex
100
AcDb2dVertex
 10
9.2033347171
 20
9.3993642779
 30
0.0
  0
VERTEX
  5
15A
330
14B
100
AcDbEntity
  8
0
100
AcDbVertex
100
AcDb2dVertex
 10
9.1025870691
 20
9.3752734601
 30
0.0
  0
VERTEX
  5
15B
330
14B
100
AcDbEntity
  8
0
100
AcDbVertex
100
AcDb2dVertex
 10
9.0058598962
 20
9.346205303999999
 30
0.0
  0
VERTEX
  5
15C
330
14B
100
AcDbEntity
  8
0
100
AcDbVertex
100
AcDb2dVertex
 10
8.913889350799999
 20
9.312381035899999
 30
0.0
  0
VERTEX
  5
15D
330
14B
100
AcDbEntity
  8
0
100
AcDbVertex
100
AcDb2dVertex
 10
8.827375384099999
 20
9.274058078899999
 30
0.0
  0
VERTEX
  5
15E
330
14B
100
AcDbEntity
  8
0
100
AcDbVertex
100
AcDb2dVertex
 10
8.746976419700001
 20
9.231528093899999
 30
0.0
  0
SEQEND
  5
15F
330
14B
100
AcDbEntity
  8
0
  0
LINE
  5
160
330
A
100
AcDbEntity
  8
0
  6
Continuous
 62
     7
370
    15
100
AcDbLine
 10
14.9341607551
 20
6.6802527445
 30
0.0
 11
10.51474337269999
 21
9.231528093899999
 31
0.0
  0
POLYLINE
  5
161
330
A
100
AcDbEntity
  8
0
  6
Continuous
 62
     7
100
AcDb2dPolyline
 66
     1
 10
0.0
 20
0.0
 30
0.0
 70
   128
 40
0.001476378
 41
0.001476378
  0
VERTEX
  5
162
330
161
100
AcDbEntity
  8
0
100
AcDbVertex
100
AcDb2dVertex
 10
14.9341607551
 20
5.659742604699999
 30
0.0
  0
VERTEX
  5
163
330
161
100
AcDbEntity
  8
0
100
AcDbVertex
100
AcDb2dVertex
 10
15.0078328325
 20
5.7061559389
 30
0.0
  0
VERTEX
  5
164
330
161
100
AcDbEntity
  8
0
100
AcDbVertex
100
AcDb2dVertex
 10
15.074217334
 20
5.7560993888
 30
0.0
  0
VERTEX
  5
165
330
161
100
AcDbEntity
  8
0
100
AcDbVertex
100
AcDb2dVertex
 10
15.1328090334
 20
5.8091928545
 30
0.0
  0
VERTEX
  5
166
330
161
100
AcDbEntity
  8
0
100
AcDbVertex
100
AcDb2dVertex
 10
15.1831620124
 20
5.865032262799999
 30
0.0
  0
VERTEX
  5
167
330
161
100
AcDbEntity
  8
0
100
AcDbVertex
100
AcDb2dVertex
 10
15.2248930546
 20
5.9231926421
 30
0.0
  0
VERTEX
  5
168
330
161
100
AcDbEntity
  8
0
100
AcDbVertex
100
AcDb2dVertex
 10
15.2576845615
 20
5.983231356599999
 30
0.0
  0
VERTEX
  5
169
330
161
100
AcDbEntity
  8
0
100
AcDbVertex
100
AcDb2dVertex
 10
15.2812869699
 20
6.044691475599999
 30
0.0
  0
VERTEX
  5
16A
330
161
100
AcDbEntity
  8
0
100
AcDbVertex
100
AcDb2dVertex
 10
15.2955206513
 20
6.107105250399999
 30
0.0
  0
VERTEX
  5
16B
330
161
100
AcDbEntity
  8
0
100
AcDbVertex
100
AcDb2dVertex
 10
15.3002772786
 20
6.1699976746
 30
0.0
  0
VERTEX
  5
16C
330
161
100
AcDbEntity
  8
0
100
AcDbVertex
100
AcDb2dVertex
 10
15.2955206513
 20
6.2328900987
 30
0.0
  0
VERTEX
  5
16D
330
161
100
AcDbEntity
  8
0
100
AcDbVertex
100
AcDb2dVertex
 10
15.2812869699
 20
6.295303873599999
 30
0.0
  0
VERTEX
  5
16E
330
161
100
AcDbEntity
  8
0
100
AcDbVertex
100
AcDb2dVertex
 10
15.2576845615
 20
6.356763992599999
 30
0.0
  0
VERTEX
  5
16F
330
161
100
AcDbEntity
  8
0
100
AcDbVertex
100
AcDb2dVertex
 10
15.2248930546
 20
6.4168027071
 30
0.0
  0
VERTEX
  5
170
330
161
100
AcDbEntity
  8
0
100
AcDbVertex
100
AcDb2dVertex
 10
15.1831620124
 20
6.474963086299999
 30
0.0
  0
VERTEX
  5
171
330
161
100
AcDbEntity
  8
0
100
AcDbVertex
100
AcDb2dVertex
 10
15.1328090334
 20
6.5308024946
 30
0.0
  0
VERTEX
  5
172
330
161
100
AcDbEntity
  8
0
100
AcDbVertex
100
AcDb2dVertex
 10
15.074217334
 20
6.583895960399999
 30
0.0
  0
VERTEX
  5
173
330
161
100
AcDbEntity
  8
0
100
AcDbVertex
100
AcDb2dVertex
 10
15.0078328325
 20
6.633839410299999
 30
0.0
  0
VERTEX
  5
174
330
161
100
AcDbEntity
  8
0
100
AcDbVertex
100
AcDb2dVertex
 10
14.9341607551
 20
6.6802527445
 30
0.0
  0
SEQEND
  5
175
330
161
100
AcDbEntity
  8
0
  0
LINE
  5
176
330
A
100
AcDbEntity
  8
0
  6
Continuous
 62
     7
370
    15
100
AcDbLine
 10
12.2825103257
 20
4.128977394999999
 30
0.0
 11
14.9341607551
 21
5.659742604699999
 31
0.0
  0
LINE
  5
177
330
A
100
AcDbEntity
  8
0
  6
Continuous
 62
     7
370
    15
100
AcDbLine
 10
14.9341607551
 20
5.659742604699999
 30
0.0
 11
14.9341607551
 21
5.2769890991
 31
0.0
  0
LINE
  5
178
330
A
100
AcDbEntity
  8
0
  6
Continuous
 62
     7
370
    15
100
AcDbLine
 10
12.2825103257
 20
3.746223889499999
 30
0.0
 11
14.9341607551
 21
5.2769890991
 31
0.0
  0
LINE
  5
179
330
A
100
AcDbEntity
  8
0
  6
Continuous
 62
     7
370
    15
100
AcDbLine
 10
6.0953259903
 20
6.6802527445
 30
0.0
 11
6.0953259903
 21
6.297499238899999
 31
0.0
  0
LINE
  5
17A
330
A
100
AcDbEntity
  8
0
  6
Continuous
 62
     7
370
    15
100
AcDbLine
 10
6.0953259903
 20
6.297499238899999
 30
0.0
 11
10.51474337269999
 21
3.746223889499999
 31
0.0
  0
POLYLINE
  5
17B
330
A
100
AcDbEntity
  8
0
  6
Continuous
 62
     7
100
AcDb2dPolyline
 66
     1
 10
0.0
 20
0.0
 30
0.0
 70
   128
 40
0.001476378
 41
0.001476378
  0
VERTEX
  5
17C
330
17B
100
AcDbEntity
  8
0
100
AcDbVertex
100
AcDb2dVertex
 10
14.9341607551
 20
5.2769890991
 30
0.0
  0
VERTEX
  5
17D
330
17B
100
AcDbEntity
  8
0
100
AcDbVertex
100
AcDb2dVertex
 10
15.0078328325
 20
5.3234024333
 30
0.0
  0
VERTEX
  5
17E
330
17B
100
AcDbEntity
  8
0
100
AcDbVertex
100
AcDb2dVertex
 10
15.074217334
 20
5.3733458832
 30
0.0
  0
VERTEX
  5
17F
330
17B
100
AcDbEntity
  8
0
100
AcDbVertex
100
AcDb2dVertex
 10
15.1328090334
 20
5.426439348999999
 30
0.0
  0
VERTEX
  5
180
330
17B
100
AcDbEntity
  8
0
100
AcDbVertex
100
AcDb2dVertex
 10
15.1831620124
 20
5.4822787573
 30
0.0
  0
VERTEX
  5
181
330
17B
100
AcDbEntity
  8
0
100
AcDbVertex
100
AcDb2dVertex
 10
15.2248930546
 20
5.540439136499999
 30
0.0
  0
VERTEX
  5
182
330
17B
100
AcDbEntity
  8
0
100
AcDbVertex
100
AcDb2dVertex
 10
15.2576845615
 20
5.600477850999999
 30
0.0
  0
VERTEX
  5
183
330
17B
100
AcDbEntity
  8
0
100
AcDbVertex
100
AcDb2dVertex
 10
15.2812869699
 20
5.66193797
 30
0.0
  0
VERTEX
  5
184
330
17B
100
AcDbEntity
  8
0
100
AcDbVertex
100
AcDb2dVertex
 10
15.2955206513
 20
5.724351744899999
 30
0.0
  0
VERTEX
  5
185
330
17B
100
AcDbEntity
  8
0
100
AcDbVertex
100
AcDb2dVertex
 10
15.3002772786
 20
5.787244169
 30
0.0
  0
SEQEND
  5
186
330
17B
100
AcDbEntity
  8
0
  0
POLYLINE
  5
187
330
A
100
AcDbEntity
  8
0
  6
Continuous
 62
     7
100
AcDb2dPolyline
 66
     1
 10
0.0
 20
0.0
 30
0.0
 70
   128
 40
0.001476378
 41
0.001476378
  0
VERTEX
  5
188
330
187
100
AcDbEntity
  8
0
100
AcDbVertex
100
AcDb2dVertex
 10
5.729209466799999
 20
6.807754308799999
 30
0.0
  0
VERTEX
  5
189
330
187
100
AcDbEntity
  8
0
100
AcDbVertex
100
AcDb2dVertex
 10
5.733966094199999
 20
6.7448618846
 30
0.0
  0
VERTEX
  5
18A
330
187
100
AcDbEntity
  8
0
100
AcDbVertex
100
AcDb2dVertex
 10
5.748199775499999
 20
6.6824481098
 30
0.0
  0
VERTEX
  5
18B
330
187
100
AcDbEntity
  8
0
100
AcDbVertex
100
AcDb2dVertex
 10
5.7718021839
 20
6.6209879908
 30
0.0
  0
VERTEX
  5
18C
330
187
100
AcDbEntity
  8
0
100
AcDbVertex
100
AcDb2dVertex
 10
5.8045936908
 20
6.560949276299999
 30
0.0
  0
VERTEX
  5
18D
330
187
100
AcDbEntity
  8
0
100
AcDbVertex
100
AcDb2dVertex
 10
5.846324732999999
 20
6.502788897
 30
0.0
  0
VERTEX
  5
18E
330
187
100
AcDbEntity
  8
0
100
AcDbVertex
100
AcDb2dVertex
 10
5.896677712
 20
6.446949488699999
 30
0.0
  0
VERTEX
  5
18F
330
187
100
AcDbEntity
  8
0
100
AcDbVertex
100
AcDb2dVertex
 10
5.955269411399999
 20
6.393856022999999
 30
0.0
  0
VERTEX
  5
190
330
187
100
AcDbEntity
  8
0
100
AcDbVertex
100
AcDb2dVertex
 10
6.021653912899999
 20
6.343912573099999
 30
0.0
  0
VERTEX
  5
191
330
187
100
AcDbEntity
  8
0
100
AcDbVertex
100
AcDb2dVertex
 10
6.0953259903
 20
6.297499238899999
 30
0.0
  0
SEQEND
  5
192
330
187
100
AcDbEntity
  8
0
  0
LEADER
  5
193
330
A
100
AcDbEntity
  8
0
 62
     1
100
AcDbLeader
  3
SLDDIMSTYLE2
 73
     0
 76
     3
 10
14.7106594791
 20
6.8092772848
 30
0.0
 10
15.9520600431
 20
7.322881367899999
 30
0.0
 10
16.57706004309999
 20
7.322881367899999
 30
0.0
340
195
213
0.0
223
-0.1876553841760442
233
0.0
  0
MTEXT
  5
195
102
{ACAD_REACTORS
330
193
102
}
330
A
100
AcDbEntity
  8
0
 62
     1
100
AcDbMText
 10
16.6264827038
 20
7.5105367521
 30
0.0
 40
0.25
 41
0.0
 71
     1
 72
     1
  1
RADIUS EXPOSED EDGES 1/32 TO 1/16 ONE SIDE 
  7
SLDTEXTSTYLE0
 73
     1
 44
1.0
  0
ENDSEC
  0
SECTION
  2
OBJECTS
  0
DICTIONARY
  5
19
330
0
100
AcDbDictionary
281
     1
  3
ACAD_GROUP
350
1A
  3
ACAD_LAYOUT
350
1E
  3
ACAD_MLINESTYLE
350
1B
  3
ACAD_PLOTSETTINGS
350
22
  3
ACAD_PLOTSTYLENAME
350
1F
  3
ACAD_WIPEOUT_VARS
350
23
  0
DICTIONARY
  5
1A
102
{ACAD_REACTORS
330
19
102
}
330
19
100
AcDbDictionary
281
     1
  0
DICTIONARY
  5
1E
102
{ACAD_REACTORS
330
19
102
}
330
19
100
AcDbDictionary
281
     1
  3
Layout1
350
21
  3
Model
350
20
  0
DICTIONARY
  5
1B
102
{ACAD_REACTORS
330
19
102
}
330
19
100
AcDbDictionary
281
     1
  3
Standard
350
1C
  0
DICTIONARY
  5
22
102
{ACAD_REACTORS
330
19
102
}
330
19
100
AcDbDictionary
281
     1
  0
ACDBDICTIONARYWDFLT
  5
1F
102
{ACAD_REACTORS
330
19
102
}
330
19
100
AcDbDictionary
281
     1
  3
Normal
350
1D
100
AcDbDictionaryWithDefault
340
1D
  0
WIPEOUTVARIABLES
  5
23
330
19
100
AcDbWipeoutVariables
 70
     1
  0
LAYOUT
  5
21
102
{ACAD_REACTORS
330
1E
102
}
330
1E
100
AcDbPlotSettings
  1

  2

  4

  6

 40
0.0
 41
0.0
 42
0.0
 43
0.0
 44
0.0
 45
0.0
 46
0.0
 47
0.0
 48
0.0
 49
0.0
140
0.0
141
0.0
142
1.0
143
1.0
 70
     0
 72
     0
 73
     0
 74
     0
  7

 75
     0
147
1.0
148
0.0
149
0.0
100
AcDbLayout
  1
Layout1
 70
     1
 71
     1
 10
0.0
 20
0.0
 11
12.0
 21
9.0
 12
0.0
 22
0.0
 32
0.0
 14
1.000000000000000E+20
 24
1.000000000000000E+20
 34
1.000000000000000E+20
 15
-1.000000000000000E+20
 25
-1.000000000000000E+20
 35
-1.000000000000000E+20
146
0.0
 13
0.0
 23
0.0
 33
0.0
 16
1.0
 26
0.0
 36
0.0
 17
0.0
 27
1.0
 37
0.0
 76
     0
330
B
  0
LAYOUT
  5
20
102
{ACAD_REACTORS
330
1E
102
}
330
1E
100
AcDbPlotSettings
  1

  2

  4

  6

 40
0.0
 41
0.0
 42
0.0
 43
0.0
 44
0.0
 45
0.0
 46
0.0
 47
0.0
 48
0.0
 49
0.0
140
0.0
141
0.0
142
1.0
143
1.0
 70
  1024
 72
     0
 73
     0
 74
     0
  7

 75
     0
147
1.0
148
0.0
149
0.0
100
AcDbLayout
  1
Model
 70
     0
 71
     0
 10
0.0
 20
0.0
 11
0.0
 21
0.0
 12
0.0
 22
0.0
 32
0.0
 14
0.0
 24
0.0
 34
0.0
 15
0.0
 25
0.0
 35
0.0
146
0.0
 13
0.0
 23
0.0
 33
0.0
 16
0.0
 26
0.0
 36
0.0
 17
0.0
 27
0.0
 37
0.0
 76
     0
330
A
  0
MLINESTYLE
  5
1C
102
{ACAD_REACTORS
330
1B
102
}
330
1B
100
AcDbMlineStyle
  2
STANDARD
 70
     0
  3

 62
     0
 51
90.0
 52
90.0
 71
     2
 49
0.5
 62
   256
  6
BYLAYER
 49
-0.5
 62
   256
  6
BYLAYER
  0
ACDBPLACEHOLDER
  5
1D
102
{ACAD_REACTORS
330
1F
102
}
330
1F
  0
ENDSEC
  0
EOF
