  0
SECTION
  2
HEADER
  9
$ACADVER
  1
AC1015
  9
$ACADMAINTVER
 70
    10
  9
$DWGCODEPAGE
  3
ANSI_1252
  9
$INSBASE
 10
0.0
 20
0.0
 30
0.0
  9
$EXTMIN
 10
2.25
 20
-0.3159471742999999
 30
0.0
  9
$EXTMAX
 10
50.2808102386
 20
32.426068864
 30
0.0
  9
$LIMMIN
 10
0.0
 20
0.0
  9
$LIMMAX
 10
0.0
 20
0.0
  9
$ORTHOMODE
 70
     0
  9
$REGENMODE
 70
     1
  9
$FILLMODE
 70
     1
  9
$QTEXTMODE
 70
     0
  9
$MIRRTEXT
 70
     1
  9
$LTSCALE
 40
1.0
  9
$ATTMODE
 70
     1
  9
$TEXTSIZE
 40
0.0
  9
$TRACEWID
 40
0.05
  9
$TEXTSTYLE
  7
Standard
  9
$CLAYER
  8
0
  9
$CELTYPE
  6
Continuous
  9
$CECOLOR
 62
   256
  9
$CELTSCALE
 40
1.0
  9
$DISPSILH
 70
     0
  9
$DIMSCALE
 40
1.0
  9
$DIMASZ
 40
0.0
  9
$DIMEXO
 40
0.0
  9
$DIMDLI
 40
0.38
  9
$DIMRND
 40
0.0
  9
$DIMDLE
 40
0.0
  9
$DIMEXE
 40
0.18
  9
$DIMTP
 40
0.0
  9
$DIMTM
 40
0.0
  9
$DIMTXT
 40
0.3
  9
$DIMCEN
 40
0.09
  9
$DIMTSZ
 40
0.0
  9
$DIMTOL
 70
     0
  9
$DIMLIM
 70
     0
  9
$DIMTIH
 70
     1
  9
$DIMTOH
 70
     1
  9
$DIMSE1
 70
     0
  9
$DIMSE2
 70
     0
  9
$DIMTAD
 70
     0
  9
$DIMZIN
 70
     0
  9
$DIMBLK
  1

  9
$DIMASO
 70
     1
  9
$DIMSHO
 70
     1
  9
$DIMPOST
  1

  9
$DIMAPOST
  1

  9
$DIMALT
 70
     0
  9
$DIMALTD
 70
     2
  9
$DIMALTF
 40
25.4
  9
$DIMLFAC
 40
1.0
  9
$DIMTOFL
 70
     0
  9
$DIMTVP
 40
0.0
  9
$DIMTIX
 70
     0
  9
$DIMSOXD
 70
     0
  9
$DIMSAH
 70
     0
  9
$DIMBLK1
  1

  9
$DIMBLK2
  1

  9
$DIMSTYLE
  2
Standard
  9
$DIMCLRD
 70
     0
  9
$DIMCLRE
 70
     0
  9
$DIMCLRT
 70
     0
  9
$DIMTFAC
 40
1.0
  9
$DIMGAP
 40
0.0
  9
$DIMJUST
 70
     0
  9
$DIMSD1
 70
     0
  9
$DIMSD2
 70
     0
  9
$DIMTOLJ
 70
     1
  9
$DIMTZIN
 70
     0
  9
$DIMALTZ
 70
     0
  9
$DIMALTTZ
 70
     0
  9
$DIMUPT
 70
     0
  9
$DIMDEC
 70
     4
  9
$DIMTDEC
 70
     4
  9
$DIMALTU
 70
     2
  9
$DIMALTTD
 70
     2
  9
$DIMTXSTY
  7
Standard
  9
$DIMAUNIT
 70
     0
  9
$DIMADEC
 70
     0
  9
$DIMALTRND
 40
0.0
  9
$DIMAZIN
 70
     0
  9
$DIMDSEP
 70
     0
  9
$DIMATFIT
 70
     3
  9
$DIMFRAC
 70
     0
  9
$DIMLDRBLK
  1

  9
$DIMLUNIT
 70
     2
  9
$DIMLWD
 70
     0
  9
$DIMLWE
 70
     0
  9
$DIMTMOVE
 70
     0
  9
$LUNITS
 70
     2
  9
$LUPREC
 70
     3
  9
$SKETCHINC
 40
0.1
  9
$FILLETRAD
 40
0.0
  9
$AUNITS
 70
     0
  9
$AUPREC
 70
     2
  9
$MENU
  1
acad
  9
$ELEVATION
 40
0.0
  9
$PELEVATION
 40
0.0
  9
$THICKNESS
 40
0.0
  9
$LIMCHECK
 70
     0
  9
$CHAMFERA
 40
0.0
  9
$CHAMFERB
 40
0.0
  9
$CHAMFERC
 40
0.0
  9
$CHAMFERD
 40
0.0
  9
$SKPOLY
 70
     0
  9
$TDCREATE
 40
2453398.544593460
  9
$TDUCREATE
 40
2453398.877926793
  9
$TDUPDATE
 40
2453398.545489178
  9
$TDUUPDATE
 40
2453398.878822511
  9
$TDINDWG
 40
0.0009000694
  9
$TDUSRTIMER
 40
0.0009000694
  9
$USRTIMER
 70
     1
  9
$ANGBASE
 50
0.0
  9
$ANGDIR
 70
     0
  9
$PDMODE
 70
     0
  9
$PDSIZE
 40
-1.0
  9
$PLINEWID
 40
0.0
  9
$SPLFRAME
 70
     0
  9
$SPLINETYPE
 70
     6
  9
$SPLINESEGS
 70
     8
  9
$HANDSEED
  5
276
  9
$SURFTAB1
 70
     6
  9
$SURFTAB2
 70
     6
  9
$SURFTYPE
 70
     6
  9
$SURFU
 70
     6
  9
$SURFV
 70
     6
  9
$UCSBASE
  2

  9
$UCSNAME
  2

  9
$UCSORG
 10
0.0
 20
0.0
 30
0.0
  9
$UCSXDIR
 10
1.0
 20
0.0
 30
0.0
  9
$UCSYDIR
 10
0.0
 20
1.0
 30
0.0
  9
$UCSORTHOREF
  2

  9
$UCSORTHOVIEW
 70
     0
  9
$UCSORGTOP
 10
0.0
 20
0.0
 30
0.0
  9
$UCSORGBOTTOM
 10
0.0
 20
0.0
 30
0.0
  9
$UCSORGLEFT
 10
0.0
 20
0.0
 30
0.0
  9
$UCSORGRIGHT
 10
0.0
 20
0.0
 30
0.0
  9
$UCSORGFRONT
 10
0.0
 20
0.0
 30
0.0
  9
$UCSORGBACK
 10
0.0
 20
0.0
 30
0.0
  9
$PUCSBASE
  2

  9
$PUCSNAME
  2

  9
$PUCSORG
 10
0.0
 20
0.0
 30
0.0
  9
$PUCSXDIR
 10
1.0
 20
0.0
 30
0.0
  9
$PUCSYDIR
 10
0.0
 20
1.0
 30
0.0
  9
$PUCSORTHOREF
  2

  9
$PUCSORTHOVIEW
 70
     0
  9
$PUCSORGTOP
 10
0.0
 20
0.0
 30
0.0
  9
$PUCSORGBOTTOM
 10
0.0
 20
0.0
 30
0.0
  9
$PUCSORGLEFT
 10
0.0
 20
0.0
 30
0.0
  9
$PUCSORGRIGHT
 10
0.0
 20
0.0
 30
0.0
  9
$PUCSORGFRONT
 10
0.0
 20
0.0
 30
0.0
  9
$PUCSORGBACK
 10
0.0
 20
0.0
 30
0.0
  9
$USERI1
 70
     0
  9
$USERI2
 70
     0
  9
$USERI3
 70
     0
  9
$USERI4
 70
     0
  9
$USERI5
 70
     0
  9
$USERR1
 40
0.0
  9
$USERR2
 40
0.0
  9
$USERR3
 40
0.0
  9
$USERR4
 40
0.0
  9
$USERR5
 40
0.0
  9
$WORLDVIEW
 70
     1
  9
$SHADEDGE
 70
     3
  9
$SHADEDIF
 70
    70
  9
$TILEMODE
 70
     1
  9
$MAXACTVP
 70
    16
  9
$PINSBASE
 10
0.0
 20
0.0
 30
0.0
  9
$PLIMCHECK
 70
     0
  9
$PEXTMIN
 10
1.000000000000000E+20
 20
1.000000000000000E+20
 30
1.000000000000000E+20
  9
$PEXTMAX
 10
-1.000000000000000E+20
 20
-1.000000000000000E+20
 30
-1.000000000000000E+20
  9
$PLIMMIN
 10
0.0
 20
0.0
  9
$PLIMMAX
 10
12.0
 20
9.0
  9
$UNITMODE
 70
     0
  9
$VISRETAIN
 70
     0
  9
$PLINEGEN
 70
     1
  9
$PSLTSCALE
 70
     1
  9
$TREEDEPTH
 70
  3020
  9
$CMLSTYLE
  2
Standard
  9
$CMLJUST
 70
     0
  9
$CMLSCALE
 40
1.0
  9
$PROXYGRAPHICS
 70
     0
  9
$MEASUREMENT
 70
     0
  9
$CELWEIGHT
370
     0
  9
$ENDCAPS
280
     0
  9
$JOINSTYLE
280
     0
  9
$LWDISPLAY
290
     1
  9
$INSUNITS
 70
     0
  9
$HYPERLINKBASE
  1

  9
$STYLESHEET
  1

  9
$XEDIT
290
     1
  9
$CEPSNTYPE
380
     0
  9
$PSTYLEMODE
290
     1
  9
$FINGERPRINTGUID
  2

  9
$VERSIONGUID
  2
{6EDBA409-958E-4BF7-BB33-D3DF76FAA9F2}
  9
$EXTNAMES
290
     1
  9
$PSVPSCALE
 40
0.0
  9
$OLESTARTUP
290
     0
  0
ENDSEC
  0
SECTION
  2
CLASSES
  0
CLASS
  1
LWPOLYLINE
  2
AcDbPolyline
  3
AutoCAD 2000
 90
    32768
280
     0
281
     1
  0
CLASS
  1
IMAGE
  2
AcDbRasterImage
  3
ISM
 90
    32895
280
     0
281
     1
  0
CLASS
  1
OLE2FRAME
  2
AcDbOle2Frame
  3
AutoCAD 2000
 90
    32768
280
     0
281
     1
  0
CLASS
  1
HATCH
  2
AcDbHatch
  3
AutoCAD 2000
 90
    32768
280
     0
281
     1
  0
CLASS
  1
DICTIONARYVAR
  2
AcDbDictionaryVar
  3
AutoCAD 2000
 90
    32768
280
     0
281
     0
  0
CLASS
  1
RASTERVARIABLES
  2
AcDbRasterVariables
  3
ISM
 90
    32768
280
     0
281
     0
  0
CLASS
  1
IMAGEDEF
  2
AcDbRasterImageDef
  3
ISM
 90
    32768
280
     0
281
     0
  0
CLASS
  1
IMAGEDEF_REACTOR
  2
AcDbRasterImageDefReactor
  3
ISM
 90
    32769
280
     0
281
     0
  0
CLASS
  1
IDBUFFER
  2
AcDbIdBuffer
  3
AutoCAD 2000
 90
    32768
280
     0
281
     0
  0
CLASS
  1
SPATIAL_FILTER
  2
AcDbSpatialFilter
  3
AutoCAD 2000
 90
    32768
280
     0
281
     0
  0
CLASS
  1
XRECORD
  2
AcDbXrecord
  3
AutoCAD 2000
 90
    32768
280
     0
281
     0
  0
CLASS
  1
SORTENTSTABLE
  2
AcDbSortentsTable
  3
AutoCAD 2000
 90
    32768
280
     0
281
     0
  0
CLASS
  1
LAYER_INDEX
  2
AcDbLayerIndex
  3
AutoCAD 2000
 90
    32768
280
     0
281
     0
  0
CLASS
  1
SPATIAL_INDEX
  2
AcDbSpatialIndex
  3
AutoCAD 2000
 90
    32768
280
     0
281
     0
  0
CLASS
  1
OBJECT_PTR
  2
CAseDLPNTableRecord
  3
"ASE-LPNTableRecord"
 90
    32769
280
     0
281
     0
  0
CLASS
  1
LAYOUT
  2
AcDbLayout
  3
AutoCAD 2000
 90
        0
280
     0
281
     0
  0
CLASS
  1
PLOTSETTINGS
  2
AcDbPlotSettings
  3
AutoCAD 2000
 90
    32768
280
     0
281
     0
  0
CLASS
  1
ACDBDICTIONARYWDFLT
  2
AcDbDictionaryWithDefault
  3
AutoCAD 2000
 90
        0
280
     0
281
     0
  0
CLASS
  1
ACDBPLACEHOLDER
  2
AcDbPlaceHolder
  3
AutoCAD 2000
 90
        0
280
     0
281
     0
  0
CLASS
  1
VBA_PROJECT
  2
AcDbVbaProject
  3
acadvba
 90
    32768
280
     0
281
     0
  0
CLASS
  1
WIPEOUT
  2
AcDbWipeout
  3
WipeOut|AutoCAD Express Tool|expresstools@autodesk.com
 90
    32895
280
     0
281
     1
  0
CLASS
  1
WIPEOUTVARIABLES
  2
AcDbWipeoutVariables
  3
WipeOut|AutoCAD Express Tool|expresstools@autodesk.com
 90
        0
280
     0
281
     0
  0
CLASS
  1
RTEXT
  2
RText
  3
RText|AutoCAD Express Tool|expresstools@autodesk.com
 90
    32768
280
     0
281
     1
  0
CLASS
  1
ARCALIGNEDTEXT
  2
AcDbArcAlignedText
  3
ATEXT|AutoCAD Express Tool|expresstools@autodesk.com
 90
    32768
280
     0
281
     1
  0
ENDSEC
  0
SECTION
  2
TABLES
  0
TABLE
  2
VPORT
  5
7
330
0
100
AcDbSymbolTable
 70
     6
  0
VPORT
  5
275
330
7
100
AcDbSymbolTableRecord
100
AcDbViewportTableRecord
  2
*Active
 70
     0
 10
0.0
 20
0.0
 11
1.0
 21
1.0
 12
25.71353188234714
 22
16.50000000000001
 13
0.0
 23
0.0
 14
1.0
 24
1.0
 15
0.0
 25
0.0
 16
0.0
 26
0.0
 36
1.0
 17
0.0
 27
0.0
 37
0.0
 40
32.99999999063453
 41
1.5
 42
50.0
 43
0.0
 44
0.0
 50
0.0
 51
0.0
 71
     0
 72
  2000
 73
     1
 74
     1
 75
     0
 76
     0
 77
     0
 78
     0
281
     0
 65
     0
110
0.0
120
0.0
130
0.0
111
1.0
121
0.0
131
0.0
112
0.0
122
1.0
132
0.0
 79
     0
146
0.0
  0
ENDTAB
  0
TABLE
  2
LTYPE
  5
4
330
0
100
AcDbSymbolTable
 70
     6
  0
LTYPE
  5
11
330
4
100
AcDbSymbolTableRecord
100
AcDbLinetypeTableRecord
  2
ByBlock
 70
     0
  3

 72
    65
 73
     0
 40
0.0
  0
LTYPE
  5
12
330
4
100
AcDbSymbolTableRecord
100
AcDbLinetypeTableRecord
  2
ByLayer
 70
     0
  3

 72
    65
 73
     0
 40
0.0
  0
LTYPE
  5
13
330
4
100
AcDbSymbolTableRecord
100
AcDbLinetypeTableRecord
  2
Continuous
 70
     0
  3
Solid line
 72
    65
 73
     0
 40
0.0
  0
LTYPE
  5
24
330
4
100
AcDbSymbolTableRecord
100
AcDbLinetypeTableRecord
  2
HIDDEN
 70
     0
  3
Hidden __ __ __ __ __ __ __ __ __ __ __ __ __ __
 72
    65
 73
     2
 40
0.075
 49
0.05
 74
     0
 49
-0.025
 74
     0
  0
LTYPE
  5
25
330
4
100
AcDbSymbolTableRecord
100
AcDbLinetypeTableRecord
  2
PHANTOM
 70
     0
  3
Phantom ______  __  __  ______  __  __  ______
 72
    65
 73
     6
 40
0.5
 49
0.25
 74
     0
 49
-0.05
 74
     0
 49
0.05
 74
     0
 49
-0.05
 74
     0
 49
0.05
 74
     0
 49
-0.05
 74
     0
  0
LTYPE
  5
26
330
4
100
AcDbSymbolTableRecord
100
AcDbLinetypeTableRecord
  2
CENTER
 70
     0
  3
Center ____ _ ____ _ ____ _ ____ _ ____ _ ____
 72
    65
 73
     4
 40
0.4
 49
0.25
 74
     0
 49
-0.05
 74
     0
 49
0.05
 74
     0
 49
-0.05
 74
     0
  0
LTYPE
  5
27
330
4
100
AcDbSymbolTableRecord
100
AcDbLinetypeTableRecord
  2
CENTERX2
 70
     0
  3
Center (2x) ________  __  ________  __  _____
 72
    65
 73
     4
 40
0.8
 49
0.5
 74
     0
 49
-0.1
 74
     0
 49
0.1
 74
     0
 49
-0.1
 74
     0
  0
LTYPE
  5
28
330
4
100
AcDbSymbolTableRecord
100
AcDbLinetypeTableRecord
  2
DOT2
 70
     0
  3
Dot (.5x) ........................................
 72
    65
 73
     2
 40
0.025
 49
0.0
 74
     0
 49
-0.025
 74
     0
  0
ENDTAB
  0
TABLE
  2
LAYER
  5
2
330
0
100
AcDbSymbolTable
 70
     1
  0
LAYER
  5
14
330
2
100
AcDbSymbolTableRecord
100
AcDbLayerTableRecord
  2
0
 70
     0
 62
     7
  6
Continuous
370
    -3
390
1D
  0
ENDTAB
  0
TABLE
  2
STYLE
  5
3
330
0
100
AcDbSymbolTable
 70
     2
  0
STYLE
  5
17
330
3
100
AcDbSymbolTableRecord
100
AcDbTextStyleTableRecord
  2
Standard
 70
     0
 40
0.0
 41
1.0
 50
0.0
 71
     0
 42
0.0
  3
txt
  4

  0
STYLE
  5
75
330
3
100
AcDbSymbolTableRecord
100
AcDbTextStyleTableRecord
  2
SLDTEXTSTYLE0
 70
     0
 40
0.0
 41
0.75
 50
0.0
 71
     0
 42
0.0
  3
txt
  4

  0
ENDTAB
  0
TABLE
  2
VIEW
  5
5
330
0
100
AcDbSymbolTable
 70
     0
  0
ENDTAB
  0
TABLE
  2
UCS
  5
6
330
0
100
AcDbSymbolTable
 70
     0
  0
ENDTAB
  0
TABLE
  2
APPID
  5
8
330
0
100
AcDbSymbolTable
 70
     1
  0
APPID
  5
16
330
8
100
AcDbSymbolTableRecord
100
AcDbRegAppTableRecord
  2
ACAD
 70
     0
  0
ENDTAB
  0
TABLE
  2
DIMSTYLE
  5
9
330
0
100
AcDbSymbolTable
 70
     6
100
AcDbDimStyleTable
 71
     1
340
18
  0
DIMSTYLE
105
18
330
9
100
AcDbSymbolTableRecord
100
AcDbDimStyleTableRecord
  2
Standard
 70
     0
340
17
  0
DIMSTYLE
105
DE
102
{ACAD_REACTORS
330
E2
330
F1
330
101
330
10E
330
11B
330
146
330
153
102
}
330
9
100
AcDbSymbolTableRecord
100
AcDbDimStyleTableRecord
  2
SLDDIMSTYLE0
 70
     0
 41
0.5625
 44
0.36
 78
    12
140
0.3
147
0.075
173
     1
176
     1
177
     1
178
     1
271
     3
284
    12
340
17
  0
DIMSTYLE
105
124
102
{ACAD_REACTORS
330
128
102
}
330
9
100
AcDbSymbolTableRecord
100
AcDbDimStyleTableRecord
  2
SLDDIMSTYLE1
 70
     0
 41
0.5625
 44
0.36
 78
    12
140
0.3
147
0.075
173
     1
176
     1
177
     1
178
     1
271
     3
284
    12
340
17
  0
DIMSTYLE
105
133
102
{ACAD_REACTORS
330
139
102
}
330
9
100
AcDbSymbolTableRecord
100
AcDbDimStyleTableRecord
  2
SLDDIMSTYLE2
 70
     0
 41
0.5625
 44
0.36
 78
    12
140
0.3
147
0.075
173
     1
176
     1
177
     1
178
     1
271
     0
284
    12
340
17
  0
DIMSTYLE
105
155
330
9
100
AcDbSymbolTableRecord
100
AcDbDimStyleTableRecord
  2
SLDDIMSTYLE3
 70
     0
 41
0.5625
 44
0.0
140
0.5625
147
0.140625
173
     1
271
     0
272
     0
340
17
  0
DIMSTYLE
105
17E
102
{ACAD_REACTORS
330
182
102
}
330
9
100
AcDbSymbolTableRecord
100
AcDbDimStyleTableRecord
  2
SLDDIMSTYLE4
 70
     0
 41
0.5625
 44
0.36
 47
0.03
 48
0.03
 71
     1
 78
    12
140
0.6666666667
147
0.1666666667
173
     1
176
     7
177
     7
178
     7
271
     3
272
     3
340
17
  0
ENDTAB
  0
TABLE
  2
BLOCK_RECORD
  5
1
330
0
100
AcDbSymbolTable
 70
    12
  0
BLOCK_RECORD
  5
A
330
1
100
AcDbSymbolTableRecord
100
AcDbBlockTableRecord
  2
*MODEL_SPACE
340
20
  0
BLOCK_RECORD
  5
B
330
1
100
AcDbSymbolTableRecord
100
AcDbBlockTableRecord
  2
*PAPER_SPACE
340
21
  0
BLOCK_RECORD
  5
A9
330
1
100
AcDbSymbolTableRecord
100
AcDbBlockTableRecord
  2
NOTE51
340
0
102
{BLKREFS
331
AF
102
}
  0
BLOCK_RECORD
  5
D3
330
1
100
AcDbSymbolTableRecord
100
AcDbBlockTableRecord
  2
*D1
340
0
  0
BLOCK_RECORD
  5
E3
330
1
100
AcDbSymbolTableRecord
100
AcDbBlockTableRecord
  2
*D2
340
0
  0
BLOCK_RECORD
  5
F2
330
1
100
AcDbSymbolTableRecord
100
AcDbBlockTableRecord
  2
*D3
340
0
  0
BLOCK_RECORD
  5
102
330
1
100
AcDbSymbolTableRecord
100
AcDbBlockTableRecord
  2
*D4
340
0
  0
BLOCK_RECORD
  5
10F
330
1
100
AcDbSymbolTableRecord
100
AcDbBlockTableRecord
  2
*D5
340
0
  0
BLOCK_RECORD
  5
11C
330
1
100
AcDbSymbolTableRecord
100
AcDbBlockTableRecord
  2
*D6
340
0
  0
BLOCK_RECORD
  5
129
330
1
100
AcDbSymbolTableRecord
100
AcDbBlockTableRecord
  2
*D7
340
0
  0
BLOCK_RECORD
  5
13A
330
1
100
AcDbSymbolTableRecord
100
AcDbBlockTableRecord
  2
*D8
340
0
  0
BLOCK_RECORD
  5
147
330
1
100
AcDbSymbolTableRecord
100
AcDbBlockTableRecord
  2
*D9
340
0
  0
BLOCK_RECORD
  5
156
330
1
100
AcDbSymbolTableRecord
100
AcDbBlockTableRecord
  2
NOTE68
340
0
102
{BLKREFS
331
15F
102
}
  0
BLOCK_RECORD
  5
171
330
1
100
AcDbSymbolTableRecord
100
AcDbBlockTableRecord
  2
*D11
340
0
  0
ENDTAB
  0
ENDSEC
  0
SECTION
  2
BLOCKS
  0
BLOCK
  5
D
330
A
100
AcDbEntity
  8
0
100
AcDbBlockBegin
  2
*MODEL_SPACE
 70
     0
 10
0.0
 20
0.0
 30
0.0
  3
*MODEL_SPACE
  1

  0
ENDBLK
  5
E
330
A
100
AcDbEntity
  8
0
100
AcDbBlockEnd
  0
BLOCK
  5
F
330
B
100
AcDbEntity
 67
     1
  8
0
100
AcDbBlockBegin
  2
*PAPER_SPACE
 70
     0
 10
0.0
 20
0.0
 30
0.0
  3
*PAPER_SPACE
  1

  0
ENDBLK
  5
10
330
B
100
AcDbEntity
 67
     1
  8
0
100
AcDbBlockEnd
  0
BLOCK
  5
AA
330
A9
100
AcDbEntity
  8
0
 62
     0
100
AcDbBlockBegin
  2
NOTE51
 70
     0
 10
0.0
 20
0.0
 30
0.0
  3
NOTE51
  1

  0
MTEXT
  5
AB
330
A9
100
AcDbEntity
  8
0
 62
     7
100
AcDbMText
 10
0.0
 20
0.0
 30
0.0
 40
0.27
 41
0.0
 71
     1
 72
     1
  1
BREAK SHARP EDGES 0.010 RAD %%p 0.003
  7
SLDTEXTSTYLE0
 73
     1
 44
1.0
  0
MTEXT
  5
AC
330
A9
100
AcDbEntity
  8
0
 62
     7
100
AcDbMText
 10
0.0
 20
-0.4050000000000001
 30
0.0
 40
0.27
 41
0.0
 71
     1
 72
     1
  1
MACHINED SURF FINISH  
  7
SLDTEXTSTYLE0
 73
     1
 44
1.0
  0
MTEXT
  5
AD
330
A9
100
AcDbEntity
  8
0
 62
     7
100
AcDbMText
 10
4.158
 20
-0.4050000000000001
 30
0.0
 40
0.27
 41
0.0
 71
     1
 72
     1
  1
< 125 MICROINCH
  7
SLDTEXTSTYLE0
 73
     1
 44
1.0
  0
ENDBLK
  5
AE
330
A9
100
AcDbEntity
  8
0
100
AcDbBlockEnd
  0
BLOCK
  5
D4
330
D3
100
AcDbEntity
  8
0
 62
     1
100
AcDbBlockBegin
  2
*D1
 70
     1
 10
0.0
 20
0.0
 30
0.0
  3
*D1
  1

  0
MTEXT
  5
D5
330
D3
100
AcDbEntity
  8
0
100
AcDbMText
 10
31.71400327789999
 20
15.24429946059999
 30
0.0
 40
0.3
 41
0.0
 71
     7
 72
     1
  1
4 1/2"
  7
SLDTEXTSTYLE0
 73
     1
 44
1.0
  0
MTEXT
  5
D6
330
D3
100
AcDbEntity
  8
0
100
AcDbMText
 10
30.62110044769999
 20
14.6745332341
 30
0.0
 40
0.3
 41
0.0
 71
     7
 72
     1
  1
TO SHARP CORNER
  7
SLDTEXTSTYLE0
 73
     1
 44
1.0
  0
MTEXT
  5
D7
330
D3
100
AcDbEntity
  8
0
100
AcDbMText
 10
31.4610271458
 20
14.1047670077
 30
0.0
 40
0.3
 41
0.0
 71
     7
 72
     1
  1
2 PLACES
  7
SLDTEXTSTYLE0
 73
     1
 44
1.0
  0
LINE
  5
D8
330
D3
100
AcDbEntity
  8
0
100
AcDbLine
 10
29.60307302689999
 20
17.0594163473
 30
0.0
 11
32.65922827789999
 21
17.0594163473
 31
0.0
  0
LINE
  5
D9
330
D3
100
AcDbEntity
  8
0
100
AcDbLine
 10
28.60307302689999
 20
12.5594163473
 30
0.0
 11
32.65922827789999
 21
12.5594163473
 31
0.0
  0
LINE
  5
DA
330
D3
100
AcDbEntity
  8
0
100
AcDbLine
 10
32.2992282779
 20
17.0594163473
 30
0.0
 11
32.2992282779
 21
15.664065687
 31
0.0
  0
LINE
  5
DB
330
D3
100
AcDbEntity
  8
0
100
AcDbLine
 10
32.2992282779
 20
12.5594163473
 30
0.0
 11
32.2992282779
 21
13.95476700769999
 31
0.0
  0
SOLID
  5
DC
330
D3
100
AcDbEntity
  8
0
100
AcDbTrace
 10
32.2992282779
 20
17.0594163473
 30
0.0
 11
32.20547827789999
 21
16.4969163473
 31
0.0
 12
32.3929782779
 22
16.4969163473
 32
0.0
 13
32.3929782779
 23
16.4969163473
 33
0.0
  0
SOLID
  5
DD
330
D3
100
AcDbEntity
  8
0
100
AcDbTrace
 10
32.2992282779
 20
12.5594163473
 30
0.0
 11
32.3929782779
 21
13.1219163473
 31
0.0
 12
32.20547827789999
 22
13.1219163473
 32
0.0
 13
32.20547827789999
 23
13.1219163473
 33
0.0
  0
POINT
  5
DF
330
D3
100
AcDbEntity
  8
0
100
AcDbPoint
 10
29.4830730269
 20
17.0594163473
 30
0.0
  0
POINT
  5
E0
330
D3
100
AcDbEntity
  8
0
100
AcDbPoint
 10
28.4830730269
 20
12.5594163473
 30
0.0
  0
ENDBLK
  5
E1
330
D3
100
AcDbEntity
  8
0
 62
     1
100
AcDbBlockEnd
  0
BLOCK
  5
E4
330
E3
100
AcDbEntity
  8
0
 62
     1
100
AcDbBlockBegin
  2
*D2
 70
     1
 10
0.0
 20
0.0
 30
0.0
  3
*D2
  1

  0
MTEXT
  5
E5
330
E3
100
AcDbEntity
  8
0
100
AcDbMText
 10
32.27047333779999
 20
26.6054099795
 30
0.0
 40
0.3
 41
0.0
 71
     7
 72
     1
  1
4 3/4"
  7
SLDTEXTSTYLE0
 73
     1
 44
1.0
  0
MTEXT
  5
E6
330
E3
100
AcDbEntity
  8
0
100
AcDbMText
 10
31.2224745642
 20
26.0356437531
 30
0.0
 40
0.3
 41
0.0
 71
     7
 72
     1
  1
TO SHARP CORNER
  7
SLDTEXTSTYLE0
 73
     1
 44
1.0
  0
MTEXT
  5
E7
330
E3
100
AcDbEntity
  8
0
100
AcDbMText
 10
32.06240126229999
 20
25.4658775267
 30
0.0
 40
0.3
 41
0.0
 71
     7
 72
     1
  1
2 PLACES
  7
SLDTEXTSTYLE0
 73
     1
 44
1.0
  0
LINE
  5
E8
330
E3
100
AcDbEntity
  8
0
100
AcDbLine
 10
24.7330730269
 20
23.9294163473
 30
0.0
 11
24.7330730269
 21
26.5305268663
 31
0.0
  0
LINE
  5
E9
330
E3
100
AcDbEntity
  8
0
100
AcDbLine
 10
29.4830730269
 20
16.8628296085
 30
0.0
 11
29.4830730269
 21
26.5305268663
 31
0.0
  0
LINE
  5
EA
330
E3
100
AcDbEntity
  8
0
100
AcDbLine
 10
24.7330730269
 20
26.1705268663
 30
0.0
 11
29.4830730269
 21
26.1705268663
 31
0.0
  0
LINE
  5
EB
330
E3
100
AcDbEntity
  8
0
100
AcDbLine
 10
29.4830730269
 20
26.1705268663
 30
0.0
 11
30.9880995642
 21
26.1705268663
 31
0.0
  0
SOLID
  5
EC
330
E3
100
AcDbEntity
  8
0
100
AcDbTrace
 10
24.7330730269
 20
26.1705268663
 30
0.0
 11
25.2955730269
 21
26.0767768663
 31
0.0
 12
25.2955730269
 22
26.2642768663
 32
0.0
 13
25.2955730269
 23
26.2642768663
 33
0.0
  0
SOLID
  5
ED
330
E3
100
AcDbEntity
  8
0
100
AcDbTrace
 10
29.4830730269
 20
26.1705268663
 30
0.0
 11
28.9205730269
 21
26.2642768663
 31
0.0
 12
28.9205730269
 22
26.0767768663
 32
0.0
 13
28.9205730269
 23
26.0767768663
 33
0.0
  0
POINT
  5
EE
330
E3
100
AcDbEntity
  8
0
100
AcDbPoint
 10
24.7330730269
 20
23.8094163473
 30
0.0
  0
POINT
  5
EF
330
E3
100
AcDbEntity
  8
0
100
AcDbPoint
 10
29.4830730269
 20
16.7428296085
 30
0.0
  0
ENDBLK
  5
F0
330
E3
100
AcDbEntity
  8
0
 62
     1
100
AcDbBlockEnd
  0
BLOCK
  5
F3
330
F2
100
AcDbEntity
  8
0
 62
     1
100
AcDbBlockBegin
  2
*D3
 70
     1
 10
0.0
 20
0.0
 30
0.0
  3
*D3
  1

  0
MTEXT
  5
F4
330
F2
100
AcDbEntity
  8
0
100
AcDbMText
 10
19.81906604569999
 20
26.3672019803
 30
0.0
 40
0.3
 41
0.0
 71
     7
 72
     1
  1
8 1/2"
  7
SLDTEXTSTYLE0
 73
     1
 44
1.0
  0
MTEXT
  5
F5
330
F2
100
AcDbEntity
  8
0
100
AcDbMText
 10
18.4373382156
 20
25.7974357539
 30
0.0
 40
0.3
 41
0.0
 71
     7
 72
     1
  1
CORNER TO CCORNER
  7
SLDTEXTSTYLE0
 73
     1
 44
1.0
  0
LINE
  5
F6
330
F2
100
AcDbEntity
  8
0
100
AcDbLine
 10
24.7330730269
 20
23.9294163473
 30
0.0
 11
24.7330730269
 21
26.5772019803
 31
0.0
  0
LINE
  5
F7
330
F2
100
AcDbEntity
  8
0
100
AcDbLine
 10
16.2330730269
 20
23.9294163473
 30
0.0
 11
16.2330730269
 21
26.5772019803
 31
0.0
  0
LINE
  5
F8
330
F2
100
AcDbEntity
  8
0
100
AcDbLine
 10
24.7330730269
 20
26.2172019803
 30
0.0
 11
22.7631828382
 21
26.2172019803
 31
0.0
  0
LINE
  5
F9
330
F2
100
AcDbEntity
  8
0
100
AcDbLine
 10
16.2330730269
 20
26.2172019803
 30
0.0
 11
18.2029632156
 21
26.2172019803
 31
0.0
  0
ARC
  5
FA
330
F2
100
AcDbEntity
  8
0
100
AcDbCircle
 10
18.960229442
 20
26.5020850935
 30
0.0
 40
0.6370180068
100
AcDbArc
 50
153.4349488229
 51
206.5650511771
  0
ARC
  5
FB
330
F2
100
AcDbEntity
  8
0
100
AcDbCircle
 10
22.0059166118
 20
26.5020850935
 30
0.0
 40
0.6370180068
100
AcDbArc
 50
333.4349488229
 51
26.5650511771
  0
SOLID
  5
FC
330
F2
100
AcDbEntity
  8
0
100
AcDbTrace
 10
24.7330730269
 20
26.2172019803
 30
0.0
 11
24.1705730269
 21
26.3109519803
 31
0.0
 12
24.1705730269
 22
26.1234519803
 32
0.0
 13
24.1705730269
 23
26.1234519803
 33
0.0
  0
SOLID
  5
FD
330
F2
100
AcDbEntity
  8
0
100
AcDbTrace
 10
16.2330730269
 20
26.2172019803
 30
0.0
 11
16.7955730269
 21
26.1234519803
 31
0.0
 12
16.7955730269
 22
26.3109519803
 32
0.0
 13
16.7955730269
 23
26.3109519803
 33
0.0
  0
POINT
  5
FE
330
F2
100
AcDbEntity
  8
0
100
AcDbPoint
 10
24.7330730269
 20
23.8094163473
 30
0.0
  0
POINT
  5
FF
330
F2
100
AcDbEntity
  8
0
100
AcDbPoint
 10
16.2330730269
 20
23.8094163473
 30
0.0
  0
ENDBLK
  5
100
330
F2
100
AcDbEntity
  8
0
 62
     1
100
AcDbBlockEnd
  0
BLOCK
  5
103
330
102
100
AcDbEntity
  8
0
 62
     1
100
AcDbBlockBegin
  2
*D4
 70
     1
 10
0.0
 20
0.0
 30
0.0
  3
*D4
  1

  0
MTEXT
  5
104
330
102
100
AcDbEntity
  8
0
100
AcDbMText
 10
20.21291255519999
 20
9.2340390567
 30
0.0
 40
0.3
 41
0.0
 71
     7
 72
     1
  1
18"
  7
SLDTEXTSTYLE0
 73
     1
 44
1.0
  0
LINE
  5
105
330
102
100
AcDbEntity
  8
0
100
AcDbLine
 10
11.4830730269
 20
13.4394163473
 30
0.0
 11
11.4830730269
 21
9.008922169899999
 31
0.0
  0
LINE
  5
106
330
102
100
AcDbEntity
  8
0
100
AcDbLine
 10
29.4830730269
 20
13.4394163473
 30
0.0
 11
29.4830730269
 21
9.008922169899999
 31
0.0
  0
LINE
  5
107
330
102
100
AcDbEntity
  8
0
100
AcDbLine
 10
11.4830730269
 20
9.368922169899999
 30
0.0
 11
20.0254125552
 21
9.368922169899999
 31
0.0
  0
LINE
  5
108
330
102
100
AcDbEntity
  8
0
100
AcDbLine
 10
29.4830730269
 20
9.368922169899999
 30
0.0
 11
20.94073349859999
 21
9.368922169899999
 31
0.0
  0
SOLID
  5
109
330
102
100
AcDbEntity
  8
0
100
AcDbTrace
 10
11.4830730269
 20
9.368922169899999
 30
0.0
 11
12.0455730269
 21
9.275172169899999
 31
0.0
 12
12.0455730269
 22
9.462672169899999
 32
0.0
 13
12.0455730269
 23
9.462672169899999
 33
0.0
  0
SOLID
  5
10A
330
102
100
AcDbEntity
  8
0
100
AcDbTrace
 10
29.4830730269
 20
9.368922169899999
 30
0.0
 11
28.9205730269
 21
9.462672169899999
 31
0.0
 12
28.9205730269
 22
9.275172169899999
 32
0.0
 13
28.9205730269
 23
9.275172169899999
 33
0.0
  0
POINT
  5
10B
330
102
100
AcDbEntity
  8
0
100
AcDbPoint
 10
11.4830730269
 20
13.5594163473
 30
0.0
  0
POINT
  5
10C
330
102
100
AcDbEntity
  8
0
100
AcDbPoint
 10
29.4830730269
 20
13.5594163473
 30
0.0
  0
ENDBLK
  5
10D
330
102
100
AcDbEntity
  8
0
 62
     1
100
AcDbBlockEnd
  0
BLOCK
  5
110
330
10F
100
AcDbEntity
  8
0
 62
     1
100
AcDbBlockBegin
  2
*D5
 70
     1
 10
0.0
 20
0.0
 30
0.0
  3
*D5
  1

  0
MTEXT
  5
111
330
10F
100
AcDbEntity
  8
0
100
AcDbMText
 10
33.97952448209999
 20
18.0495332341
 30
0.0
 40
0.3
 41
0.0
 71
     7
 72
     1
  1
11 1/4"
  7
SLDTEXTSTYLE0
 73
     1
 44
1.0
  0
LINE
  5
112
330
10F
100
AcDbEntity
  8
0
100
AcDbLine
 10
28.60307302689999
 20
12.5594163473
 30
0.0
 11
34.969898916
 21
12.5594163473
 31
0.0
  0
LINE
  5
113
330
10F
100
AcDbEntity
  8
0
100
AcDbLine
 10
24.33399346989999
 20
23.8094163473
 30
0.0
 11
34.969898916
 21
23.8094163473
 31
0.0
  0
LINE
  5
114
330
10F
100
AcDbEntity
  8
0
100
AcDbLine
 10
34.609898916
 20
12.5594163473
 30
0.0
 11
34.609898916
 21
17.8995332341
 31
0.0
  0
LINE
  5
115
330
10F
100
AcDbEntity
  8
0
100
AcDbLine
 10
34.609898916
 20
23.8094163473
 30
0.0
 11
34.609898916
 21
18.46929946059999
 31
0.0
  0
SOLID
  5
116
330
10F
100
AcDbEntity
  8
0
100
AcDbTrace
 10
34.609898916
 20
12.5594163473
 30
0.0
 11
34.703648916
 21
13.1219163473
 31
0.0
 12
34.516148916
 22
13.1219163473
 32
0.0
 13
34.516148916
 23
13.1219163473
 33
0.0
  0
SOLID
  5
117
330
10F
100
AcDbEntity
  8
0
100
AcDbTrace
 10
34.609898916
 20
23.8094163473
 30
0.0
 11
34.516148916
 21
23.2469163473
 31
0.0
 12
34.703648916
 22
23.2469163473
 32
0.0
 13
34.703648916
 23
23.2469163473
 33
0.0
  0
POINT
  5
118
330
10F
100
AcDbEntity
  8
0
100
AcDbPoint
 10
28.4830730269
 20
12.5594163473
 30
0.0
  0
POINT
  5
119
330
10F
100
AcDbEntity
  8
0
100
AcDbPoint
 10
24.21399346989999
 20
23.8094163473
 30
0.0
  0
ENDBLK
  5
11A
330
10F
100
AcDbEntity
  8
0
 62
     1
100
AcDbBlockEnd
  0
BLOCK
  5
11D
330
11C
100
AcDbEntity
  8
0
 62
     1
100
AcDbBlockBegin
  2
*D6
 70
     1
 10
0.0
 20
0.0
 30
0.0
  3
*D6
  1

  0
MTEXT
  5
11E
330
11C
100
AcDbEntity
  8
0
 62
     7
100
AcDbMText
 10
11.12293652589999
 20
28.37770165949999
 30
0.0
 40
0.3
 41
0.0
 71
     7
 72
     1
  1
1"
  7
SLDTEXTSTYLE0
 73
     1
 44
1.0
  0
MTEXT
  5
11F
330
11C
100
AcDbEntity
  8
0
 62
     7
100
AcDbMText
 10
11.45321445039999
 20
28.37770165949999
 30
0.0
 40
0.3
 41
0.0
 71
     7
 72
     1
  1
 RAD
  7
SLDTEXTSTYLE0
 73
     1
 44
1.0
  0
MTEXT
  5
120
330
11C
100
AcDbEntity
  8
0
 62
     7
100
AcDbMText
 10
10.91486445039999
 20
27.8079354331
 30
0.0
 40
0.3
 41
0.0
 71
     7
 72
     1
  1
6 PLACES
  7
SLDTEXTSTYLE0
 73
     1
 44
1.0
  0
LINE
  5
121
330
11C
100
AcDbEntity
  8
0
 62
     7
100
AcDbLine
 10
16.2464005393
 20
23.6720952386
 30
0.0
 11
13.57564171449999
 21
28.2277016595
 31
0.0
  0
LINE
  5
122
330
11C
100
AcDbEntity
  8
0
 62
     7
100
AcDbLine
 10
13.57564171449999
 20
28.2277016595
 30
0.0
 11
12.8256417145
 21
28.2277016595
 31
0.0
  0
SOLID
  5
123
330
11C
100
AcDbEntity
  8
0
 62
     7
100
AcDbTrace
 10
16.2464005393
 20
23.6720952386
 30
0.0
 11
16.0427911602
 21
24.2047663691
 31
0.0
 12
15.88103886809999
 22
24.1099378607
 32
0.0
 13
15.88103886809999
 23
24.1099378607
 33
0.0
  0
POINT
  5
125
330
11C
100
AcDbEntity
  8
0
 62
     7
100
AcDbPoint
 10
16.2464005393
 20
23.6720952386
 30
0.0
  0
POINT
  5
126
330
11C
100
AcDbEntity
  8
0
 62
     7
100
AcDbPoint
 10
16.7521525839
 20
22.8094163473
 30
0.0
  0
ENDBLK
  5
127
330
11C
100
AcDbEntity
  8
0
100
AcDbBlockEnd
  0
BLOCK
  5
12A
330
129
100
AcDbEntity
  8
0
 62
     1
100
AcDbBlockBegin
  2
*D7
 70
     1
 10
0.0
 20
0.0
 30
0.0
  3
*D7
  1

  0
MTEXT
  5
12B
330
129
100
AcDbEntity
  8
0
 62
     7
100
AcDbMText
 10
27.29693984809999
 20
22.8819421771
 30
0.0
 40
0.3
 41
0.0
 71
     7
 72
     1
  1
35%%d
  7
SLDTEXTSTYLE0
 73
     1
 44
1.0
  0
LINE
  5
12C
330
129
100
AcDbEntity
  8
0
 62
     7
100
AcDbLine
 10
29.4830730269
 20
16.8628296085
 30
0.0
 11
29.4830730269
 21
23.66824468809999
 31
0.0
  0
ARC
  5
12D
330
129
100
AcDbEntity
  8
0
 62
     7
100
AcDbCircle
 10
27.67920607449999
 20
23.0168252903
 30
0.0
 40
0.6370180068
100
AcDbArc
 50
153.4349488229
 51
206.5650511771
  0
ARC
  5
12E
330
129
100
AcDbEntity
  8
0
 62
     7
100
AcDbCircle
 10
27.5148666406
 20
23.0168252903
 30
0.0
 40
0.6370180068
100
AcDbArc
 50
333.4349488229
 51
26.5650511771
  0
ARC
  5
12F
330
129
100
AcDbEntity
  8
0
 62
     7
100
AcDbCircle
 10
29.4830730269
 20
17.0594163473
 30
0.0
 40
6.2488283407
100
AcDbArc
 50
90.0
 51
101.1738578476
  0
ARC
  5
130
330
129
100
AcDbEntity
  8
0
 62
     7
100
AcDbCircle
 10
29.4830730269
 20
17.0594163473
 30
0.0
 40
6.2488283407
100
AcDbArc
 50
114.1959238702
 51
125.1341930569
  0
SOLID
  5
131
330
129
100
AcDbEntity
  8
0
 62
     7
100
AcDbTrace
 10
29.4830730269
 20
23.30824468809999
 30
0.0
 11
28.9169328317
 21
23.37665953999999
 31
0.0
 12
28.9253464038
 22
23.1893484036
 32
0.0
 13
28.9253464038
 23
23.1893484036
 33
0.0
  0
SOLID
  5
132
330
129
100
AcDbEntity
  8
0
 62
     7
100
AcDbTrace
 10
25.8869135205
 20
22.1697482775
 30
0.0
 11
26.4114499607
 21
22.39348212679999
 31
0.0
 12
26.3105343101
 22
22.55150833179999
 32
0.0
 13
26.3105343101
 23
22.55150833179999
 33
0.0
  0
POINT
  5
134
330
129
100
AcDbEntity
  8
0
 62
     7
100
AcDbPoint
 10
25.0317998892
 20
23.3849097535
 30
0.0
  0
POINT
  5
135
330
129
100
AcDbEntity
  8
0
 62
     7
100
AcDbPoint
 10
29.3008794462
 20
17.31832301469999
 30
0.0
  0
POINT
  5
136
330
129
100
AcDbEntity
  8
0
 62
     7
100
AcDbPoint
 10
29.4830730269
 20
16.7428296085
 30
0.0
  0
POINT
  5
137
330
129
100
AcDbEntity
  8
0
 62
     7
100
AcDbPoint
 10
29.4830730269
 20
13.5594163473
 30
0.0
  0
ENDBLK
  5
138
330
129
100
AcDbEntity
  8
0
100
AcDbBlockEnd
  0
BLOCK
  5
13B
330
13A
100
AcDbEntity
  8
0
 62
     1
100
AcDbBlockBegin
  2
*D8
 70
     1
 10
0.0
 20
0.0
 30
0.0
  3
*D8
  1

  0
MTEXT
  5
13C
330
13A
100
AcDbEntity
  8
0
100
AcDbMText
 10
15.7879980269
 20
10.80030067569999
 30
0.0
 40
0.3
 41
0.0
 71
     7
 72
     1
  1
9"
  7
SLDTEXTSTYLE0
 73
     1
 44
1.0
  0
LINE
  5
13D
330
13A
100
AcDbEntity
  8
0
100
AcDbLine
 10
11.4830730269
 20
13.4394163473
 30
0.0
 11
11.4830730269
 21
10.57518378889999
 31
0.0
  0
LINE
  5
13E
330
13A
100
AcDbEntity
  8
0
100
AcDbLine
 10
20.4830730269
 20
19.93941634729999
 30
0.0
 11
20.4830730269
 21
10.57518378889999
 31
0.0
  0
LINE
  5
13F
330
13A
100
AcDbEntity
  8
0
100
AcDbLine
 10
11.4830730269
 20
10.9351837889
 30
0.0
 11
15.6004980269
 21
10.9351837889
 31
0.0
  0
LINE
  5
140
330
13A
100
AcDbEntity
  8
0
100
AcDbLine
 10
20.4830730269
 20
10.9351837889
 30
0.0
 11
16.3656480269
 21
10.9351837889
 31
0.0
  0
SOLID
  5
141
330
13A
100
AcDbEntity
  8
0
100
AcDbTrace
 10
11.4830730269
 20
10.9351837889
 30
0.0
 11
12.0455730269
 21
10.8414337889
 31
0.0
 12
12.0455730269
 22
11.0289337889
 32
0.0
 13
12.0455730269
 23
11.0289337889
 33
0.0
  0
SOLID
  5
142
330
13A
100
AcDbEntity
  8
0
100
AcDbTrace
 10
20.4830730269
 20
10.9351837889
 30
0.0
 11
19.9205730269
 21
11.0289337889
 31
0.0
 12
19.9205730269
 22
10.8414337889
 32
0.0
 13
19.9205730269
 23
10.8414337889
 33
0.0
  0
POINT
  5
143
330
13A
100
AcDbEntity
  8
0
100
AcDbPoint
 10
11.4830730269
 20
13.5594163473
 30
0.0
  0
POINT
  5
144
330
13A
100
AcDbEntity
  8
0
100
AcDbPoint
 10
20.4830730269
 20
20.0594163473
 30
0.0
  0
ENDBLK
  5
145
330
13A
100
AcDbEntity
  8
0
 62
     1
100
AcDbBlockEnd
  0
BLOCK
  5
148
330
147
100
AcDbEntity
  8
0
 62
     1
100
AcDbBlockBegin
  2
*D9
 70
     1
 10
0.0
 20
0.0
 30
0.0
  3
*D9
  1

  0
MTEXT
  5
149
330
147
100
AcDbEntity
  8
0
100
AcDbMText
 10
8.032889439299999
 20
16.1745332341
 30
0.0
 40
0.3
 41
0.0
 71
     7
 72
     1
  1
7 1/2"
  7
SLDTEXTSTYLE0
 73
     1
 44
1.0
  0
LINE
  5
14A
330
147
100
AcDbEntity
  8
0
100
AcDbLine
 10
12.3630730269
 20
12.5594163473
 30
0.0
 11
8.243146420499998
 21
12.5594163473
 31
0.0
  0
LINE
  5
14B
330
147
100
AcDbEntity
  8
0
100
AcDbLine
 10
20.3630730269
 20
20.0594163473
 30
0.0
 11
8.243146420499998
 21
20.0594163473
 31
0.0
  0
LINE
  5
14C
330
147
100
AcDbEntity
  8
0
100
AcDbLine
 10
8.603146420499999
 20
12.5594163473
 30
0.0
 11
8.603146420499999
 21
16.0245332341
 31
0.0
  0
LINE
  5
14D
330
147
100
AcDbEntity
  8
0
100
AcDbLine
 10
8.603146420499999
 20
20.0594163473
 30
0.0
 11
8.603146420499999
 21
16.59429946059999
 31
0.0
  0
SOLID
  5
14E
330
147
100
AcDbEntity
  8
0
100
AcDbTrace
 10
8.603146420499999
 20
12.5594163473
 30
0.0
 11
8.696896420499999
 21
13.1219163473
 31
0.0
 12
8.509396420499999
 22
13.1219163473
 32
0.0
 13
8.509396420499999
 23
13.1219163473
 33
0.0
  0
SOLID
  5
14F
330
147
100
AcDbEntity
  8
0
100
AcDbTrace
 10
8.603146420499999
 20
20.0594163473
 30
0.0
 11
8.509396420499999
 21
19.4969163473
 31
0.0
 12
8.696896420499999
 22
19.4969163473
 32
0.0
 13
8.696896420499999
 23
19.4969163473
 33
0.0
  0
POINT
  5
150
330
147
100
AcDbEntity
  8
0
100
AcDbPoint
 10
12.4830730269
 20
12.5594163473
 30
0.0
  0
POINT
  5
151
330
147
100
AcDbEntity
  8
0
100
AcDbPoint
 10
20.4830730269
 20
20.0594163473
 30
0.0
  0
ENDBLK
  5
152
330
147
100
AcDbEntity
  8
0
 62
     1
100
AcDbBlockEnd
  0
BLOCK
  5
157
330
156
100
AcDbEntity
  8
0
 62
     0
100
AcDbBlockBegin
  2
NOTE68
 70
     0
 10
0.0
 20
0.0
 30
0.0
  3
NOTE68
  1

  0
MTEXT
  5
158
330
156
100
AcDbEntity
  8
0
 62
     1
100
AcDbMText
 10
-8.0696904637
 20
2.4749480081
 30
0.0
 40
0.3
 41
0.0
 71
     1
 72
     1
  1
%%c1.109 (1 7/64) DRILL THRU
  7
SLDTEXTSTYLE0
 73
     1
 44
1.0
  0
MTEXT
  5
159
330
156
100
AcDbEntity
  8
0
 62
     1
100
AcDbMText
 10
-8.0696904637
 20
2.024948008099999
 30
0.0
 40
0.3
 41
0.0
 71
     1
 72
     1
  1
%%c1.313 X 45%%d CHAMFER BOTH SIDES
  7
SLDTEXTSTYLE0
 73
     1
 44
1.0
  0
MTEXT
  5
15A
330
156
100
AcDbEntity
  8
0
 62
     1
100
AcDbMText
 10
-8.0696904637
 20
1.574948008099999
 30
0.0
 40
0.3
 41
0.0
 71
     1
 72
     1
  1
TAP 1 1/4-7 STANDARD TAP
  7
SLDTEXTSTYLE0
 73
     1
 44
1.0
  0
MTEXT
  5
15B
330
156
100
AcDbEntity
  8
0
 62
     1
100
AcDbMText
 10
-8.0696904637
 20
1.1249480081
 30
0.0
 40
0.3
 41
0.0
 71
     1
 72
     1
  1
CUSTOMER WILL RE-TAP IN FIELD WITH
  7
SLDTEXTSTYLE0
 73
     1
 44
1.0
  0
MTEXT
  5
15C
330
156
100
AcDbEntity
  8
0
 62
     1
100
AcDbMText
 10
-8.0696904637
 20
0.6749480081
 30
0.0
 40
0.3
 41
0.0
 71
     1
 72
     1
  1
SPECIAL GH21 FOR GALVANIZED BOLT
  7
SLDTEXTSTYLE0
 73
     1
 44
1.0
  0
MTEXT
  5
15D
330
156
100
AcDbEntity
  8
0
 62
     1
100
AcDbMText
 10
-8.0696904637
 20
0.2249480081
 30
0.0
 40
0.3
 41
0.0
 71
     1
 72
     1
  1
CUSTOMER HAS TAP ( Matt 925-757-6785 )
  7
SLDTEXTSTYLE0
 73
     1
 44
1.0
  0
ENDBLK
  5
15E
330
156
100
AcDbEntity
  8
0
100
AcDbBlockEnd
  0
BLOCK
  5
172
330
171
100
AcDbEntity
  8
0
 62
     7
100
AcDbBlockBegin
  2
*D11
 70
     1
 10
0.0
 20
0.0
 30
0.0
  3
*D11
  1

  0
MTEXT
  5
173
330
171
100
AcDbEntity
  8
0
 62
     7
100
AcDbMText
 10
44.0076162409
 20
26.8434957756
 30
0.0
 40
0.5
 41
0.0
 71
     7
 72
     1
  1
1.438
  7
SLDTEXTSTYLE0
 73
     1
 44
1.0
  0
MTEXT
  5
174
330
171
100
AcDbEntity
  8
0
 62
     7
100
AcDbMText
 10
45.299282656
 20
26.8434957756
 30
0.0
 40
0.5
 41
0.0
 71
     7
 72
     1
  1
%%p.010
  7
SLDTEXTSTYLE0
 73
     1
 44
1.0
  0
MTEXT
  5
175
330
171
100
AcDbEntity
  8
0
 62
     7
100
AcDbMText
 10
42.76527859939999
 20
26.0273706813
 30
0.0
 40
0.5
 41
0.0
 71
     7
 72
     1
  1
BLANCHARD GRIND 
  7
SLDTEXTSTYLE0
 73
     1
 44
1.0
  0
MTEXT
  5
176
330
171
100
AcDbEntity
  8
0
 62
     7
100
AcDbMText
 10
42.9588813353
 20
25.2112455869
 30
0.0
 40
0.5
 41
0.0
 71
     7
 72
     1
  1
BOTH SIDES FROM
  7
SLDTEXTSTYLE0
 73
     1
 44
1.0
  0
MTEXT
  5
177
330
171
100
AcDbEntity
  8
0
 62
     7
100
AcDbMText
 10
43.6896151089
 20
24.3951204926
 30
0.0
 40
0.5
 41
0.0
 71
     7
 72
     1
  1
1-1/2 STOCK
  7
SLDTEXTSTYLE0
 73
     1
 44
1.0
  0
LINE
  5
178
330
171
100
AcDbEntity
  8
0
 62
     7
100
AcDbLine
 10
39.2246027534
 20
12.6794163473
 30
0.0
 11
39.2246027534
 21
26.1707040146
 31
0.0
  0
LINE
  5
179
330
171
100
AcDbEntity
  8
0
 62
     7
100
AcDbLine
 10
40.6626027534
 20
12.6794163473
 30
0.0
 11
40.6626027534
 21
26.1707040146
 31
0.0
  0
LINE
  5
17A
330
171
100
AcDbEntity
  8
0
 62
     7
100
AcDbLine
 10
39.2246027534
 20
25.81070401459999
 30
0.0
 11
37.7246027534
 21
25.81070401459999
 31
0.0
  0
LINE
  5
17B
330
171
100
AcDbEntity
  8
0
 62
     7
100
AcDbLine
 10
40.6626027534
 20
25.81070401459999
 30
0.0
 11
42.53090359939999
 21
25.81070401459999
 31
0.0
  0
SOLID
  5
17C
330
171
100
AcDbEntity
  8
0
 62
     7
100
AcDbTrace
 10
39.2246027534
 20
25.81070401459999
 30
0.0
 11
38.6621027534
 21
25.9044540146
 31
0.0
 12
38.6621027534
 22
25.71695401459999
 32
0.0
 13
38.6621027534
 23
25.71695401459999
 33
0.0
  0
SOLID
  5
17D
330
171
100
AcDbEntity
  8
0
 62
     7
100
AcDbTrace
 10
40.6626027534
 20
25.81070401459999
 30
0.0
 11
41.2251027534
 21
25.71695401459999
 31
0.0
 12
41.2251027534
 22
25.9044540146
 32
0.0
 13
41.2251027534
 23
25.9044540146
 33
0.0
  0
POINT
  5
17F
330
171
100
AcDbEntity
  8
0
 62
     7
100
AcDbPoint
 10
39.2246027534
 20
12.5594163473
 30
0.0
  0
POINT
  5
180
330
171
100
AcDbEntity
  8
0
 62
     7
100
AcDbPoint
 10
40.6626027534
 20
12.5594163473
 30
0.0
  0
ENDBLK
  5
181
330
171
100
AcDbEntity
  8
0
 62
     7
100
AcDbBlockEnd
  0
ENDSEC
  0
SECTION
  2
ENTITIES
  0
LINE
  5
2A
330
A
100
AcDbEntity
  8
0
  6
Continuous
 62
     7
370
     0
100
AcDbLine
 10
10.12499999999999
 20
31.875
 30
0.0
 11
4.5
 21
31.875
 31
0.0
  0
LINE
  5
2B
330
A
100
AcDbEntity
  8
0
  6
Continuous
 62
     7
370
     0
100
AcDbLine
 10
15.75
 20
31.875
 30
0.0
 11
10.12499999999999
 21
31.875
 31
0.0
  0
LINE
  5
2C
330
A
100
AcDbEntity
  8
0
  6
Continuous
 62
     7
370
     0
100
AcDbLine
 10
49.5
 20
1.125
 30
0.0
 11
43.875
 21
1.125
 31
0.0
  0
LINE
  5
2D
330
A
100
AcDbEntity
  8
0
  6
Continuous
 62
     7
370
     0
100
AcDbLine
 10
49.5
 20
1.125
 30
0.0
 11
49.5
 21
8.8125
 31
0.0
  0
LINE
  5
2E
330
A
100
AcDbEntity
  8
0
  6
Continuous
 62
     7
370
     0
100
AcDbLine
 10
49.5
 20
24.1875
 30
0.0
 11
49.875
 21
24.1875
 31
0.0
  0
LINE
  5
2F
330
A
100
AcDbEntity
  8
0
  6
Continuous
 62
     7
370
     0
100
AcDbLine
 10
49.5
 20
16.5
 30
0.0
 11
49.875
 21
16.5
 31
0.0
  0
LINE
  5
30
330
A
100
AcDbEntity
  8
0
  6
Continuous
 62
     7
370
     0
100
AcDbLine
 10
21.375
 20
31.875
 30
0.0
 11
15.75
 21
31.875
 31
0.0
  0
LINE
  5
31
330
A
100
AcDbEntity
  8
0
  6
Continuous
 62
     7
370
     0
100
AcDbLine
 10
27.0
 20
31.875
 30
0.0
 11
21.375
 21
31.875
 31
0.0
  0
LINE
  5
32
330
A
100
AcDbEntity
  8
0
  6
Continuous
 62
     7
370
     0
100
AcDbLine
 10
32.625
 20
31.875
 30
0.0
 11
27.0
 21
31.875
 31
0.0
  0
LINE
  5
33
330
A
100
AcDbEntity
  8
0
  6
Continuous
 62
     7
370
     0
100
AcDbLine
 10
38.25
 20
31.875
 30
0.0
 11
32.625
 21
31.875
 31
0.0
  0
LINE
  5
34
330
A
100
AcDbEntity
  8
0
  6
Continuous
 62
     7
370
     0
100
AcDbLine
 10
43.875
 20
31.875
 30
0.0
 11
38.25
 21
31.875
 31
0.0
  0
LINE
  5
35
330
A
100
AcDbEntity
  8
0
  6
Continuous
 62
     7
370
     0
100
AcDbLine
 10
49.5
 20
8.8125
 30
0.0
 11
49.875
 21
8.8125
 31
0.0
  0
LINE
  5
36
330
A
100
AcDbEntity
  8
0
  6
Continuous
 62
     7
370
     0
100
AcDbLine
 10
49.5
 20
31.875
 30
0.0
 11
43.875
 21
31.875
 31
0.0
  0
LINE
  5
37
330
A
100
AcDbEntity
  8
0
  6
Continuous
 62
     7
370
     0
100
AcDbLine
 10
43.875
 20
31.875
 30
0.0
 11
43.875
 21
32.25
 31
0.0
  0
LINE
  5
38
330
A
100
AcDbEntity
  8
0
  6
Continuous
 62
     7
370
     0
100
AcDbLine
 10
38.25
 20
31.875
 30
0.0
 11
38.25
 21
32.25
 31
0.0
  0
LINE
  5
39
330
A
100
AcDbEntity
  8
0
  6
Continuous
 62
     7
370
     0
100
AcDbLine
 10
32.625
 20
31.875
 30
0.0
 11
32.625
 21
32.25
 31
0.0
  0
LINE
  5
3A
330
A
100
AcDbEntity
  8
0
  6
Continuous
 62
     7
370
     0
100
AcDbLine
 10
27.0
 20
31.875
 30
0.0
 11
27.0
 21
32.25
 31
0.0
  0
LINE
  5
3B
330
A
100
AcDbEntity
  8
0
  6
Continuous
 62
     7
370
     0
100
AcDbLine
 10
21.375
 20
31.875
 30
0.0
 11
21.375
 21
32.25
 31
0.0
  0
LINE
  5
3C
330
A
100
AcDbEntity
  8
0
  6
Continuous
 62
     7
370
     0
100
AcDbLine
 10
15.75
 20
31.875
 30
0.0
 11
15.75
 21
32.25
 31
0.0
  0
LINE
  5
3D
330
A
100
AcDbEntity
  8
0
  6
Continuous
 62
     7
370
     0
100
AcDbLine
 10
10.12499999999999
 20
31.875
 30
0.0
 11
10.12499999999999
 21
32.25
 31
0.0
  0
LINE
  5
3E
330
A
100
AcDbEntity
  8
0
  6
Continuous
 62
     7
370
     0
100
AcDbLine
 10
26.25
 20
5.07
 30
0.0
 11
26.25
 21
1.127999999999999
 31
0.0
  0
LINE
  5
3F
330
A
100
AcDbEntity
  8
0
  6
Continuous
 62
     7
370
     0
100
AcDbLine
 10
33.0
 20
7.125
 30
0.0
 11
49.5
 21
7.125
 31
0.0
  0
LINE
  5
40
330
A
100
AcDbEntity
  8
0
  6
Continuous
 62
     7
370
     0
100
AcDbLine
 10
33.0
 20
7.125
 30
0.0
 11
33.0
 21
1.125
 31
0.0
  0
LINE
  5
41
330
A
100
AcDbEntity
  8
0
  6
Continuous
 62
     7
370
     0
100
AcDbLine
 10
40.49999999999999
 20
7.125
 30
0.0
 11
40.49999999999999
 21
1.125
 31
0.0
  0
LINE
  5
42
330
A
100
AcDbEntity
  8
0
  6
Continuous
 62
     7
370
     0
100
AcDbLine
 10
40.49999999999999
 20
1.689
 30
0.0
 11
49.5
 21
1.689
 31
0.0
  0
LINE
  5
43
330
A
100
AcDbEntity
  8
0
  6
Continuous
 62
     7
370
     0
100
AcDbLine
 10
40.49999999999999
 20
2.813999999999999
 30
0.0
 11
49.5
 21
2.813999999999999
 31
0.0
  0
LINE
  5
44
330
A
100
AcDbEntity
  8
0
  6
Continuous
 62
     7
370
     0
100
AcDbLine
 10
40.49999999999999
 20
5.064
 30
0.0
 11
49.5
 21
5.064
 31
0.0
  0
LINE
  5
45
330
A
100
AcDbEntity
  8
0
  6
Continuous
 62
     7
370
     0
100
AcDbLine
 10
41.625
 20
2.813999999999999
 30
0.0
 11
41.625
 21
1.125
 31
0.0
  0
LINE
  5
46
330
A
100
AcDbEntity
  8
0
  6
Continuous
 62
     7
370
     0
100
AcDbLine
 10
26.25
 20
2.253
 30
0.0
 11
40.49999999999999
 21
2.253
 31
0.0
  0
LINE
  5
47
330
A
100
AcDbEntity
  8
0
  6
Continuous
 62
     7
370
     0
100
AcDbLine
 10
48.375
 20
2.813999999999999
 30
0.0
 11
48.375
 21
1.125
 31
0.0
  0
LINE
  5
48
330
A
100
AcDbEntity
  8
0
  6
Continuous
 62
     7
370
     0
100
AcDbLine
 10
40.49999999999999
 20
6.0
 30
0.0
 11
33.0
 21
6.0
 31
0.0
  0
LINE
  5
49
330
A
100
AcDbEntity
  8
0
  6
Continuous
 62
     7
370
     0
100
AcDbLine
 10
33.0
 20
3.561
 30
0.0
 11
40.49999999999999
 21
3.561
 31
0.0
  0
LINE
  5
4A
330
A
100
AcDbEntity
  8
0
  6
Continuous
 62
     7
370
     0
100
AcDbLine
 10
33.0
 20
1.689
 30
0.0
 11
40.49999999999999
 21
1.689
 31
0.0
  0
LINE
  5
4B
330
A
100
AcDbEntity
  8
0
  6
Continuous
 62
     7
370
     0
100
AcDbLine
 10
26.25
 20
3.941999999999999
 30
0.0
 11
33.0
 21
3.941999999999999
 31
0.0
  0
LINE
  5
4C
330
A
100
AcDbEntity
  8
0
  6
Continuous
 62
     7
370
     0
100
AcDbLine
 10
49.5
 20
8.8125
 30
0.0
 11
49.5
 21
16.5
 31
0.0
  0
LINE
  5
4D
330
A
100
AcDbEntity
  8
0
  6
Continuous
 62
     7
370
     0
100
AcDbLine
 10
49.5
 20
16.5
 30
0.0
 11
49.5
 21
24.1875
 31
0.0
  0
LINE
  5
4E
330
A
100
AcDbEntity
  8
0
  6
Continuous
 62
     7
370
     0
100
AcDbLine
 10
49.5
 20
24.1875
 30
0.0
 11
49.5
 21
31.875
 31
0.0
  0
LINE
  5
4F
330
A
100
AcDbEntity
  8
0
  6
Continuous
 62
     7
370
     0
100
AcDbLine
 10
43.875
 20
1.125
 30
0.0
 11
38.25
 21
1.125
 31
0.0
  0
LINE
  5
50
330
A
100
AcDbEntity
  8
0
  6
Continuous
 62
     7
370
     0
100
AcDbLine
 10
38.25
 20
1.125
 30
0.0
 11
32.625
 21
1.125
 31
0.0
  0
LINE
  5
51
330
A
100
AcDbEntity
  8
0
  6
Continuous
 62
     7
370
     0
100
AcDbLine
 10
26.25
 20
4.506
 30
0.0
 11
33.0
 21
4.506
 31
0.0
  0
LINE
  5
52
330
A
100
AcDbEntity
  8
0
  6
Continuous
 62
     7
370
     0
100
AcDbLine
 10
26.25
 20
2.8125
 30
0.0
 11
15.0
 21
2.8125
 31
0.0
  0
LINE
  5
53
330
A
100
AcDbEntity
  8
0
  6
Continuous
 62
     7
370
     0
100
AcDbLine
 10
33.0
 20
5.07
 30
0.0
 11
26.25
 21
5.07
 31
0.0
  0
LINE
  5
54
330
A
100
AcDbEntity
  8
0
  6
Continuous
 62
     7
370
     0
100
AcDbLine
 10
30.75
 20
5.07
 30
0.0
 11
30.75
 21
3.378
 31
0.0
  0
LINE
  5
55
330
A
100
AcDbEntity
  8
0
  6
Continuous
 62
     7
370
     0
100
AcDbLine
 10
33.0
 20
5.435999999999999
 30
0.0
 11
40.49999999999999
 21
5.435999999999999
 31
0.0
  0
LINE
  5
56
330
A
100
AcDbEntity
  8
0
  6
Continuous
 62
     7
370
     0
100
AcDbLine
 10
26.25
 20
3.378
 30
0.0
 11
33.0
 21
3.378
 31
0.0
  0
LINE
  5
57
330
A
100
AcDbEntity
  8
0
  6
Continuous
 62
     7
370
     0
100
AcDbLine
 10
36.75
 20
6.0
 30
0.0
 11
36.75
 21
3.561
 31
0.0
  0
LINE
  5
58
330
A
100
AcDbEntity
  8
0
  6
Continuous
 62
     7
370
     0
100
AcDbLine
 10
32.625
 20
1.125
 30
0.0
 11
27.0
 21
1.125
 31
0.0
  0
LINE
  5
59
330
A
100
AcDbEntity
  8
0
  6
Continuous
 62
     7
370
     0
100
AcDbLine
 10
27.0
 20
1.125
 30
0.0
 11
21.375
 21
1.125
 31
0.0
  0
LINE
  5
5A
330
A
100
AcDbEntity
  8
0
  6
Continuous
 62
     7
370
     0
100
AcDbLine
 10
21.375
 20
1.125
 30
0.0
 11
15.75
 21
1.125
 31
0.0
  0
LINE
  5
5B
330
A
100
AcDbEntity
  8
0
  6
Continuous
 62
     7
370
     0
100
AcDbLine
 10
15.75
 20
1.125
 30
0.0
 11
10.12499999999999
 21
1.125
 31
0.0
  0
LINE
  5
5C
330
A
100
AcDbEntity
  8
0
  6
Continuous
 62
     7
370
     0
100
AcDbLine
 10
38.625
 20
6.0
 30
0.0
 11
38.625
 21
3.561
 31
0.0
  0
LINE
  5
5D
330
A
100
AcDbEntity
  8
0
  6
Continuous
 62
     7
370
     0
100
AcDbLine
 10
10.12499999999999
 20
1.125
 30
0.0
 11
4.5
 21
1.125
 31
0.0
  0
LINE
  5
5E
330
A
100
AcDbEntity
  8
0
  6
Continuous
 62
     7
370
     0
100
AcDbLine
 10
2.25
 20
31.875
 30
0.0
 11
2.25
 21
1.125
 31
0.0
  0
LINE
  5
5F
330
A
100
AcDbEntity
  8
0
  6
Continuous
 62
     7
370
     0
100
AcDbLine
 10
4.5
 20
8.8125
 30
0.0
 11
4.5
 21
16.5
 31
0.0
  0
LINE
  5
60
330
A
100
AcDbEntity
  8
0
  6
Continuous
 62
     7
370
     0
100
AcDbLine
 10
4.5
 20
16.5
 30
0.0
 11
4.5
 21
24.1875
 31
0.0
  0
LINE
  5
61
330
A
100
AcDbEntity
  8
0
  6
Continuous
 62
     7
370
     0
100
AcDbLine
 10
4.5
 20
24.1875
 30
0.0
 11
4.5
 21
31.875
 31
0.0
  0
LINE
  5
62
330
A
100
AcDbEntity
  8
0
  6
Continuous
 62
     7
370
     0
100
AcDbLine
 10
4.5
 20
24.1875
 30
0.0
 11
4.125
 21
24.1875
 31
0.0
  0
LINE
  5
63
330
A
100
AcDbEntity
  8
0
  6
Continuous
 62
     7
370
     0
100
AcDbLine
 10
43.875
 20
1.125
 30
0.0
 11
43.875
 21
0.75
 31
0.0
  0
LINE
  5
64
330
A
100
AcDbEntity
  8
0
  6
Continuous
 62
     7
370
     0
100
AcDbLine
 10
38.25
 20
1.125
 30
0.0
 11
38.25
 21
0.75
 31
0.0
  0
LINE
  5
65
330
A
100
AcDbEntity
  8
0
  6
Continuous
 62
     7
370
     0
100
AcDbLine
 10
32.625
 20
1.125
 30
0.0
 11
32.625
 21
0.75
 31
0.0
  0
LINE
  5
66
330
A
100
AcDbEntity
  8
0
  6
CENTERX2
 62
     7
370
     0
100
AcDbLine
 10
27.0
 20
1.125
 30
0.0
 11
27.0
 21
0.75
 31
0.0
  0
LINE
  5
67
330
A
100
AcDbEntity
  8
0
  6
Continuous
 62
     7
370
     0
100
AcDbLine
 10
21.375
 20
1.125
 30
0.0
 11
21.375
 21
0.75
 31
0.0
  0
LINE
  5
68
330
A
100
AcDbEntity
  8
0
  6
Continuous
 62
     7
370
     0
100
AcDbLine
 10
15.75
 20
1.125
 30
0.0
 11
15.75
 21
0.75
 31
0.0
  0
LINE
  5
69
330
A
100
AcDbEntity
  8
0
  6
Continuous
 62
     7
370
     0
100
AcDbLine
 10
10.12499999999999
 20
1.125
 30
0.0
 11
10.12499999999999
 21
0.75
 31
0.0
  0
LINE
  5
6A
330
A
100
AcDbEntity
  8
0
  6
Continuous
 62
     7
370
     0
100
AcDbLine
 10
4.5
 20
16.5
 30
0.0
 11
4.125
 21
16.5
 31
0.0
  0
LINE
  5
6B
330
A
100
AcDbEntity
  8
0
  6
Continuous
 62
     7
370
     0
100
AcDbLine
 10
4.5
 20
8.8125
 30
0.0
 11
4.125
 21
8.8125
 31
0.0
  0
LINE
  5
6C
330
A
100
AcDbEntity
  8
0
  6
Continuous
 62
     7
370
     0
100
AcDbLine
 10
4.5
 20
1.125
 30
0.0
 11
4.5
 21
8.8125
 31
0.0
  0
LINE
  5
6D
330
A
100
AcDbEntity
  8
0
  6
Continuous
 62
     7
370
     0
100
AcDbLine
 10
15.0
 20
2.8125
 30
0.0
 11
15.0
 21
1.125
 31
0.0
  0
LINE
  5
6E
330
A
100
AcDbEntity
  8
0
  6
Continuous
 62
     7
370
     0
100
AcDbLine
 10
49.5
 20
31.31099999999999
 30
0.0
 11
37.5
 21
31.31099999999999
 31
0.0
  0
LINE
  5
6F
330
A
100
AcDbEntity
  8
0
  6
Continuous
 62
     7
370
     0
100
AcDbLine
 10
49.5
 20
30.74699999999999
 30
0.0
 11
37.5
 21
30.74699999999999
 31
0.0
  0
LINE
  5
70
330
A
100
AcDbEntity
  8
0
  6
Continuous
 62
     7
370
     0
100
AcDbLine
 10
49.5
 20
30.183
 30
0.0
 11
37.5
 21
30.183
 31
0.0
  0
LINE
  5
71
330
A
100
AcDbEntity
  8
0
  6
Continuous
 62
     7
370
     0
100
AcDbLine
 10
37.5
 20
31.875
 30
0.0
 11
37.5
 21
30.183
 31
0.0
  0
LINE
  5
72
330
A
100
AcDbEntity
  8
0
  6
Continuous
 62
     7
370
     0
100
AcDbLine
 10
38.625
 20
31.31099999999999
 30
0.0
 11
38.625
 21
30.183
 31
0.0
  0
LINE
  5
73
330
A
100
AcDbEntity
  8
0
  6
Continuous
 62
     7
370
     0
100
AcDbLine
 10
47.25
 20
31.31099999999999
 30
0.0
 11
47.25
 21
30.183
 31
0.0
  0
LINE
  5
74
330
A
100
AcDbEntity
  8
0
  6
Continuous
 62
     7
370
     0
100
AcDbLine
 10
45.375
 20
31.31099999999999
 30
0.0
 11
45.375
 21
30.183
 31
0.0
  0
MTEXT
  5
76
330
A
100
AcDbEntity
  8
0
 62
     1
100
AcDbMText
 10
35.26549022642193
 20
2.0827580456946
 30
0.0
 40
0.3
 41
0.0
 71
     1
 72
     1
  1
77.0 LBS
  7
SLDTEXTSTYLE0
 73
     1
 44
1.0
  0
MTEXT
  5
77
330
A
100
AcDbEntity
  8
0
 62
     1
100
AcDbMText
 10
26.40995553617881
 20
2.70584478848928
 30
0.0
 40
0.3
 41
0.0
 71
     1
 72
     1
  1
STEEL, A-36 1 1/2" THICK BURNED
  7
SLDTEXTSTYLE0
 73
     1
 44
1.0
  0
MTEXT
  5
78
330
A
100
AcDbEntity
  8
0
 62
     1
100
AcDbMText
 10
27.85056577803147
 20
2.032161281127768
 30
0.0
 40
0.3
 41
0.0
 71
     1
 72
     1
  1
BLANCHARD GROUND\PTWO SIDES, SEE NOTE
  7
SLDTEXTSTYLE0
 73
     1
 44
1.0
  0
MTEXT
  5
79
330
A
100
AcDbEntity
  8
0
 62
     1
100
AcDbMText
 10
45.38618098662352
 20
9.551932226985019
 30
0.0
 40
0.5
 41
0.0
 71
     2
 72
     1
  1
1 REQUIRED\PPER ASSEM
  7
SLDTEXTSTYLE0
 73
     1
 44
1.0
  0
MTEXT
  5
7A
330
A
100
AcDbEntity
  8
0
 62
     7
100
AcDbMText
 10
50.14018523859999
 20
27.2659883776
 30
0.0
 40
0.28125
 41
0.0
 71
     1
 72
     1
  1
D
  7
SLDTEXTSTYLE0
 73
     1
 44
1.0
  0
MTEXT
  5
7B
330
A
100
AcDbEntity
  8
0
 62
     7
100
AcDbMText
 10
50.08531754909999
 20
19.6386344243
 30
0.0
 40
0.28125
 41
0.0
 71
     1
 72
     1
  1
C
  7
SLDTEXTSTYLE0
 73
     1
 44
1.0
  0
MTEXT
  5
7C
330
A
100
AcDbEntity
  8
0
 62
     7
100
AcDbMText
 10
50.1183624005
 20
12.656445479
 30
0.0
 40
0.28125
 41
0.0
 71
     1
 72
     1
  1
B
  7
SLDTEXTSTYLE0
 73
     1
 44
1.0
  0
MTEXT
  5
7D
330
A
100
AcDbEntity
  8
0
 62
     7
100
AcDbMText
 10
50.1166549803
 20
5.1413046249
 30
0.0
 40
0.28125
 41
0.0
 71
     1
 72
     1
  1
A
  7
SLDTEXTSTYLE0
 73
     1
 44
1.0
  0
MTEXT
  5
7E
330
A
100
AcDbEntity
  8
0
 62
     7
100
AcDbMText
 10
2.893057796
 20
5.0802431056
 30
0.0
 40
0.28125
 41
0.0
 71
     1
 72
     1
  1
A
  7
SLDTEXTSTYLE0
 73
     1
 44
1.0
  0
MTEXT
  5
7F
330
A
100
AcDbEntity
  8
0
 62
     7
100
AcDbMText
 10
2.8834785192
 20
12.8333858419
 30
0.0
 40
0.28125
 41
0.0
 71
     1
 72
     1
  1
B
  7
SLDTEXTSTYLE0
 73
     1
 44
1.0
  0
MTEXT
  5
80
330
A
100
AcDbEntity
  8
0
 62
     7
100
AcDbMText
 10
2.846483716299999
 20
20.62272001979999
 30
0.0
 40
0.28125
 41
0.0
 71
     1
 72
     1
  1
C
  7
SLDTEXTSTYLE0
 73
     1
 44
1.0
  0
MTEXT
  5
81
330
A
100
AcDbEntity
  8
0
 62
     7
100
AcDbMText
 10
2.8366468864
 20
27.9194051507
 30
0.0
 40
0.28125
 41
0.0
 71
     1
 72
     1
  1
D
  7
SLDTEXTSTYLE0
 73
     1
 44
1.0
  0
MTEXT
  5
82
330
A
100
AcDbEntity
  8
0
 62
     7
100
AcDbMText
 10
48.5574174346
 20
1.559035676899999
 30
0.0
 40
0.27
 41
0.0
 71
     1
 72
     1
  1
REV.
  7
SLDTEXTSTYLE0
 73
     1
 44
1.0
  0
MTEXT
  5
83
330
A
100
AcDbEntity
  8
0
 62
     7
100
AcDbMText
 10
37.0472310355
 20
5.2760729234
 30
0.0
 40
0.27
 41
0.0
 71
     1
 72
     1
  1
%%p\P%%p\P%%p\P%%p
  7
SLDTEXTSTYLE0
 73
     1
 44
1.0
  0
MTEXT
  5
84
330
A
100
AcDbEntity
  8
0
 62
     7
100
AcDbMText
 10
26.43582457449999
 20
3.2924537999
 30
0.0
 40
0.27
 41
0.0
 71
     1
 72
     1
  1
MATERIAL
  7
SLDTEXTSTYLE0
 73
     1
 44
1.0
  0
MTEXT
  5
85
330
A
100
AcDbEntity
  8
0
 62
     7
100
AcDbMText
 10
26.4289602194
 20
2.195021420599999
 30
0.0
 40
0.27
 41
0.0
 71
     1
 72
     1
  1
FINISH
  7
SLDTEXTSTYLE0
 73
     1
 44
1.0
  0
MTEXT
  5
86
330
A
100
AcDbEntity
  8
0
 62
     7
100
AcDbMText
 10
47.40129901
 20
0.9653051428999999
 30
0.0
 40
0.28125
 41
0.0
 71
     1
 72
     1
  1
1
  7
SLDTEXTSTYLE0
 73
     1
 44
1.0
  0
MTEXT
  5
87
330
A
100
AcDbEntity
  8
0
 62
     7
100
AcDbMText
 10
40.7831587621
 20
0.9945323844
 30
0.0
 40
0.28125
 41
0.0
 71
     1
 72
     1
  1
2
  7
SLDTEXTSTYLE0
 73
     1
 44
1.0
  0
MTEXT
  5
88
330
A
100
AcDbEntity
  8
0
 62
     7
100
AcDbMText
 10
34.6088150428
 20
1.004274798199999
 30
0.0
 40
0.28125
 41
0.0
 71
     1
 72
     1
  1
3
  7
SLDTEXTSTYLE0
 73
     1
 44
1.0
  0
MTEXT
  5
89
330
A
100
AcDbEntity
  8
0
 62
     7
100
AcDbMText
 10
29.04503274219999
 20
1.010234631999999
 30
0.0
 40
0.28125
 41
0.0
 71
     1
 72
     1
  1
4
  7
SLDTEXTSTYLE0
 73
     1
 44
1.0
  0
MTEXT
  5
8A
330
A
100
AcDbEntity
  8
0
 62
     7
100
AcDbMText
 10
23.1937940055
 20
1.019977045899999
 30
0.0
 40
0.28125
 41
0.0
 71
     1
 72
     1
  1
5
  7
SLDTEXTSTYLE0
 73
     1
 44
1.0
  0
MTEXT
  5
8B
330
A
100
AcDbEntity
  8
0
 62
     7
100
AcDbMText
 10
17.7306464958
 20
0.9712649767
 30
0.0
 40
0.28125
 41
0.0
 71
     1
 72
     1
  1
6
  7
SLDTEXTSTYLE0
 73
     1
 44
1.0
  0
MTEXT
  5
8C
330
A
100
AcDbEntity
  8
0
 62
     7
100
AcDbMText
 10
11.79069263589999
 20
1.014017212099999
 30
0.0
 40
0.28125
 41
0.0
 71
     1
 72
     1
  1
7
  7
SLDTEXTSTYLE0
 73
     1
 44
1.0
  0
MTEXT
  5
8D
330
A
100
AcDbEntity
  8
0
 62
     7
100
AcDbMText
 10
6.444454092099999
 20
1.019977045899999
 30
0.0
 40
0.28125
 41
0.0
 71
     1
 72
     1
  1
8
  7
SLDTEXTSTYLE0
 73
     1
 44
1.0
  0
MTEXT
  5
8E
330
A
100
AcDbEntity
  8
0
 62
     7
100
AcDbMText
 10
6.351836859199999
 20
32.426068864
 30
0.0
 40
0.28125
 41
0.0
 71
     1
 72
     1
  1
8
  7
SLDTEXTSTYLE0
 73
     1
 44
1.0
  0
MTEXT
  5
8F
330
A
100
AcDbEntity
  8
0
 62
     7
100
AcDbMText
 10
12.21137099329999
 20
32.3592070312
 30
0.0
 40
0.28125
 41
0.0
 71
     1
 72
     1
  1
7
  7
SLDTEXTSTYLE0
 73
     1
 44
1.0
  0
MTEXT
  5
90
330
A
100
AcDbEntity
  8
0
 62
     7
100
AcDbMText
 10
17.8551442191
 20
32.3396061198
 30
0.0
 40
0.28125
 41
0.0
 71
     1
 72
     1
  1
6
  7
SLDTEXTSTYLE0
 73
     1
 44
1.0
  0
MTEXT
  5
91
330
A
100
AcDbEntity
  8
0
 62
     7
100
AcDbMText
 10
23.71858254269999
 20
32.3040326985
 30
0.0
 40
0.28125
 41
0.0
 71
     1
 72
     1
  1
5
  7
SLDTEXTSTYLE0
 73
     1
 44
1.0
  0
MTEXT
  5
92
330
A
100
AcDbEntity
  8
0
 62
     7
100
AcDbMText
 10
29.5464474451
 20
32.3904954427
 30
0.0
 40
0.28125
 41
0.0
 71
     1
 72
     1
  1
4
  7
SLDTEXTSTYLE0
 73
     1
 44
1.0
  0
MTEXT
  5
93
330
A
100
AcDbEntity
  8
0
 62
     7
100
AcDbMText
 10
35.40390672239999
 20
32.3284399316
 30
0.0
 40
0.28125
 41
0.0
 71
     1
 72
     1
  1
3
  7
SLDTEXTSTYLE0
 73
     1
 44
1.0
  0
MTEXT
  5
94
330
A
100
AcDbEntity
  8
0
 62
     7
100
AcDbMText
 10
41.0131439554
 20
32.36505078119999
 30
0.0
 40
0.28125
 41
0.0
 71
     1
 72
     1
  1
2
  7
SLDTEXTSTYLE0
 73
     1
 44
1.0
  0
MTEXT
  5
95
330
A
100
AcDbEntity
  8
0
 62
     7
100
AcDbMText
 10
47.00069330109999
 20
32.3151988867
 30
0.0
 40
0.28125
 41
0.0
 71
     1
 72
     1
  1
1
  7
SLDTEXTSTYLE0
 73
     1
 44
1.0
  0
MTEXT
  5
96
330
A
100
AcDbEntity
  8
0
 62
     7
100
AcDbMText
 10
40.9663020349
 20
6.902152157899999
 30
0.0
 40
0.5
 41
0.0
 71
     1
 72
     1
  1
RADIO  ASTRONOMY  LAB
  7
SLDTEXTSTYLE0
 73
     1
 44
1.0
  0
MTEXT
  5
97
330
A
100
AcDbEntity
  8
0
 62
     7
100
AcDbMText
 10
45.0682736264
 20
6.0586473271
 30
0.0
 40
0.3
 41
0.0
 71
     2
 72
     1
  1
University of California - Berkeley\PTel: 510-642-5040    Fax: 510-642-3411
  7
SLDTEXTSTYLE0
 73
     1
 44
1.0
  0
MTEXT
  5
98
330
A
100
AcDbEntity
  8
0
 62
     7
100
AcDbMText
 10
28.1519548219
 20
4.913278158499999
 30
0.0
 40
0.27
 41
0.0
 71
     1
 72
     1
  1
NAME
  7
SLDTEXTSTYLE0
 73
     1
 44
1.0
  0
MTEXT
  5
99
330
A
100
AcDbEntity
  8
0
 62
     7
100
AcDbMText
 10
31.4758176706
 20
4.899985281
 30
0.0
 40
0.27
 41
0.0
 71
     1
 72
     1
  1
DATE
  7
SLDTEXTSTYLE0
 73
     1
 44
1.0
  0
MTEXT
  5
9A
330
A
100
AcDbEntity
  8
0
 62
     7
100
AcDbMText
 10
40.7379912972
 20
1.5724585896
 30
0.0
 40
0.27
 41
0.0
 71
     1
 72
     1
  1
SIZE
  7
SLDTEXTSTYLE0
 73
     1
 44
1.0
  0
MTEXT
  5
9B
330
A
100
AcDbEntity
  8
0
 62
     7
100
AcDbMText
 10
40.90349964179999
 20
2.5323959018
 30
0.0
 40
0.5625
 41
0.0
 71
     1
 72
     1
  1
B
  7
SLDTEXTSTYLE0
 73
     1
 44
1.0
  0
MTEXT
  5
9C
330
A
100
AcDbEntity
  8
0
 62
     7
100
AcDbMText
 10
33.2376385533
 20
1.538598511999999
 30
0.0
 40
0.27
 41
0.0
 71
     1
 72
     1
  1
SCALE:
  7
SLDTEXTSTYLE0
 73
     1
 44
1.0
  0
MTEXT
  5
9D
330
A
100
AcDbEntity
  8
0
 62
     7
100
AcDbMText
 10
41.77317173419999
 20
1.5600008436
 30
0.0
 40
0.27
 41
0.0
 71
     1
 72
     1
  1
DWG NUM:      SHEET             OF
  7
SLDTEXTSTYLE0
 73
     1
 44
1.0
  0
MTEXT
  5
9E
330
A
100
AcDbEntity
  8
0
 62
     7
100
AcDbMText
 10
47.9963444383
 20
31.1559080558
 30
0.0
 40
0.27
 41
0.0
 71
     1
 72
     1
  1
DATE
  7
SLDTEXTSTYLE0
 73
     1
 44
1.0
  0
MTEXT
  5
9F
330
A
100
AcDbEntity
  8
0
 62
     7
100
AcDbMText
 10
45.90746573779999
 20
31.154623681
 30
0.0
 40
0.27
 41
0.0
 71
     1
 72
     1
  1
NAME
  7
SLDTEXTSTYLE0
 73
     1
 44
1.0
  0
MTEXT
  5
A0
330
A
100
AcDbEntity
  8
0
 62
     7
100
AcDbMText
 10
42.0992215522
 20
31.715894012
 30
0.0
 40
0.27
 41
0.0
 71
     1
 72
     1
  1
REVISIONS
  7
SLDTEXTSTYLE0
 73
     1
 44
1.0
  0
MTEXT
  5
A1
330
A
100
AcDbEntity
  8
0
 62
     7
100
AcDbMText
 10
37.7465957607
 20
31.15029972449999
 30
0.0
 40
0.27
 41
0.0
 71
     1
 72
     1
  1
REV
  7
SLDTEXTSTYLE0
 73
     1
 44
1.0
  0
MTEXT
  5
A2
330
A
100
AcDbEntity
  8
0
 62
     7
100
AcDbMText
 10
38.88736707469999
 20
31.1486720258
 30
0.0
 40
0.27
 41
0.0
 71
     1
 72
     1
  1
DESCRIPTION
  7
SLDTEXTSTYLE0
 73
     1
 44
1.0
  0
MTEXT
  5
A3
330
A
100
AcDbEntity
  8
0
 62
     7
100
AcDbMText
 10
33.22205903329999
 20
2.095337444499999
 30
0.0
 40
0.27
 41
0.0
 71
     1
 72
     1
  1
WEIGHT:
  7
SLDTEXTSTYLE0
 73
     1
 44
1.0
  0
MTEXT
  5
A4
330
A
100
AcDbEntity
  8
0
 62
     7
100
AcDbMText
 10
26.4322923529
 20
4.342633389399999
 30
0.0
 40
0.27
 41
0.0
 71
     1
 72
     1
  1
DRAWN
  7
SLDTEXTSTYLE0
 73
     1
 44
1.0
  0
MTEXT
  5
A5
330
A
100
AcDbEntity
  8
0
 62
     7
100
AcDbMText
 10
26.431610102
 20
3.7839912716
 30
0.0
 40
0.27
 41
0.0
 71
     1
 72
     1
  1
CHECKED
  7
SLDTEXTSTYLE0
 73
     1
 44
1.0
  0
MTEXT
  5
A6
330
A
100
AcDbEntity
  8
0
 62
     7
100
AcDbMText
 10
36.4958378773
 20
5.2617615291
 30
0.0
 40
0.27
 41
0.0
 71
     3
 72
     1
  1
WHOLE & FRACTION\PDECIMAL   X.X\PDECIMAL   X.XX\PDECIMAL   X.XXX
  7
SLDTEXTSTYLE0
 73
     1
 44
1.0
  0
MTEXT
  5
A7
330
A
100
AcDbEntity
  8
0
 62
     7
100
AcDbMText
 10
37.76189271079999
 20
5.8942080782
 30
0.0
 40
0.27
 41
0.0
 71
     2
 72
     1
  1
LINEAR
  7
SLDTEXTSTYLE0
 73
     1
 44
1.0
  0
MTEXT
  5
A8
330
A
100
AcDbEntity
  8
0
 62
     7
100
AcDbMText
 10
39.5034136541
 20
5.9122612969
 30
0.0
 40
0.27
 41
0.0
 71
     2
 72
     1
  1
ANGLE
  7
SLDTEXTSTYLE0
 73
     1
 44
1.0
  0
INSERT
  5
AF
330
A
100
AcDbEntity
  8
0
100
AcDbBlockReference
  2
NOTE51
 10
33.5009900572
 20
3.282134257799999
 30
0.0
  0
MTEXT
  5
B0
330
A
100
AcDbEntity
  8
0
 62
     7
100
AcDbMText
 10
36.7462604643
 20
6.926708539699999
 30
0.0
 40
0.27
 41
0.0
 71
     2
 72
     1
  1
UNLESS OTHERWISE SPECIFIED\PDIMENSIONS ARE INCHES & DEGREES
  7
SLDTEXTSTYLE0
 73
     1
 44
1.0
  0
MTEXT
  5
B1
330
A
100
AcDbEntity
  8
0
 62
     7
100
AcDbMText
 10
33.60390032699999
 20
5.875105358999999
 30
0.0
 40
0.27
 41
0.0
 71
     1
 72
     1
  1
TOLERANCES:
  7
SLDTEXTSTYLE0
 73
     1
 44
1.0
  0
MTEXT
  5
B2
330
A
100
AcDbEntity
  8
0
 62
     7
100
AcDbMText
 10
38.8663855537
 20
5.2734365033
 30
0.0
 40
0.27
 41
0.0
 71
     1
 72
     1
  1
%%p\P%%p\P%%p\P%%p
  7
SLDTEXTSTYLE0
 73
     1
 44
1.0
  0
MTEXT
  5
B3
330
A
100
AcDbEntity
  8
0
 62
     7
100
AcDbMText
 10
43.99020088060001
 20
31.1586793059
 30
0.0
 40
0.27
 41
0.0
 71
     1
 72
     1
  1
ZONE
  7
SLDTEXTSTYLE0
 73
     1
 44
1.0
  0
MTEXT
  5
B4
330
A
100
AcDbEntity
  8
0
 62
     7
100
AcDbMText
 10
15.28565304579999
 20
2.5937000015
 30
0.0
 40
0.24
 41
0.0
 71
     1
 72
     1
  1
THIS DRAWING IS THE PROPERTY OF AND CONTAINS CONFIDENTIAL\PINFORMATION PROPRIETARY TO THE UNIVERSITY OF CALIFORNIA AND\PSHALL BE USED ONLY FOR THE PURPOSE FOR WHICH IT WAS PROVIDED\PAND SHALL NOT BE REPRODUCED OR DISCLOSED TO OTHERS.
  7
SLDTEXTSTYLE0
 73
     1
 44
1.0
  0
MTEXT
  5
B5
330
A
100
AcDbEntity
  8
0
 62
     7
100
AcDbMText
 10
37.9168758388
 20
30.61469752829999
 30
0.0
 40
0.27
 41
0.0
 71
     1
 72
     1
  1
A
  7
SLDTEXTSTYLE0
 73
     1
 44
1.0
  0
MTEXT
  5
B6
330
A
100
AcDbEntity
  8
0
 62
     7
100
AcDbMText
 10
38.9339877417
 20
30.6139545251
 30
0.0
 40
0.27
 41
0.0
 71
     1
 72
     1
  1
RELEASED
  7
SLDTEXTSTYLE0
 73
     1
 44
1.0
  0
MTEXT
  5
B7
330
A
100
AcDbEntity
  8
0
 62
     7
100
AcDbMText
 10
28.10752251949999
 20
4.380380667999999
 30
0.0
 40
0.3125
 41
0.0
 71
     1
 72
     1
  1
M. C. FLEMING
  7
SLDTEXTSTYLE0
 73
     1
 44
1.0
  0
MTEXT
  5
B8
330
A
100
AcDbEntity
  8
0
 62
     7
100
AcDbMText
 10
48.7563131641
 20
2.4812113434
 30
0.0
 40
0.5625
 41
0.0
 71
     1
 72
     1
  1
A
  7
SLDTEXTSTYLE0
 73
     1
 44
1.0
  0
MTEXT
  5
B9
330
A
100
AcDbEntity
  8
0
 62
     7
100
AcDbMText
 10
30.9664208309
 20
4.3752125285
 30
0.0
 40
0.3125
 41
0.0
 71
     1
 72
     1
  1
2004-12-23
  7
SLDTEXTSTYLE0
 73
     1
 44
1.0
  0
MTEXT
  5
BA
330
A
100
AcDbEntity
  8
0
 62
     7
100
AcDbMText
 10
37.53723273979999
 20
5.2794801717
 30
0.0
 40
0.27
 41
0.0
 71
     1
 72
     1
  1
1/16\P0.1\P0.01\P0.005
  7
SLDTEXTSTYLE0
 73
     1
 44
1.0
  0
MTEXT
  5
BB
330
A
100
AcDbEntity
  8
0
 62
     7
100
AcDbMText
 10
39.3074526584
 20
5.2736253067
 30
0.0
 40
0.27
 41
0.0
 71
     1
 72
     1
  1
1%%d\P0.1%%d\P0.01%%d\P0.001%%d
  7
SLDTEXTSTYLE0
 73
     1
 44
1.0
  0
MTEXT
  5
BC
330
A
100
AcDbEntity
  8
0
 62
     7
100
AcDbMText
 10
42.24510903299999
 20
2.535486033799999
 30
0.0
 40
0.5625
 41
0.0
 71
     1
 72
     1
  1
24-09-232   1 of 1
  7
SLDTEXTSTYLE0
 73
     1
 44
1.0
  0
MTEXT
  5
BD
330
A
100
AcDbEntity
  8
0
 62
     7
100
AcDbMText
 10
45.8879347483
 20
30.6152584524
 30
0.0
 40
0.3125
 41
0.0
 71
     1
 72
     1
  1
M.C.F.
  7
SLDTEXTSTYLE0
 73
     1
 44
1.0
  0
MTEXT
  5
BE
330
A
100
AcDbEntity
  8
0
 62
     7
100
AcDbMText
 10
47.5259220293
 20
30.6124571894
 30
0.0
 40
0.3125
 41
0.0
 71
     1
 72
     1
  1
2004-12-23
  7
SLDTEXTSTYLE0
 73
     1
 44
1.0
  0
MTEXT
  5
BF
330
A
100
AcDbEntity
  8
0
 62
     7
100
AcDbMText
 10
44.8160382045
 20
4.575925015
 30
0.0
 40
0.5625
 41
0.0
 71
     2
 72
     1
  1
CARMA 6m Base,\PColumn Cap West
  7
SLDTEXTSTYLE0
 73
     1
 44
1.0
  0
LINE
  5
C0
330
A
100
AcDbEntity
  8
0
  6
CENTERX2
 62
     1
370
     0
100
AcDbLine
 10
29.4830730269
 20
17.0594163473
 30
0.0
 11
29.4830730269
 21
16.7428296085
 31
0.0
  0
LINE
  5
C1
330
A
100
AcDbEntity
  8
0
  6
CENTERX2
 62
     1
370
     0
100
AcDbLine
 10
29.4830730269
 20
17.0594163473
 30
0.0
 11
29.3008794462
 21
17.31832301469999
 31
0.0
  0
LINE
  5
C2
330
A
100
AcDbEntity
  8
0
  6
CENTERX2
 62
     1
370
     0
100
AcDbLine
 10
24.21399346989999
 20
23.8094163473
 30
0.0
 11
24.7330730269
 21
23.8094163473
 31
0.0
  0
LINE
  5
C3
330
A
100
AcDbEntity
  8
0
  6
CENTERX2
 62
     1
370
     0
100
AcDbLine
 10
24.7330730269
 20
23.8094163473
 30
0.0
 11
25.0317998892
 21
23.3849097535
 31
0.0
  0
POINT
  5
C4
330
A
100
AcDbEntity
  8
0
 62
     1
100
AcDbPoint
 10
15.2330730269
 20
14.3094163473
 30
0.0
  0
CIRCLE
  5
C5
330
A
100
AcDbEntity
  8
0
  6
Continuous
 62
     7
370
    15
100
AcDbCircle
 10
20.4830730269
 20
20.0594163473
 30
0.0
 40
0.6565
  0
LINE
  5
C6
330
A
100
AcDbEntity
  8
0
  6
Continuous
 62
     7
370
    15
100
AcDbLine
 10
12.4830730269
 20
12.5594163473
 30
0.0
 11
28.4830730269
 21
12.5594163473
 31
0.0
  0
ARC
  5
C7
330
A
100
AcDbEntity
  8
0
  6
Continuous
 62
     7
370
    15
100
AcDbCircle
 10
28.4830730269
 20
13.5594163473
 30
0.0
 40
1.0
100
AcDbArc
 50
270.0
 51
360.0
  0
LINE
  5
C8
330
A
100
AcDbEntity
  8
0
  6
Continuous
 62
     7
370
    15
100
AcDbLine
 10
29.4830730269
 20
13.5594163473
 30
0.0
 11
29.4830730269
 21
16.7428296085
 31
0.0
  0
ARC
  5
C9
330
A
100
AcDbEntity
  8
0
  6
Continuous
 62
     7
370
    15
100
AcDbCircle
 10
28.4830730269
 20
16.7428296085
 30
0.0
 40
1.0
100
AcDbArc
 50
360.0
 51
35.1341930569
  0
LINE
  5
CA
330
A
100
AcDbEntity
  8
0
  6
Continuous
 62
     7
370
    15
100
AcDbLine
 10
29.3008794462
 20
17.31832301469999
 30
0.0
 11
25.0317998892
 21
23.3849097535
 31
0.0
  0
ARC
  5
CB
330
A
100
AcDbEntity
  8
0
  6
Continuous
 62
     7
370
    15
100
AcDbCircle
 10
24.21399346989999
 20
22.8094163473
 30
0.0
 40
1.0
100
AcDbArc
 50
35.1341930569
 51
90.0
  0
LINE
  5
CC
330
A
100
AcDbEntity
  8
0
  6
Continuous
 62
     7
370
    15
100
AcDbLine
 10
24.21399346989999
 20
23.8094163473
 30
0.0
 11
16.7521525839
 21
23.8094163473
 31
0.0
  0
ARC
  5
CD
330
A
100
AcDbEntity
  8
0
  6
Continuous
 62
     7
370
    15
100
AcDbCircle
 10
16.7521525839
 20
22.8094163473
 30
0.0
 40
1.0
100
AcDbArc
 50
90.0
 51
144.8658069430999
  0
LINE
  5
CE
330
A
100
AcDbEntity
  8
0
  6
Continuous
 62
     7
370
    15
100
AcDbLine
 10
15.9343461646
 20
23.3849097535
 30
0.0
 11
11.6652666076
 21
17.31832301469999
 31
0.0
  0
ARC
  5
CF
330
A
100
AcDbEntity
  8
0
  6
Continuous
 62
     7
370
    15
100
AcDbCircle
 10
12.4830730269
 20
16.7428296085
 30
0.0
 40
1.0
100
AcDbArc
 50
144.8658069430999
 51
180.0
  0
LINE
  5
D0
330
A
100
AcDbEntity
  8
0
  6
Continuous
 62
     7
370
    15
100
AcDbLine
 10
11.4830730269
 20
16.7428296085
 30
0.0
 11
11.4830730269
 21
13.5594163473
 31
0.0
  0
ARC
  5
D1
330
A
100
AcDbEntity
  8
0
  6
Continuous
 62
     7
370
    15
100
AcDbCircle
 10
12.4830730269
 20
13.5594163473
 30
0.0
 40
1.0
100
AcDbArc
 50
180.0
 51
270.0
  0
CIRCLE
  5
D2
330
A
100
AcDbEntity
  8
0
  6
Continuous
 62
     7
370
    15
100
AcDbCircle
 10
20.4830730269
 20
20.0594163473
 30
0.0
 40
0.5547
  0
DIMENSION
  5
E2
330
A
100
AcDbEntity
  8
0
100
AcDbDimension
  2
*D1
 10
32.2992282779
 20
12.5594163473
 30
0.0
 11
32.2992282779
 21
14.8094163473
 31
0.0
 70
   160
  1
<>\PTO SHARP CORNER\P2 PLACES
 71
     5
 42
0.0
  3
SLDDIMSTYLE0
100
AcDbAlignedDimension
 13
29.4830730269
 23
17.0594163473
 33
0.0
 14
28.4830730269
 24
12.5594163473
 34
0.0
 50
-90.0
100
AcDbRotatedDimension
  0
DIMENSION
  5
F1
330
A
100
AcDbEntity
  8
0
100
AcDbDimension
  2
*D2
 10
29.4830730269
 20
26.1705268663
 30
0.0
 11
32.9006023944
 21
26.1705268663
 31
0.0
 70
   160
  1
<>\PTO SHARP CORNER\P2 PLACES
 71
     5
 42
0.0
  3
SLDDIMSTYLE0
100
AcDbAlignedDimension
 13
24.7330730269
 23
23.8094163473
 33
0.0
 14
29.4830730269
 24
16.7428296085
 34
0.0
 50
180.0
100
AcDbRotatedDimension
  0
DIMENSION
  5
101
330
A
100
AcDbEntity
  8
0
100
AcDbDimension
  2
*D3
 10
16.2330730269
 20
26.2172019803
 30
0.0
 11
20.4830730269
 21
26.2172019803
 31
0.0
 70
   160
  1
(<>\PCORNER TO CCORNER)
 71
     5
 42
0.0
  3
SLDDIMSTYLE0
100
AcDbAlignedDimension
 13
24.7330730269
 23
23.8094163473
 33
0.0
 14
16.2330730269
 24
23.8094163473
 34
0.0
100
AcDbRotatedDimension
  0
DIMENSION
  5
10E
330
A
100
AcDbEntity
  8
0
100
AcDbDimension
  2
*D4
 10
29.4830730269
 20
9.368922169899999
 30
0.0
 11
20.4830730269
 21
9.368922169899999
 31
0.0
 70
   160
 71
     5
 42
0.0
  3
SLDDIMSTYLE0
100
AcDbAlignedDimension
 13
11.4830730269
 23
13.5594163473
 33
0.0
 14
29.4830730269
 24
13.5594163473
 34
0.0
 50
180.0
100
AcDbRotatedDimension
  0
DIMENSION
  5
11B
330
A
100
AcDbEntity
  8
0
100
AcDbDimension
  2
*D5
 10
34.609898916
 20
23.8094163473
 30
0.0
 11
34.609898916
 21
18.1844163473
 31
0.0
 70
   160
 71
     5
 42
0.0
  3
SLDDIMSTYLE0
100
AcDbAlignedDimension
 13
28.4830730269
 23
12.5594163473
 33
0.0
 14
24.21399346989999
 24
23.8094163473
 34
0.0
 50
90.0
100
AcDbRotatedDimension
  0
DIMENSION
  5
128
330
A
100
AcDbEntity
  8
0
100
AcDbDimension
  2
*D6
 10
16.7521525839
 20
22.8094163473
 30
0.0
 11
11.75306558249999
 21
28.2277016595
 31
0.0
 70
   164
  1
<> RAD\P6 PLACES
 71
     5
 42
0.0
  3
SLDDIMSTYLE1
100
AcDbRadialDimension
 15
16.2464005393
 25
23.6720952386
 35
0.0
 40
0.0
  0
DIMENSION
  5
139
330
A
100
AcDbEntity
  8
0
100
AcDbDimension
  2
*D7
 10
29.4830730269
 20
16.7428296085
 30
0.0
 11
27.5970363575
 21
23.0168252903
 31
0.0
 70
   162
  1
(<>)
 71
     5
 42
0.0
  3
SLDDIMSTYLE2
100
AcDb2LineAngularDimension
 13
25.0317998892
 23
23.3849097535
 33
0.0
 14
29.3008794462
 24
17.31832301469999
 34
0.0
 15
29.4830730269
 25
13.5594163473
 35
0.0
 16
28.52886398489999
 26
23.2349601077
 36
0.0
  0
DIMENSION
  5
146
330
A
100
AcDbEntity
  8
0
100
AcDbDimension
  2
*D8
 10
20.4830730269
 20
10.9351837889
 30
0.0
 11
15.9830730269
 21
10.9351837889
 31
0.0
 70
   160
 71
     5
 42
0.0
  3
SLDDIMSTYLE0
100
AcDbAlignedDimension
 13
11.4830730269
 23
13.5594163473
 33
0.0
 14
20.4830730269
 24
20.0594163473
 34
0.0
 50
180.0
100
AcDbRotatedDimension
  0
DIMENSION
  5
153
330
A
100
AcDbEntity
  8
0
100
AcDbDimension
  2
*D9
 10
8.603146420499999
 20
20.0594163473
 30
0.0
 11
8.603146420499999
 21
16.3094163473
 31
0.0
 70
   160
 71
     5
 42
0.0
  3
SLDDIMSTYLE0
100
AcDbAlignedDimension
 13
12.4830730269
 23
12.5594163473
 33
0.0
 14
20.4830730269
 24
20.0594163473
 34
0.0
 50
90.0
100
AcDbRotatedDimension
  0
LEADER
  5
154
330
A
100
AcDbEntity
  8
0
 62
     1
100
AcDbLeader
  3
SLDDIMSTYLE3
 73
     2
 76
     3
 10
19.97410456049999
 20
20.27996836
 30
0.0
 10
14.36163153319999
 20
23.32557537739999
 30
0.0
 10
13.61163153319999
 20
23.32557537739999
 30
0.0
340
15F
  0
INSERT
  5
15F
102
{ACAD_REACTORS
330
154
102
}
330
A
100
AcDbEntity
  8
0
100
AcDbBlockReference
  2
NOTE68
 10
13.61163153319999
 20
23.32557537739999
 30
0.0
  0
CIRCLE
  5
160
330
A
100
AcDbEntity
  8
0
  6
HIDDEN
 62
     7
100
AcDbCircle
 10
20.4830730269
 20
20.0594163473
 30
0.0
 40
0.625
  0
LINE
  5
161
330
A
100
AcDbEntity
  8
0
  6
Continuous
 62
     7
370
    15
100
AcDbLine
 10
40.6626027534
 20
17.31832301469999
 30
0.0
 11
39.2246027534
 21
17.31832301469999
 31
0.0
  0
LINE
  5
162
330
A
100
AcDbEntity
  8
0
  6
Continuous
 62
     7
370
    15
100
AcDbLine
 10
40.6626027534
 20
16.7428296085
 30
0.0
 11
39.2246027534
 21
16.7428296085
 31
0.0
  0
LINE
  5
163
330
A
100
AcDbEntity
  8
0
  6
Continuous
 62
     7
370
    15
100
AcDbLine
 10
39.2246027534
 20
16.7428296085
 30
0.0
 11
39.2246027534
 21
17.31832301469999
 31
0.0
  0
LINE
  5
164
330
A
100
AcDbEntity
  8
0
  6
Continuous
 62
     7
370
    15
100
AcDbLine
 10
40.6626027534
 20
16.7428296085
 30
0.0
 11
40.6626027534
 21
17.31832301469999
 31
0.0
  0
LINE
  5
165
330
A
100
AcDbEntity
  8
0
  6
Continuous
 62
     7
370
    15
100
AcDbLine
 10
40.6626027534
 20
13.5594163473
 30
0.0
 11
39.2246027534
 21
13.5594163473
 31
0.0
  0
LINE
  5
166
330
A
100
AcDbEntity
  8
0
  6
Continuous
 62
     7
370
    15
100
AcDbLine
 10
39.2246027534
 20
13.5594163473
 30
0.0
 11
39.2246027534
 21
16.7428296085
 31
0.0
  0
LINE
  5
167
330
A
100
AcDbEntity
  8
0
  6
Continuous
 62
     7
370
    15
100
AcDbLine
 10
40.6626027534
 20
13.5594163473
 30
0.0
 11
40.6626027534
 21
16.7428296085
 31
0.0
  0
LINE
  5
168
330
A
100
AcDbEntity
  8
0
  6
Continuous
 62
     7
370
    15
100
AcDbLine
 10
40.6626027534
 20
12.5594163473
 30
0.0
 11
39.2246027534
 21
12.5594163473
 31
0.0
  0
LINE
  5
169
330
A
100
AcDbEntity
  8
0
  6
Continuous
 62
     7
370
    15
100
AcDbLine
 10
39.2246027534
 20
12.5594163473
 30
0.0
 11
39.2246027534
 21
13.5594163473
 31
0.0
  0
LINE
  5
16A
330
A
100
AcDbEntity
  8
0
  6
Continuous
 62
     7
370
    15
100
AcDbLine
 10
40.6626027534
 20
12.5594163473
 30
0.0
 11
40.6626027534
 21
13.5594163473
 31
0.0
  0
LINE
  5
16B
330
A
100
AcDbEntity
  8
0
  6
Continuous
 62
     7
370
    15
100
AcDbLine
 10
40.6626027534
 20
23.3849097535
 30
0.0
 11
39.2246027534
 21
23.3849097535
 31
0.0
  0
LINE
  5
16C
330
A
100
AcDbEntity
  8
0
  6
Continuous
 62
     7
370
    15
100
AcDbLine
 10
39.2246027534
 20
17.31832301469999
 30
0.0
 11
39.2246027534
 21
23.3849097535
 31
0.0
  0
LINE
  5
16D
330
A
100
AcDbEntity
  8
0
  6
Continuous
 62
     7
370
    15
100
AcDbLine
 10
40.6626027534
 20
17.31832301469999
 30
0.0
 11
40.6626027534
 21
23.3849097535
 31
0.0
  0
LINE
  5
16E
330
A
100
AcDbEntity
  8
0
  6
Continuous
 62
     7
370
    15
100
AcDbLine
 10
40.6626027534
 20
23.8094163473
 30
0.0
 11
39.2246027534
 21
23.8094163473
 31
0.0
  0
LINE
  5
16F
330
A
100
AcDbEntity
  8
0
  6
Continuous
 62
     7
370
    15
100
AcDbLine
 10
39.2246027534
 20
23.3849097535
 30
0.0
 11
39.2246027534
 21
23.8094163473
 31
0.0
  0
LINE
  5
170
330
A
100
AcDbEntity
  8
0
  6
Continuous
 62
     7
370
    15
100
AcDbLine
 10
40.6626027534
 20
23.3849097535
 30
0.0
 11
40.6626027534
 21
23.8094163473
 31
0.0
  0
DIMENSION
  5
182
330
A
100
AcDbEntity
  8
0
 62
     7
100
AcDbDimension
  2
*D11
 10
40.6626027534
 20
25.81070401459999
 30
0.0
 11
45.2779348258
 21
25.81070401459999
 31
0.0
 70
   160
  1
<>\PBLANCHARD GRIND \PBOTH SIDES FROM\P1-1/2 STOCK
 71
     5
 42
0.0
  3
SLDDIMSTYLE4
100
AcDbAlignedDimension
 13
39.2246027534
 23
12.5594163473
 33
0.0
 14
40.6626027534
 24
12.5594163473
 34
0.0
100
AcDbRotatedDimension
  0
LINE
  5
183
330
A
100
AcDbEntity
  8
0
  6
Continuous
 62
     7
370
    15
100
AcDbLine
 10
6.7738232376
 20
5.341989578599999
 30
0.0
 11
6.7738232376
 21
4.9016699458
 31
0.0
  0
LINE
  5
184
330
A
100
AcDbEntity
  8
0
  6
Continuous
 62
     7
370
    15
100
AcDbLine
 10
13.08722990789999
 20
5.281440616
 30
0.0
 11
13.08722990789999
 21
5.721760248799999
 31
0.0
  0
LINE
  5
185
330
A
100
AcDbEntity
  8
0
  6
Continuous
 62
     7
370
    15
100
AcDbLine
 10
8.734754263699999
 20
2.679139759599999
 30
0.0
 11
8.734754263699999
 21
3.1194593924
 31
0.0
  0
POLYLINE
  5
186
330
A
100
AcDbEntity
  8
0
  6
Continuous
 62
     7
100
AcDb2dPolyline
 66
     1
 10
0.0
 20
0.0
 30
0.0
 70
   128
 40
0.0017716535
 41
0.0017716535
  0
VERTEX
  5
187
330
186
100
AcDbEntity
  8
0
100
AcDbVertex
100
AcDb2dVertex
 10
8.204424177799999
 20
2.679139759599999
 30
0.0
  0
VERTEX
  5
188
330
186
100
AcDbEntity
  8
0
100
AcDbVertex
100
AcDb2dVertex
 10
8.2383196435
 20
2.661804524099999
 30
0.0
  0
VERTEX
  5
189
330
186
100
AcDbEntity
  8
0
100
AcDbVertex
100
AcDb2dVertex
 10
8.2755875404
 20
2.6469542758
 30
0.0
  0
VERTEX
  5
18A
330
186
100
AcDbEntity
  8
0
100
AcDbVertex
100
AcDb2dVertex
 10
8.3156844187
 20
2.6348055647
 30
0.0
  0
VERTEX
  5
18B
330
186
100
AcDbEntity
  8
0
100
AcDbVertex
100
AcDb2dVertex
 10
8.358025575499999
 20
2.6255355463
 30
0.0
  0
VERTEX
  5
18C
330
186
100
AcDbEntity
  8
0
100
AcDbVertex
100
AcDb2dVertex
 10
8.401993581599999
 20
2.619279398499999
 30
0.0
  0
VERTEX
  5
18D
330
186
100
AcDbEntity
  8
0
100
AcDbVertex
100
AcDb2dVertex
 10
8.4469472842
 20
2.616128349799999
 30
0.0
  0
VERTEX
  5
18E
330
186
100
AcDbEntity
  8
0
100
AcDbVertex
100
AcDb2dVertex
 10
8.4922311573
 20
2.616128349799999
 30
0.0
  0
VERTEX
  5
18F
330
186
100
AcDbEntity
  8
0
100
AcDbVertex
100
AcDb2dVertex
 10
8.537184859899999
 20
2.619279398499999
 30
0.0
  0
VERTEX
  5
190
330
186
100
AcDbEntity
  8
0
100
AcDbVertex
100
AcDb2dVertex
 10
8.5811528659
 20
2.6255355463
 30
0.0
  0
VERTEX
  5
191
330
186
100
AcDbEntity
  8
0
100
AcDbVertex
100
AcDb2dVertex
 10
8.623494022799999
 20
2.6348055647
 30
0.0
  0
VERTEX
  5
192
330
186
100
AcDbEntity
  8
0
100
AcDbVertex
100
AcDb2dVertex
 10
8.6635909011
 20
2.6469542758
 30
0.0
  0
VERTEX
  5
193
330
186
100
AcDbEntity
  8
0
100
AcDbVertex
100
AcDb2dVertex
 10
8.700858797999998
 20
2.661804524099999
 30
0.0
  0
VERTEX
  5
194
330
186
100
AcDbEntity
  8
0
100
AcDbVertex
100
AcDb2dVertex
 10
8.734754263699999
 20
2.679139759599999
 30
0.0
  0
SEQEND
  5
195
330
186
100
AcDbEntity
  8
0
  0
LINE
  5
196
330
A
100
AcDbEntity
  8
0
  6
Continuous
 62
     7
370
    15
100
AcDbLine
 10
8.204424177799999
 20
2.679139759599999
 30
0.0
 11
8.204424177799999
 21
3.1194593924
 31
0.0
  0
POLYLINE
  5
197
330
A
100
AcDbEntity
  8
0
  6
Continuous
 62
     7
100
AcDb2dPolyline
 66
     1
 10
0.0
 20
0.0
 30
0.0
 70
   128
 40
0.0017716535
 41
0.0017716535
  0
VERTEX
  5
198
330
197
100
AcDbEntity
  8
0
100
AcDbVertex
100
AcDb2dVertex
 10
8.204424177799999
 20
3.1194593924
 30
0.0
  0
VERTEX
  5
199
330
197
100
AcDbEntity
  8
0
100
AcDbVertex
100
AcDb2dVertex
 10
8.2383196435
 20
3.102124156899999
 30
0.0
  0
VERTEX
  5
19A
330
197
100
AcDbEntity
  8
0
100
AcDbVertex
100
AcDb2dVertex
 10
8.2755875404
 20
3.0872739086
 30
0.0
  0
VERTEX
  5
19B
330
197
100
AcDbEntity
  8
0
100
AcDbVertex
100
AcDb2dVertex
 10
8.3156844187
 20
3.075125197499999
 30
0.0
  0
VERTEX
  5
19C
330
197
100
AcDbEntity
  8
0
100
AcDbVertex
100
AcDb2dVertex
 10
8.358025575499999
 20
3.0658551791
 30
0.0
  0
VERTEX
  5
19D
330
197
100
AcDbEntity
  8
0
100
AcDbVertex
100
AcDb2dVertex
 10
8.401993581599999
 20
3.059599031299999
 30
0.0
  0
VERTEX
  5
19E
330
197
100
AcDbEntity
  8
0
100
AcDbVertex
100
AcDb2dVertex
 10
8.4469472842
 20
3.056447982599999
 30
0.0
  0
VERTEX
  5
19F
330
197
100
AcDbEntity
  8
0
100
AcDbVertex
100
AcDb2dVertex
 10
8.4922311573
 20
3.056447982599999
 30
0.0
  0
VERTEX
  5
1A0
330
197
100
AcDbEntity
  8
0
100
AcDbVertex
100
AcDb2dVertex
 10
8.537184859899999
 20
3.059599031299999
 30
0.0
  0
VERTEX
  5
1A1
330
197
100
AcDbEntity
  8
0
100
AcDbVertex
100
AcDb2dVertex
 10
8.5811528659
 20
3.0658551791
 30
0.0
  0
VERTEX
  5
1A2
330
197
100
AcDbEntity
  8
0
100
AcDbVertex
100
AcDb2dVertex
 10
8.623494022799999
 20
3.075125197499999
 30
0.0
  0
VERTEX
  5
1A3
330
197
100
AcDbEntity
  8
0
100
AcDbVertex
100
AcDb2dVertex
 10
8.6635909011
 20
3.0872739086
 30
0.0
  0
VERTEX
  5
1A4
330
197
100
AcDbEntity
  8
0
100
AcDbVertex
100
AcDb2dVertex
 10
8.700858797999998
 20
3.102124156899999
 30
0.0
  0
VERTEX
  5
1A5
330
197
100
AcDbEntity
  8
0
100
AcDbVertex
100
AcDb2dVertex
 10
8.734754263699999
 20
3.1194593924
 30
0.0
  0
SEQEND
  5
1A6
330
197
100
AcDbEntity
  8
0
  0
LINE
  5
1A7
330
A
100
AcDbEntity
  8
0
  6
Continuous
 62
     7
370
    15
100
AcDbLine
 10
7.3602942637
 20
3.6067652192
 30
0.0
 11
8.204424177799999
 21
3.1194593924
 31
0.0
  0
POLYLINE
  5
1A8
330
A
100
AcDbEntity
  8
0
  6
Continuous
 62
     7
100
AcDb2dPolyline
 66
     1
 10
0.0
 20
0.0
 30
0.0
 70
   128
 40
0.0017716535
 41
0.0017716535
  0
VERTEX
  5
1A9
330
1A8
100
AcDbEntity
  8
0
100
AcDbVertex
100
AcDb2dVertex
 10
7.2560048986
 20
3.7227493072
 30
0.0
  0
VERTEX
  5
1AA
330
1A8
100
AcDbEntity
  8
0
100
AcDbVertex
100
AcDb2dVertex
 10
7.262009932299999
 20
3.706526001399999
 30
0.0
  0
VERTEX
  5
1AB
330
1A8
100
AcDbEntity
  8
0
100
AcDbVertex
100
AcDb2dVertex
 10
7.270149317899999
 20
3.6906157916
 30
0.0
  0
VERTEX
  5
1AC
330
1A8
100
AcDbEntity
  8
0
100
AcDbVertex
100
AcDb2dVertex
 10
7.280375256799999
 20
3.675112110299999
 30
0.0
  0
VERTEX
  5
1AD
330
1A8
100
AcDbEntity
  8
0
100
AcDbVertex
100
AcDb2dVertex
 10
7.2926276974
 20
3.660106002699999
 30
0.0
  0
VERTEX
  5
1AE
330
1A8
100
AcDbEntity
  8
0
100
AcDbVertex
100
AcDb2dVertex
 10
7.3068346873
 20
3.645685591899999
 30
0.0
  0
VERTEX
  5
1AF
330
1A8
100
AcDbEntity
  8
0
100
AcDbVertex
100
AcDb2dVertex
 10
7.322912796299999
 20
3.6319355616
 30
0.0
  0
VERTEX
  5
1B0
330
1A8
100
AcDbEntity
  8
0
100
AcDbVertex
100
AcDb2dVertex
 10
7.3407676058
 20
3.6189366588
 30
0.0
  0
VERTEX
  5
1B1
330
1A8
100
AcDbEntity
  8
0
100
AcDbVertex
100
AcDb2dVertex
 10
7.3602942637
 20
3.6067652192
 30
0.0
  0
SEQEND
  5
1B2
330
1A8
100
AcDbEntity
  8
0
  0
LINE
  5
1B3
330
A
100
AcDbEntity
  8
0
  6
Continuous
 62
     7
370
    15
100
AcDbLine
 10
6.7793688295
 20
5.3048971456
 30
0.0
 11
7.2560048986
 21
3.7227493072
 31
0.0
  0
POLYLINE
  5
1B4
330
A
100
AcDbEntity
  8
0
  6
Continuous
 62
     7
100
AcDb2dPolyline
 66
     1
 10
0.0
 20
0.0
 30
0.0
 70
   128
 40
0.0017716535
 41
0.0017716535
  0
VERTEX
  5
1B5
330
1B4
100
AcDbEntity
  8
0
100
AcDbVertex
100
AcDb2dVertex
 10
6.8836581946
 20
5.4950660996
 30
0.0
  0
VERTEX
  5
1B6
330
1B4
100
AcDbEntity
  8
0
100
AcDbVertex
100
AcDb2dVertex
 10
6.8538913872
 20
5.4756914612
 30
0.0
  0
VERTEX
  5
1B7
330
1B4
100
AcDbEntity
  8
0
100
AcDbVertex
100
AcDb2dVertex
 10
6.8283452495
 20
5.4544034604
 30
0.0
  0
VERTEX
  5
1B8
330
1B4
100
AcDbEntity
  8
0
100
AcDbVertex
100
AcDb2dVertex
 10
6.807385363799999
 20
5.431506742699999
 30
0.0
  0
VERTEX
  5
1B9
330
1B4
100
AcDbEntity
  8
0
100
AcDbVertex
100
AcDb2dVertex
 10
6.791311679899999
 20
5.407328975099999
 30
0.0
  0
VERTEX
  5
1BA
330
1B4
100
AcDbEntity
  8
0
100
AcDbVertex
100
AcDb2dVertex
 10
6.780354222799999
 20
5.3822161576
 30
0.0
  0
VERTEX
  5
1BB
330
1B4
100
AcDbEntity
  8
0
100
AcDbVertex
100
AcDb2dVertex
 10
6.774669800899999
 20
5.3565276711
 30
0.0
  0
VERTEX
  5
1BC
330
1B4
100
AcDbEntity
  8
0
100
AcDbVertex
100
AcDb2dVertex
 10
6.7743397621
 20
5.330631134899999
 30
0.0
  0
VERTEX
  5
1BD
330
1B4
100
AcDbEntity
  8
0
100
AcDbVertex
100
AcDb2dVertex
 10
6.7793688295
 20
5.3048971456
 30
0.0
  0
SEQEND
  5
1BE
330
1B4
100
AcDbEntity
  8
0
  0
LINE
  5
1BF
330
A
100
AcDbEntity
  8
0
  6
Continuous
 62
     7
370
    15
100
AcDbLine
 10
8.8622775536
 20
6.6372987424
 30
0.0
 11
6.8836581946
 21
5.4950660996
 31
0.0
  0
POLYLINE
  5
1C0
330
A
100
AcDbEntity
  8
0
  6
Continuous
 62
     7
100
AcDb2dPolyline
 66
     1
 10
0.0
 20
0.0
 30
0.0
 70
   128
 40
0.0017716535
 41
0.0017716535
  0
VERTEX
  5
1C1
330
1C0
100
AcDbEntity
  8
0
100
AcDbVertex
100
AcDb2dVertex
 10
9.191695537100001
 20
6.697503711399999
 30
0.0
  0
VERTEX
  5
1C2
330
1C0
100
AcDbEntity
  8
0
100
AcDbVertex
100
AcDb2dVertex
 10
9.14711813
 20
6.700406930199999
 30
0.0
  0
VERTEX
  5
1C3
330
1C0
100
AcDbEntity
  8
0
100
AcDbVertex
100
AcDb2dVertex
 10
9.102259153
 20
6.700216402899999
 30
0.0
  0
VERTEX
  5
1C4
330
1C0
100
AcDbEntity
  8
0
100
AcDbVertex
100
AcDb2dVertex
 10
9.057760567799999
 20
6.696934856
 30
0.0
  0
VERTEX
  5
1C5
330
1C0
100
AcDbEntity
  8
0
100
AcDbVertex
100
AcDb2dVertex
 10
9.014259178399999
 20
6.690609250599999
 30
0.0
  0
VERTEX
  5
1C6
330
1C0
100
AcDbEntity
  8
0
100
AcDbVertex
100
AcDb2dVertex
 10
8.9723775186
 20
6.681330110399999
 30
0.0
  0
VERTEX
  5
1C7
330
1C0
100
AcDbEntity
  8
0
100
AcDbVertex
100
AcDb2dVertex
 10
8.9327149426
 20
6.669230225999999
 30
0.0
  0
VERTEX
  5
1C8
330
1C0
100
AcDbEntity
  8
0
100
AcDbVertex
100
AcDb2dVertex
 10
8.8958390482
 20
6.6544827546
 30
0.0
  0
VERTEX
  5
1C9
330
1C0
100
AcDbEntity
  8
0
100
AcDbVertex
100
AcDb2dVertex
 10
8.8622775536
 20
6.6372987424
 30
0.0
  0
SEQEND
  5
1CA
330
1C0
100
AcDbEntity
  8
0
  0
LINE
  5
1CB
330
A
100
AcDbEntity
  8
0
  6
Continuous
 62
     7
370
    15
100
AcDbLine
 10
11.9323529343
 20
6.422347565599999
 30
0.0
 11
9.191695537100001
 21
6.697503711399999
 31
0.0
  0
POLYLINE
  5
1CC
330
A
100
AcDbEntity
  8
0
  6
Continuous
 62
     7
100
AcDb2dPolyline
 66
     1
 10
0.0
 20
0.0
 30
0.0
 70
   128
 40
0.0017716535
 41
0.0017716535
  0
VERTEX
  5
1CD
330
1CC
100
AcDbEntity
  8
0
100
AcDbVertex
100
AcDb2dVertex
 10
12.1332650367
 20
6.3621425966
 30
0.0
  0
VERTEX
  5
1CE
330
1CC
100
AcDbEntity
  8
0
100
AcDbVertex
100
AcDb2dVertex
 10
12.1121812005
 20
6.373415096299999
 30
0.0
  0
VERTEX
  5
1CF
330
1CC
100
AcDbEntity
  8
0
100
AcDbVertex
100
AcDb2dVertex
 10
12.0896640005
 20
6.3837224584
 30
0.0
  0
VERTEX
  5
1D0
330
1CC
100
AcDbEntity
  8
0
100
AcDbVertex
100
AcDb2dVertex
 10
12.0658456688
 20
6.393004153099999
 30
0.0
  0
VERTEX
  5
1D1
330
1CC
100
AcDbEntity
  8
0
100
AcDbVertex
100
AcDb2dVertex
 10
12.04086607799999
 20
6.401205673899999
 30
0.0
  0
VERTEX
  5
1D2
330
1CC
100
AcDbEntity
  8
0
100
AcDbVertex
100
AcDb2dVertex
 10
12.0148719207
 20
6.4082788573
 30
0.0
  0
VERTEX
  5
1D3
330
1CC
100
AcDbEntity
  8
0
100
AcDbVertex
100
AcDb2dVertex
 10
11.98801584709999
 20
6.414182166199999
 30
0.0
  0
VERTEX
  5
1D4
330
1CC
100
AcDbEntity
  8
0
100
AcDbVertex
100
AcDb2dVertex
 10
11.9604555692
 20
6.4188809334
 30
0.0
  0
VERTEX
  5
1D5
330
1CC
100
AcDbEntity
  8
0
100
AcDbVertex
100
AcDb2dVertex
 10
11.9323529343
 20
6.422347565599999
 30
0.0
  0
SEQEND
  5
1D6
330
1CC
100
AcDbEntity
  8
0
  0
LINE
  5
1D7
330
A
100
AcDbEntity
  8
0
  6
Continuous
 62
     7
370
    15
100
AcDbLine
 10
12.9773949508
 20
5.874836769799999
 30
0.0
 11
12.1332650367
 21
6.3621425966
 31
0.0
  0
POLYLINE
  5
1D8
330
A
100
AcDbEntity
  8
0
  6
Continuous
 62
     7
100
AcDb2dPolyline
 66
     1
 10
0.0
 20
0.0
 30
0.0
 70
   128
 40
0.0017716535
 41
0.0017716535
  0
VERTEX
  5
1D9
330
1D8
100
AcDbEntity
  8
0
100
AcDbVertex
100
AcDb2dVertex
 10
12.9773949508
 20
5.568683727899999
 30
0.0
  0
VERTEX
  5
1DA
330
1D8
100
AcDbEntity
  8
0
100
AcDbVertex
100
AcDb2dVertex
 10
13.0074237131
 20
5.588251163699999
 30
0.0
  0
VERTEX
  5
1DB
330
1D8
100
AcDbEntity
  8
0
100
AcDbVertex
100
AcDb2dVertex
 10
13.033147885
 20
5.609765462699999
 30
0.0
  0
VERTEX
  5
1DC
330
1D8
100
AcDbEntity
  8
0
100
AcDbVertex
100
AcDb2dVertex
 10
13.0541923501
 20
5.632912897799999
 30
0.0
  0
VERTEX
  5
1DD
330
1D8
100
AcDbEntity
  8
0
100
AcDbVertex
100
AcDb2dVertex
 10
13.0702502328
 20
5.6573559274
 30
0.0
  0
VERTEX
  5
1DE
330
1D8
100
AcDbEntity
  8
0
100
AcDbVertex
100
AcDb2dVertex
 10
13.08108737299999
 20
5.682738117
 30
0.0
  0
VERTEX
  5
1DF
330
1D8
100
AcDbEntity
  8
0
100
AcDbVertex
100
AcDb2dVertex
 10
13.0865457407
 20
5.7086893371
 30
0.0
  0
VERTEX
  5
1E0
330
1D8
100
AcDbEntity
  8
0
100
AcDbVertex
100
AcDb2dVertex
 10
13.0865457407
 20
5.734831160599999
 30
0.0
  0
VERTEX
  5
1E1
330
1D8
100
AcDbEntity
  8
0
100
AcDbVertex
100
AcDb2dVertex
 10
13.08108737299999
 20
5.7607823807
 30
0.0
  0
VERTEX
  5
1E2
330
1D8
100
AcDbEntity
  8
0
100
AcDbVertex
100
AcDb2dVertex
 10
13.0702502328
 20
5.786164570299999
 30
0.0
  0
VERTEX
  5
1E3
330
1D8
100
AcDbEntity
  8
0
100
AcDbVertex
100
AcDb2dVertex
 10
13.0541923501
 20
5.810607599899999
 30
0.0
  0
VERTEX
  5
1E4
330
1D8
100
AcDbEntity
  8
0
100
AcDbVertex
100
AcDb2dVertex
 10
13.033147885
 20
5.833755035
 30
0.0
  0
VERTEX
  5
1E5
330
1D8
100
AcDbEntity
  8
0
100
AcDbVertex
100
AcDb2dVertex
 10
13.0074237131
 20
5.855269333999999
 30
0.0
  0
VERTEX
  5
1E6
330
1D8
100
AcDbEntity
  8
0
100
AcDbVertex
100
AcDb2dVertex
 10
12.9773949508
 20
5.874836769799999
 30
0.0
  0
SEQEND
  5
1E7
330
1D8
100
AcDbEntity
  8
0
  0
LINE
  5
1E8
330
A
100
AcDbEntity
  8
0
  6
Continuous
 62
     7
370
    15
100
AcDbLine
 10
8.734754263699999
 20
3.1194593924
 30
0.0
 11
12.9773949508
 21
5.568683727899999
 31
0.0
  0
POLYLINE
  5
1E9
330
A
100
AcDbEntity
  8
0
  6
Continuous
 62
     7
100
AcDb2dPolyline
 66
     1
 10
0.0
 20
0.0
 30
0.0
 70
   128
 40
0.0017716535
 41
0.0017716535
  0
VERTEX
  5
1EA
330
1E9
100
AcDbEntity
  8
0
100
AcDbVertex
100
AcDb2dVertex
 10
8.693255934499999
 20
5.391650731399999
 30
0.0
  0
VERTEX
  5
1EB
330
1E9
100
AcDbEntity
  8
0
100
AcDbVertex
100
AcDb2dVertex
 10
8.720457425199999
 20
5.3780895159
 30
0.0
  0
VERTEX
  5
1EC
330
1E9
100
AcDbEntity
  8
0
100
AcDbVertex
100
AcDb2dVertex
 10
8.750789394399999
 20
5.366959204999999
 30
0.0
  0
VERTEX
  5
1ED
330
1E9
100
AcDbEntity
  8
0
100
AcDbVertex
100
AcDb2dVertex
 10
8.783605368899999
 20
5.358497021899999
 30
0.0
  0
VERTEX
  5
1EE
330
1E9
100
AcDbEntity
  8
0
100
AcDbVertex
100
AcDb2dVertex
 10
8.818205933199999
 20
5.352883323399999
 30
0.0
  0
VERTEX
  5
1EF
330
1E9
100
AcDbEntity
  8
0
100
AcDbVertex
100
AcDb2dVertex
 10
8.8538536364
 20
5.3502377557
 30
0.0
  0
VERTEX
  5
1F0
330
1E9
100
AcDbEntity
  8
0
100
AcDbVertex
100
AcDb2dVertex
 10
8.889788709400001
 20
5.3506167046
 30
0.0
  0
VERTEX
  5
1F1
330
1E9
100
AcDbEntity
  8
0
100
AcDbVertex
100
AcDb2dVertex
 10
8.9252452586
 20
5.354012093299999
 30
0.0
  0
VERTEX
  5
1F2
330
1E9
100
AcDbEntity
  8
0
100
AcDbVertex
100
AcDb2dVertex
 10
8.959467589299999
 20
5.360351555
 30
0.0
  0
VERTEX
  5
1F3
330
1E9
100
AcDbEntity
  8
0
100
AcDbVertex
100
AcDb2dVertex
 10
8.991726311799999
 20
5.3694999752
 30
0.0
  0
VERTEX
  5
1F4
330
1E9
100
AcDbEntity
  8
0
100
AcDbVertex
100
AcDb2dVertex
 10
9.0213338875
 20
5.3812623711
 30
0.0
  0
VERTEX
  5
1F5
330
1E9
100
AcDbEntity
  8
0
100
AcDbVertex
100
AcDb2dVertex
 10
9.047659282399999
 20
5.3953880477
 30
0.0
  0
VERTEX
  5
1F6
330
1E9
100
AcDbEntity
  8
0
100
AcDbVertex
100
AcDb2dVertex
 10
9.0701414163
 20
5.4115759407
 30
0.0
  0
VERTEX
  5
1F7
330
1E9
100
AcDbEntity
  8
0
100
AcDbVertex
100
AcDb2dVertex
 10
9.088301121499998
 20
5.4294810333
 30
0.0
  0
VERTEX
  5
1F8
330
1E9
100
AcDbEntity
  8
0
100
AcDbVertex
100
AcDb2dVertex
 10
9.101751355599999
 20
5.4487217095
 30
0.0
  0
VERTEX
  5
1F9
330
1E9
100
AcDbEntity
  8
0
100
AcDbVertex
100
AcDb2dVertex
 10
9.1102054501
 20
5.4688878877
 30
0.0
  0
VERTEX
  5
1FA
330
1E9
100
AcDbEntity
  8
0
100
AcDbVertex
100
AcDb2dVertex
 10
9.113483220599999
 20
5.4895497609
 30
0.0
  0
VERTEX
  5
1FB
330
1E9
100
AcDbEntity
  8
0
100
AcDbVertex
100
AcDb2dVertex
 10
9.1115148073
 20
5.510266957
 30
0.0
  0
VERTEX
  5
1FC
330
1E9
100
AcDbEntity
  8
0
100
AcDbVertex
100
AcDb2dVertex
 10
9.1043421633
 20
5.530597925
 30
0.0
  0
VERTEX
  5
1FD
330
1E9
100
AcDbEntity
  8
0
100
AcDbVertex
100
AcDb2dVertex
 10
9.0921181611
 20
5.5501093457
 30
0.0
  0
VERTEX
  5
1FE
330
1E9
100
AcDbEntity
  8
0
100
AcDbVertex
100
AcDb2dVertex
 10
9.075103334199999
 20
5.5683853669
 30
0.0
  0
VERTEX
  5
1FF
330
1E9
100
AcDbEntity
  8
0
100
AcDbVertex
100
AcDb2dVertex
 10
9.053660323999999
 20
5.5850364671
 30
0.0
  0
VERTEX
  5
200
330
1E9
100
AcDbEntity
  8
0
100
AcDbVertex
100
AcDb2dVertex
 10
9.028246150999999
 20
5.599707756799999
 30
0.0
  0
VERTEX
  5
201
330
1E9
100
AcDbEntity
  8
0
100
AcDbVertex
100
AcDb2dVertex
 10
8.9994024743
 20
5.612086543099999
 30
0.0
  0
VERTEX
  5
202
330
1E9
100
AcDbEntity
  8
0
100
AcDbVertex
100
AcDb2dVertex
 10
8.9677440467
 20
5.621908993599999
 30
0.0
  0
VERTEX
  5
203
330
1E9
100
AcDbEntity
  8
0
100
AcDbVertex
100
AcDb2dVertex
 10
8.9339456127
 20
5.628965759899999
 30
0.0
  0
VERTEX
  5
204
330
1E9
100
AcDbEntity
  8
0
100
AcDbVertex
100
AcDb2dVertex
 10
8.8987275271
 20
5.633106439099999
 30
0.0
  0
VERTEX
  5
205
330
1E9
100
AcDbEntity
  8
0
100
AcDbVertex
100
AcDb2dVertex
 10
8.862840402399999
 20
5.63424278
 30
0.0
  0
VERTEX
  5
206
330
1E9
100
AcDbEntity
  8
0
100
AcDbVertex
100
AcDb2dVertex
 10
8.827049110199999
 20
5.6323505633
 30
0.0
  0
VERTEX
  5
207
330
1E9
100
AcDbEntity
  8
0
100
AcDbVertex
100
AcDb2dVertex
 10
8.7921164799
 20
5.6274701184
 30
0.0
  0
VERTEX
  5
208
330
1E9
100
AcDbEntity
  8
0
100
AcDbVertex
100
AcDb2dVertex
 10
8.758787039799999
 20
5.619705463599999
 30
0.0
  0
VERTEX
  5
209
330
1E9
100
AcDbEntity
  8
0
100
AcDbVertex
100
AcDb2dVertex
 10
8.7277711491
 20
5.6092220889
 30
0.0
  0
VERTEX
  5
20A
330
1E9
100
AcDbEntity
  8
0
100
AcDbVertex
100
AcDb2dVertex
 10
8.699729857599999
 20
5.596243429199999
 30
0.0
  0
VERTEX
  5
20B
330
1E9
100
AcDbEntity
  8
0
100
AcDbVertex
100
AcDb2dVertex
 10
8.675260816799999
 20
5.5810461023
 30
0.0
  0
VERTEX
  5
20C
330
1E9
100
AcDbEntity
  8
0
100
AcDbVertex
100
AcDb2dVertex
 10
8.654885541799998
 20
5.563954012599999
 30
0.0
  0
VERTEX
  5
20D
330
1E9
100
AcDbEntity
  8
0
100
AcDbVertex
100
AcDb2dVertex
 10
8.6390382961
 20
5.545331448499999
 30
0.0
  0
VERTEX
  5
20E
330
1E9
100
AcDbEntity
  8
0
100
AcDbVertex
100
AcDb2dVertex
 10
8.628056836399998
 20
5.5255753175
 30
0.0
  0
VERTEX
  5
20F
330
1E9
100
AcDbEntity
  8
0
100
AcDbVertex
100
AcDb2dVertex
 10
8.6221752134
 20
5.5051066874
 30
0.0
  0
VERTEX
  5
210
330
1E9
100
AcDbEntity
  8
0
100
AcDbVertex
100
AcDb2dVertex
 10
8.6215187837
 20
5.4843618113
 30
0.0
  0
VERTEX
  5
211
330
1E9
100
AcDbEntity
  8
0
100
AcDbVertex
100
AcDb2dVertex
 10
8.6261015378
 20
5.463782830299999
 30
0.0
  0
VERTEX
  5
212
330
1E9
100
AcDbEntity
  8
0
100
AcDbVertex
100
AcDb2dVertex
 10
8.635825802499999
 20
5.4438083497
 30
0.0
  0
VERTEX
  5
213
330
1E9
100
AcDbEntity
  8
0
100
AcDbVertex
100
AcDb2dVertex
 10
8.650484321799998
 20
5.4248640908
 30
0.0
  0
VERTEX
  5
214
330
1E9
100
AcDbEntity
  8
0
100
AcDbVertex
100
AcDb2dVertex
 10
8.669764674899999
 20
5.407353817699999
 30
0.0
  0
VERTEX
  5
215
330
1E9
100
AcDbEntity
  8
0
100
AcDbVertex
100
AcDb2dVertex
 10
8.693255934499999
 20
5.391650731399999
 30
0.0
  0
SEQEND
  5
216
330
1E9
100
AcDbEntity
  8
0
  0
LINE
  5
217
330
A
100
AcDbEntity
  8
0
  6
Continuous
 62
     7
370
    15
100
AcDbLine
 10
12.9773949508
 20
5.1283640951
 30
0.0
 11
12.9773949508
 21
5.568683727899999
 31
0.0
  0
LINE
  5
218
330
A
100
AcDbEntity
  8
0
  6
Continuous
 62
     7
370
    15
100
AcDbLine
 10
8.734754263699999
 20
2.679139759599999
 30
0.0
 11
12.9773949508
 21
5.1283640951
 31
0.0
  0
LINE
  5
219
330
A
100
AcDbEntity
  8
0
  6
Continuous
 62
     7
370
    15
100
AcDbLine
 10
7.3602942637
 20
3.1664455864
 30
0.0
 11
8.204424177799999
 21
2.679139759599999
 31
0.0
  0
LINE
  5
21A
330
A
100
AcDbEntity
  8
0
  6
Continuous
 62
     7
370
    15
100
AcDbLine
 10
7.3602942637
 20
3.1664455864
 30
0.0
 11
7.3602942637
 21
3.6067652192
 31
0.0
  0
LINE
  5
21B
330
A
100
AcDbEntity
  8
0
  6
Continuous
 62
     7
370
    15
100
AcDbLine
 10
7.2560048986
 20
3.282429674299999
 30
0.0
 11
7.2560048986
 21
3.7227493072
 31
0.0
  0
POLYLINE
  5
21C
330
A
100
AcDbEntity
  8
0
  6
Continuous
 62
     7
100
AcDb2dPolyline
 66
     1
 10
0.0
 20
0.0
 30
0.0
 70
   128
 40
0.0017716535
 41
0.0017716535
  0
VERTEX
  5
21D
330
21C
100
AcDbEntity
  8
0
100
AcDbVertex
100
AcDb2dVertex
 10
7.2560048986
 20
3.282429674299999
 30
0.0
  0
VERTEX
  5
21E
330
21C
100
AcDbEntity
  8
0
100
AcDbVertex
100
AcDb2dVertex
 10
7.262009932299999
 20
3.2662063686
 30
0.0
  0
VERTEX
  5
21F
330
21C
100
AcDbEntity
  8
0
100
AcDbVertex
100
AcDb2dVertex
 10
7.270149317899999
 20
3.250296158799999
 30
0.0
  0
VERTEX
  5
220
330
21C
100
AcDbEntity
  8
0
100
AcDbVertex
100
AcDb2dVertex
 10
7.280375256799999
 20
3.2347924775
 30
0.0
  0
VERTEX
  5
221
330
21C
100
AcDbEntity
  8
0
100
AcDbVertex
100
AcDb2dVertex
 10
7.2926276974
 20
3.2197863699
 30
0.0
  0
VERTEX
  5
222
330
21C
100
AcDbEntity
  8
0
100
AcDbVertex
100
AcDb2dVertex
 10
7.3068346873
 20
3.2053659591
 30
0.0
  0
VERTEX
  5
223
330
21C
100
AcDbEntity
  8
0
100
AcDbVertex
100
AcDb2dVertex
 10
7.322912796299999
 20
3.1916159288
 30
0.0
  0
VERTEX
  5
224
330
21C
100
AcDbEntity
  8
0
100
AcDbVertex
100
AcDb2dVertex
 10
7.3407676058
 20
3.178617026
 30
0.0
  0
VERTEX
  5
225
330
21C
100
AcDbEntity
  8
0
100
AcDbVertex
100
AcDb2dVertex
 10
7.3602942637
 20
3.1664455864
 30
0.0
  0
SEQEND
  5
226
330
21C
100
AcDbEntity
  8
0
  0
LINE
  5
227
330
A
100
AcDbEntity
  8
0
  6
Continuous
 62
     7
370
    15
100
AcDbLine
 10
6.7793688295
 20
4.864577512799999
 30
0.0
 11
6.7793688295
 21
5.3048971456
 31
0.0
  0
LINE
  5
228
330
A
100
AcDbEntity
  8
0
  6
Continuous
 62
     7
370
    15
100
AcDbLine
 10
6.7793688295
 20
4.864577512799999
 30
0.0
 11
7.2560048986
 21
3.282429674299999
 31
0.0
  0
POLYLINE
  5
229
330
A
100
AcDbEntity
  8
0
  6
Continuous
 62
     7
100
AcDb2dPolyline
 66
     1
 10
0.0
 20
0.0
 30
0.0
 70
   128
 40
0.0017716535
 41
0.0017716535
  0
VERTEX
  5
22A
330
229
100
AcDbEntity
  8
0
100
AcDbVertex
100
AcDb2dVertex
 10
9.026807836999999
 20
5.383871669199999
 30
0.0
  0
VERTEX
  5
22B
330
229
100
AcDbEntity
  8
0
100
AcDbVertex
100
AcDb2dVertex
 10
9.040872490199999
 20
5.394762973599999
 30
0.0
  0
VERTEX
  5
22C
330
229
100
AcDbEntity
  8
0
100
AcDbVertex
100
AcDb2dVertex
 10
9.057023351899999
 20
5.4116903963
 30
0.0
  0
VERTEX
  5
22D
330
229
100
AcDbEntity
  8
0
100
AcDbVertex
100
AcDb2dVertex
 10
9.068261431099999
 20
5.4298942389
 30
0.0
  0
VERTEX
  5
22E
330
229
100
AcDbEntity
  8
0
100
AcDbVertex
100
AcDb2dVertex
 10
9.074295667499999
 20
5.448903031599999
 30
0.0
  0
VERTEX
  5
22F
330
229
100
AcDbEntity
  8
0
100
AcDbVertex
100
AcDb2dVertex
 10
9.074969777599999
 20
5.468224456599999
 30
0.0
  0
VERTEX
  5
230
330
229
100
AcDbEntity
  8
0
100
AcDbVertex
100
AcDb2dVertex
 10
9.0702663023
 20
5.487358099199999
 30
0.0
  0
VERTEX
  5
231
330
229
100
AcDbEntity
  8
0
100
AcDbVertex
100
AcDb2dVertex
 10
9.060307058999999
 20
5.505808407999999
 30
0.0
  0
VERTEX
  5
232
330
229
100
AcDbEntity
  8
0
100
AcDbVertex
100
AcDb2dVertex
 10
9.045349987099999
 20
5.5230975298
 30
0.0
  0
VERTEX
  5
233
330
229
100
AcDbEntity
  8
0
100
AcDbVertex
100
AcDb2dVertex
 10
9.025782466699999
 20
5.538777685299999
 30
0.0
  0
VERTEX
  5
234
330
229
100
AcDbEntity
  8
0
100
AcDbVertex
100
AcDb2dVertex
 10
9.002111286299999
 20
5.5524427669
 30
0.0
  0
VERTEX
  5
235
330
229
100
AcDbEntity
  8
0
100
AcDbVertex
100
AcDb2dVertex
 10
8.9749495172
 20
5.563738856
 30
0.0
  0
VERTEX
  5
236
330
229
100
AcDbEntity
  8
0
100
AcDbVertex
100
AcDb2dVertex
 10
8.945000634899999
 20
5.5723733898
 30
0.0
  0
VERTEX
  5
237
330
229
100
AcDbEntity
  8
0
100
AcDbVertex
100
AcDb2dVertex
 10
8.9130402996
 20
5.5781227386
 30
0.0
  0
VERTEX
  5
238
330
229
100
AcDbEntity
  8
0
100
AcDbVertex
100
AcDb2dVertex
 10
8.879896267399999
 20
5.5808379971
 30
0.0
  0
VERTEX
  5
239
330
229
100
AcDbEntity
  8
0
100
AcDbVertex
100
AcDb2dVertex
 10
8.846426951099999
 20
5.580448841599999
 30
0.0
  0
VERTEX
  5
23A
330
229
100
AcDbEntity
  8
0
100
AcDbVertex
100
AcDb2dVertex
 10
8.813499188499999
 20
5.5769653511
 30
0.0
  0
VERTEX
  5
23B
330
229
100
AcDbEntity
  8
0
100
AcDbVertex
100
AcDb2dVertex
 10
8.781965791499999
 20
5.570477745999999
 30
0.0
  0
VERTEX
  5
23C
330
229
100
AcDbEntity
  8
0
100
AcDbVertex
100
AcDb2dVertex
 10
8.752643458299999
 20
5.561154052
 30
0.0
  0
VERTEX
  5
23D
330
229
100
AcDbEntity
  8
0
100
AcDbVertex
100
AcDb2dVertex
 10
8.726291621999999
 20
5.549235747899999
 30
0.0
  0
VERTEX
  5
23E
330
229
100
AcDbEntity
  8
0
100
AcDbVertex
100
AcDb2dVertex
 10
8.703592781399999
 20
5.535031511399999
 30
0.0
  0
VERTEX
  5
23F
330
229
100
AcDbEntity
  8
0
100
AcDbVertex
100
AcDb2dVertex
 10
8.6851348245
 20
5.518909224899999
 30
0.0
  0
VERTEX
  5
240
330
229
100
AcDbEntity
  8
0
100
AcDbVertex
100
AcDb2dVertex
 10
8.671395802599999
 20
5.501286447
 30
0.0
  0
VERTEX
  5
241
330
229
100
AcDbEntity
  8
0
100
AcDbVertex
100
AcDb2dVertex
 10
8.6627315493
 20
5.4826195985
 30
0.0
  0
VERTEX
  5
242
330
229
100
AcDbEntity
  8
0
100
AcDbVertex
100
AcDb2dVertex
 10
8.659366464099999
 20
5.463392140899999
 30
0.0
  0
VERTEX
  5
243
330
229
100
AcDbEntity
  8
0
100
AcDbVertex
100
AcDb2dVertex
 10
8.6613877009
 20
5.4441020553
 30
0.0
  0
VERTEX
  5
244
330
229
100
AcDbEntity
  8
0
100
AcDbVertex
100
AcDb2dVertex
 10
8.6687429109
 20
5.425248944799999
 30
0.0
  0
VERTEX
  5
245
330
229
100
AcDbEntity
  8
0
100
AcDbVertex
100
AcDb2dVertex
 10
8.681241597899999
 20
5.407321095
 30
0.0
  0
VERTEX
  5
246
330
229
100
AcDbEntity
  8
0
100
AcDbVertex
100
AcDb2dVertex
 10
8.698560052499999
 20
5.390782827799999
 30
0.0
  0
VERTEX
  5
247
330
229
100
AcDbEntity
  8
0
100
AcDbVertex
100
AcDb2dVertex
 10
8.7078657333
 20
5.383871669199999
 30
0.0
  0
SEQEND
  5
248
330
229
100
AcDbEntity
  8
0
  0
POLYLINE
  5
249
330
A
100
AcDbEntity
  8
0
  6
Continuous
 62
     7
100
AcDb2dPolyline
 66
     1
 10
0.0
 20
0.0
 30
0.0
 70
   128
 40
0.0017716535
 41
0.0017716535
  0
VERTEX
  5
24A
330
249
100
AcDbEntity
  8
0
100
AcDbVertex
100
AcDb2dVertex
 10
6.7738232376
 20
4.9016699458
 30
0.0
  0
VERTEX
  5
24B
330
249
100
AcDbEntity
  8
0
100
AcDbVertex
100
AcDb2dVertex
 10
6.7743397621
 20
4.890311502099999
 30
0.0
  0
VERTEX
  5
24C
330
249
100
AcDbEntity
  8
0
100
AcDbVertex
100
AcDb2dVertex
 10
6.7793688295
 20
4.864577512799999
 30
0.0
  0
SEQEND
  5
24D
330
249
100
AcDbEntity
  8
0
  0
POLYLINE
  5
24E
330
A
100
AcDbEntity
  8
0
  6
Continuous
 62
     7
100
AcDb2dPolyline
 66
     1
 10
0.0
 20
0.0
 30
0.0
 70
   128
 40
0.0017716535
 41
0.0017716535
  0
VERTEX
  5
24F
330
24E
100
AcDbEntity
  8
0
100
AcDbVertex
100
AcDb2dVertex
 10
12.9773949508
 20
5.1283640951
 30
0.0
  0
VERTEX
  5
250
330
24E
100
AcDbEntity
  8
0
100
AcDbVertex
100
AcDb2dVertex
 10
13.0074237131
 20
5.147931530899999
 30
0.0
  0
VERTEX
  5
251
330
24E
100
AcDbEntity
  8
0
100
AcDbVertex
100
AcDb2dVertex
 10
13.033147885
 20
5.169445829899999
 30
0.0
  0
VERTEX
  5
252
330
24E
100
AcDbEntity
  8
0
100
AcDbVertex
100
AcDb2dVertex
 10
13.0541923501
 20
5.192593265
 30
0.0
  0
VERTEX
  5
253
330
24E
100
AcDbEntity
  8
0
100
AcDbVertex
100
AcDb2dVertex
 10
13.0702502328
 20
5.217036294499999
 30
0.0
  0
VERTEX
  5
254
330
24E
100
AcDbEntity
  8
0
100
AcDbVertex
100
AcDb2dVertex
 10
13.08108737299999
 20
5.242418484099999
 30
0.0
  0
VERTEX
  5
255
330
24E
100
AcDbEntity
  8
0
100
AcDbVertex
100
AcDb2dVertex
 10
13.0865457407
 20
5.2683697043
 30
0.0
  0
VERTEX
  5
256
330
24E
100
AcDbEntity
  8
0
100
AcDbVertex
100
AcDb2dVertex
 10
13.08722990789999
 20
5.281440616
 30
0.0
  0
SEQEND
  5
257
330
24E
100
AcDbEntity
  8
0
  0
LEADER
  5
258
330
A
100
AcDbEntity
  8
0
 62
     1
100
AcDbLeader
  3
SLDDIMSTYLE3
 73
     0
 76
     3
 10
12.912562165
 20
5.912263940399999
 30
0.0
 10
14.5553877121
 20
7.271516320799999
 30
0.0
 10
15.30538771209999
 20
7.271516320799999
 30
0.0
340
259
213
0.0
223
-0.2249767819400637
233
0.0
  0
MTEXT
  5
259
102
{ACAD_REACTORS
330
258
102
}
330
A
100
AcDbEntity
  8
0
 62
     1
100
AcDbMText
 10
15.3648913316
 20
7.496493102699999
 30
0.0
 40
0.3
 41
0.0
 71
     1
 72
     1
  1
RADIUS EXPOSED EDGES 1/32 TO 1/16\PBOTH SIDES EXCEPT EDGE FLUSH WITH CEILING TOP PLATE
  7
SLDTEXTSTYLE0
 73
     1
 44
1.0
  0
POLYLINE
  5
25A
330
A
100
AcDbEntity
  8
0
  6
HIDDEN
 62
     7
100
AcDb2dPolyline
 66
     1
 10
0.0
 20
0.0
 30
0.0
 70
   128
  0
VERTEX
  5
25B
330
25A
100
AcDbEntity
  8
0
100
AcDbVertex
100
AcDb2dVertex
 10
8.701608633300001
 20
5.365301196299999
 30
0.0
  0
VERTEX
  5
25C
330
25A
100
AcDbEntity
  8
0
100
AcDbVertex
100
AcDb2dVertex
 10
8.6508025197
 20
5.409196261799999
 30
0.0
  0
VERTEX
  5
25D
330
25A
100
AcDbEntity
  8
0
100
AcDbVertex
100
AcDb2dVertex
 10
8.632961785199999
 20
5.4609740219
 30
0.0
  0
VERTEX
  5
25E
330
25A
100
AcDbEntity
  8
0
100
AcDbVertex
100
AcDb2dVertex
 10
8.6508025197
 20
5.512751782
 30
0.0
  0
VERTEX
  5
25F
330
25A
100
AcDbEntity
  8
0
100
AcDbVertex
100
AcDb2dVertex
 10
8.701608633300001
 20
5.556646847499999
 30
0.0
  0
VERTEX
  5
260
330
25A
100
AcDbEntity
  8
0
100
AcDbVertex
100
AcDb2dVertex
 10
8.7776453557
 20
5.585976592599999
 30
0.0
  0
VERTEX
  5
261
330
25A
100
AcDbEntity
  8
0
100
AcDbVertex
100
AcDb2dVertex
 10
8.867336785199999
 20
5.5962758294
 30
0.0
  0
VERTEX
  5
262
330
25A
100
AcDbEntity
  8
0
100
AcDbVertex
100
AcDb2dVertex
 10
8.957028214600001
 20
5.585976592599999
 30
0.0
  0
VERTEX
  5
263
330
25A
100
AcDbEntity
  8
0
100
AcDbVertex
100
AcDb2dVertex
 10
9.033064937
 20
5.556646847499999
 30
0.0
  0
VERTEX
  5
264
330
25A
100
AcDbEntity
  8
0
100
AcDbVertex
100
AcDb2dVertex
 10
9.083871050599999
 20
5.512751782
 30
0.0
  0
VERTEX
  5
265
330
25A
100
AcDbEntity
  8
0
100
AcDbVertex
100
AcDb2dVertex
 10
9.101711785199999
 20
5.4609740219
 30
0.0
  0
VERTEX
  5
266
330
25A
100
AcDbEntity
  8
0
100
AcDbVertex
100
AcDb2dVertex
 10
9.083871050599999
 20
5.409196261799999
 30
0.0
  0
VERTEX
  5
267
330
25A
100
AcDbEntity
  8
0
100
AcDbVertex
100
AcDb2dVertex
 10
9.033064937
 20
5.365301196299999
 30
0.0
  0
VERTEX
  5
268
330
25A
100
AcDbEntity
  8
0
100
AcDbVertex
100
AcDb2dVertex
 10
8.957028214600001
 20
5.335971451199999
 30
0.0
  0
VERTEX
  5
269
330
25A
100
AcDbEntity
  8
0
100
AcDbVertex
100
AcDb2dVertex
 10
8.867336785199999
 20
5.325672214399999
 30
0.0
  0
VERTEX
  5
26A
330
25A
100
AcDbEntity
  8
0
100
AcDbVertex
100
AcDb2dVertex
 10
8.7776453557
 20
5.335971451199999
 30
0.0
  0
VERTEX
  5
26B
330
25A
100
AcDbEntity
  8
0
100
AcDbVertex
100
AcDb2dVertex
 10
8.701608633300001
 20
5.365301196299999
 30
0.0
  0
SEQEND
  5
26C
330
25A
100
AcDbEntity
  8
0
  0
ENDSEC
  0
SECTION
  2
OBJECTS
  0
DICTIONARY
  5
19
330
0
100
AcDbDictionary
281
     1
  3
ACAD_GROUP
350
1A
  3
ACAD_LAYOUT
350
1E
  3
ACAD_MLINESTYLE
350
1B
  3
ACAD_PLOTSETTINGS
350
22
  3
ACAD_PLOTSTYLENAME
350
1F
  3
ACAD_WIPEOUT_VARS
350
23
  0
DICTIONARY
  5
1A
102
{ACAD_REACTORS
330
19
102
}
330
19
100
AcDbDictionary
281
     1
  0
DICTIONARY
  5
1E
102
{ACAD_REACTORS
330
19
102
}
330
19
100
AcDbDictionary
281
     1
  3
Layout1
350
21
  3
Model
350
20
  0
DICTIONARY
  5
1B
102
{ACAD_REACTORS
330
19
102
}
330
19
100
AcDbDictionary
281
     1
  3
Standard
350
1C
  0
DICTIONARY
  5
22
102
{ACAD_REACTORS
330
19
102
}
330
19
100
AcDbDictionary
281
     1
  0
ACDBDICTIONARYWDFLT
  5
1F
102
{ACAD_REACTORS
330
19
102
}
330
19
100
AcDbDictionary
281
     1
  3
Normal
350
1D
100
AcDbDictionaryWithDefault
340
1D
  0
WIPEOUTVARIABLES
  5
23
330
19
100
AcDbWipeoutVariables
 70
     1
  0
LAYOUT
  5
21
102
{ACAD_REACTORS
330
1E
102
}
330
1E
100
AcDbPlotSettings
  1

  2

  4

  6

 40
0.0
 41
0.0
 42
0.0
 43
0.0
 44
0.0
 45
0.0
 46
0.0
 47
0.0
 48
0.0
 49
0.0
140
0.0
141
0.0
142
1.0
143
1.0
 70
     0
 72
     0
 73
     0
 74
     0
  7

 75
     0
147
1.0
148
0.0
149
0.0
100
AcDbLayout
  1
Layout1
 70
     1
 71
     1
 10
0.0
 20
0.0
 11
12.0
 21
9.0
 12
0.0
 22
0.0
 32
0.0
 14
1.000000000000000E+20
 24
1.000000000000000E+20
 34
1.000000000000000E+20
 15
-1.000000000000000E+20
 25
-1.000000000000000E+20
 35
-1.000000000000000E+20
146
0.0
 13
0.0
 23
0.0
 33
0.0
 16
1.0
 26
0.0
 36
0.0
 17
0.0
 27
1.0
 37
0.0
 76
     0
330
B
  0
LAYOUT
  5
20
102
{ACAD_REACTORS
330
1E
102
}
330
1E
100
AcDbPlotSettings
  1

  2

  4

  6

 40
0.0
 41
0.0
 42
0.0
 43
0.0
 44
0.0
 45
0.0
 46
0.0
 47
0.0
 48
0.0
 49
0.0
140
0.0
141
0.0
142
1.0
143
1.0
 70
  1024
 72
     0
 73
     0
 74
     0
  7

 75
     0
147
1.0
148
0.0
149
0.0
100
AcDbLayout
  1
Model
 70
     0
 71
     0
 10
0.0
 20
0.0
 11
0.0
 21
0.0
 12
0.0
 22
0.0
 32
0.0
 14
0.0
 24
0.0
 34
0.0
 15
0.0
 25
0.0
 35
0.0
146
0.0
 13
0.0
 23
0.0
 33
0.0
 16
0.0
 26
0.0
 36
0.0
 17
0.0
 27
0.0
 37
0.0
 76
     0
330
A
  0
MLINESTYLE
  5
1C
102
{ACAD_REACTORS
330
1B
102
}
330
1B
100
AcDbMlineStyle
  2
STANDARD
 70
     0
  3

 62
     0
 51
90.0
 52
90.0
 71
     2
 49
0.5
 62
   256
  6
BYLAYER
 49
-0.5
 62
   256
  6
BYLAYER
  0
ACDBPLACEHOLDER
  5
1D
102
{ACAD_REACTORS
330
1F
102
}
330
1F
  0
ENDSEC
  0
EOF
