  0
SECTION
  2
HEADER
  9
$ACADVER
  1
AC1015
  9
$ACADMAINTVER
 70
    10
  9
$DWGCODEPAGE
  3
ANSI_1252
  9
$INSBASE
 10
0.0
 20
0.0
 30
0.0
  9
$EXTMIN
 10
2.25
 20
0.2248330653
 30
0.0
  9
$EXTMAX
 10
50.2808102386
 20
32.426068864
 30
0.0
  9
$LIMMIN
 10
0.0
 20
0.0
  9
$LIMMAX
 10
0.0
 20
0.0
  9
$ORTHOMODE
 70
     0
  9
$REGENMODE
 70
     1
  9
$FILLMODE
 70
     1
  9
$QTEXTMODE
 70
     0
  9
$MIRRTEXT
 70
     1
  9
$LTSCALE
 40
1.0
  9
$ATTMODE
 70
     1
  9
$TEXTSIZE
 40
0.0
  9
$TRACEWID
 40
0.05
  9
$TEXTSTYLE
  7
Standard
  9
$CLAYER
  8
0
  9
$CELTYPE
  6
Continuous
  9
$CECOLOR
 62
   256
  9
$CELTSCALE
 40
1.0
  9
$DISPSILH
 70
     0
  9
$DIMSCALE
 40
1.0
  9
$DIMASZ
 40
0.0
  9
$DIMEXO
 40
0.0
  9
$DIMDLI
 40
0.38
  9
$DIMRND
 40
0.0
  9
$DIMDLE
 40
0.0
  9
$DIMEXE
 40
0.18
  9
$DIMTP
 40
0.0
  9
$DIMTM
 40
0.0
  9
$DIMTXT
 40
0.3
  9
$DIMCEN
 40
0.09
  9
$DIMTSZ
 40
0.0
  9
$DIMTOL
 70
     0
  9
$DIMLIM
 70
     0
  9
$DIMTIH
 70
     1
  9
$DIMTOH
 70
     1
  9
$DIMSE1
 70
     0
  9
$DIMSE2
 70
     0
  9
$DIMTAD
 70
     1
  9
$DIMZIN
 70
     0
  9
$DIMBLK
  1

  9
$DIMASO
 70
     1
  9
$DIMSHO
 70
     1
  9
$DIMPOST
  1

  9
$DIMAPOST
  1

  9
$DIMALT
 70
     0
  9
$DIMALTD
 70
     2
  9
$DIMALTF
 40
25.4
  9
$DIMLFAC
 40
1.0
  9
$DIMTOFL
 70
     0
  9
$DIMTVP
 40
0.0
  9
$DIMTIX
 70
     0
  9
$DIMSOXD
 70
     0
  9
$DIMSAH
 70
     0
  9
$DIMBLK1
  1

  9
$DIMBLK2
  1

  9
$DIMSTYLE
  2
Standard
  9
$DIMCLRD
 70
     0
  9
$DIMCLRE
 70
     0
  9
$DIMCLRT
 70
     0
  9
$DIMTFAC
 40
1.0
  9
$DIMGAP
 40
0.0
  9
$DIMJUST
 70
     0
  9
$DIMSD1
 70
     0
  9
$DIMSD2
 70
     0
  9
$DIMTOLJ
 70
     1
  9
$DIMTZIN
 70
     0
  9
$DIMALTZ
 70
     0
  9
$DIMALTTZ
 70
     0
  9
$DIMUPT
 70
     0
  9
$DIMDEC
 70
     4
  9
$DIMTDEC
 70
     4
  9
$DIMALTU
 70
     2
  9
$DIMALTTD
 70
     2
  9
$DIMTXSTY
  7
Standard
  9
$DIMAUNIT
 70
     0
  9
$DIMADEC
 70
     0
  9
$DIMALTRND
 40
0.0
  9
$DIMAZIN
 70
     0
  9
$DIMDSEP
 70
     0
  9
$DIMATFIT
 70
     3
  9
$DIMFRAC
 70
     0
  9
$DIMLDRBLK
  1

  9
$DIMLUNIT
 70
     2
  9
$DIMLWD
 70
     0
  9
$DIMLWE
 70
     0
  9
$DIMTMOVE
 70
     0
  9
$LUNITS
 70
     2
  9
$LUPREC
 70
     3
  9
$SKETCHINC
 40
0.1
  9
$FILLETRAD
 40
0.0
  9
$AUNITS
 70
     0
  9
$AUPREC
 70
     2
  9
$MENU
  1
acad
  9
$ELEVATION
 40
0.0
  9
$PELEVATION
 40
0.0
  9
$THICKNESS
 40
0.0
  9
$LIMCHECK
 70
     0
  9
$CHAMFERA
 40
0.0
  9
$CHAMFERB
 40
0.0
  9
$CHAMFERC
 40
0.0
  9
$CHAMFERD
 40
0.0
  9
$SKPOLY
 70
     0
  9
$TDCREATE
 40
2453398.545605277
  9
$TDUCREATE
 40
2453398.878938611
  9
$TDUPDATE
 40
2453398.546090127
  9
$TDUUPDATE
 40
2453398.879423460
  9
$TDINDWG
 40
0.0004895486
  9
$TDUSRTIMER
 40
0.0004895486
  9
$USRTIMER
 70
     1
  9
$ANGBASE
 50
0.0
  9
$ANGDIR
 70
     0
  9
$PDMODE
 70
     0
  9
$PDSIZE
 40
-1.0
  9
$PLINEWID
 40
0.0
  9
$SPLFRAME
 70
     0
  9
$SPLINETYPE
 70
     6
  9
$SPLINESEGS
 70
     8
  9
$HANDSEED
  5
40B
  9
$SURFTAB1
 70
     6
  9
$SURFTAB2
 70
     6
  9
$SURFTYPE
 70
     6
  9
$SURFU
 70
     6
  9
$SURFV
 70
     6
  9
$UCSBASE
  2

  9
$UCSNAME
  2

  9
$UCSORG
 10
0.0
 20
0.0
 30
0.0
  9
$UCSXDIR
 10
1.0
 20
0.0
 30
0.0
  9
$UCSYDIR
 10
0.0
 20
1.0
 30
0.0
  9
$UCSORTHOREF
  2

  9
$UCSORTHOVIEW
 70
     0
  9
$UCSORGTOP
 10
0.0
 20
0.0
 30
0.0
  9
$UCSORGBOTTOM
 10
0.0
 20
0.0
 30
0.0
  9
$UCSORGLEFT
 10
0.0
 20
0.0
 30
0.0
  9
$UCSORGRIGHT
 10
0.0
 20
0.0
 30
0.0
  9
$UCSORGFRONT
 10
0.0
 20
0.0
 30
0.0
  9
$UCSORGBACK
 10
0.0
 20
0.0
 30
0.0
  9
$PUCSBASE
  2

  9
$PUCSNAME
  2

  9
$PUCSORG
 10
0.0
 20
0.0
 30
0.0
  9
$PUCSXDIR
 10
1.0
 20
0.0
 30
0.0
  9
$PUCSYDIR
 10
0.0
 20
1.0
 30
0.0
  9
$PUCSORTHOREF
  2

  9
$PUCSORTHOVIEW
 70
     0
  9
$PUCSORGTOP
 10
0.0
 20
0.0
 30
0.0
  9
$PUCSORGBOTTOM
 10
0.0
 20
0.0
 30
0.0
  9
$PUCSORGLEFT
 10
0.0
 20
0.0
 30
0.0
  9
$PUCSORGRIGHT
 10
0.0
 20
0.0
 30
0.0
  9
$PUCSORGFRONT
 10
0.0
 20
0.0
 30
0.0
  9
$PUCSORGBACK
 10
0.0
 20
0.0
 30
0.0
  9
$USERI1
 70
     0
  9
$USERI2
 70
     0
  9
$USERI3
 70
     0
  9
$USERI4
 70
     0
  9
$USERI5
 70
     0
  9
$USERR1
 40
0.0
  9
$USERR2
 40
0.0
  9
$USERR3
 40
0.0
  9
$USERR4
 40
0.0
  9
$USERR5
 40
0.0
  9
$WORLDVIEW
 70
     1
  9
$SHADEDGE
 70
     3
  9
$SHADEDIF
 70
    70
  9
$TILEMODE
 70
     1
  9
$MAXACTVP
 70
    16
  9
$PINSBASE
 10
0.0
 20
0.0
 30
0.0
  9
$PLIMCHECK
 70
     0
  9
$PEXTMIN
 10
1.000000000000000E+20
 20
1.000000000000000E+20
 30
1.000000000000000E+20
  9
$PEXTMAX
 10
-1.000000000000000E+20
 20
-1.000000000000000E+20
 30
-1.000000000000000E+20
  9
$PLIMMIN
 10
0.0
 20
0.0
  9
$PLIMMAX
 10
12.0
 20
9.0
  9
$UNITMODE
 70
     0
  9
$VISRETAIN
 70
     0
  9
$PLINEGEN
 70
     1
  9
$PSLTSCALE
 70
     1
  9
$TREEDEPTH
 70
  3020
  9
$CMLSTYLE
  2
Standard
  9
$CMLJUST
 70
     0
  9
$CMLSCALE
 40
1.0
  9
$PROXYGRAPHICS
 70
     0
  9
$MEASUREMENT
 70
     0
  9
$CELWEIGHT
370
     0
  9
$ENDCAPS
280
     0
  9
$JOINSTYLE
280
     0
  9
$LWDISPLAY
290
     1
  9
$INSUNITS
 70
     0
  9
$HYPERLINKBASE
  1

  9
$STYLESHEET
  1

  9
$XEDIT
290
     1
  9
$CEPSNTYPE
380
     0
  9
$PSTYLEMODE
290
     1
  9
$FINGERPRINTGUID
  2

  9
$VERSIONGUID
  2
{F55D26B6-5213-40B6-9366-D557FB7153FC}
  9
$EXTNAMES
290
     1
  9
$PSVPSCALE
 40
0.0
  9
$OLESTARTUP
290
     0
  0
ENDSEC
  0
SECTION
  2
CLASSES
  0
CLASS
  1
LWPOLYLINE
  2
AcDbPolyline
  3
AutoCAD 2000
 90
    32768
280
     0
281
     1
  0
CLASS
  1
IMAGE
  2
AcDbRasterImage
  3
ISM
 90
    32895
280
     0
281
     1
  0
CLASS
  1
OLE2FRAME
  2
AcDbOle2Frame
  3
AutoCAD 2000
 90
    32768
280
     0
281
     1
  0
CLASS
  1
HATCH
  2
AcDbHatch
  3
AutoCAD 2000
 90
    32768
280
     0
281
     1
  0
CLASS
  1
DICTIONARYVAR
  2
AcDbDictionaryVar
  3
AutoCAD 2000
 90
    32768
280
     0
281
     0
  0
CLASS
  1
RASTERVARIABLES
  2
AcDbRasterVariables
  3
ISM
 90
    32768
280
     0
281
     0
  0
CLASS
  1
IMAGEDEF
  2
AcDbRasterImageDef
  3
ISM
 90
    32768
280
     0
281
     0
  0
CLASS
  1
IMAGEDEF_REACTOR
  2
AcDbRasterImageDefReactor
  3
ISM
 90
    32769
280
     0
281
     0
  0
CLASS
  1
IDBUFFER
  2
AcDbIdBuffer
  3
AutoCAD 2000
 90
    32768
280
     0
281
     0
  0
CLASS
  1
SPATIAL_FILTER
  2
AcDbSpatialFilter
  3
AutoCAD 2000
 90
    32768
280
     0
281
     0
  0
CLASS
  1
XRECORD
  2
AcDbXrecord
  3
AutoCAD 2000
 90
    32768
280
     0
281
     0
  0
CLASS
  1
SORTENTSTABLE
  2
AcDbSortentsTable
  3
AutoCAD 2000
 90
    32768
280
     0
281
     0
  0
CLASS
  1
LAYER_INDEX
  2
AcDbLayerIndex
  3
AutoCAD 2000
 90
    32768
280
     0
281
     0
  0
CLASS
  1
SPATIAL_INDEX
  2
AcDbSpatialIndex
  3
AutoCAD 2000
 90
    32768
280
     0
281
     0
  0
CLASS
  1
OBJECT_PTR
  2
CAseDLPNTableRecord
  3
"ASE-LPNTableRecord"
 90
    32769
280
     0
281
     0
  0
CLASS
  1
LAYOUT
  2
AcDbLayout
  3
AutoCAD 2000
 90
        0
280
     0
281
     0
  0
CLASS
  1
PLOTSETTINGS
  2
AcDbPlotSettings
  3
AutoCAD 2000
 90
    32768
280
     0
281
     0
  0
CLASS
  1
ACDBDICTIONARYWDFLT
  2
AcDbDictionaryWithDefault
  3
AutoCAD 2000
 90
        0
280
     0
281
     0
  0
CLASS
  1
ACDBPLACEHOLDER
  2
AcDbPlaceHolder
  3
AutoCAD 2000
 90
        0
280
     0
281
     0
  0
CLASS
  1
VBA_PROJECT
  2
AcDbVbaProject
  3
acadvba
 90
    32768
280
     0
281
     0
  0
CLASS
  1
WIPEOUT
  2
AcDbWipeout
  3
WipeOut|AutoCAD Express Tool|expresstools@autodesk.com
 90
    32895
280
     0
281
     1
  0
CLASS
  1
WIPEOUTVARIABLES
  2
AcDbWipeoutVariables
  3
WipeOut|AutoCAD Express Tool|expresstools@autodesk.com
 90
        0
280
     0
281
     0
  0
CLASS
  1
RTEXT
  2
RText
  3
RText|AutoCAD Express Tool|expresstools@autodesk.com
 90
    32768
280
     0
281
     1
  0
CLASS
  1
ARCALIGNEDTEXT
  2
AcDbArcAlignedText
  3
ATEXT|AutoCAD Express Tool|expresstools@autodesk.com
 90
    32768
280
     0
281
     1
  0
ENDSEC
  0
SECTION
  2
TABLES
  0
TABLE
  2
VPORT
  5
7
330
0
100
AcDbSymbolTable
 70
     5
  0
VPORT
  5
40A
330
7
100
AcDbSymbolTableRecord
100
AcDbViewportTableRecord
  2
*Active
 70
     0
 10
0.0
 20
0.0
 11
1.0
 21
1.0
 12
28.68353135133655
 22
16.50000000000001
 13
0.0
 23
0.0
 14
1.0
 24
1.0
 15
0.0
 25
0.0
 16
0.0
 26
0.0
 36
1.0
 17
0.0
 27
0.0
 37
0.0
 40
32.99999999063453
 41
1.5
 42
50.0
 43
0.0
 44
0.0
 50
0.0
 51
0.0
 71
     0
 72
  2000
 73
     1
 74
     1
 75
     0
 76
     0
 77
     0
 78
     0
281
     0
 65
     0
110
0.0
120
0.0
130
0.0
111
1.0
121
0.0
131
0.0
112
0.0
122
1.0
132
0.0
 79
     0
146
0.0
  0
ENDTAB
  0
TABLE
  2
LTYPE
  5
4
330
0
100
AcDbSymbolTable
 70
     6
  0
LTYPE
  5
11
330
4
100
AcDbSymbolTableRecord
100
AcDbLinetypeTableRecord
  2
ByBlock
 70
     0
  3

 72
    65
 73
     0
 40
0.0
  0
LTYPE
  5
12
330
4
100
AcDbSymbolTableRecord
100
AcDbLinetypeTableRecord
  2
ByLayer
 70
     0
  3

 72
    65
 73
     0
 40
0.0
  0
LTYPE
  5
13
330
4
100
AcDbSymbolTableRecord
100
AcDbLinetypeTableRecord
  2
Continuous
 70
     0
  3
Solid line
 72
    65
 73
     0
 40
0.0
  0
LTYPE
  5
24
330
4
100
AcDbSymbolTableRecord
100
AcDbLinetypeTableRecord
  2
HIDDEN
 70
     0
  3
Hidden __ __ __ __ __ __ __ __ __ __ __ __ __ __
 72
    65
 73
     2
 40
0.075
 49
0.05
 74
     0
 49
-0.025
 74
     0
  0
LTYPE
  5
25
330
4
100
AcDbSymbolTableRecord
100
AcDbLinetypeTableRecord
  2
PHANTOM
 70
     0
  3
Phantom ______  __  __  ______  __  __  ______
 72
    65
 73
     6
 40
0.5
 49
0.25
 74
     0
 49
-0.05
 74
     0
 49
0.05
 74
     0
 49
-0.05
 74
     0
 49
0.05
 74
     0
 49
-0.05
 74
     0
  0
LTYPE
  5
26
330
4
100
AcDbSymbolTableRecord
100
AcDbLinetypeTableRecord
  2
CENTER
 70
     0
  3
Center ____ _ ____ _ ____ _ ____ _ ____ _ ____
 72
    65
 73
     4
 40
0.4
 49
0.25
 74
     0
 49
-0.05
 74
     0
 49
0.05
 74
     0
 49
-0.05
 74
     0
  0
LTYPE
  5
27
330
4
100
AcDbSymbolTableRecord
100
AcDbLinetypeTableRecord
  2
CENTERX2
 70
     0
  3
Center (2x) ________  __  ________  __  _____
 72
    65
 73
     4
 40
0.8
 49
0.5
 74
     0
 49
-0.1
 74
     0
 49
0.1
 74
     0
 49
-0.1
 74
     0
  0
LTYPE
  5
28
330
4
100
AcDbSymbolTableRecord
100
AcDbLinetypeTableRecord
  2
DOT2
 70
     0
  3
Dot (.5x) ........................................
 72
    65
 73
     2
 40
0.025
 49
0.0
 74
     0
 49
-0.025
 74
     0
  0
ENDTAB
  0
TABLE
  2
LAYER
  5
2
330
0
100
AcDbSymbolTable
 70
     1
  0
LAYER
  5
14
330
2
100
AcDbSymbolTableRecord
100
AcDbLayerTableRecord
  2
0
 70
     0
 62
     7
  6
Continuous
370
    -3
390
1D
  0
ENDTAB
  0
TABLE
  2
STYLE
  5
3
330
0
100
AcDbSymbolTable
 70
     2
  0
STYLE
  5
17
330
3
100
AcDbSymbolTableRecord
100
AcDbTextStyleTableRecord
  2
Standard
 70
     0
 40
0.0
 41
1.0
 50
0.0
 71
     0
 42
0.0
  3
txt
  4

  0
STYLE
  5
75
330
3
100
AcDbSymbolTableRecord
100
AcDbTextStyleTableRecord
  2
SLDTEXTSTYLE0
 70
     0
 40
0.0
 41
0.75
 50
0.0
 71
     0
 42
0.0
  3
txt
  4

  0
ENDTAB
  0
TABLE
  2
VIEW
  5
5
330
0
100
AcDbSymbolTable
 70
     0
  0
ENDTAB
  0
TABLE
  2
UCS
  5
6
330
0
100
AcDbSymbolTable
 70
     0
  0
ENDTAB
  0
TABLE
  2
APPID
  5
8
330
0
100
AcDbSymbolTable
 70
     1
  0
APPID
  5
16
330
8
100
AcDbSymbolTableRecord
100
AcDbRegAppTableRecord
  2
ACAD
 70
     0
  0
ENDTAB
  0
TABLE
  2
DIMSTYLE
  5
9
330
0
100
AcDbSymbolTable
 70
     7
100
AcDbDimStyleTable
 71
     1
340
18
  0
DIMSTYLE
105
18
330
9
100
AcDbSymbolTableRecord
100
AcDbDimStyleTableRecord
  2
Standard
 70
     0
340
17
  0
DIMSTYLE
105
E8
102
{ACAD_REACTORS
330
EC
330
FB
330
108
330
114
330
120
330
12E
330
13B
330
149
330
156
330
165
330
172
330
17F
102
}
330
9
100
AcDbSymbolTableRecord
100
AcDbDimStyleTableRecord
  2
SLDDIMSTYLE0
 70
     0
 41
0.5625
 44
0.36
 78
    12
140
0.3
147
0.075
173
     1
176
     1
177
     1
178
     1
271
     3
284
    12
340
17
  0
DIMSTYLE
105
188
102
{ACAD_REACTORS
330
18C
102
}
330
9
100
AcDbSymbolTableRecord
100
AcDbDimStyleTableRecord
  2
SLDDIMSTYLE1
 70
     0
 41
0.5625
 44
0.36
 78
    12
140
0.3
147
0.075
173
     1
176
     1
177
     1
178
     1
271
     3
284
    12
340
17
  0
DIMSTYLE
105
195
102
{ACAD_REACTORS
330
19B
102
}
330
9
100
AcDbSymbolTableRecord
100
AcDbDimStyleTableRecord
  2
SLDDIMSTYLE2
 70
     0
 41
0.5625
 44
0.36
 78
    12
140
0.3
147
0.075
173
     1
176
     1
177
     1
178
     1
271
     0
284
    12
340
17
  0
DIMSTYLE
105
1A7
102
{ACAD_REACTORS
330
1AB
102
}
330
9
100
AcDbSymbolTableRecord
100
AcDbDimStyleTableRecord
  2
SLDDIMSTYLE3
 70
     0
 41
0.5625
 44
0.36
 78
    12
140
0.3
147
0.075
172
     1
173
     1
176
     1
177
     1
178
     1
271
     3
284
    12
340
17
  0
DIMSTYLE
105
36D
330
9
100
AcDbSymbolTableRecord
100
AcDbDimStyleTableRecord
  2
SLDDIMSTYLE4
 70
     0
 41
0.5625
 44
0.0
140
0.5625
147
0.140625
173
     1
271
     0
272
     0
340
17
  0
DIMSTYLE
105
3FE
102
{ACAD_REACTORS
330
402
102
}
330
9
100
AcDbSymbolTableRecord
100
AcDbDimStyleTableRecord
  2
SLDDIMSTYLE5
 70
     0
 41
0.5625
 44
0.36
 47
0.03
 48
0.03
 71
     1
 78
    12
140
0.3
147
0.075
173
     1
176
     1
177
     1
178
     1
271
     3
272
     3
340
17
  0
ENDTAB
  0
TABLE
  2
BLOCK_RECORD
  5
1
330
0
100
AcDbSymbolTable
 70
    17
  0
BLOCK_RECORD
  5
A
330
1
100
AcDbSymbolTableRecord
100
AcDbBlockTableRecord
  2
*MODEL_SPACE
340
20
  0
BLOCK_RECORD
  5
B
330
1
100
AcDbSymbolTableRecord
100
AcDbBlockTableRecord
  2
*PAPER_SPACE
340
21
  0
BLOCK_RECORD
  5
A8
330
1
100
AcDbSymbolTableRecord
100
AcDbBlockTableRecord
  2
NOTE50
340
0
102
{BLKREFS
331
AE
102
}
  0
BLOCK_RECORD
  5
DD
330
1
100
AcDbSymbolTableRecord
100
AcDbBlockTableRecord
  2
*D1
340
0
  0
BLOCK_RECORD
  5
ED
330
1
100
AcDbSymbolTableRecord
100
AcDbBlockTableRecord
  2
*D2
340
0
  0
BLOCK_RECORD
  5
FC
330
1
100
AcDbSymbolTableRecord
100
AcDbBlockTableRecord
  2
*D3
340
0
  0
BLOCK_RECORD
  5
109
330
1
100
AcDbSymbolTableRecord
100
AcDbBlockTableRecord
  2
*D4
340
0
  0
BLOCK_RECORD
  5
115
330
1
100
AcDbSymbolTableRecord
100
AcDbBlockTableRecord
  2
*D5
340
0
  0
BLOCK_RECORD
  5
121
330
1
100
AcDbSymbolTableRecord
100
AcDbBlockTableRecord
  2
*D6
340
0
  0
BLOCK_RECORD
  5
12F
330
1
100
AcDbSymbolTableRecord
100
AcDbBlockTableRecord
  2
*D7
340
0
  0
BLOCK_RECORD
  5
13C
330
1
100
AcDbSymbolTableRecord
100
AcDbBlockTableRecord
  2
*D8
340
0
  0
BLOCK_RECORD
  5
14A
330
1
100
AcDbSymbolTableRecord
100
AcDbBlockTableRecord
  2
*D9
340
0
  0
BLOCK_RECORD
  5
157
330
1
100
AcDbSymbolTableRecord
100
AcDbBlockTableRecord
  2
*D10
340
0
  0
BLOCK_RECORD
  5
166
330
1
100
AcDbSymbolTableRecord
100
AcDbBlockTableRecord
  2
*D11
340
0
  0
BLOCK_RECORD
  5
173
330
1
100
AcDbSymbolTableRecord
100
AcDbBlockTableRecord
  2
*D12
340
0
  0
BLOCK_RECORD
  5
180
330
1
100
AcDbSymbolTableRecord
100
AcDbBlockTableRecord
  2
*D13
340
0
  0
BLOCK_RECORD
  5
18D
330
1
100
AcDbSymbolTableRecord
100
AcDbBlockTableRecord
  2
*D14
340
0
  0
BLOCK_RECORD
  5
19C
330
1
100
AcDbSymbolTableRecord
100
AcDbBlockTableRecord
  2
*D15
340
0
  0
BLOCK_RECORD
  5
3F1
330
1
100
AcDbSymbolTableRecord
100
AcDbBlockTableRecord
  2
*D16
340
0
  0
ENDTAB
  0
ENDSEC
  0
SECTION
  2
BLOCKS
  0
BLOCK
  5
D
330
A
100
AcDbEntity
  8
0
100
AcDbBlockBegin
  2
*MODEL_SPACE
 70
     0
 10
0.0
 20
0.0
 30
0.0
  3
*MODEL_SPACE
  1

  0
ENDBLK
  5
E
330
A
100
AcDbEntity
  8
0
100
AcDbBlockEnd
  0
BLOCK
  5
F
330
B
100
AcDbEntity
 67
     1
  8
0
100
AcDbBlockBegin
  2
*PAPER_SPACE
 70
     0
 10
0.0
 20
0.0
 30
0.0
  3
*PAPER_SPACE
  1

  0
ENDBLK
  5
10
330
B
100
AcDbEntity
 67
     1
  8
0
100
AcDbBlockEnd
  0
BLOCK
  5
A9
330
A8
100
AcDbEntity
  8
0
 62
     0
100
AcDbBlockBegin
  2
NOTE50
 70
     0
 10
0.0
 20
0.0
 30
0.0
  3
NOTE50
  1

  0
MTEXT
  5
AA
330
A8
100
AcDbEntity
  8
0
 62
     7
100
AcDbMText
 10
0.0
 20
0.0
 30
0.0
 40
0.27
 41
0.0
 71
     1
 72
     1
  1
BREAK SHARP EDGES 0.010 RAD %%p 0.003
  7
SLDTEXTSTYLE0
 73
     1
 44
1.0
  0
MTEXT
  5
AB
330
A8
100
AcDbEntity
  8
0
 62
     7
100
AcDbMText
 10
0.0
 20
-0.4050000000000001
 30
0.0
 40
0.27
 41
0.0
 71
     1
 72
     1
  1
MACHINED SURF FINISH  
  7
SLDTEXTSTYLE0
 73
     1
 44
1.0
  0
MTEXT
  5
AC
330
A8
100
AcDbEntity
  8
0
 62
     7
100
AcDbMText
 10
4.158
 20
-0.4050000000000001
 30
0.0
 40
0.27
 41
0.0
 71
     1
 72
     1
  1
< 125 MICROINCH
  7
SLDTEXTSTYLE0
 73
     1
 44
1.0
  0
ENDBLK
  5
AD
330
A8
100
AcDbEntity
  8
0
100
AcDbBlockEnd
  0
BLOCK
  5
DE
330
DD
100
AcDbEntity
  8
0
 62
     1
100
AcDbBlockBegin
  2
*D1
 70
     1
 10
0.0
 20
0.0
 30
0.0
  3
*D1
  1

  0
MTEXT
  5
DF
330
DD
100
AcDbEntity
  8
0
100
AcDbMText
 10
34.144306239
 20
17.59554032519999
 30
0.0
 40
0.3
 41
0.0
 71
     7
 72
     1
  1
4 1/2"
  7
SLDTEXTSTYLE0
 73
     1
 44
1.0
  0
MTEXT
  5
E0
330
DD
100
AcDbEntity
  8
0
100
AcDbMText
 10
33.05140340879999
 20
17.02577409869999
 30
0.0
 40
0.3
 41
0.0
 71
     7
 72
     1
  1
TO SHARP CORNER
  7
SLDTEXTSTYLE0
 73
     1
 44
1.0
  0
MTEXT
  5
E1
330
DD
100
AcDbEntity
  8
0
100
AcDbMText
 10
33.8913301069
 20
16.4560078723
 30
0.0
 40
0.3
 41
0.0
 71
     7
 72
     1
  1
2 PLACES
  7
SLDTEXTSTYLE0
 73
     1
 44
1.0
  0
LINE
  5
E2
330
DD
100
AcDbEntity
  8
0
100
AcDbLine
 10
31.80183756869999
 20
19.410657212
 30
0.0
 11
35.089531239
 21
19.410657212
 31
0.0
  0
LINE
  5
E3
330
DD
100
AcDbEntity
  8
0
100
AcDbLine
 10
30.80183756869999
 20
14.910657212
 30
0.0
 11
35.089531239
 21
14.910657212
 31
0.0
  0
LINE
  5
E4
330
DD
100
AcDbEntity
  8
0
100
AcDbLine
 10
34.729531239
 20
19.410657212
 30
0.0
 11
34.729531239
 21
18.0153065516
 31
0.0
  0
LINE
  5
E5
330
DD
100
AcDbEntity
  8
0
100
AcDbLine
 10
34.729531239
 20
14.910657212
 30
0.0
 11
34.729531239
 21
16.3060078723
 31
0.0
  0
SOLID
  5
E6
330
DD
100
AcDbEntity
  8
0
100
AcDbTrace
 10
34.729531239
 20
19.410657212
 30
0.0
 11
34.635781239
 21
18.848157212
 31
0.0
 12
34.823281239
 22
18.848157212
 32
0.0
 13
34.823281239
 23
18.848157212
 33
0.0
  0
SOLID
  5
E7
330
DD
100
AcDbEntity
  8
0
100
AcDbTrace
 10
34.729531239
 20
14.910657212
 30
0.0
 11
34.823281239
 21
15.473157212
 31
0.0
 12
34.635781239
 22
15.473157212
 32
0.0
 13
34.635781239
 23
15.473157212
 33
0.0
  0
POINT
  5
E9
330
DD
100
AcDbEntity
  8
0
100
AcDbPoint
 10
31.68183756869999
 20
19.410657212
 30
0.0
  0
POINT
  5
EA
330
DD
100
AcDbEntity
  8
0
100
AcDbPoint
 10
30.68183756869999
 20
14.910657212
 30
0.0
  0
ENDBLK
  5
EB
330
DD
100
AcDbEntity
  8
0
 62
     1
100
AcDbBlockEnd
  0
BLOCK
  5
EE
330
ED
100
AcDbEntity
  8
0
 62
     1
100
AcDbBlockBegin
  2
*D2
 70
     1
 10
0.0
 20
0.0
 30
0.0
  3
*D2
  1

  0
MTEXT
  5
EF
330
ED
100
AcDbEntity
  8
0
100
AcDbMText
 10
33.1145501887
 20
29.96442084909999
 30
0.0
 40
0.3
 41
0.0
 71
     7
 72
     1
  1
4 3/4"
  7
SLDTEXTSTYLE0
 73
     1
 44
1.0
  0
MTEXT
  5
F0
330
ED
100
AcDbEntity
  8
0
100
AcDbMText
 10
32.0665514151
 20
29.3946546226
 30
0.0
 40
0.3
 41
0.0
 71
     7
 72
     1
  1
TO SHARP CORNER
  7
SLDTEXTSTYLE0
 73
     1
 44
1.0
  0
MTEXT
  5
F1
330
ED
100
AcDbEntity
  8
0
100
AcDbMText
 10
32.9064781132
 20
28.8248883962
 30
0.0
 40
0.3
 41
0.0
 71
     7
 72
     1
  1
2 PLACES
  7
SLDTEXTSTYLE0
 73
     1
 44
1.0
  0
LINE
  5
F2
330
ED
100
AcDbEntity
  8
0
100
AcDbLine
 10
26.93183756869999
 20
26.280657212
 30
0.0
 11
26.93183756869999
 21
29.8895377358
 31
0.0
  0
LINE
  5
F3
330
ED
100
AcDbEntity
  8
0
100
AcDbLine
 10
31.68183756869999
 20
19.21407047309999
 30
0.0
 11
31.68183756869999
 21
29.8895377358
 31
0.0
  0
LINE
  5
F4
330
ED
100
AcDbEntity
  8
0
100
AcDbLine
 10
26.93183756869999
 20
29.52953773579999
 30
0.0
 11
31.68183756869999
 21
29.52953773579999
 31
0.0
  0
LINE
  5
F5
330
ED
100
AcDbEntity
  8
0
100
AcDbLine
 10
31.68183756869999
 20
29.52953773579999
 30
0.0
 11
31.8321764151
 21
29.52953773579999
 31
0.0
  0
SOLID
  5
F6
330
ED
100
AcDbEntity
  8
0
100
AcDbTrace
 10
26.93183756869999
 20
29.52953773579999
 30
0.0
 11
27.49433756869999
 21
29.4357877358
 31
0.0
 12
27.49433756869999
 22
29.62328773579999
 32
0.0
 13
27.49433756869999
 23
29.62328773579999
 33
0.0
  0
SOLID
  5
F7
330
ED
100
AcDbEntity
  8
0
100
AcDbTrace
 10
31.68183756869999
 20
29.52953773579999
 30
0.0
 11
31.1193375687
 21
29.62328773579999
 31
0.0
 12
31.1193375687
 22
29.4357877358
 32
0.0
 13
31.1193375687
 23
29.4357877358
 33
0.0
  0
POINT
  5
F8
330
ED
100
AcDbEntity
  8
0
100
AcDbPoint
 10
26.93183756869999
 20
26.160657212
 30
0.0
  0
POINT
  5
F9
330
ED
100
AcDbEntity
  8
0
100
AcDbPoint
 10
31.68183756869999
 20
19.0940704731
 30
0.0
  0
ENDBLK
  5
FA
330
ED
100
AcDbEntity
  8
0
 62
     1
100
AcDbBlockEnd
  0
BLOCK
  5
FD
330
FC
100
AcDbEntity
  8
0
 62
     1
100
AcDbBlockBegin
  2
*D3
 70
     1
 10
0.0
 20
0.0
 30
0.0
  3
*D3
  1

  0
MTEXT
  5
FE
330
FC
100
AcDbEntity
  8
0
100
AcDbMText
 10
22.1115805876
 20
29.3946546226
 30
0.0
 40
0.3
 41
0.0
 71
     7
 72
     1
  1
8 1/2"
  7
SLDTEXTSTYLE0
 73
     1
 44
1.0
  0
LINE
  5
FF
330
FC
100
AcDbEntity
  8
0
100
AcDbLine
 10
18.43183756869999
 20
26.280657212
 30
0.0
 11
18.43183756869999
 21
29.8895377358
 31
0.0
  0
LINE
  5
100
330
FC
100
AcDbEntity
  8
0
100
AcDbLine
 10
26.93183756869999
 20
26.280657212
 30
0.0
 11
26.93183756869999
 21
29.8895377358
 31
0.0
  0
LINE
  5
101
330
FC
100
AcDbEntity
  8
0
100
AcDbLine
 10
18.43183756869999
 20
29.52953773579999
 30
0.0
 11
21.9240805876
 21
29.52953773579999
 31
0.0
  0
LINE
  5
102
330
FC
100
AcDbEntity
  8
0
100
AcDbLine
 10
26.93183756869999
 20
29.52953773579999
 30
0.0
 11
23.43959454979999
 21
29.52953773579999
 31
0.0
  0
SOLID
  5
103
330
FC
100
AcDbEntity
  8
0
100
AcDbTrace
 10
18.43183756869999
 20
29.52953773579999
 30
0.0
 11
18.99433756869999
 21
29.4357877358
 31
0.0
 12
18.99433756869999
 22
29.62328773579999
 32
0.0
 13
18.99433756869999
 23
29.62328773579999
 33
0.0
  0
SOLID
  5
104
330
FC
100
AcDbEntity
  8
0
100
AcDbTrace
 10
26.93183756869999
 20
29.52953773579999
 30
0.0
 11
26.36933756869999
 21
29.62328773579999
 31
0.0
 12
26.36933756869999
 22
29.4357877358
 32
0.0
 13
26.36933756869999
 23
29.4357877358
 33
0.0
  0
POINT
  5
105
330
FC
100
AcDbEntity
  8
0
100
AcDbPoint
 10
18.43183756869999
 20
26.160657212
 30
0.0
  0
POINT
  5
106
330
FC
100
AcDbEntity
  8
0
100
AcDbPoint
 10
26.93183756869999
 20
26.160657212
 30
0.0
  0
ENDBLK
  5
107
330
FC
100
AcDbEntity
  8
0
 62
     1
100
AcDbBlockEnd
  0
BLOCK
  5
10A
330
109
100
AcDbEntity
  8
0
 62
     7
100
AcDbBlockBegin
  2
*D4
 70
     1
 10
0.0
 20
0.0
 30
0.0
  3
*D4
  1

  0
MTEXT
  5
10B
330
109
100
AcDbEntity
  8
0
 62
     7
100
AcDbMText
 10
25.0971654929
 20
24.19465770309999
 30
0.0
 40
0.3
 41
0.0
 71
     7
 72
     1
  1
3 3/4"
  7
SLDTEXTSTYLE0
 73
     1
 44
1.0
  0
LINE
  5
10C
330
109
100
AcDbEntity
  8
0
 62
     7
100
AcDbLine
 10
22.8018375687
 20
22.41065721199999
 30
0.0
 11
26.0723265306
 21
22.41065721199999
 31
0.0
  0
LINE
  5
10D
330
109
100
AcDbEntity
  8
0
 62
     7
100
AcDbLine
 10
25.7123265306
 20
22.41065721199999
 30
0.0
 11
25.7123265306
 21
24.0446577031
 31
0.0
  0
LINE
  5
10E
330
109
100
AcDbEntity
  8
0
 62
     7
100
AcDbLine
 10
25.7123265306
 20
26.160657212
 30
0.0
 11
25.7123265306
 21
24.6144239295
 31
0.0
  0
SOLID
  5
10F
330
109
100
AcDbEntity
  8
0
 62
     7
100
AcDbTrace
 10
25.7123265306
 20
22.41065721199999
 30
0.0
 11
25.80607653059999
 21
22.97315721199999
 31
0.0
 12
25.6185765306
 22
22.97315721199999
 32
0.0
 13
25.6185765306
 23
22.97315721199999
 33
0.0
  0
SOLID
  5
110
330
109
100
AcDbEntity
  8
0
 62
     7
100
AcDbTrace
 10
25.7123265306
 20
26.160657212
 30
0.0
 11
25.6185765306
 21
25.59815721199999
 31
0.0
 12
25.80607653059999
 22
25.59815721199999
 32
0.0
 13
25.80607653059999
 23
25.59815721199999
 33
0.0
  0
POINT
  5
111
330
109
100
AcDbEntity
  8
0
 62
     7
100
AcDbPoint
 10
22.68183756869999
 20
22.41065721199999
 30
0.0
  0
POINT
  5
112
330
109
100
AcDbEntity
  8
0
 62
     7
100
AcDbPoint
 10
26.41275801169999
 20
26.160657212
 30
0.0
  0
ENDBLK
  5
113
330
109
100
AcDbEntity
  8
0
 62
     7
100
AcDbBlockEnd
  0
BLOCK
  5
116
330
115
100
AcDbEntity
  8
0
 62
     7
100
AcDbBlockBegin
  2
*D5
 70
     1
 10
0.0
 20
0.0
 30
0.0
  3
*D5
  1

  0
MTEXT
  5
117
330
115
100
AcDbEntity
  8
0
 62
     7
100
AcDbMText
 10
27.0566188776
 20
17.8779434174
 30
0.0
 40
0.3
 41
0.0
 71
     7
 72
     1
  1
9"
  7
SLDTEXTSTYLE0
 73
     1
 44
1.0
  0
LINE
  5
118
330
115
100
AcDbEntity
  8
0
 62
     7
100
AcDbLine
 10
22.68183756869999
 20
22.290657212
 30
0.0
 11
22.68183756869999
 21
17.65282653059999
 31
0.0
  0
LINE
  5
119
330
115
100
AcDbEntity
  8
0
 62
     7
100
AcDbLine
 10
22.68183756869999
 20
18.01282653059999
 30
0.0
 11
26.8691188776
 21
18.01282653059999
 31
0.0
  0
LINE
  5
11A
330
115
100
AcDbEntity
  8
0
 62
     7
100
AcDbLine
 10
31.68183756869999
 20
18.01282653059999
 30
0.0
 11
27.6342688776
 21
18.01282653059999
 31
0.0
  0
SOLID
  5
11B
330
115
100
AcDbEntity
  8
0
 62
     7
100
AcDbTrace
 10
22.68183756869999
 20
18.01282653059999
 30
0.0
 11
23.24433756869999
 21
17.91907653059999
 31
0.0
 12
23.24433756869999
 22
18.10657653059999
 32
0.0
 13
23.24433756869999
 23
18.10657653059999
 33
0.0
  0
SOLID
  5
11C
330
115
100
AcDbEntity
  8
0
 62
     7
100
AcDbTrace
 10
31.68183756869999
 20
18.01282653059999
 30
0.0
 11
31.1193375687
 21
18.10657653059999
 31
0.0
 12
31.1193375687
 22
17.91907653059999
 32
0.0
 13
31.1193375687
 23
17.91907653059999
 33
0.0
  0
POINT
  5
11D
330
115
100
AcDbEntity
  8
0
 62
     7
100
AcDbPoint
 10
22.68183756869999
 20
22.41065721199999
 30
0.0
  0
POINT
  5
11E
330
115
100
AcDbEntity
  8
0
 62
     7
100
AcDbPoint
 10
31.68183756869999
 20
19.0940704731
 30
0.0
  0
ENDBLK
  5
11F
330
115
100
AcDbEntity
  8
0
 62
     7
100
AcDbBlockEnd
  0
BLOCK
  5
122
330
121
100
AcDbEntity
  8
0
 62
     7
100
AcDbBlockBegin
  2
*D6
 70
     1
 10
0.0
 20
0.0
 30
0.0
  3
*D6
  1

  0
MTEXT
  5
123
330
121
100
AcDbEntity
  8
0
 62
     7
100
AcDbMText
 10
33.7924659626
 20
22.90716391639999
 30
0.0
 40
0.3
 41
0.0
 71
     7
 72
     1
  1
1.563
  7
SLDTEXTSTYLE0
 73
     1
 44
1.0
  0
LINE
  5
124
330
121
100
AcDbEntity
  8
0
 62
     7
100
AcDbLine
 10
22.8018375687
 20
22.41065721199999
 30
0.0
 11
33.5899659626
 21
22.41065721199999
 31
0.0
  0
LINE
  5
125
330
121
100
AcDbEntity
  8
0
 62
     7
100
AcDbLine
 10
22.8018375687
 20
20.848157212
 30
0.0
 11
33.5899659626
 21
20.848157212
 31
0.0
  0
LINE
  5
126
330
121
100
AcDbEntity
  8
0
 62
     7
100
AcDbLine
 10
33.6049659626
 20
23.04204702959999
 30
0.0
 11
33.2299659626
 21
23.04204702959999
 31
0.0
  0
LINE
  5
127
330
121
100
AcDbEntity
  8
0
 62
     7
100
AcDbLine
 10
33.2299659626
 20
23.04204702959999
 30
0.0
 11
33.2299659626
 21
22.41065721199999
 31
0.0
  0
LINE
  5
128
330
121
100
AcDbEntity
  8
0
 62
     7
100
AcDbLine
 10
33.2299659626
 20
22.41065721199999
 30
0.0
 11
33.2299659626
 21
20.848157212
 31
0.0
  0
SOLID
  5
129
330
121
100
AcDbEntity
  8
0
 62
     7
100
AcDbTrace
 10
33.2299659626
 20
22.41065721199999
 30
0.0
 11
33.1362159626
 21
21.84815721199999
 31
0.0
 12
33.3237159626
 22
21.84815721199999
 32
0.0
 13
33.3237159626
 23
21.84815721199999
 33
0.0
  0
SOLID
  5
12A
330
121
100
AcDbEntity
  8
0
 62
     7
100
AcDbTrace
 10
33.2299659626
 20
20.848157212
 30
0.0
 11
33.3237159626
 21
21.41065721199999
 31
0.0
 12
33.1362159626
 22
21.41065721199999
 32
0.0
 13
33.1362159626
 23
21.41065721199999
 33
0.0
  0
POINT
  5
12B
330
121
100
AcDbEntity
  8
0
 62
     7
100
AcDbPoint
 10
22.68183756869999
 20
22.41065721199999
 30
0.0
  0
POINT
  5
12C
330
121
100
AcDbEntity
  8
0
 62
     7
100
AcDbPoint
 10
22.68183756869999
 20
20.848157212
 30
0.0
  0
ENDBLK
  5
12D
330
121
100
AcDbEntity
  8
0
 62
     7
100
AcDbBlockEnd
  0
BLOCK
  5
130
330
12F
100
AcDbEntity
  8
0
 62
     7
100
AcDbBlockBegin
  2
*D7
 70
     1
 10
0.0
 20
0.0
 30
0.0
  3
*D7
  1

  0
MTEXT
  5
131
330
12F
100
AcDbEntity
  8
0
 62
     7
100
AcDbMText
 10
23.7650537356
 20
27.187119042
 30
0.0
 40
0.3
 41
0.0
 71
     7
 72
     1
  1
1.353
  7
SLDTEXTSTYLE0
 73
     1
 44
1.0
  0
LINE
  5
132
330
12F
100
AcDbEntity
  8
0
 62
     7
100
AcDbLine
 10
22.68183756869999
 20
22.530657212
 30
0.0
 11
22.68183756869999
 21
27.6820021552
 31
0.0
  0
LINE
  5
133
330
12F
100
AcDbEntity
  8
0
 62
     7
100
AcDbLine
 10
21.3286728753
 20
23.311907212
 30
0.0
 11
21.3286728753
 21
27.6820021552
 31
0.0
  0
LINE
  5
134
330
12F
100
AcDbEntity
  8
0
 62
     7
100
AcDbLine
 10
22.68183756869999
 20
27.3220021552
 30
0.0
 11
23.57755373559999
 21
27.3220021552
 31
0.0
  0
LINE
  5
135
330
12F
100
AcDbEntity
  8
0
 62
     7
100
AcDbLine
 10
21.3286728753
 20
27.3220021552
 30
0.0
 11
22.68183756869999
 21
27.3220021552
 31
0.0
  0
SOLID
  5
136
330
12F
100
AcDbEntity
  8
0
 62
     7
100
AcDbTrace
 10
22.68183756869999
 20
27.3220021552
 30
0.0
 11
22.11933756869999
 21
27.4157521552
 31
0.0
 12
22.11933756869999
 22
27.2282521552
 32
0.0
 13
22.11933756869999
 23
27.2282521552
 33
0.0
  0
SOLID
  5
137
330
12F
100
AcDbEntity
  8
0
 62
     7
100
AcDbTrace
 10
21.3286728753
 20
27.3220021552
 30
0.0
 11
21.8911728753
 21
27.2282521552
 31
0.0
 12
21.8911728753
 22
27.4157521552
 32
0.0
 13
21.8911728753
 23
27.4157521552
 33
0.0
  0
POINT
  5
138
330
12F
100
AcDbEntity
  8
0
 62
     7
100
AcDbPoint
 10
22.68183756869999
 20
22.41065721199999
 30
0.0
  0
POINT
  5
139
330
12F
100
AcDbEntity
  8
0
 62
     7
100
AcDbPoint
 10
21.3286728753
 20
23.19190721199999
 30
0.0
  0
ENDBLK
  5
13A
330
12F
100
AcDbEntity
  8
0
 62
     7
100
AcDbBlockEnd
  0
BLOCK
  5
13D
330
13C
100
AcDbEntity
  8
0
 62
     7
100
AcDbBlockBegin
  2
*D8
 70
     1
 10
0.0
 20
0.0
 30
0.0
  3
*D8
  1

  0
MTEXT
  5
13E
330
13C
100
AcDbEntity
  8
0
 62
     7
100
AcDbMText
 10
13.4378973698
 20
23.9101595244
 30
0.0
 40
0.3
 41
0.0
 71
     7
 72
     1
  1
.781
  7
SLDTEXTSTYLE0
 73
     1
 44
1.0
  0
LINE
  5
13F
330
13C
100
AcDbEntity
  8
0
 62
     7
100
AcDbLine
 10
22.5618375687
 20
22.41065721199999
 30
0.0
 11
14.3004624641
 21
22.41065721199999
 31
0.0
  0
LINE
  5
140
330
13C
100
AcDbEntity
  8
0
 62
     7
100
AcDbLine
 10
21.20867287529999
 20
23.19190721199999
 30
0.0
 11
14.3004624641
 21
23.19190721199999
 31
0.0
  0
LINE
  5
141
330
13C
100
AcDbEntity
  8
0
 62
     7
100
AcDbLine
 10
14.2854624641
 20
24.0450426376
 30
0.0
 11
14.6604624641
 21
24.0450426376
 31
0.0
  0
LINE
  5
142
330
13C
100
AcDbEntity
  8
0
 62
     7
100
AcDbLine
 10
14.6604624641
 20
24.0450426376
 30
0.0
 11
14.6604624641
 21
23.19190721199999
 31
0.0
  0
LINE
  5
143
330
13C
100
AcDbEntity
  8
0
 62
     7
100
AcDbLine
 10
14.6604624641
 20
22.41065721199999
 30
0.0
 11
14.6604624641
 21
23.19190721199999
 31
0.0
  0
SOLID
  5
144
330
13C
100
AcDbEntity
  8
0
 62
     7
100
AcDbTrace
 10
14.6604624641
 20
22.41065721199999
 30
0.0
 11
14.7542124641
 21
22.97315721199999
 31
0.0
 12
14.5667124641
 22
22.97315721199999
 32
0.0
 13
14.5667124641
 23
22.97315721199999
 33
0.0
  0
SOLID
  5
145
330
13C
100
AcDbEntity
  8
0
 62
     7
100
AcDbTrace
 10
14.6604624641
 20
23.19190721199999
 30
0.0
 11
14.5667124641
 21
22.62940721199999
 31
0.0
 12
14.7542124641
 22
22.62940721199999
 32
0.0
 13
14.7542124641
 23
22.62940721199999
 33
0.0
  0
POINT
  5
146
330
13C
100
AcDbEntity
  8
0
 62
     7
100
AcDbPoint
 10
22.68183756869999
 20
22.41065721199999
 30
0.0
  0
POINT
  5
147
330
13C
100
AcDbEntity
  8
0
 62
     7
100
AcDbPoint
 10
21.3286728753
 20
23.19190721199999
 30
0.0
  0
ENDBLK
  5
148
330
13C
100
AcDbEntity
  8
0
 62
     7
100
AcDbBlockEnd
  0
BLOCK
  5
14B
330
14A
100
AcDbEntity
  8
0
 62
     1
100
AcDbBlockBegin
  2
*D9
 70
     1
 10
0.0
 20
0.0
 30
0.0
  3
*D9
  1

  0
MTEXT
  5
14C
330
14A
100
AcDbEntity
  8
0
100
AcDbMText
 10
22.411677097
 20
9.738780026699998
 30
0.0
 40
0.3
 41
0.0
 71
     7
 72
     1
  1
18"
  7
SLDTEXTSTYLE0
 73
     1
 44
1.0
  0
LINE
  5
14D
330
14A
100
AcDbEntity
  8
0
100
AcDbLine
 10
13.68183756869999
 20
15.790657212
 30
0.0
 11
13.68183756869999
 21
9.5136631399
 31
0.0
  0
LINE
  5
14E
330
14A
100
AcDbEntity
  8
0
100
AcDbLine
 10
31.68183756869999
 20
15.790657212
 30
0.0
 11
31.68183756869999
 21
9.5136631399
 31
0.0
  0
LINE
  5
14F
330
14A
100
AcDbEntity
  8
0
100
AcDbLine
 10
13.68183756869999
 20
9.873663139899999
 30
0.0
 11
22.22417709699999
 21
9.873663139899999
 31
0.0
  0
LINE
  5
150
330
14A
100
AcDbEntity
  8
0
100
AcDbLine
 10
31.68183756869999
 20
9.873663139899999
 30
0.0
 11
23.13949804039999
 21
9.873663139899999
 31
0.0
  0
SOLID
  5
151
330
14A
100
AcDbEntity
  8
0
100
AcDbTrace
 10
13.68183756869999
 20
9.873663139899999
 30
0.0
 11
14.2443375687
 21
9.779913139899999
 31
0.0
 12
14.2443375687
 22
9.967413139899999
 32
0.0
 13
14.2443375687
 23
9.967413139899999
 33
0.0
  0
SOLID
  5
152
330
14A
100
AcDbEntity
  8
0
100
AcDbTrace
 10
31.68183756869999
 20
9.873663139899999
 30
0.0
 11
31.1193375687
 21
9.967413139899999
 31
0.0
 12
31.1193375687
 22
9.779913139899999
 32
0.0
 13
31.1193375687
 23
9.779913139899999
 33
0.0
  0
POINT
  5
153
330
14A
100
AcDbEntity
  8
0
100
AcDbPoint
 10
13.68183756869999
 20
15.910657212
 30
0.0
  0
POINT
  5
154
330
14A
100
AcDbEntity
  8
0
100
AcDbPoint
 10
31.68183756869999
 20
15.910657212
 30
0.0
  0
ENDBLK
  5
155
330
14A
100
AcDbEntity
  8
0
 62
     1
100
AcDbBlockEnd
  0
BLOCK
  5
158
330
157
100
AcDbEntity
  8
0
 62
     1
100
AcDbBlockBegin
  2
*D10
 70
     1
 10
0.0
 20
0.0
 30
0.0
  3
*D10
  1

  0
MTEXT
  5
159
330
157
100
AcDbEntity
  8
0
100
AcDbMText
 10
18.0329704814
 20
11.217636958
 30
0.0
 40
0.3
 41
0.0
 71
     7
 72
     1
  1
10 11/32"
  7
SLDTEXTSTYLE0
 73
     1
 44
1.0
  0
LINE
  5
15A
330
157
100
AcDbEntity
  8
0
100
AcDbLine
 10
13.68183756869999
 20
15.790657212
 30
0.0
 11
13.68183756869999
 21
10.9925200712
 31
0.0
  0
LINE
  5
15B
330
157
100
AcDbEntity
  8
0
100
AcDbLine
 10
24.0350022621
 20
21.509407212
 30
0.0
 11
24.0350022621
 21
10.9925200712
 31
0.0
  0
LINE
  5
15C
330
157
100
AcDbEntity
  8
0
100
AcDbLine
 10
13.68183756869999
 20
11.35252007119999
 30
0.0
 11
17.6579704814
 21
11.35252007119999
 31
0.0
  0
LINE
  5
15D
330
157
100
AcDbEntity
  8
0
100
AcDbLine
 10
24.0350022621
 20
11.35252007119999
 30
0.0
 11
20.0588693494
 21
11.35252007119999
 31
0.0
  0
ARC
  5
15E
330
157
100
AcDbEntity
  8
0
100
AcDbCircle
 10
18.4152367078
 20
11.35252007119999
 30
0.0
 40
0.6370180068
100
AcDbArc
 50
153.4349488229
 51
206.5650511771
  0
ARC
  5
15F
330
157
100
AcDbEntity
  8
0
100
AcDbCircle
 10
19.3016031229
 20
11.35252007119999
 30
0.0
 40
0.6370180068
100
AcDbArc
 50
333.4349488229
 51
26.5650511771
  0
SOLID
  5
160
330
157
100
AcDbEntity
  8
0
100
AcDbTrace
 10
13.68183756869999
 20
11.35252007119999
 30
0.0
 11
14.2443375687
 21
11.25877007119999
 31
0.0
 12
14.2443375687
 22
11.44627007119999
 32
0.0
 13
14.2443375687
 23
11.44627007119999
 33
0.0
  0
SOLID
  5
161
330
157
100
AcDbEntity
  8
0
100
AcDbTrace
 10
24.0350022621
 20
11.35252007119999
 30
0.0
 11
23.4725022621
 21
11.44627007119999
 31
0.0
 12
23.4725022621
 22
11.25877007119999
 32
0.0
 13
23.4725022621
 23
11.25877007119999
 33
0.0
  0
POINT
  5
162
330
157
100
AcDbEntity
  8
0
100
AcDbPoint
 10
13.68183756869999
 20
15.910657212
 30
0.0
  0
POINT
  5
163
330
157
100
AcDbEntity
  8
0
100
AcDbPoint
 10
24.0350022621
 20
21.62940721199999
 30
0.0
  0
ENDBLK
  5
164
330
157
100
AcDbEntity
  8
0
 62
     1
100
AcDbBlockEnd
  0
BLOCK
  5
167
330
166
100
AcDbEntity
  8
0
 62
     1
100
AcDbBlockBegin
  2
*D11
 70
     1
 10
0.0
 20
0.0
 30
0.0
  3
*D11
  1

  0
MTEXT
  5
168
330
166
100
AcDbEntity
  8
0
100
AcDbMText
 10
17.98676256869999
 20
12.9648348647
 30
0.0
 40
0.3
 41
0.0
 71
     7
 72
     1
  1
9"
  7
SLDTEXTSTYLE0
 73
     1
 44
1.0
  0
LINE
  5
169
330
166
100
AcDbEntity
  8
0
100
AcDbLine
 10
13.68183756869999
 20
15.790657212
 30
0.0
 11
13.68183756869999
 21
12.7397179779
 31
0.0
  0
LINE
  5
16A
330
166
100
AcDbEntity
  8
0
100
AcDbLine
 10
22.68183756869999
 20
20.728157212
 30
0.0
 11
22.68183756869999
 21
12.7397179779
 31
0.0
  0
LINE
  5
16B
330
166
100
AcDbEntity
  8
0
100
AcDbLine
 10
13.68183756869999
 20
13.0997179779
 30
0.0
 11
17.79926256869999
 21
13.0997179779
 31
0.0
  0
LINE
  5
16C
330
166
100
AcDbEntity
  8
0
100
AcDbLine
 10
22.68183756869999
 20
13.0997179779
 30
0.0
 11
18.5644125687
 21
13.0997179779
 31
0.0
  0
SOLID
  5
16D
330
166
100
AcDbEntity
  8
0
100
AcDbTrace
 10
13.68183756869999
 20
13.0997179779
 30
0.0
 11
14.2443375687
 21
13.00596797789999
 31
0.0
 12
14.2443375687
 22
13.19346797789999
 32
0.0
 13
14.2443375687
 23
13.19346797789999
 33
0.0
  0
SOLID
  5
16E
330
166
100
AcDbEntity
  8
0
100
AcDbTrace
 10
22.68183756869999
 20
13.0997179779
 30
0.0
 11
22.11933756869999
 21
13.19346797789999
 31
0.0
 12
22.11933756869999
 22
13.00596797789999
 32
0.0
 13
22.11933756869999
 23
13.00596797789999
 33
0.0
  0
POINT
  5
16F
330
166
100
AcDbEntity
  8
0
100
AcDbPoint
 10
13.68183756869999
 20
15.910657212
 30
0.0
  0
POINT
  5
170
330
166
100
AcDbEntity
  8
0
100
AcDbPoint
 10
22.68183756869999
 20
20.848157212
 30
0.0
  0
ENDBLK
  5
171
330
166
100
AcDbEntity
  8
0
 62
     1
100
AcDbBlockEnd
  0
BLOCK
  5
174
330
173
100
AcDbEntity
  8
0
 62
     1
100
AcDbBlockBegin
  2
*D12
 70
     1
 10
0.0
 20
0.0
 30
0.0
  3
*D12
  1

  0
MTEXT
  5
175
330
173
100
AcDbEntity
  8
0
100
AcDbMText
 10
5.869380752899999
 20
20.40077409869999
 30
0.0
 40
0.3
 41
0.0
 71
     7
 72
     1
  1
11 1/4"
  7
SLDTEXTSTYLE0
 73
     1
 44
1.0
  0
LINE
  5
176
330
173
100
AcDbEntity
  8
0
100
AcDbLine
 10
14.56183756869999
 20
14.910657212
 30
0.0
 11
6.1397551869
 21
14.910657212
 31
0.0
  0
LINE
  5
177
330
173
100
AcDbEntity
  8
0
100
AcDbLine
 10
18.8309171257
 20
26.160657212
 30
0.0
 11
6.1397551869
 21
26.160657212
 31
0.0
  0
LINE
  5
178
330
173
100
AcDbEntity
  8
0
100
AcDbLine
 10
6.4997551869
 20
14.910657212
 30
0.0
 11
6.4997551869
 21
20.2507740987
 31
0.0
  0
LINE
  5
179
330
173
100
AcDbEntity
  8
0
100
AcDbLine
 10
6.4997551869
 20
26.160657212
 30
0.0
 11
6.4997551869
 21
20.82054032519999
 31
0.0
  0
SOLID
  5
17A
330
173
100
AcDbEntity
  8
0
100
AcDbTrace
 10
6.4997551869
 20
14.910657212
 30
0.0
 11
6.5935051869
 21
15.473157212
 31
0.0
 12
6.4060051869
 22
15.473157212
 32
0.0
 13
6.4060051869
 23
15.473157212
 33
0.0
  0
SOLID
  5
17B
330
173
100
AcDbEntity
  8
0
100
AcDbTrace
 10
6.4997551869
 20
26.160657212
 30
0.0
 11
6.4060051869
 21
25.59815721199999
 31
0.0
 12
6.5935051869
 22
25.59815721199999
 32
0.0
 13
6.5935051869
 23
25.59815721199999
 33
0.0
  0
POINT
  5
17C
330
173
100
AcDbEntity
  8
0
100
AcDbPoint
 10
14.6818375687
 20
14.910657212
 30
0.0
  0
POINT
  5
17D
330
173
100
AcDbEntity
  8
0
100
AcDbPoint
 10
18.9509171257
 20
26.160657212
 30
0.0
  0
ENDBLK
  5
17E
330
173
100
AcDbEntity
  8
0
 62
     1
100
AcDbBlockEnd
  0
BLOCK
  5
181
330
180
100
AcDbEntity
  8
0
 62
     1
100
AcDbBlockBegin
  2
*D13
 70
     1
 10
0.0
 20
0.0
 30
0.0
  3
*D13
  1

  0
MTEXT
  5
182
330
180
100
AcDbEntity
  8
0
 62
     7
100
AcDbMText
 10
29.3423715463
 20
27.86394848
 30
0.0
 40
0.3
 41
0.0
 71
     7
 72
     1
  1
1"
  7
SLDTEXTSTYLE0
 73
     1
 44
1.0
  0
MTEXT
  5
183
330
180
100
AcDbEntity
  8
0
 62
     7
100
AcDbMText
 10
29.6726494708
 20
27.86394848
 30
0.0
 40
0.3
 41
0.0
 71
     7
 72
     1
  1
 RAD
  7
SLDTEXTSTYLE0
 73
     1
 44
1.0
  0
MTEXT
  5
184
330
180
100
AcDbEntity
  8
0
 62
     7
100
AcDbMText
 10
29.1342994708
 20
27.2941822536
 30
0.0
 40
0.3
 41
0.0
 71
     7
 72
     1
  1
6 PLACES
  7
SLDTEXTSTYLE0
 73
     1
 44
1.0
  0
LINE
  5
185
330
180
100
AcDbEntity
  8
0
 62
     7
100
AcDbLine
 10
26.9752735861
 20
25.9874439006
 30
0.0
 11
28.14992447079999
 21
27.71394847999999
 31
0.0
  0
LINE
  5
186
330
180
100
AcDbEntity
  8
0
 62
     7
100
AcDbLine
 10
28.14992447079999
 20
27.71394847999999
 30
0.0
 11
28.8999244708
 21
27.71394847999999
 31
0.0
  0
SOLID
  5
187
330
180
100
AcDbEntity
  8
0
 62
     7
100
AcDbTrace
 10
26.9752735861
 20
25.9874439006
 30
0.0
 11
27.3691998488
 21
26.39977557789999
 31
0.0
 12
27.2141773447
 22
26.50524724809999
 32
0.0
 13
27.2141773447
 23
26.50524724809999
 33
0.0
  0
POINT
  5
189
330
180
100
AcDbEntity
  8
0
 62
     7
100
AcDbPoint
 10
26.9752735861
 20
25.9874439006
 30
0.0
  0
POINT
  5
18A
330
180
100
AcDbEntity
  8
0
 62
     7
100
AcDbPoint
 10
26.41275801169999
 20
25.16065721199999
 30
0.0
  0
ENDBLK
  5
18B
330
180
100
AcDbEntity
  8
0
100
AcDbBlockEnd
  0
BLOCK
  5
18E
330
18D
100
AcDbEntity
  8
0
 62
     1
100
AcDbBlockBegin
  2
*D14
 70
     1
 10
0.0
 20
0.0
 30
0.0
  3
*D14
  1

  0
MTEXT
  5
18F
330
18D
100
AcDbEntity
  8
0
 62
     7
100
AcDbMText
 10
29.5847729439
 20
24.9518429125
 30
0.0
 40
0.3
 41
0.0
 71
     7
 72
     1
  1
35%%d
  7
SLDTEXTSTYLE0
 73
     1
 44
1.0
  0
LINE
  5
190
330
18D
100
AcDbEntity
  8
0
 62
     7
100
AcDbLine
 10
31.68183756869999
 20
19.21407047309999
 30
0.0
 11
31.68183756869999
 21
25.72438306949999
 31
0.0
  0
ARC
  5
191
330
18D
100
AcDbEntity
  8
0
 62
     7
100
AcDbCircle
 10
31.68183756869999
 20
19.410657212
 30
0.0
 40
5.9537258575
100
AcDbArc
 50
90.0
 51
102.7046125999
  0
ARC
  5
192
330
18D
100
AcDbEntity
  8
0
 62
     7
100
AcDbCircle
 10
31.68183756869999
 20
19.410657212
 30
0.0
 40
5.9537258575
100
AcDbArc
 50
112.5643090425
 51
125.1341930569
  0
SOLID
  5
193
330
18D
100
AcDbEntity
  8
0
 62
     7
100
AcDbTrace
 10
31.68183756869999
 20
25.3643830695
 30
0.0
 11
31.1155474209
 21
25.431545418
 31
0.0
 12
31.1243753159
 22
25.2442533512
 32
0.0
 13
31.1243753159
 23
25.2442533512
 33
0.0
  0
SOLID
  5
194
330
18D
100
AcDbEntity
  8
0
 62
     7
100
AcDbTrace
 10
28.2555075955
 20
24.279652437
 30
0.0
 11
28.7805376651
 21
24.502225433
 31
0.0
 12
28.67997182479999
 22
24.6604744828
 32
0.0
 13
28.67997182479999
 23
24.6604744828
 33
0.0
  0
POINT
  5
196
330
18D
100
AcDbEntity
  8
0
 62
     7
100
AcDbPoint
 10
31.68183756869999
 20
19.0940704731
 30
0.0
  0
POINT
  5
197
330
18D
100
AcDbEntity
  8
0
 62
     7
100
AcDbPoint
 10
31.68183756869999
 20
15.910657212
 30
0.0
  0
POINT
  5
198
330
18D
100
AcDbEntity
  8
0
 62
     7
100
AcDbPoint
 10
27.23056443099999
 20
25.73615061809999
 30
0.0
  0
POINT
  5
199
330
18D
100
AcDbEntity
  8
0
 62
     7
100
AcDbPoint
 10
31.499643988
 20
19.6695638793
 30
0.0
  0
ENDBLK
  5
19A
330
18D
100
AcDbEntity
  8
0
100
AcDbBlockEnd
  0
BLOCK
  5
19D
330
19C
100
AcDbEntity
  8
0
 62
     1
100
AcDbBlockBegin
  2
*D15
 70
     1
 10
0.0
 20
0.0
 30
0.0
  3
*D15
  1

  0
MTEXT
  5
19E
330
19C
100
AcDbEntity
  8
0
 62
     7
100
AcDbMText
 10
9.642557913600001
 20
29.9790421973
 30
0.0
 40
0.3
 41
0.0
 71
     7
 72
     1
  1
%%c
  7
SLDTEXTSTYLE0
 73
     1
 44
1.0
  0
MTEXT
  5
19F
330
19C
100
AcDbEntity
  8
0
 62
     7
100
AcDbMText
 10
10.1549058382
 20
29.9790421973
 30
0.0
 40
0.3
 41
0.0
 71
     7
 72
     1
  1
7/16"
  7
SLDTEXTSTYLE0
 73
     1
 44
1.0
  0
MTEXT
  5
1A0
330
19C
100
AcDbEntity
  8
0
 62
     7
100
AcDbMText
 10
11.1153128193
 20
29.9790421973
 30
0.0
 40
0.3
 41
0.0
 71
     7
 72
     1
  1
 DRILL THRU
  7
SLDTEXTSTYLE0
 73
     1
 44
1.0
  0
MTEXT
  5
1A1
330
19C
100
AcDbEntity
  8
0
 62
     7
100
AcDbMText
 10
9.642557913600001
 20
29.4092759709
 30
0.0
 40
0.3
 41
0.0
 71
     7
 72
     1
  1
%%c.656 X 45%%d CHAMFER, BOTH SIDES
  7
SLDTEXTSTYLE0
 73
     1
 44
1.0
  0
MTEXT
  5
1A2
330
19C
100
AcDbEntity
  8
0
 62
     7
100
AcDbMText
 10
9.642557913600001
 20
28.8395097444
 30
0.0
 40
0.3
 41
0.0
 71
     7
 72
     1
  1
TAP 5/8-11 THRU
  7
SLDTEXTSTYLE0
 73
     1
 44
1.0
  0
MTEXT
  5
1A3
330
19C
100
AcDbEntity
  8
0
 62
     7
100
AcDbMText
 10
9.642557913600001
 20
28.269743518
 30
0.0
 40
0.3
 41
0.0
 71
     7
 72
     1
  1
6 PLACES ON 3.125 DIA BOLT CIRCLE
  7
SLDTEXTSTYLE0
 73
     1
 44
1.0
  0
LINE
  5
1A4
330
19C
100
AcDbEntity
  8
0
 62
     7
100
AcDbLine
 10
22.53266563179999
 20
24.1223136257
 30
0.0
 11
17.39516866829999
 21
29.2592759709
 31
0.0
  0
LINE
  5
1A5
330
19C
100
AcDbEntity
  8
0
 62
     7
100
AcDbLine
 10
17.39516866829999
 20
29.2592759709
 30
0.0
 11
16.64516866829999
 21
29.2592759709
 31
0.0
  0
SOLID
  5
1A6
330
19C
100
AcDbEntity
  8
0
 62
     7
100
AcDbTrace
 10
22.53266563179999
 20
24.1223136257
 30
0.0
 11
22.2011851829
 21
24.5863352033
 31
0.0
 12
22.06860956039999
 22
24.4537457832
 32
0.0
 13
22.06860956039999
 23
24.4537457832
 33
0.0
  0
POINT
  5
1A8
330
19C
100
AcDbEntity
  8
0
 62
     7
100
AcDbPoint
 10
22.53266563179999
 20
24.1223136257
 30
0.0
  0
POINT
  5
1A9
330
19C
100
AcDbEntity
  8
0
 62
     7
100
AcDbPoint
 10
22.8310095055
 20
23.8240007982
 30
0.0
  0
ENDBLK
  5
1AA
330
19C
100
AcDbEntity
  8
0
100
AcDbBlockEnd
  0
BLOCK
  5
3F2
330
3F1
100
AcDbEntity
  8
0
 62
     1
100
AcDbBlockBegin
  2
*D16
 70
     1
 10
0.0
 20
0.0
 30
0.0
  3
*D16
  1

  0
MTEXT
  5
3F3
330
3F1
100
AcDbEntity
  8
0
100
AcDbMText
 10
44.34183824479999
 20
28.3447642492
 30
0.0
 40
0.3
 41
0.0
 71
     7
 72
     1
  1
1.438
  7
SLDTEXTSTYLE0
 73
     1
 44
1.0
  0
MTEXT
  5
3F4
330
3F1
100
AcDbEntity
  8
0
100
AcDbMText
 10
45.24433616939999
 20
28.3447642492
 30
0.0
 40
0.3
 41
0.0
 71
     7
 72
     1
  1
%%p.010
  7
SLDTEXTSTYLE0
 73
     1
 44
1.0
  0
MTEXT
  5
3F5
330
3F1
100
AcDbEntity
  8
0
100
AcDbMText
 10
43.577741075
 20
27.7749980228
 30
0.0
 40
0.3
 41
0.0
 71
     7
 72
     1
  1
BLANCHARD GRIND
  7
SLDTEXTSTYLE0
 73
     1
 44
1.0
  0
MTEXT
  5
3F6
330
3F1
100
AcDbEntity
  8
0
100
AcDbMText
 10
43.62264513159999
 20
27.2052317964
 30
0.0
 40
0.3
 41
0.0
 71
     7
 72
     1
  1
BOTH SIDES FROM
  7
SLDTEXTSTYLE0
 73
     1
 44
1.0
  0
MTEXT
  5
3F7
330
3F1
100
AcDbEntity
  8
0
100
AcDbMText
 10
44.0579445656
 20
26.63546557
 30
0.0
 40
0.3
 41
0.0
 71
     7
 72
     1
  1
1 1/2" STOCK
  7
SLDTEXTSTYLE0
 73
     1
 44
1.0
  0
LINE
  5
3F8
330
3F1
100
AcDbEntity
  8
0
100
AcDbLine
 10
40.20877358489999
 20
25.8561506181
 30
0.0
 11
40.20877358489999
 21
27.9849980228
 31
0.0
  0
LINE
  5
3F9
330
3F1
100
AcDbEntity
  8
0
100
AcDbLine
 10
41.64677358489999
 20
25.8561506181
 30
0.0
 11
41.64677358489999
 21
27.9849980228
 31
0.0
  0
LINE
  5
3FA
330
3F1
100
AcDbEntity
  8
0
100
AcDbLine
 10
40.20877358489999
 20
27.6249980228
 30
0.0
 11
38.7087735849
 21
27.6249980228
 31
0.0
  0
LINE
  5
3FB
330
3F1
100
AcDbEntity
  8
0
100
AcDbLine
 10
41.64677358489999
 20
27.6249980228
 30
0.0
 11
43.343366075
 21
27.6249980228
 31
0.0
  0
SOLID
  5
3FC
330
3F1
100
AcDbEntity
  8
0
100
AcDbTrace
 10
40.20877358489999
 20
27.6249980228
 30
0.0
 11
39.6462735849
 21
27.7187480228
 31
0.0
 12
39.6462735849
 22
27.5312480228
 32
0.0
 13
39.6462735849
 23
27.5312480228
 33
0.0
  0
SOLID
  5
3FD
330
3F1
100
AcDbEntity
  8
0
100
AcDbTrace
 10
41.64677358489999
 20
27.6249980228
 30
0.0
 11
42.2092735849
 21
27.5312480228
 31
0.0
 12
42.2092735849
 22
27.7187480228
 32
0.0
 13
42.2092735849
 23
27.7187480228
 33
0.0
  0
POINT
  5
3FF
330
3F1
100
AcDbEntity
  8
0
100
AcDbPoint
 10
40.20877358489999
 20
25.73615061809999
 30
0.0
  0
POINT
  5
400
330
3F1
100
AcDbEntity
  8
0
100
AcDbPoint
 10
41.64677358489999
 20
25.73615061809999
 30
0.0
  0
ENDBLK
  5
401
330
3F1
100
AcDbEntity
  8
0
 62
     1
100
AcDbBlockEnd
  0
ENDSEC
  0
SECTION
  2
ENTITIES
  0
LINE
  5
2A
330
A
100
AcDbEntity
  8
0
  6
Continuous
 62
     7
370
     0
100
AcDbLine
 10
10.12499999999999
 20
31.875
 30
0.0
 11
4.5
 21
31.875
 31
0.0
  0
LINE
  5
2B
330
A
100
AcDbEntity
  8
0
  6
Continuous
 62
     7
370
     0
100
AcDbLine
 10
15.75
 20
31.875
 30
0.0
 11
10.12499999999999
 21
31.875
 31
0.0
  0
LINE
  5
2C
330
A
100
AcDbEntity
  8
0
  6
Continuous
 62
     7
370
     0
100
AcDbLine
 10
49.5
 20
1.125
 30
0.0
 11
43.875
 21
1.125
 31
0.0
  0
LINE
  5
2D
330
A
100
AcDbEntity
  8
0
  6
Continuous
 62
     7
370
     0
100
AcDbLine
 10
49.5
 20
1.125
 30
0.0
 11
49.5
 21
8.8125
 31
0.0
  0
LINE
  5
2E
330
A
100
AcDbEntity
  8
0
  6
Continuous
 62
     7
370
     0
100
AcDbLine
 10
49.5
 20
24.1875
 30
0.0
 11
49.875
 21
24.1875
 31
0.0
  0
LINE
  5
2F
330
A
100
AcDbEntity
  8
0
  6
Continuous
 62
     7
370
     0
100
AcDbLine
 10
49.5
 20
16.5
 30
0.0
 11
49.875
 21
16.5
 31
0.0
  0
LINE
  5
30
330
A
100
AcDbEntity
  8
0
  6
Continuous
 62
     7
370
     0
100
AcDbLine
 10
21.375
 20
31.875
 30
0.0
 11
15.75
 21
31.875
 31
0.0
  0
LINE
  5
31
330
A
100
AcDbEntity
  8
0
  6
Continuous
 62
     7
370
     0
100
AcDbLine
 10
27.0
 20
31.875
 30
0.0
 11
21.375
 21
31.875
 31
0.0
  0
LINE
  5
32
330
A
100
AcDbEntity
  8
0
  6
Continuous
 62
     7
370
     0
100
AcDbLine
 10
32.625
 20
31.875
 30
0.0
 11
27.0
 21
31.875
 31
0.0
  0
LINE
  5
33
330
A
100
AcDbEntity
  8
0
  6
Continuous
 62
     7
370
     0
100
AcDbLine
 10
38.25
 20
31.875
 30
0.0
 11
32.625
 21
31.875
 31
0.0
  0
LINE
  5
34
330
A
100
AcDbEntity
  8
0
  6
Continuous
 62
     7
370
     0
100
AcDbLine
 10
43.875
 20
31.875
 30
0.0
 11
38.25
 21
31.875
 31
0.0
  0
LINE
  5
35
330
A
100
AcDbEntity
  8
0
  6
Continuous
 62
     7
370
     0
100
AcDbLine
 10
49.5
 20
8.8125
 30
0.0
 11
49.875
 21
8.8125
 31
0.0
  0
LINE
  5
36
330
A
100
AcDbEntity
  8
0
  6
Continuous
 62
     7
370
     0
100
AcDbLine
 10
49.5
 20
31.875
 30
0.0
 11
43.875
 21
31.875
 31
0.0
  0
LINE
  5
37
330
A
100
AcDbEntity
  8
0
  6
Continuous
 62
     7
370
     0
100
AcDbLine
 10
43.875
 20
31.875
 30
0.0
 11
43.875
 21
32.25
 31
0.0
  0
LINE
  5
38
330
A
100
AcDbEntity
  8
0
  6
Continuous
 62
     7
370
     0
100
AcDbLine
 10
38.25
 20
31.875
 30
0.0
 11
38.25
 21
32.25
 31
0.0
  0
LINE
  5
39
330
A
100
AcDbEntity
  8
0
  6
Continuous
 62
     7
370
     0
100
AcDbLine
 10
32.625
 20
31.875
 30
0.0
 11
32.625
 21
32.25
 31
0.0
  0
LINE
  5
3A
330
A
100
AcDbEntity
  8
0
  6
Continuous
 62
     7
370
     0
100
AcDbLine
 10
27.0
 20
31.875
 30
0.0
 11
27.0
 21
32.25
 31
0.0
  0
LINE
  5
3B
330
A
100
AcDbEntity
  8
0
  6
Continuous
 62
     7
370
     0
100
AcDbLine
 10
21.375
 20
31.875
 30
0.0
 11
21.375
 21
32.25
 31
0.0
  0
LINE
  5
3C
330
A
100
AcDbEntity
  8
0
  6
Continuous
 62
     7
370
     0
100
AcDbLine
 10
15.75
 20
31.875
 30
0.0
 11
15.75
 21
32.25
 31
0.0
  0
LINE
  5
3D
330
A
100
AcDbEntity
  8
0
  6
Continuous
 62
     7
370
     0
100
AcDbLine
 10
10.12499999999999
 20
31.875
 30
0.0
 11
10.12499999999999
 21
32.25
 31
0.0
  0
LINE
  5
3E
330
A
100
AcDbEntity
  8
0
  6
Continuous
 62
     7
370
     0
100
AcDbLine
 10
26.25
 20
5.07
 30
0.0
 11
26.25
 21
1.127999999999999
 31
0.0
  0
LINE
  5
3F
330
A
100
AcDbEntity
  8
0
  6
Continuous
 62
     7
370
     0
100
AcDbLine
 10
33.0
 20
7.125
 30
0.0
 11
49.5
 21
7.125
 31
0.0
  0
LINE
  5
40
330
A
100
AcDbEntity
  8
0
  6
Continuous
 62
     7
370
     0
100
AcDbLine
 10
33.0
 20
7.125
 30
0.0
 11
33.0
 21
1.125
 31
0.0
  0
LINE
  5
41
330
A
100
AcDbEntity
  8
0
  6
Continuous
 62
     7
370
     0
100
AcDbLine
 10
40.49999999999999
 20
7.125
 30
0.0
 11
40.49999999999999
 21
1.125
 31
0.0
  0
LINE
  5
42
330
A
100
AcDbEntity
  8
0
  6
Continuous
 62
     7
370
     0
100
AcDbLine
 10
40.49999999999999
 20
1.689
 30
0.0
 11
49.5
 21
1.689
 31
0.0
  0
LINE
  5
43
330
A
100
AcDbEntity
  8
0
  6
Continuous
 62
     7
370
     0
100
AcDbLine
 10
40.49999999999999
 20
2.813999999999999
 30
0.0
 11
49.5
 21
2.813999999999999
 31
0.0
  0
LINE
  5
44
330
A
100
AcDbEntity
  8
0
  6
Continuous
 62
     7
370
     0
100
AcDbLine
 10
40.49999999999999
 20
5.064
 30
0.0
 11
49.5
 21
5.064
 31
0.0
  0
LINE
  5
45
330
A
100
AcDbEntity
  8
0
  6
Continuous
 62
     7
370
     0
100
AcDbLine
 10
41.625
 20
2.813999999999999
 30
0.0
 11
41.625
 21
1.125
 31
0.0
  0
LINE
  5
46
330
A
100
AcDbEntity
  8
0
  6
Continuous
 62
     7
370
     0
100
AcDbLine
 10
26.25
 20
2.253
 30
0.0
 11
40.49999999999999
 21
2.253
 31
0.0
  0
LINE
  5
47
330
A
100
AcDbEntity
  8
0
  6
Continuous
 62
     7
370
     0
100
AcDbLine
 10
48.375
 20
2.813999999999999
 30
0.0
 11
48.375
 21
1.125
 31
0.0
  0
LINE
  5
48
330
A
100
AcDbEntity
  8
0
  6
Continuous
 62
     7
370
     0
100
AcDbLine
 10
40.49999999999999
 20
6.0
 30
0.0
 11
33.0
 21
6.0
 31
0.0
  0
LINE
  5
49
330
A
100
AcDbEntity
  8
0
  6
Continuous
 62
     7
370
     0
100
AcDbLine
 10
33.0
 20
3.561
 30
0.0
 11
40.49999999999999
 21
3.561
 31
0.0
  0
LINE
  5
4A
330
A
100
AcDbEntity
  8
0
  6
Continuous
 62
     7
370
     0
100
AcDbLine
 10
33.0
 20
1.689
 30
0.0
 11
40.49999999999999
 21
1.689
 31
0.0
  0
LINE
  5
4B
330
A
100
AcDbEntity
  8
0
  6
Continuous
 62
     7
370
     0
100
AcDbLine
 10
26.25
 20
3.941999999999999
 30
0.0
 11
33.0
 21
3.941999999999999
 31
0.0
  0
LINE
  5
4C
330
A
100
AcDbEntity
  8
0
  6
Continuous
 62
     7
370
     0
100
AcDbLine
 10
49.5
 20
8.8125
 30
0.0
 11
49.5
 21
16.5
 31
0.0
  0
LINE
  5
4D
330
A
100
AcDbEntity
  8
0
  6
Continuous
 62
     7
370
     0
100
AcDbLine
 10
49.5
 20
16.5
 30
0.0
 11
49.5
 21
24.1875
 31
0.0
  0
LINE
  5
4E
330
A
100
AcDbEntity
  8
0
  6
Continuous
 62
     7
370
     0
100
AcDbLine
 10
49.5
 20
24.1875
 30
0.0
 11
49.5
 21
31.875
 31
0.0
  0
LINE
  5
4F
330
A
100
AcDbEntity
  8
0
  6
Continuous
 62
     7
370
     0
100
AcDbLine
 10
43.875
 20
1.125
 30
0.0
 11
38.25
 21
1.125
 31
0.0
  0
LINE
  5
50
330
A
100
AcDbEntity
  8
0
  6
Continuous
 62
     7
370
     0
100
AcDbLine
 10
38.25
 20
1.125
 30
0.0
 11
32.625
 21
1.125
 31
0.0
  0
LINE
  5
51
330
A
100
AcDbEntity
  8
0
  6
Continuous
 62
     7
370
     0
100
AcDbLine
 10
26.25
 20
4.506
 30
0.0
 11
33.0
 21
4.506
 31
0.0
  0
LINE
  5
52
330
A
100
AcDbEntity
  8
0
  6
Continuous
 62
     7
370
     0
100
AcDbLine
 10
26.25
 20
2.8125
 30
0.0
 11
15.0
 21
2.8125
 31
0.0
  0
LINE
  5
53
330
A
100
AcDbEntity
  8
0
  6
Continuous
 62
     7
370
     0
100
AcDbLine
 10
33.0
 20
5.07
 30
0.0
 11
26.25
 21
5.07
 31
0.0
  0
LINE
  5
54
330
A
100
AcDbEntity
  8
0
  6
Continuous
 62
     7
370
     0
100
AcDbLine
 10
30.75
 20
5.07
 30
0.0
 11
30.75
 21
3.378
 31
0.0
  0
LINE
  5
55
330
A
100
AcDbEntity
  8
0
  6
Continuous
 62
     7
370
     0
100
AcDbLine
 10
33.0
 20
5.435999999999999
 30
0.0
 11
40.49999999999999
 21
5.435999999999999
 31
0.0
  0
LINE
  5
56
330
A
100
AcDbEntity
  8
0
  6
Continuous
 62
     7
370
     0
100
AcDbLine
 10
26.25
 20
3.378
 30
0.0
 11
33.0
 21
3.378
 31
0.0
  0
LINE
  5
57
330
A
100
AcDbEntity
  8
0
  6
Continuous
 62
     7
370
     0
100
AcDbLine
 10
36.75
 20
6.0
 30
0.0
 11
36.75
 21
3.561
 31
0.0
  0
LINE
  5
58
330
A
100
AcDbEntity
  8
0
  6
Continuous
 62
     7
370
     0
100
AcDbLine
 10
32.625
 20
1.125
 30
0.0
 11
27.0
 21
1.125
 31
0.0
  0
LINE
  5
59
330
A
100
AcDbEntity
  8
0
  6
Continuous
 62
     7
370
     0
100
AcDbLine
 10
27.0
 20
1.125
 30
0.0
 11
21.375
 21
1.125
 31
0.0
  0
LINE
  5
5A
330
A
100
AcDbEntity
  8
0
  6
Continuous
 62
     7
370
     0
100
AcDbLine
 10
21.375
 20
1.125
 30
0.0
 11
15.75
 21
1.125
 31
0.0
  0
LINE
  5
5B
330
A
100
AcDbEntity
  8
0
  6
Continuous
 62
     7
370
     0
100
AcDbLine
 10
15.75
 20
1.125
 30
0.0
 11
10.12499999999999
 21
1.125
 31
0.0
  0
LINE
  5
5C
330
A
100
AcDbEntity
  8
0
  6
Continuous
 62
     7
370
     0
100
AcDbLine
 10
38.625
 20
6.0
 30
0.0
 11
38.625
 21
3.561
 31
0.0
  0
LINE
  5
5D
330
A
100
AcDbEntity
  8
0
  6
Continuous
 62
     7
370
     0
100
AcDbLine
 10
10.12499999999999
 20
1.125
 30
0.0
 11
4.5
 21
1.125
 31
0.0
  0
LINE
  5
5E
330
A
100
AcDbEntity
  8
0
  6
Continuous
 62
     7
370
     0
100
AcDbLine
 10
2.25
 20
31.875
 30
0.0
 11
2.25
 21
1.125
 31
0.0
  0
LINE
  5
5F
330
A
100
AcDbEntity
  8
0
  6
Continuous
 62
     7
370
     0
100
AcDbLine
 10
4.5
 20
8.8125
 30
0.0
 11
4.5
 21
16.5
 31
0.0
  0
LINE
  5
60
330
A
100
AcDbEntity
  8
0
  6
Continuous
 62
     7
370
     0
100
AcDbLine
 10
4.5
 20
16.5
 30
0.0
 11
4.5
 21
24.1875
 31
0.0
  0
LINE
  5
61
330
A
100
AcDbEntity
  8
0
  6
Continuous
 62
     7
370
     0
100
AcDbLine
 10
4.5
 20
24.1875
 30
0.0
 11
4.5
 21
31.875
 31
0.0
  0
LINE
  5
62
330
A
100
AcDbEntity
  8
0
  6
Continuous
 62
     7
370
     0
100
AcDbLine
 10
4.5
 20
24.1875
 30
0.0
 11
4.125
 21
24.1875
 31
0.0
  0
LINE
  5
63
330
A
100
AcDbEntity
  8
0
  6
Continuous
 62
     7
370
     0
100
AcDbLine
 10
43.875
 20
1.125
 30
0.0
 11
43.875
 21
0.75
 31
0.0
  0
LINE
  5
64
330
A
100
AcDbEntity
  8
0
  6
Continuous
 62
     7
370
     0
100
AcDbLine
 10
38.25
 20
1.125
 30
0.0
 11
38.25
 21
0.75
 31
0.0
  0
LINE
  5
65
330
A
100
AcDbEntity
  8
0
  6
Continuous
 62
     7
370
     0
100
AcDbLine
 10
32.625
 20
1.125
 30
0.0
 11
32.625
 21
0.75
 31
0.0
  0
LINE
  5
66
330
A
100
AcDbEntity
  8
0
  6
CENTERX2
 62
     7
370
     0
100
AcDbLine
 10
27.0
 20
1.125
 30
0.0
 11
27.0
 21
0.75
 31
0.0
  0
LINE
  5
67
330
A
100
AcDbEntity
  8
0
  6
Continuous
 62
     7
370
     0
100
AcDbLine
 10
21.375
 20
1.125
 30
0.0
 11
21.375
 21
0.75
 31
0.0
  0
LINE
  5
68
330
A
100
AcDbEntity
  8
0
  6
Continuous
 62
     7
370
     0
100
AcDbLine
 10
15.75
 20
1.125
 30
0.0
 11
15.75
 21
0.75
 31
0.0
  0
LINE
  5
69
330
A
100
AcDbEntity
  8
0
  6
Continuous
 62
     7
370
     0
100
AcDbLine
 10
10.12499999999999
 20
1.125
 30
0.0
 11
10.12499999999999
 21
0.75
 31
0.0
  0
LINE
  5
6A
330
A
100
AcDbEntity
  8
0
  6
Continuous
 62
     7
370
     0
100
AcDbLine
 10
4.5
 20
16.5
 30
0.0
 11
4.125
 21
16.5
 31
0.0
  0
LINE
  5
6B
330
A
100
AcDbEntity
  8
0
  6
Continuous
 62
     7
370
     0
100
AcDbLine
 10
4.5
 20
8.8125
 30
0.0
 11
4.125
 21
8.8125
 31
0.0
  0
LINE
  5
6C
330
A
100
AcDbEntity
  8
0
  6
Continuous
 62
     7
370
     0
100
AcDbLine
 10
4.5
 20
1.125
 30
0.0
 11
4.5
 21
8.8125
 31
0.0
  0
LINE
  5
6D
330
A
100
AcDbEntity
  8
0
  6
Continuous
 62
     7
370
     0
100
AcDbLine
 10
15.0
 20
2.8125
 30
0.0
 11
15.0
 21
1.125
 31
0.0
  0
LINE
  5
6E
330
A
100
AcDbEntity
  8
0
  6
Continuous
 62
     7
370
     0
100
AcDbLine
 10
49.5
 20
31.31099999999999
 30
0.0
 11
37.5
 21
31.31099999999999
 31
0.0
  0
LINE
  5
6F
330
A
100
AcDbEntity
  8
0
  6
Continuous
 62
     7
370
     0
100
AcDbLine
 10
49.5
 20
30.74699999999999
 30
0.0
 11
37.5
 21
30.74699999999999
 31
0.0
  0
LINE
  5
70
330
A
100
AcDbEntity
  8
0
  6
Continuous
 62
     7
370
     0
100
AcDbLine
 10
49.5
 20
30.183
 30
0.0
 11
37.5
 21
30.183
 31
0.0
  0
LINE
  5
71
330
A
100
AcDbEntity
  8
0
  6
Continuous
 62
     7
370
     0
100
AcDbLine
 10
37.5
 20
31.875
 30
0.0
 11
37.5
 21
30.183
 31
0.0
  0
LINE
  5
72
330
A
100
AcDbEntity
  8
0
  6
Continuous
 62
     7
370
     0
100
AcDbLine
 10
38.625
 20
31.31099999999999
 30
0.0
 11
38.625
 21
30.183
 31
0.0
  0
LINE
  5
73
330
A
100
AcDbEntity
  8
0
  6
Continuous
 62
     7
370
     0
100
AcDbLine
 10
47.25
 20
31.31099999999999
 30
0.0
 11
47.25
 21
30.183
 31
0.0
  0
LINE
  5
74
330
A
100
AcDbEntity
  8
0
  6
Continuous
 62
     7
370
     0
100
AcDbLine
 10
45.375
 20
31.31099999999999
 30
0.0
 11
45.375
 21
30.183
 31
0.0
  0
MTEXT
  5
76
330
A
100
AcDbEntity
  8
0
 62
     1
100
AcDbMText
 10
26.32682008049472
 20
2.853528953817688
 30
0.0
 40
0.3
 41
0.0
 71
     1
 72
     1
  1
STEEL, A-36, 1 1/2" THICK BURNED
  7
SLDTEXTSTYLE0
 73
     1
 44
1.0
  0
MTEXT
  5
77
330
A
100
AcDbEntity
  8
0
 62
     1
100
AcDbMText
 10
34.78558804103783
 20
2.118651618433102
 30
0.0
 40
0.3
 41
0.0
 71
     1
 72
     1
  1
 29.6 lbs
  7
SLDTEXTSTYLE0
 73
     1
 44
1.0
  0
MTEXT
  5
78
330
A
100
AcDbEntity
  8
0
 62
     1
100
AcDbMText
 10
28.10438614128674
 20
2.115186139933102
 30
0.0
 40
0.3
 41
0.0
 71
     1
 72
     1
  1
BLANCHARD GROUND \PTWO SIDES, SEE NOTE 
  7
SLDTEXTSTYLE0
 73
     1
 44
1.0
  0
MTEXT
  5
79
330
A
100
AcDbEntity
  8
0
 62
     7
100
AcDbMText
 10
50.14018523859999
 20
27.2659883776
 30
0.0
 40
0.28125
 41
0.0
 71
     1
 72
     1
  1
D
  7
SLDTEXTSTYLE0
 73
     1
 44
1.0
  0
MTEXT
  5
7A
330
A
100
AcDbEntity
  8
0
 62
     7
100
AcDbMText
 10
50.08531754909999
 20
19.6386344243
 30
0.0
 40
0.28125
 41
0.0
 71
     1
 72
     1
  1
C
  7
SLDTEXTSTYLE0
 73
     1
 44
1.0
  0
MTEXT
  5
7B
330
A
100
AcDbEntity
  8
0
 62
     7
100
AcDbMText
 10
50.1183624005
 20
12.656445479
 30
0.0
 40
0.28125
 41
0.0
 71
     1
 72
     1
  1
B
  7
SLDTEXTSTYLE0
 73
     1
 44
1.0
  0
MTEXT
  5
7C
330
A
100
AcDbEntity
  8
0
 62
     7
100
AcDbMText
 10
50.1166549803
 20
5.1413046249
 30
0.0
 40
0.28125
 41
0.0
 71
     1
 72
     1
  1
A
  7
SLDTEXTSTYLE0
 73
     1
 44
1.0
  0
MTEXT
  5
7D
330
A
100
AcDbEntity
  8
0
 62
     7
100
AcDbMText
 10
2.893057796
 20
5.0802431056
 30
0.0
 40
0.28125
 41
0.0
 71
     1
 72
     1
  1
A
  7
SLDTEXTSTYLE0
 73
     1
 44
1.0
  0
MTEXT
  5
7E
330
A
100
AcDbEntity
  8
0
 62
     7
100
AcDbMText
 10
2.8834785192
 20
12.8333858419
 30
0.0
 40
0.28125
 41
0.0
 71
     1
 72
     1
  1
B
  7
SLDTEXTSTYLE0
 73
     1
 44
1.0
  0
MTEXT
  5
7F
330
A
100
AcDbEntity
  8
0
 62
     7
100
AcDbMText
 10
2.846483716299999
 20
20.62272001979999
 30
0.0
 40
0.28125
 41
0.0
 71
     1
 72
     1
  1
C
  7
SLDTEXTSTYLE0
 73
     1
 44
1.0
  0
MTEXT
  5
80
330
A
100
AcDbEntity
  8
0
 62
     7
100
AcDbMText
 10
2.8366468864
 20
27.9194051507
 30
0.0
 40
0.28125
 41
0.0
 71
     1
 72
     1
  1
D
  7
SLDTEXTSTYLE0
 73
     1
 44
1.0
  0
MTEXT
  5
81
330
A
100
AcDbEntity
  8
0
 62
     7
100
AcDbMText
 10
48.5574174346
 20
1.559035676899999
 30
0.0
 40
0.27
 41
0.0
 71
     1
 72
     1
  1
REV.
  7
SLDTEXTSTYLE0
 73
     1
 44
1.0
  0
MTEXT
  5
82
330
A
100
AcDbEntity
  8
0
 62
     7
100
AcDbMText
 10
37.0472310355
 20
5.2760729234
 30
0.0
 40
0.27
 41
0.0
 71
     1
 72
     1
  1
%%p\P%%p\P%%p\P%%p
  7
SLDTEXTSTYLE0
 73
     1
 44
1.0
  0
MTEXT
  5
83
330
A
100
AcDbEntity
  8
0
 62
     7
100
AcDbMText
 10
26.43582457449999
 20
3.2924537999
 30
0.0
 40
0.27
 41
0.0
 71
     1
 72
     1
  1
MATERIAL
  7
SLDTEXTSTYLE0
 73
     1
 44
1.0
  0
MTEXT
  5
84
330
A
100
AcDbEntity
  8
0
 62
     7
100
AcDbMText
 10
26.4289602194
 20
2.195021420599999
 30
0.0
 40
0.27
 41
0.0
 71
     1
 72
     1
  1
FINISH
  7
SLDTEXTSTYLE0
 73
     1
 44
1.0
  0
MTEXT
  5
85
330
A
100
AcDbEntity
  8
0
 62
     7
100
AcDbMText
 10
47.40129901
 20
0.9653051428999999
 30
0.0
 40
0.28125
 41
0.0
 71
     1
 72
     1
  1
1
  7
SLDTEXTSTYLE0
 73
     1
 44
1.0
  0
MTEXT
  5
86
330
A
100
AcDbEntity
  8
0
 62
     7
100
AcDbMText
 10
40.7831587621
 20
0.9945323844
 30
0.0
 40
0.28125
 41
0.0
 71
     1
 72
     1
  1
2
  7
SLDTEXTSTYLE0
 73
     1
 44
1.0
  0
MTEXT
  5
87
330
A
100
AcDbEntity
  8
0
 62
     7
100
AcDbMText
 10
34.6088150428
 20
1.004274798199999
 30
0.0
 40
0.28125
 41
0.0
 71
     1
 72
     1
  1
3
  7
SLDTEXTSTYLE0
 73
     1
 44
1.0
  0
MTEXT
  5
88
330
A
100
AcDbEntity
  8
0
 62
     7
100
AcDbMText
 10
29.04503274219999
 20
1.010234631999999
 30
0.0
 40
0.28125
 41
0.0
 71
     1
 72
     1
  1
4
  7
SLDTEXTSTYLE0
 73
     1
 44
1.0
  0
MTEXT
  5
89
330
A
100
AcDbEntity
  8
0
 62
     7
100
AcDbMText
 10
23.1937940055
 20
1.019977045899999
 30
0.0
 40
0.28125
 41
0.0
 71
     1
 72
     1
  1
5
  7
SLDTEXTSTYLE0
 73
     1
 44
1.0
  0
MTEXT
  5
8A
330
A
100
AcDbEntity
  8
0
 62
     7
100
AcDbMText
 10
17.7306464958
 20
0.9712649767
 30
0.0
 40
0.28125
 41
0.0
 71
     1
 72
     1
  1
6
  7
SLDTEXTSTYLE0
 73
     1
 44
1.0
  0
MTEXT
  5
8B
330
A
100
AcDbEntity
  8
0
 62
     7
100
AcDbMText
 10
11.79069263589999
 20
1.014017212099999
 30
0.0
 40
0.28125
 41
0.0
 71
     1
 72
     1
  1
7
  7
SLDTEXTSTYLE0
 73
     1
 44
1.0
  0
MTEXT
  5
8C
330
A
100
AcDbEntity
  8
0
 62
     7
100
AcDbMText
 10
6.444454092099999
 20
1.019977045899999
 30
0.0
 40
0.28125
 41
0.0
 71
     1
 72
     1
  1
8
  7
SLDTEXTSTYLE0
 73
     1
 44
1.0
  0
MTEXT
  5
8D
330
A
100
AcDbEntity
  8
0
 62
     7
100
AcDbMText
 10
6.351836859199999
 20
32.426068864
 30
0.0
 40
0.28125
 41
0.0
 71
     1
 72
     1
  1
8
  7
SLDTEXTSTYLE0
 73
     1
 44
1.0
  0
MTEXT
  5
8E
330
A
100
AcDbEntity
  8
0
 62
     7
100
AcDbMText
 10
12.21137099329999
 20
32.3592070312
 30
0.0
 40
0.28125
 41
0.0
 71
     1
 72
     1
  1
7
  7
SLDTEXTSTYLE0
 73
     1
 44
1.0
  0
MTEXT
  5
8F
330
A
100
AcDbEntity
  8
0
 62
     7
100
AcDbMText
 10
17.8551442191
 20
32.3396061198
 30
0.0
 40
0.28125
 41
0.0
 71
     1
 72
     1
  1
6
  7
SLDTEXTSTYLE0
 73
     1
 44
1.0
  0
MTEXT
  5
90
330
A
100
AcDbEntity
  8
0
 62
     7
100
AcDbMText
 10
23.71858254269999
 20
32.3040326985
 30
0.0
 40
0.28125
 41
0.0
 71
     1
 72
     1
  1
5
  7
SLDTEXTSTYLE0
 73
     1
 44
1.0
  0
MTEXT
  5
91
330
A
100
AcDbEntity
  8
0
 62
     7
100
AcDbMText
 10
29.5464474451
 20
32.3904954427
 30
0.0
 40
0.28125
 41
0.0
 71
     1
 72
     1
  1
4
  7
SLDTEXTSTYLE0
 73
     1
 44
1.0
  0
MTEXT
  5
92
330
A
100
AcDbEntity
  8
0
 62
     7
100
AcDbMText
 10
35.40390672239999
 20
32.3284399316
 30
0.0
 40
0.28125
 41
0.0
 71
     1
 72
     1
  1
3
  7
SLDTEXTSTYLE0
 73
     1
 44
1.0
  0
MTEXT
  5
93
330
A
100
AcDbEntity
  8
0
 62
     7
100
AcDbMText
 10
41.0131439554
 20
32.36505078119999
 30
0.0
 40
0.28125
 41
0.0
 71
     1
 72
     1
  1
2
  7
SLDTEXTSTYLE0
 73
     1
 44
1.0
  0
MTEXT
  5
94
330
A
100
AcDbEntity
  8
0
 62
     7
100
AcDbMText
 10
47.00069330109999
 20
32.3151988867
 30
0.0
 40
0.28125
 41
0.0
 71
     1
 72
     1
  1
1
  7
SLDTEXTSTYLE0
 73
     1
 44
1.0
  0
MTEXT
  5
95
330
A
100
AcDbEntity
  8
0
 62
     7
100
AcDbMText
 10
40.9663020349
 20
6.902152157899999
 30
0.0
 40
0.5
 41
0.0
 71
     1
 72
     1
  1
RADIO  ASTRONOMY  LAB
  7
SLDTEXTSTYLE0
 73
     1
 44
1.0
  0
MTEXT
  5
96
330
A
100
AcDbEntity
  8
0
 62
     7
100
AcDbMText
 10
45.0682736264
 20
6.0586473271
 30
0.0
 40
0.3
 41
0.0
 71
     2
 72
     1
  1
University of California - Berkeley\PTel: 510-642-5040    Fax: 510-642-3411
  7
SLDTEXTSTYLE0
 73
     1
 44
1.0
  0
MTEXT
  5
97
330
A
100
AcDbEntity
  8
0
 62
     7
100
AcDbMText
 10
28.1519548219
 20
4.913278158499999
 30
0.0
 40
0.27
 41
0.0
 71
     1
 72
     1
  1
NAME
  7
SLDTEXTSTYLE0
 73
     1
 44
1.0
  0
MTEXT
  5
98
330
A
100
AcDbEntity
  8
0
 62
     7
100
AcDbMText
 10
31.4758176706
 20
4.899985281
 30
0.0
 40
0.27
 41
0.0
 71
     1
 72
     1
  1
DATE
  7
SLDTEXTSTYLE0
 73
     1
 44
1.0
  0
MTEXT
  5
99
330
A
100
AcDbEntity
  8
0
 62
     7
100
AcDbMText
 10
40.7379912972
 20
1.5724585896
 30
0.0
 40
0.27
 41
0.0
 71
     1
 72
     1
  1
SIZE
  7
SLDTEXTSTYLE0
 73
     1
 44
1.0
  0
MTEXT
  5
9A
330
A
100
AcDbEntity
  8
0
 62
     7
100
AcDbMText
 10
40.90349964179999
 20
2.5323959018
 30
0.0
 40
0.5625
 41
0.0
 71
     1
 72
     1
  1
B
  7
SLDTEXTSTYLE0
 73
     1
 44
1.0
  0
MTEXT
  5
9B
330
A
100
AcDbEntity
  8
0
 62
     7
100
AcDbMText
 10
33.2376385533
 20
1.538598511999999
 30
0.0
 40
0.27
 41
0.0
 71
     1
 72
     1
  1
SCALE:
  7
SLDTEXTSTYLE0
 73
     1
 44
1.0
  0
MTEXT
  5
9C
330
A
100
AcDbEntity
  8
0
 62
     7
100
AcDbMText
 10
41.77317173419999
 20
1.5600008436
 30
0.0
 40
0.27
 41
0.0
 71
     1
 72
     1
  1
DWG NUM:      SHEET             OF
  7
SLDTEXTSTYLE0
 73
     1
 44
1.0
  0
MTEXT
  5
9D
330
A
100
AcDbEntity
  8
0
 62
     7
100
AcDbMText
 10
47.9963444383
 20
31.1559080558
 30
0.0
 40
0.27
 41
0.0
 71
     1
 72
     1
  1
DATE
  7
SLDTEXTSTYLE0
 73
     1
 44
1.0
  0
MTEXT
  5
9E
330
A
100
AcDbEntity
  8
0
 62
     7
100
AcDbMText
 10
45.90746573779999
 20
31.154623681
 30
0.0
 40
0.27
 41
0.0
 71
     1
 72
     1
  1
NAME
  7
SLDTEXTSTYLE0
 73
     1
 44
1.0
  0
MTEXT
  5
9F
330
A
100
AcDbEntity
  8
0
 62
     7
100
AcDbMText
 10
42.0992215522
 20
31.715894012
 30
0.0
 40
0.27
 41
0.0
 71
     1
 72
     1
  1
REVISIONS
  7
SLDTEXTSTYLE0
 73
     1
 44
1.0
  0
MTEXT
  5
A0
330
A
100
AcDbEntity
  8
0
 62
     7
100
AcDbMText
 10
37.7465957607
 20
31.15029972449999
 30
0.0
 40
0.27
 41
0.0
 71
     1
 72
     1
  1
REV
  7
SLDTEXTSTYLE0
 73
     1
 44
1.0
  0
MTEXT
  5
A1
330
A
100
AcDbEntity
  8
0
 62
     7
100
AcDbMText
 10
38.88736707469999
 20
31.1486720258
 30
0.0
 40
0.27
 41
0.0
 71
     1
 72
     1
  1
DESCRIPTION
  7
SLDTEXTSTYLE0
 73
     1
 44
1.0
  0
MTEXT
  5
A2
330
A
100
AcDbEntity
  8
0
 62
     7
100
AcDbMText
 10
33.22205903329999
 20
2.095337444499999
 30
0.0
 40
0.27
 41
0.0
 71
     1
 72
     1
  1
WEIGHT:
  7
SLDTEXTSTYLE0
 73
     1
 44
1.0
  0
MTEXT
  5
A3
330
A
100
AcDbEntity
  8
0
 62
     7
100
AcDbMText
 10
26.4322923529
 20
4.342633389399999
 30
0.0
 40
0.27
 41
0.0
 71
     1
 72
     1
  1
DRAWN
  7
SLDTEXTSTYLE0
 73
     1
 44
1.0
  0
MTEXT
  5
A4
330
A
100
AcDbEntity
  8
0
 62
     7
100
AcDbMText
 10
26.431610102
 20
3.7839912716
 30
0.0
 40
0.27
 41
0.0
 71
     1
 72
     1
  1
CHECKED
  7
SLDTEXTSTYLE0
 73
     1
 44
1.0
  0
MTEXT
  5
A5
330
A
100
AcDbEntity
  8
0
 62
     7
100
AcDbMText
 10
36.4958378773
 20
5.2617615291
 30
0.0
 40
0.27
 41
0.0
 71
     3
 72
     1
  1
WHOLE & FRACTION\PDECIMAL   X.X\PDECIMAL   X.XX\PDECIMAL   X.XXX
  7
SLDTEXTSTYLE0
 73
     1
 44
1.0
  0
MTEXT
  5
A6
330
A
100
AcDbEntity
  8
0
 62
     7
100
AcDbMText
 10
37.76189271079999
 20
5.8942080782
 30
0.0
 40
0.27
 41
0.0
 71
     2
 72
     1
  1
LINEAR
  7
SLDTEXTSTYLE0
 73
     1
 44
1.0
  0
MTEXT
  5
A7
330
A
100
AcDbEntity
  8
0
 62
     7
100
AcDbMText
 10
39.5034136541
 20
5.9122612969
 30
0.0
 40
0.27
 41
0.0
 71
     2
 72
     1
  1
ANGLE
  7
SLDTEXTSTYLE0
 73
     1
 44
1.0
  0
INSERT
  5
AE
330
A
100
AcDbEntity
  8
0
100
AcDbBlockReference
  2
NOTE50
 10
33.5009900572
 20
3.282134257799999
 30
0.0
  0
MTEXT
  5
AF
330
A
100
AcDbEntity
  8
0
 62
     7
100
AcDbMText
 10
36.7462604643
 20
6.926708539699999
 30
0.0
 40
0.27
 41
0.0
 71
     2
 72
     1
  1
UNLESS OTHERWISE SPECIFIED\PDIMENSIONS ARE INCHES & DEGREES
  7
SLDTEXTSTYLE0
 73
     1
 44
1.0
  0
MTEXT
  5
B0
330
A
100
AcDbEntity
  8
0
 62
     7
100
AcDbMText
 10
33.60390032699999
 20
5.875105358999999
 30
0.0
 40
0.27
 41
0.0
 71
     1
 72
     1
  1
TOLERANCES:
  7
SLDTEXTSTYLE0
 73
     1
 44
1.0
  0
MTEXT
  5
B1
330
A
100
AcDbEntity
  8
0
 62
     7
100
AcDbMText
 10
38.8663855537
 20
5.2734365033
 30
0.0
 40
0.27
 41
0.0
 71
     1
 72
     1
  1
%%p\P%%p\P%%p\P%%p
  7
SLDTEXTSTYLE0
 73
     1
 44
1.0
  0
MTEXT
  5
B2
330
A
100
AcDbEntity
  8
0
 62
     7
100
AcDbMText
 10
43.99020088060001
 20
31.1586793059
 30
0.0
 40
0.27
 41
0.0
 71
     1
 72
     1
  1
ZONE
  7
SLDTEXTSTYLE0
 73
     1
 44
1.0
  0
MTEXT
  5
B3
330
A
100
AcDbEntity
  8
0
 62
     7
100
AcDbMText
 10
15.28565304579999
 20
2.5937000015
 30
0.0
 40
0.24
 41
0.0
 71
     1
 72
     1
  1
THIS DRAWING IS THE PROPERTY OF AND CONTAINS CONFIDENTIAL\PINFORMATION PROPRIETARY TO THE UNIVERSITY OF CALIFORNIA AND\PSHALL BE USED ONLY FOR THE PURPOSE FOR WHICH IT WAS PROVIDED\PAND SHALL NOT BE REPRODUCED OR DISCLOSED TO OTHERS.
  7
SLDTEXTSTYLE0
 73
     1
 44
1.0
  0
MTEXT
  5
B4
330
A
100
AcDbEntity
  8
0
 62
     7
100
AcDbMText
 10
37.9168758388
 20
30.61469752829999
 30
0.0
 40
0.27
 41
0.0
 71
     1
 72
     1
  1
A
  7
SLDTEXTSTYLE0
 73
     1
 44
1.0
  0
MTEXT
  5
B5
330
A
100
AcDbEntity
  8
0
 62
     7
100
AcDbMText
 10
38.9339877417
 20
30.6139545251
 30
0.0
 40
0.27
 41
0.0
 71
     1
 72
     1
  1
RELEASED
  7
SLDTEXTSTYLE0
 73
     1
 44
1.0
  0
MTEXT
  5
B6
330
A
100
AcDbEntity
  8
0
 62
     7
100
AcDbMText
 10
28.10752251949999
 20
4.380380667999999
 30
0.0
 40
0.3125
 41
0.0
 71
     1
 72
     1
  1
M. C. FLEMING
  7
SLDTEXTSTYLE0
 73
     1
 44
1.0
  0
MTEXT
  5
B7
330
A
100
AcDbEntity
  8
0
 62
     7
100
AcDbMText
 10
48.7563131641
 20
2.4812113434
 30
0.0
 40
0.5625
 41
0.0
 71
     1
 72
     1
  1
A
  7
SLDTEXTSTYLE0
 73
     1
 44
1.0
  0
MTEXT
  5
B8
330
A
100
AcDbEntity
  8
0
 62
     7
100
AcDbMText
 10
30.9664208309
 20
4.3752125285
 30
0.0
 40
0.3125
 41
0.0
 71
     1
 72
     1
  1
2005-01-15
  7
SLDTEXTSTYLE0
 73
     1
 44
1.0
  0
MTEXT
  5
B9
330
A
100
AcDbEntity
  8
0
 62
     7
100
AcDbMText
 10
37.53723273979999
 20
5.2794801717
 30
0.0
 40
0.27
 41
0.0
 71
     1
 72
     1
  1
1/16\P0.1\P0.01\P0.005
  7
SLDTEXTSTYLE0
 73
     1
 44
1.0
  0
MTEXT
  5
BA
330
A
100
AcDbEntity
  8
0
 62
     7
100
AcDbMText
 10
39.3074526584
 20
5.2736253067
 30
0.0
 40
0.27
 41
0.0
 71
     1
 72
     1
  1
1%%d\P0.1%%d\P0.01%%d\P0.001%%d
  7
SLDTEXTSTYLE0
 73
     1
 44
1.0
  0
MTEXT
  5
BB
330
A
100
AcDbEntity
  8
0
 62
     7
100
AcDbMText
 10
42.24510903299999
 20
2.535486033799999
 30
0.0
 40
0.5625
 41
0.0
 71
     1
 72
     1
  1
24-09-233   1 of 1
  7
SLDTEXTSTYLE0
 73
     1
 44
1.0
  0
MTEXT
  5
BC
330
A
100
AcDbEntity
  8
0
 62
     7
100
AcDbMText
 10
45.8879347483
 20
30.6152584524
 30
0.0
 40
0.3125
 41
0.0
 71
     1
 72
     1
  1
M.C.F.
  7
SLDTEXTSTYLE0
 73
     1
 44
1.0
  0
MTEXT
  5
BD
330
A
100
AcDbEntity
  8
0
 62
     7
100
AcDbMText
 10
47.5259220293
 20
30.62530367629999
 30
0.0
 40
0.3125
 41
0.0
 71
     1
 72
     1
  1
2005-01-15
  7
SLDTEXTSTYLE0
 73
     1
 44
1.0
  0
MTEXT
  5
BE
330
A
100
AcDbEntity
  8
0
 62
     7
100
AcDbMText
 10
44.8160382045
 20
4.5977589702
 30
0.0
 40
0.5625
 41
0.0
 71
     2
 72
     1
  1
CARMA 6m Base,\PColumn Base West
  7
SLDTEXTSTYLE0
 73
     1
 44
1.0
  0
LINE
  5
BF
330
A
100
AcDbEntity
  8
0
  6
CENTERX2
 62
     1
370
     0
100
AcDbLine
 10
31.499643988
 20
19.6695638793
 30
0.0
 11
31.68183756869999
 21
19.410657212
 31
0.0
  0
LINE
  5
C0
330
A
100
AcDbEntity
  8
0
  6
CENTERX2
 62
     1
370
     0
100
AcDbLine
 10
31.68183756869999
 20
19.410657212
 30
0.0
 11
31.68183756869999
 21
19.0940704731
 31
0.0
  0
LINE
  5
C1
330
A
100
AcDbEntity
  8
0
  6
CENTERX2
 62
     1
370
     0
100
AcDbLine
 10
26.41275801169999
 20
26.160657212
 30
0.0
 11
26.93183756869999
 21
26.160657212
 31
0.0
  0
LINE
  5
C2
330
A
100
AcDbEntity
  8
0
  6
CENTERX2
 62
     1
370
     0
100
AcDbLine
 10
26.93183756869999
 20
26.160657212
 30
0.0
 11
27.23056443099999
 21
25.73615061809999
 31
0.0
  0
CIRCLE
  5
C3
330
A
100
AcDbEntity
  8
0
  6
CENTERX2
 62
     7
370
     0
100
AcDbCircle
 10
22.68183756869999
 20
22.41065721199999
 30
0.0
 40
1.5625
  0
POINT
  5
C4
330
A
100
AcDbEntity
  8
0
 62
     1
100
AcDbPoint
 10
18.93183756869999
 20
18.160657212
 30
0.0
  0
CIRCLE
  5
C5
330
A
100
AcDbEntity
  8
0
  6
Continuous
 62
     7
370
    15
100
AcDbCircle
 10
24.0350022621
 20
23.19190721199999
 30
0.0
 40
0.266
  0
CIRCLE
  5
C6
330
A
100
AcDbEntity
  8
0
  6
Continuous
 62
     7
370
    15
100
AcDbCircle
 10
24.0350022621
 20
23.19190721199999
 30
0.0
 40
0.21095
  0
CIRCLE
  5
C7
330
A
100
AcDbEntity
  8
0
  6
Continuous
 62
     7
370
    15
100
AcDbCircle
 10
22.68183756869999
 20
20.848157212
 30
0.0
 40
0.266
  0
CIRCLE
  5
C8
330
A
100
AcDbEntity
  8
0
  6
Continuous
 62
     7
370
    15
100
AcDbCircle
 10
24.0350022621
 20
21.62940721199999
 30
0.0
 40
0.266
  0
CIRCLE
  5
C9
330
A
100
AcDbEntity
  8
0
  6
Continuous
 62
     7
370
    15
100
AcDbCircle
 10
22.68183756869999
 20
23.97315721199999
 30
0.0
 40
0.266
  0
CIRCLE
  5
CA
330
A
100
AcDbEntity
  8
0
  6
Continuous
 62
     7
370
    15
100
AcDbCircle
 10
21.3286728753
 20
23.19190721199999
 30
0.0
 40
0.266
  0
CIRCLE
  5
CB
330
A
100
AcDbEntity
  8
0
  6
Continuous
 62
     7
370
    15
100
AcDbCircle
 10
21.3286728753
 20
21.62940721199999
 30
0.0
 40
0.266
  0
LINE
  5
CC
330
A
100
AcDbEntity
  8
0
  6
Continuous
 62
     7
370
    15
100
AcDbLine
 10
18.1331107064
 20
25.73615061809999
 30
0.0
 11
13.8640311494
 21
19.6695638793
 31
0.0
  0
ARC
  5
CD
330
A
100
AcDbEntity
  8
0
  6
Continuous
 62
     7
370
    15
100
AcDbCircle
 10
14.6818375687
 20
19.0940704731
 30
0.0
 40
1.0
100
AcDbArc
 50
144.8658069430999
 51
180.0
  0
LINE
  5
CE
330
A
100
AcDbEntity
  8
0
  6
Continuous
 62
     7
370
    15
100
AcDbLine
 10
13.68183756869999
 20
19.0940704731
 30
0.0
 11
13.68183756869999
 21
15.910657212
 31
0.0
  0
ARC
  5
CF
330
A
100
AcDbEntity
  8
0
  6
Continuous
 62
     7
370
    15
100
AcDbCircle
 10
14.6818375687
 20
15.910657212
 30
0.0
 40
1.0
100
AcDbArc
 50
180.0
 51
270.0
  0
LINE
  5
D0
330
A
100
AcDbEntity
  8
0
  6
Continuous
 62
     7
370
    15
100
AcDbLine
 10
14.6818375687
 20
14.910657212
 30
0.0
 11
30.68183756869999
 21
14.910657212
 31
0.0
  0
ARC
  5
D1
330
A
100
AcDbEntity
  8
0
  6
Continuous
 62
     7
370
    15
100
AcDbCircle
 10
30.68183756869999
 20
15.910657212
 30
0.0
 40
1.0
100
AcDbArc
 50
270.0
 51
0.0
  0
LINE
  5
D2
330
A
100
AcDbEntity
  8
0
  6
Continuous
 62
     7
370
    15
100
AcDbLine
 10
31.68183756869999
 20
15.910657212
 30
0.0
 11
31.68183756869999
 21
19.0940704731
 31
0.0
  0
ARC
  5
D3
330
A
100
AcDbEntity
  8
0
  6
Continuous
 62
     7
370
    15
100
AcDbCircle
 10
30.68183756869999
 20
19.0940704731
 30
0.0
 40
1.0
100
AcDbArc
 50
0.0
 51
35.1341930569
  0
LINE
  5
D4
330
A
100
AcDbEntity
  8
0
  6
Continuous
 62
     7
370
    15
100
AcDbLine
 10
31.499643988
 20
19.6695638793
 30
0.0
 11
27.23056443099999
 21
25.73615061809999
 31
0.0
  0
ARC
  5
D5
330
A
100
AcDbEntity
  8
0
  6
Continuous
 62
     7
370
    15
100
AcDbCircle
 10
26.41275801169999
 20
25.16065721199999
 30
0.0
 40
1.0
100
AcDbArc
 50
35.1341930569
 51
90.0
  0
LINE
  5
D6
330
A
100
AcDbEntity
  8
0
  6
Continuous
 62
     7
370
    15
100
AcDbLine
 10
26.41275801169999
 20
26.160657212
 30
0.0
 11
18.9509171257
 21
26.160657212
 31
0.0
  0
ARC
  5
D7
330
A
100
AcDbEntity
  8
0
  6
Continuous
 62
     7
370
    15
100
AcDbCircle
 10
18.9509171257
 20
25.16065721199999
 30
0.0
 40
1.0
100
AcDbArc
 50
90.0
 51
144.8658069430999
  0
CIRCLE
  5
D8
330
A
100
AcDbEntity
  8
0
  6
Continuous
 62
     7
370
    15
100
AcDbCircle
 10
22.68183756869999
 20
20.848157212
 30
0.0
 40
0.21095
  0
CIRCLE
  5
D9
330
A
100
AcDbEntity
  8
0
  6
Continuous
 62
     7
370
    15
100
AcDbCircle
 10
22.68183756869999
 20
23.97315721199999
 30
0.0
 40
0.21095
  0
CIRCLE
  5
DA
330
A
100
AcDbEntity
  8
0
  6
Continuous
 62
     7
370
    15
100
AcDbCircle
 10
21.3286728753
 20
23.19190721199999
 30
0.0
 40
0.21095
  0
CIRCLE
  5
DB
330
A
100
AcDbEntity
  8
0
  6
Continuous
 62
     7
370
    15
100
AcDbCircle
 10
24.0350022621
 20
21.62940721199999
 30
0.0
 40
0.21095
  0
CIRCLE
  5
DC
330
A
100
AcDbEntity
  8
0
  6
Continuous
 62
     7
370
    15
100
AcDbCircle
 10
21.3286728753
 20
21.62940721199999
 30
0.0
 40
0.21095
  0
DIMENSION
  5
EC
330
A
100
AcDbEntity
  8
0
100
AcDbDimension
  2
*D1
 10
34.729531239
 20
14.910657212
 30
0.0
 11
34.729531239
 21
17.160657212
 31
0.0
 70
   160
  1
<>\PTO SHARP CORNER\P2 PLACES
 71
     5
 42
0.0
  3
SLDDIMSTYLE0
100
AcDbAlignedDimension
 13
31.68183756869999
 23
19.410657212
 33
0.0
 14
30.68183756869999
 24
14.910657212
 34
0.0
 50
90.0
100
AcDbRotatedDimension
  0
DIMENSION
  5
FB
330
A
100
AcDbEntity
  8
0
100
AcDbDimension
  2
*D2
 10
31.68183756869999
 20
29.52953773579999
 30
0.0
 11
33.7446792453
 21
29.52953773579999
 31
0.0
 70
   160
  1
<>\PTO SHARP CORNER\P2 PLACES
 71
     5
 42
0.0
  3
SLDDIMSTYLE0
100
AcDbAlignedDimension
 13
26.93183756869999
 23
26.160657212
 33
0.0
 14
31.68183756869999
 24
19.0940704731
 34
0.0
100
AcDbRotatedDimension
  0
DIMENSION
  5
108
330
A
100
AcDbEntity
  8
0
100
AcDbDimension
  2
*D3
 10
26.93183756869999
 20
29.52953773579999
 30
0.0
 11
22.68183756869999
 21
29.52953773579999
 31
0.0
 70
   160
 71
     5
 42
0.0
  3
SLDDIMSTYLE0
100
AcDbAlignedDimension
 13
18.43183756869999
 23
26.160657212
 33
0.0
 14
26.93183756869999
 24
26.160657212
 34
0.0
100
AcDbRotatedDimension
  0
DIMENSION
  5
114
330
A
100
AcDbEntity
  8
0
 62
     7
100
AcDbDimension
  2
*D4
 10
25.7123265306
 20
26.160657212
 30
0.0
 11
25.7123265306
 21
24.3295408163
 31
0.0
 70
   160
 71
     5
 42
0.0
  3
SLDDIMSTYLE0
100
AcDbAlignedDimension
 13
22.68183756869999
 23
22.41065721199999
 33
0.0
 14
26.41275801169999
 24
26.160657212
 34
0.0
 50
-90.0
100
AcDbRotatedDimension
  0
DIMENSION
  5
120
330
A
100
AcDbEntity
  8
0
 62
     7
100
AcDbDimension
  2
*D5
 10
31.68183756869999
 20
18.01282653059999
 30
0.0
 11
27.2516938776
 21
18.01282653059999
 31
0.0
 70
   160
 71
     5
 42
0.0
  3
SLDDIMSTYLE0
100
AcDbAlignedDimension
 13
22.68183756869999
 23
22.41065721199999
 33
0.0
 14
31.68183756869999
 24
19.0940704731
 34
0.0
100
AcDbRotatedDimension
  0
DIMENSION
  5
12E
330
A
100
AcDbEntity
  8
0
 62
     7
100
AcDbDimension
  2
*D6
 10
33.2299659626
 20
20.848157212
 30
0.0
 11
33.2299659626
 21
23.04204702959999
 31
0.0
 70
   160
 71
     5
 42
0.0
  3
SLDDIMSTYLE0
100
AcDbAlignedDimension
 13
22.68183756869999
 23
22.41065721199999
 33
0.0
 14
22.68183756869999
 24
20.848157212
 34
0.0
 50
90.0
100
AcDbRotatedDimension
  0
DIMENSION
  5
13B
330
A
100
AcDbEntity
  8
0
 62
     7
100
AcDbDimension
  2
*D7
 10
21.3286728753
 20
27.3220021552
 30
0.0
 11
24.2001077922
 21
27.3220021552
 31
0.0
 70
   160
 71
     5
 42
0.0
  3
SLDDIMSTYLE0
100
AcDbAlignedDimension
 13
22.68183756869999
 23
22.41065721199999
 33
0.0
 14
21.3286728753
 24
23.19190721199999
 34
0.0
100
AcDbRotatedDimension
  0
DIMENSION
  5
149
330
A
100
AcDbEntity
  8
0
 62
     7
100
AcDbDimension
  2
*D8
 10
14.6604624641
 20
23.19190721199999
 30
0.0
 11
14.6604624641
 21
24.0450426376
 31
0.0
 70
   160
 71
     5
 42
0.0
  3
SLDDIMSTYLE0
100
AcDbAlignedDimension
 13
22.68183756869999
 23
22.41065721199999
 33
0.0
 14
21.3286728753
 24
23.19190721199999
 34
0.0
 50
-90.0
100
AcDbRotatedDimension
  0
DIMENSION
  5
156
330
A
100
AcDbEntity
  8
0
100
AcDbDimension
  2
*D9
 10
31.68183756869999
 20
9.873663139899999
 30
0.0
 11
22.68183756869999
 21
9.873663139899999
 31
0.0
 70
   160
 71
     5
 42
0.0
  3
SLDDIMSTYLE0
100
AcDbAlignedDimension
 13
13.68183756869999
 23
15.910657212
 33
0.0
 14
31.68183756869999
 24
15.910657212
 34
0.0
100
AcDbRotatedDimension
  0
DIMENSION
  5
165
330
A
100
AcDbEntity
  8
0
100
AcDbDimension
  2
*D10
 10
24.0350022621
 20
11.35252007119999
 30
0.0
 11
18.85841991539999
 21
11.35252007119999
 31
0.0
 70
   160
  1
(<>)
 71
     5
 42
0.0
  3
SLDDIMSTYLE0
100
AcDbAlignedDimension
 13
13.68183756869999
 23
15.910657212
 33
0.0
 14
24.0350022621
 24
21.62940721199999
 34
0.0
100
AcDbRotatedDimension
  0
DIMENSION
  5
172
330
A
100
AcDbEntity
  8
0
100
AcDbDimension
  2
*D11
 10
22.68183756869999
 20
13.0997179779
 30
0.0
 11
18.18183756869999
 21
13.0997179779
 31
0.0
 70
   160
 71
     5
 42
0.0
  3
SLDDIMSTYLE0
100
AcDbAlignedDimension
 13
13.68183756869999
 23
15.910657212
 33
0.0
 14
22.68183756869999
 24
20.848157212
 34
0.0
100
AcDbRotatedDimension
  0
DIMENSION
  5
17F
330
A
100
AcDbEntity
  8
0
100
AcDbDimension
  2
*D12
 10
6.4997551869
 20
26.160657212
 30
0.0
 11
6.4997551869
 21
20.535657212
 31
0.0
 70
   160
 71
     5
 42
0.0
  3
SLDDIMSTYLE0
100
AcDbAlignedDimension
 13
14.6818375687
 23
14.910657212
 33
0.0
 14
18.9509171257
 24
26.160657212
 34
0.0
 50
-90.0
100
AcDbRotatedDimension
  0
DIMENSION
  5
18C
330
A
100
AcDbEntity
  8
0
100
AcDbDimension
  2
*D13
 10
26.41275801169999
 20
25.16065721199999
 30
0.0
 11
29.97250060289999
 21
27.71394847999999
 31
0.0
 70
   164
  1
<> RAD\P6 PLACES
 71
     5
 42
0.0
  3
SLDDIMSTYLE1
100
AcDbRadialDimension
 15
26.9752735861
 25
25.9874439006
 35
0.0
 40
0.0
  0
DIMENSION
  5
19B
330
A
100
AcDbEntity
  8
0
100
AcDbDimension
  2
*D14
 10
27.23056443099999
 20
25.73615061809999
 30
0.0
 11
29.8848694534
 21
25.0867260257
 31
0.0
 70
   162
 71
     5
 42
0.0
  3
SLDDIMSTYLE2
100
AcDb2LineAngularDimension
 13
31.68183756869999
 23
19.0940704731
 33
0.0
 14
31.68183756869999
 24
15.910657212
 34
0.0
 15
31.499643988
 25
19.6695638793
 35
0.0
 16
30.7726912876
 26
25.2945593717
 36
0.0
  0
DIMENSION
  5
1AB
330
A
100
AcDbEntity
  8
0
100
AcDbDimension
  2
*D15
 10
22.8310095055
 20
23.8240007982
 30
0.0
 11
13.050113291
 21
29.2592759709
 31
0.0
 70
   163
  1
<> DRILL THRU\P%%c.656 X 45%%d CHAMFER, BOTH SIDES\PTAP 5/8-11 THRU\P6 PLACES ON 3.125 DIA BOLT CIRCLE\P
 71
     5
 42
0.0
  3
SLDDIMSTYLE3
100
AcDbDiametricDimension
 15
22.53266563179999
 25
24.1223136257
 35
0.0
 40
0.0
  0
MTEXT
  5
1AC
330
A
100
AcDbEntity
  8
0
 62
     1
100
AcDbMText
 10
43.65197490619999
 20
9.1796512658
 30
0.0
 40
0.5
 41
0.0
 71
     2
 72
     1
  1
1 REQUIRED\PPER ASSEM
  7
SLDTEXTSTYLE0
 73
     1
 44
1.0
  0
CIRCLE
  5
1AD
330
A
100
AcDbEntity
  8
0
  6
HIDDEN
 62
     7
100
AcDbCircle
 10
22.68183756869999
 20
20.848157212
 30
0.0
 40
0.25
  0
CIRCLE
  5
1AE
330
A
100
AcDbEntity
  8
0
  6
HIDDEN
 62
     7
100
AcDbCircle
 10
24.0350022621
 20
21.62940721199999
 30
0.0
 40
0.25
  0
CIRCLE
  5
1AF
330
A
100
AcDbEntity
  8
0
  6
HIDDEN
 62
     7
100
AcDbCircle
 10
24.0350022621
 20
23.19190721199999
 30
0.0
 40
0.25
  0
CIRCLE
  5
1B0
330
A
100
AcDbEntity
  8
0
  6
HIDDEN
 62
     7
100
AcDbCircle
 10
22.68183756869999
 20
23.97315721199999
 30
0.0
 40
0.25
  0
CIRCLE
  5
1B1
330
A
100
AcDbEntity
  8
0
  6
HIDDEN
 62
     7
100
AcDbCircle
 10
21.3286728753
 20
23.19190721199999
 30
0.0
 40
0.25
  0
CIRCLE
  5
1B2
330
A
100
AcDbEntity
  8
0
  6
HIDDEN
 62
     7
100
AcDbCircle
 10
21.3286728753
 20
21.62940721199999
 30
0.0
 40
0.25
  0
LINE
  5
1B3
330
A
100
AcDbEntity
  8
0
  6
Continuous
 62
     7
370
    15
100
AcDbLine
 10
5.846839580499999
 20
6.6293768523
 30
0.0
 11
5.846839580499999
 21
5.9248654398
 31
0.0
  0
LINE
  5
1B4
330
A
100
AcDbEntity
  8
0
  6
Continuous
 62
     7
370
    15
100
AcDbLine
 10
15.948290253
 20
6.5324985121
 30
0.0
 11
15.948290253
 21
7.2370099246
 31
0.0
  0
LINE
  5
1B5
330
A
100
AcDbEntity
  8
0
  6
Continuous
 62
     7
370
    15
100
AcDbLine
 10
8.984329222299999
 20
2.3688171418
 30
0.0
 11
8.984329222299999
 21
3.0733285543
 31
0.0
  0
POLYLINE
  5
1B6
330
A
100
AcDbEntity
  8
0
  6
Continuous
 62
     7
100
AcDb2dPolyline
 66
     1
 10
0.0
 20
0.0
 30
0.0
 70
   128
 40
0.0017716535
 41
0.0017716535
  0
VERTEX
  5
1B7
330
1B6
100
AcDbEntity
  8
0
100
AcDbVertex
100
AcDb2dVertex
 10
8.1358010849
 20
2.3688171418
 30
0.0
  0
VERTEX
  5
1B8
330
1B6
100
AcDbEntity
  8
0
100
AcDbVertex
100
AcDb2dVertex
 10
8.19003383
 20
2.3410807651
 30
0.0
  0
VERTEX
  5
1B9
330
1B6
100
AcDbEntity
  8
0
100
AcDbVertex
100
AcDb2dVertex
 10
8.2496624651
 20
2.3173203677
 30
0.0
  0
VERTEX
  5
1BA
330
1B6
100
AcDbEntity
  8
0
100
AcDbVertex
100
AcDb2dVertex
 10
8.3138174703
 20
2.2978824299
 30
0.0
  0
VERTEX
  5
1BB
330
1B6
100
AcDbEntity
  8
0
100
AcDbVertex
100
AcDb2dVertex
 10
8.381563321299999
 20
2.2830504006
 30
0.0
  0
VERTEX
  5
1BC
330
1B6
100
AcDbEntity
  8
0
100
AcDbVertex
100
AcDb2dVertex
 10
8.4519121309
 20
2.273040563999999
 30
0.0
  0
VERTEX
  5
1BD
330
1B6
100
AcDbEntity
  8
0
100
AcDbVertex
100
AcDb2dVertex
 10
8.5238380551
 20
2.2679988862
 30
0.0
  0
VERTEX
  5
1BE
330
1B6
100
AcDbEntity
  8
0
100
AcDbVertex
100
AcDb2dVertex
 10
8.596292252000001
 20
2.2679988862
 30
0.0
  0
VERTEX
  5
1BF
330
1B6
100
AcDbEntity
  8
0
100
AcDbVertex
100
AcDb2dVertex
 10
8.668218176299999
 20
2.273040563999999
 30
0.0
  0
VERTEX
  5
1C0
330
1B6
100
AcDbEntity
  8
0
100
AcDbVertex
100
AcDb2dVertex
 10
8.7385669859
 20
2.2830504006
 30
0.0
  0
VERTEX
  5
1C1
330
1B6
100
AcDbEntity
  8
0
100
AcDbVertex
100
AcDb2dVertex
 10
8.8063128368
 20
2.2978824299
 30
0.0
  0
VERTEX
  5
1C2
330
1B6
100
AcDbEntity
  8
0
100
AcDbVertex
100
AcDb2dVertex
 10
8.8704678421
 20
2.3173203677
 30
0.0
  0
VERTEX
  5
1C3
330
1B6
100
AcDbEntity
  8
0
100
AcDbVertex
100
AcDb2dVertex
 10
8.930096477100001
 20
2.3410807651
 30
0.0
  0
VERTEX
  5
1C4
330
1B6
100
AcDbEntity
  8
0
100
AcDbVertex
100
AcDb2dVertex
 10
8.984329222299999
 20
2.3688171418
 30
0.0
  0
SEQEND
  5
1C5
330
1B6
100
AcDbEntity
  8
0
  0
LINE
  5
1C6
330
A
100
AcDbEntity
  8
0
  6
Continuous
 62
     7
370
    15
100
AcDbLine
 10
8.1358010849
 20
2.3688171418
 30
0.0
 11
8.1358010849
 21
3.0733285543
 31
0.0
  0
POLYLINE
  5
1C7
330
A
100
AcDbEntity
  8
0
  6
Continuous
 62
     7
100
AcDb2dPolyline
 66
     1
 10
0.0
 20
0.0
 30
0.0
 70
   128
 40
0.0017716535
 41
0.0017716535
  0
VERTEX
  5
1C8
330
1C7
100
AcDbEntity
  8
0
100
AcDbVertex
100
AcDb2dVertex
 10
8.1358010849
 20
3.0733285543
 30
0.0
  0
VERTEX
  5
1C9
330
1C7
100
AcDbEntity
  8
0
100
AcDbVertex
100
AcDb2dVertex
 10
8.19003383
 20
3.0455921776
 30
0.0
  0
VERTEX
  5
1CA
330
1C7
100
AcDbEntity
  8
0
100
AcDbVertex
100
AcDb2dVertex
 10
8.2496624651
 20
3.021831780199999
 30
0.0
  0
VERTEX
  5
1CB
330
1C7
100
AcDbEntity
  8
0
100
AcDbVertex
100
AcDb2dVertex
 10
8.3138174703
 20
3.0023938424
 30
0.0
  0
VERTEX
  5
1CC
330
1C7
100
AcDbEntity
  8
0
100
AcDbVertex
100
AcDb2dVertex
 10
8.381563321299999
 20
2.9875618131
 30
0.0
  0
VERTEX
  5
1CD
330
1C7
100
AcDbEntity
  8
0
100
AcDbVertex
100
AcDb2dVertex
 10
8.4519121309
 20
2.977551976499999
 30
0.0
  0
VERTEX
  5
1CE
330
1C7
100
AcDbEntity
  8
0
100
AcDbVertex
100
AcDb2dVertex
 10
8.5238380551
 20
2.972510298699999
 30
0.0
  0
VERTEX
  5
1CF
330
1C7
100
AcDbEntity
  8
0
100
AcDbVertex
100
AcDb2dVertex
 10
8.596292252000001
 20
2.972510298699999
 30
0.0
  0
VERTEX
  5
1D0
330
1C7
100
AcDbEntity
  8
0
100
AcDbVertex
100
AcDb2dVertex
 10
8.668218176299999
 20
2.977551976499999
 30
0.0
  0
VERTEX
  5
1D1
330
1C7
100
AcDbEntity
  8
0
100
AcDbVertex
100
AcDb2dVertex
 10
8.7385669859
 20
2.9875618131
 30
0.0
  0
VERTEX
  5
1D2
330
1C7
100
AcDbEntity
  8
0
100
AcDbVertex
100
AcDb2dVertex
 10
8.8063128368
 20
3.0023938424
 30
0.0
  0
VERTEX
  5
1D3
330
1C7
100
AcDbEntity
  8
0
100
AcDbVertex
100
AcDb2dVertex
 10
8.8704678421
 20
3.021831780199999
 30
0.0
  0
VERTEX
  5
1D4
330
1C7
100
AcDbEntity
  8
0
100
AcDbVertex
100
AcDb2dVertex
 10
8.930096477100001
 20
3.0455921776
 30
0.0
  0
VERTEX
  5
1D5
330
1C7
100
AcDbEntity
  8
0
100
AcDbVertex
100
AcDb2dVertex
 10
8.984329222299999
 20
3.0733285543
 30
0.0
  0
SEQEND
  5
1D6
330
1C7
100
AcDbEntity
  8
0
  0
LINE
  5
1D7
330
A
100
AcDbEntity
  8
0
  6
Continuous
 62
     7
370
    15
100
AcDbLine
 10
9.188366486199999
 20
8.7018715144
 30
0.0
 11
6.022575511799999
 21
6.8742992858
 31
0.0
  0
POLYLINE
  5
1D8
330
A
100
AcDbEntity
  8
0
  6
Continuous
 62
     7
100
AcDb2dPolyline
 66
     1
 10
0.0
 20
0.0
 30
0.0
 70
   128
 40
0.0017716535
 41
0.0017716535
  0
VERTEX
  5
1D9
330
1D8
100
AcDbEntity
  8
0
100
AcDbVertex
100
AcDb2dVertex
 10
9.715435259699999
 20
8.798199464799999
 30
0.0
  0
VERTEX
  5
1DA
330
1D8
100
AcDbEntity
  8
0
100
AcDbVertex
100
AcDb2dVertex
 10
9.6441114084
 20
8.802844614799999
 30
0.0
  0
VERTEX
  5
1DB
330
1D8
100
AcDbEntity
  8
0
100
AcDbVertex
100
AcDb2dVertex
 10
9.572337045199999
 20
8.802539771099999
 30
0.0
  0
VERTEX
  5
1DC
330
1D8
100
AcDbEntity
  8
0
100
AcDbVertex
100
AcDb2dVertex
 10
9.501139308799999
 20
8.7972892961
 30
0.0
  0
VERTEX
  5
1DD
330
1D8
100
AcDbEntity
  8
0
100
AcDbVertex
100
AcDb2dVertex
 10
9.4315370858
 20
8.787168327499999
 30
0.0
  0
VERTEX
  5
1DE
330
1D8
100
AcDbEntity
  8
0
100
AcDbVertex
100
AcDb2dVertex
 10
9.364526430199999
 20
8.772321703099999
 30
0.0
  0
VERTEX
  5
1DF
330
1D8
100
AcDbEntity
  8
0
100
AcDbVertex
100
AcDb2dVertex
 10
9.301066308599999
 20
8.752961887999999
 30
0.0
  0
VERTEX
  5
1E0
330
1D8
100
AcDbEntity
  8
0
100
AcDbVertex
100
AcDb2dVertex
 10
9.2420648775
 20
8.7293659338
 30
0.0
  0
VERTEX
  5
1E1
330
1D8
100
AcDbEntity
  8
0
100
AcDbVertex
100
AcDb2dVertex
 10
9.188366486199999
 20
8.7018715144
 30
0.0
  0
SEQEND
  5
1E2
330
1D8
100
AcDbEntity
  8
0
  0
LINE
  5
1E3
330
A
100
AcDbEntity
  8
0
  6
Continuous
 62
     7
370
    15
100
AcDbLine
 10
14.1004870953
 20
8.3579496314
 30
0.0
 11
9.715435259699999
 21
8.798199464799999
 31
0.0
  0
POLYLINE
  5
1E4
330
A
100
AcDbEntity
  8
0
  6
Continuous
 62
     7
100
AcDb2dPolyline
 66
     1
 10
0.0
 20
0.0
 30
0.0
 70
   128
 40
0.0017716535
 41
0.0017716535
  0
VERTEX
  5
1E5
330
1E4
100
AcDbEntity
  8
0
100
AcDbVertex
100
AcDb2dVertex
 10
14.4219464591
 20
8.261621681099999
 30
0.0
  0
VERTEX
  5
1E6
330
1E4
100
AcDbEntity
  8
0
100
AcDbVertex
100
AcDb2dVertex
 10
14.3882123212
 20
8.279657680499999
 30
0.0
  0
VERTEX
  5
1E7
330
1E4
100
AcDbEntity
  8
0
100
AcDbVertex
100
AcDb2dVertex
 10
14.35218480119999
 20
8.2961494599
 30
0.0
  0
VERTEX
  5
1E8
330
1E4
100
AcDbEntity
  8
0
100
AcDbVertex
100
AcDb2dVertex
 10
14.3140754704
 20
8.311000171499999
 30
0.0
  0
VERTEX
  5
1E9
330
1E4
100
AcDbEntity
  8
0
100
AcDbVertex
100
AcDb2dVertex
 10
14.27410812529999
 20
8.324122604699999
 30
0.0
  0
VERTEX
  5
1EA
330
1E4
100
AcDbEntity
  8
0
100
AcDbVertex
100
AcDb2dVertex
 10
14.2325174735
 20
8.3354396981
 30
0.0
  0
VERTEX
  5
1EB
330
1E4
100
AcDbEntity
  8
0
100
AcDbVertex
100
AcDb2dVertex
 10
14.1895477557
 20
8.3448849923
 30
0.0
  0
VERTEX
  5
1EC
330
1E4
100
AcDbEntity
  8
0
100
AcDbVertex
100
AcDb2dVertex
 10
14.14545131099999
 20
8.3524030199
 30
0.0
  0
VERTEX
  5
1ED
330
1E4
100
AcDbEntity
  8
0
100
AcDbVertex
100
AcDb2dVertex
 10
14.1004870953
 20
8.3579496314
 30
0.0
  0
SEQEND
  5
1EE
330
1E4
100
AcDbEntity
  8
0
  0
LINE
  5
1EF
330
A
100
AcDbEntity
  8
0
  6
Continuous
 62
     7
370
    15
100
AcDbLine
 10
15.7725543217
 20
7.4819323582
 30
0.0
 11
14.4219464591
 21
8.261621681099999
 31
0.0
  0
POLYLINE
  5
1F0
330
A
100
AcDbEntity
  8
0
  6
Continuous
 62
     7
100
AcDb2dPolyline
 66
     1
 10
0.0
 20
0.0
 30
0.0
 70
   128
 40
0.0017716535
 41
0.0017716535
  0
VERTEX
  5
1F1
330
1F0
100
AcDbEntity
  8
0
100
AcDbVertex
100
AcDb2dVertex
 10
15.7725543217
 20
6.9920874911
 30
0.0
  0
VERTEX
  5
1F2
330
1F0
100
AcDbEntity
  8
0
100
AcDbVertex
100
AcDb2dVertex
 10
15.8206003413
 20
7.023395388399999
 30
0.0
  0
VERTEX
  5
1F3
330
1F0
100
AcDbEntity
  8
0
100
AcDbVertex
100
AcDb2dVertex
 10
15.8617590163
 20
7.057818266799999
 30
0.0
  0
VERTEX
  5
1F4
330
1F0
100
AcDbEntity
  8
0
100
AcDbVertex
100
AcDb2dVertex
 10
15.8954301606
 20
7.094854162899999
 30
0.0
  0
VERTEX
  5
1F5
330
1F0
100
AcDbEntity
  8
0
100
AcDbVertex
100
AcDb2dVertex
 10
15.9211227729
 20
7.133963010199999
 30
0.0
  0
VERTEX
  5
1F6
330
1F0
100
AcDbEntity
  8
0
100
AcDbVertex
100
AcDb2dVertex
 10
15.9384621971
 20
7.1745745136
 30
0.0
  0
VERTEX
  5
1F7
330
1F0
100
AcDbEntity
  8
0
100
AcDbVertex
100
AcDb2dVertex
 10
15.9471955855
 20
7.2160964658
 30
0.0
  0
VERTEX
  5
1F8
330
1F0
100
AcDbEntity
  8
0
100
AcDbVertex
100
AcDb2dVertex
 10
15.9471955855
 20
7.2579233834
 30
0.0
  0
VERTEX
  5
1F9
330
1F0
100
AcDbEntity
  8
0
100
AcDbVertex
100
AcDb2dVertex
 10
15.9384621971
 20
7.299445335599999
 30
0.0
  0
VERTEX
  5
1FA
330
1F0
100
AcDbEntity
  8
0
100
AcDbVertex
100
AcDb2dVertex
 10
15.9211227729
 20
7.340056838999999
 30
0.0
  0
VERTEX
  5
1FB
330
1F0
100
AcDbEntity
  8
0
100
AcDbVertex
100
AcDb2dVertex
 10
15.8954301606
 20
7.3791656863
 30
0.0
  0
VERTEX
  5
1FC
330
1F0
100
AcDbEntity
  8
0
100
AcDbVertex
100
AcDb2dVertex
 10
15.8617590163
 20
7.4162015825
 30
0.0
  0
VERTEX
  5
1FD
330
1F0
100
AcDbEntity
  8
0
100
AcDbVertex
100
AcDb2dVertex
 10
15.8206003413
 20
7.4506244608
 30
0.0
  0
VERTEX
  5
1FE
330
1F0
100
AcDbEntity
  8
0
100
AcDbVertex
100
AcDb2dVertex
 10
15.7725543217
 20
7.4819323582
 30
0.0
  0
SEQEND
  5
1FF
330
1F0
100
AcDbEntity
  8
0
  0
LINE
  5
200
330
A
100
AcDbEntity
  8
0
  6
Continuous
 62
     7
370
    15
100
AcDbLine
 10
8.984329222299999
 20
3.0733285543
 30
0.0
 11
15.7725543217
 21
6.9920874911
 31
0.0
  0
LINE
  5
201
330
A
100
AcDbEntity
  8
0
  6
Continuous
 62
     7
370
    15
100
AcDbLine
 10
6.7851932223
 20
3.8530178772
 30
0.0
 11
8.1358010849
 21
3.0733285543
 31
0.0
  0
POLYLINE
  5
202
330
A
100
AcDbEntity
  8
0
  6
Continuous
 62
     7
100
AcDb2dPolyline
 66
     1
 10
0.0
 20
0.0
 30
0.0
 70
   128
 40
0.0017716535
 41
0.0017716535
  0
VERTEX
  5
203
330
202
100
AcDbEntity
  8
0
100
AcDbVertex
100
AcDb2dVertex
 10
6.618330238099999
 20
4.0385924179
 30
0.0
  0
VERTEX
  5
204
330
202
100
AcDbEntity
  8
0
100
AcDbVertex
100
AcDb2dVertex
 10
6.6279382921
 20
4.0126351287
 30
0.0
  0
VERTEX
  5
205
330
202
100
AcDbEntity
  8
0
100
AcDbVertex
100
AcDb2dVertex
 10
6.640961308999999
 20
3.987178792999999
 30
0.0
  0
VERTEX
  5
206
330
202
100
AcDbEntity
  8
0
100
AcDbVertex
100
AcDb2dVertex
 10
6.6573228112
 20
3.9623729029
 30
0.0
  0
VERTEX
  5
207
330
202
100
AcDbEntity
  8
0
100
AcDbVertex
100
AcDb2dVertex
 10
6.676926716199999
 20
3.938363130699999
 30
0.0
  0
VERTEX
  5
208
330
202
100
AcDbEntity
  8
0
100
AcDbVertex
100
AcDb2dVertex
 10
6.6996579001
 20
3.9152904735
 30
0.0
  0
VERTEX
  5
209
330
202
100
AcDbEntity
  8
0
100
AcDbVertex
100
AcDb2dVertex
 10
6.7253828745
 20
3.8932904251
 30
0.0
  0
VERTEX
  5
20A
330
202
100
AcDbEntity
  8
0
100
AcDbVertex
100
AcDb2dVertex
 10
6.7539505697
 20
3.8724921805
 30
0.0
  0
VERTEX
  5
20B
330
202
100
AcDbEntity
  8
0
100
AcDbVertex
100
AcDb2dVertex
 10
6.7851932223
 20
3.8530178772
 30
0.0
  0
SEQEND
  5
20C
330
202
100
AcDbEntity
  8
0
  0
LINE
  5
20D
330
A
100
AcDbEntity
  8
0
  6
Continuous
 62
     7
370
    15
100
AcDbLine
 10
5.855712527599999
 20
6.5700289594
 30
0.0
 11
6.618330238099999
 21
4.0385924179
 31
0.0
  0
POLYLINE
  5
20E
330
A
100
AcDbEntity
  8
0
  6
Continuous
 62
     7
100
AcDb2dPolyline
 66
     1
 10
0.0
 20
0.0
 30
0.0
 70
   128
 40
0.0017716535
 41
0.0017716535
  0
VERTEX
  5
20F
330
20E
100
AcDbEntity
  8
0
100
AcDbVertex
100
AcDb2dVertex
 10
6.022575511799999
 20
6.8742992858
 30
0.0
  0
VERTEX
  5
210
330
20E
100
AcDbEntity
  8
0
100
AcDbVertex
100
AcDb2dVertex
 10
5.9749486199
 20
6.8432998644
 30
0.0
  0
VERTEX
  5
211
330
20E
100
AcDbEntity
  8
0
100
AcDbVertex
100
AcDb2dVertex
 10
5.9340747997
 20
6.8092390632
 30
0.0
  0
VERTEX
  5
212
330
20E
100
AcDbEntity
  8
0
100
AcDbVertex
100
AcDb2dVertex
 10
5.900538982499999
 20
6.7726043148
 30
0.0
  0
VERTEX
  5
213
330
20E
100
AcDbEntity
  8
0
100
AcDbVertex
100
AcDb2dVertex
 10
5.8748210882
 20
6.733919886699999
 30
0.0
  0
VERTEX
  5
214
330
20E
100
AcDbEntity
  8
0
100
AcDbVertex
100
AcDb2dVertex
 10
5.857289156799999
 20
6.6937393787
 30
0.0
  0
VERTEX
  5
215
330
20E
100
AcDbEntity
  8
0
100
AcDbVertex
100
AcDb2dVertex
 10
5.848194081799999
 20
6.652637800299999
 30
0.0
  0
VERTEX
  5
216
330
20E
100
AcDbEntity
  8
0
100
AcDbVertex
100
AcDb2dVertex
 10
5.8476660198
 20
6.6112033424
 30
0.0
  0
VERTEX
  5
217
330
20E
100
AcDbEntity
  8
0
100
AcDbVertex
100
AcDb2dVertex
 10
5.855712527599999
 20
6.5700289594
 30
0.0
  0
SEQEND
  5
218
330
20E
100
AcDbEntity
  8
0
  0
POLYLINE
  5
219
330
A
100
AcDbEntity
  8
0
  6
Continuous
 62
     7
100
AcDb2dPolyline
 66
     1
 10
0.0
 20
0.0
 30
0.0
 70
   128
 40
0.0017716535
 41
0.0017716535
  0
VERTEX
  5
21A
330
219
100
AcDbEntity
  8
0
100
AcDbVertex
100
AcDb2dVertex
 10
9.746519621699999
 20
6.4217856046
 30
0.0
  0
VERTEX
  5
21B
330
219
100
AcDbEntity
  8
0
100
AcDbVertex
100
AcDb2dVertex
 10
9.775587601799999
 20
6.408517236099999
 30
0.0
  0
VERTEX
  5
21C
330
219
100
AcDbEntity
  8
0
100
AcDbVertex
100
AcDb2dVertex
 10
9.8091725209
 20
6.399476388099999
 30
0.0
  0
VERTEX
  5
21D
330
219
100
AcDbEntity
  8
0
100
AcDbVertex
100
AcDb2dVertex
 10
9.845463807499999
 20
6.395150454999999
 30
0.0
  0
VERTEX
  5
21E
330
219
100
AcDbEntity
  8
0
100
AcDbVertex
100
AcDb2dVertex
 10
9.882504988699999
 20
6.395772648899999
 30
0.0
  0
VERTEX
  5
21F
330
219
100
AcDbEntity
  8
0
100
AcDbVertex
100
AcDb2dVertex
 10
9.9182991651
 20
6.4013094273
 30
0.0
  0
VERTEX
  5
220
330
219
100
AcDbEntity
  8
0
100
AcDbVertex
100
AcDb2dVertex
 10
9.950916663200001
 20
6.4114623009
 30
0.0
  0
VERTEX
  5
221
330
219
100
AcDbEntity
  8
0
100
AcDbVertex
100
AcDb2dVertex
 10
9.978599065399999
 20
6.4256839258
 30
0.0
  0
VERTEX
  5
222
330
219
100
AcDbEntity
  8
0
100
AcDbVertex
100
AcDb2dVertex
 10
9.999854005999999
 20
6.4432076104
 30
0.0
  0
VERTEX
  5
223
330
219
100
AcDbEntity
  8
0
100
AcDbVertex
100
AcDb2dVertex
 10
10.0135356259
 20
6.4630886484
 30
0.0
  0
VERTEX
  5
224
330
219
100
AcDbEntity
  8
0
100
AcDbVertex
100
AcDb2dVertex
 10
10.0189063452
 20
6.484255247899999
 30
0.0
  0
VERTEX
  5
225
330
219
100
AcDbEntity
  8
0
100
AcDbVertex
100
AcDb2dVertex
 10
10.0156766272
 20
6.5055663119
 30
0.0
  0
VERTEX
  5
226
330
219
100
AcDbEntity
  8
0
100
AcDbVertex
100
AcDb2dVertex
 10
10.00402058679999
 20
6.5258729557
 30
0.0
  0
VERTEX
  5
227
330
219
100
AcDbEntity
  8
0
100
AcDbVertex
100
AcDb2dVertex
 10
9.984566604099999
 20
6.5440804426
 30
0.0
  0
VERTEX
  5
228
330
219
100
AcDbEntity
  8
0
100
AcDbVertex
100
AcDb2dVertex
 10
9.9583634484
 20
6.559207202399999
 30
0.0
  0
VERTEX
  5
229
330
219
100
AcDbEntity
  8
0
100
AcDbVertex
100
AcDb2dVertex
 10
9.926823738599999
 20
6.570437747599999
 30
0.0
  0
VERTEX
  5
22A
330
219
100
AcDbEntity
  8
0
100
AcDbVertex
100
AcDb2dVertex
 10
9.8916477885
 20
6.577166636499999
 30
0.0
  0
VERTEX
  5
22B
330
219
100
AcDbEntity
  8
0
100
AcDbVertex
100
AcDb2dVertex
 10
9.854731942899999
 20
6.579031112999999
 30
0.0
  0
VERTEX
  5
22C
330
219
100
AcDbEntity
  8
0
100
AcDbVertex
100
AcDb2dVertex
 10
9.8180663444
 20
6.575930662699999
 30
0.0
  0
VERTEX
  5
22D
330
219
100
AcDbEntity
  8
0
100
AcDbVertex
100
AcDb2dVertex
 10
9.783627644999999
 20
6.568032431699999
 30
0.0
  0
VERTEX
  5
22E
330
219
100
AcDbEntity
  8
0
100
AcDbVertex
100
AcDb2dVertex
 10
9.7532724439
 20
6.555762215599999
 30
0.0
  0
VERTEX
  5
22F
330
219
100
AcDbEntity
  8
0
100
AcDbVertex
100
AcDb2dVertex
 10
9.728637197699999
 20
6.539781504999999
 30
0.0
  0
VERTEX
  5
230
330
219
100
AcDbEntity
  8
0
100
AcDbVertex
100
AcDb2dVertex
 10
9.7110499991
 20
6.520951824199999
 30
0.0
  0
VERTEX
  5
231
330
219
100
AcDbEntity
  8
0
100
AcDbVertex
100
AcDb2dVertex
 10
9.701458978499999
 20
6.500288285999999
 30
0.0
  0
VERTEX
  5
232
330
219
100
AcDbEntity
  8
0
100
AcDbVertex
100
AcDb2dVertex
 10
9.700381190199999
 20
6.4789048672
 30
0.0
  0
VERTEX
  5
233
330
219
100
AcDbEntity
  8
0
100
AcDbVertex
100
AcDb2dVertex
 10
9.707874738099999
 20
6.457954353399999
 30
0.0
  0
VERTEX
  5
234
330
219
100
AcDbEntity
  8
0
100
AcDbVertex
100
AcDb2dVertex
 10
9.723535643099999
 20
6.4385661923
 30
0.0
  0
VERTEX
  5
235
330
219
100
AcDbEntity
  8
0
100
AcDbVertex
100
AcDb2dVertex
 10
9.746519621699999
 20
6.4217856046
 30
0.0
  0
SEQEND
  5
236
330
219
100
AcDbEntity
  8
0
  0
POLYLINE
  5
237
330
A
100
AcDbEntity
  8
0
  6
Continuous
 62
     7
100
AcDb2dPolyline
 66
     1
 10
0.0
 20
0.0
 30
0.0
 70
   128
 40
0.0017716535
 41
0.0017716535
  0
VERTEX
  5
238
330
237
100
AcDbEntity
  8
0
100
AcDbVertex
100
AcDb2dVertex
 10
9.989162476499998
 20
6.944551645499999
 30
0.0
  0
VERTEX
  5
239
330
237
100
AcDbEntity
  8
0
100
AcDbVertex
100
AcDb2dVertex
 10
10.01823045659999
 20
6.931283277
 30
0.0
  0
VERTEX
  5
23A
330
237
100
AcDbEntity
  8
0
100
AcDbVertex
100
AcDb2dVertex
 10
10.0518153757
 20
6.922242428999999
 30
0.0
  0
VERTEX
  5
23B
330
237
100
AcDbEntity
  8
0
100
AcDbVertex
100
AcDb2dVertex
 10
10.0881066622
 20
6.9179164959
 30
0.0
  0
VERTEX
  5
23C
330
237
100
AcDbEntity
  8
0
100
AcDbVertex
100
AcDb2dVertex
 10
10.1251478435
 20
6.9185386898
 30
0.0
  0
VERTEX
  5
23D
330
237
100
AcDbEntity
  8
0
100
AcDbVertex
100
AcDb2dVertex
 10
10.1609420199
 20
6.9240754682
 30
0.0
  0
VERTEX
  5
23E
330
237
100
AcDbEntity
  8
0
100
AcDbVertex
100
AcDb2dVertex
 10
10.19355951799999
 20
6.934228341799999
 30
0.0
  0
VERTEX
  5
23F
330
237
100
AcDbEntity
  8
0
100
AcDbVertex
100
AcDb2dVertex
 10
10.2212419202
 20
6.948449966699999
 30
0.0
  0
VERTEX
  5
240
330
237
100
AcDbEntity
  8
0
100
AcDbVertex
100
AcDb2dVertex
 10
10.2424968608
 20
6.965973651299999
 30
0.0
  0
VERTEX
  5
241
330
237
100
AcDbEntity
  8
0
100
AcDbVertex
100
AcDb2dVertex
 10
10.2561784807
 20
6.985854689299999
 30
0.0
  0
VERTEX
  5
242
330
237
100
AcDbEntity
  8
0
100
AcDbVertex
100
AcDb2dVertex
 10
10.26154919999999
 20
7.007021288799999
 30
0.0
  0
VERTEX
  5
243
330
237
100
AcDbEntity
  8
0
100
AcDbVertex
100
AcDb2dVertex
 10
10.258319482
 20
7.028332352899999
 30
0.0
  0
VERTEX
  5
244
330
237
100
AcDbEntity
  8
0
100
AcDbVertex
100
AcDb2dVertex
 10
10.24666344159999
 20
7.048638996599999
 30
0.0
  0
VERTEX
  5
245
330
237
100
AcDbEntity
  8
0
100
AcDbVertex
100
AcDb2dVertex
 10
10.22720945889999
 20
7.066846483499999
 30
0.0
  0
VERTEX
  5
246
330
237
100
AcDbEntity
  8
0
100
AcDbVertex
100
AcDb2dVertex
 10
10.20100630319999
 20
7.0819732433
 30
0.0
  0
VERTEX
  5
247
330
237
100
AcDbEntity
  8
0
100
AcDbVertex
100
AcDb2dVertex
 10
10.1694665934
 20
7.0932037885
 30
0.0
  0
VERTEX
  5
248
330
237
100
AcDbEntity
  8
0
100
AcDbVertex
100
AcDb2dVertex
 10
10.1342906433
 20
7.0999326774
 30
0.0
  0
VERTEX
  5
249
330
237
100
AcDbEntity
  8
0
100
AcDbVertex
100
AcDb2dVertex
 10
10.0973747977
 20
7.101797153899999
 30
0.0
  0
VERTEX
  5
24A
330
237
100
AcDbEntity
  8
0
100
AcDbVertex
100
AcDb2dVertex
 10
10.06070919919999
 20
7.098696703599999
 30
0.0
  0
VERTEX
  5
24B
330
237
100
AcDbEntity
  8
0
100
AcDbVertex
100
AcDb2dVertex
 10
10.0262704998
 20
7.090798472599999
 30
0.0
  0
VERTEX
  5
24C
330
237
100
AcDbEntity
  8
0
100
AcDbVertex
100
AcDb2dVertex
 10
9.995915298599999
 20
7.078528256499999
 30
0.0
  0
VERTEX
  5
24D
330
237
100
AcDbEntity
  8
0
100
AcDbVertex
100
AcDb2dVertex
 10
9.971280052499999
 20
7.0625475459
 30
0.0
  0
VERTEX
  5
24E
330
237
100
AcDbEntity
  8
0
100
AcDbVertex
100
AcDb2dVertex
 10
9.953692853899999
 20
7.043717865099999
 30
0.0
  0
VERTEX
  5
24F
330
237
100
AcDbEntity
  8
0
100
AcDbVertex
100
AcDb2dVertex
 10
9.944101833300001
 20
7.0230543269
 30
0.0
  0
VERTEX
  5
250
330
237
100
AcDbEntity
  8
0
100
AcDbVertex
100
AcDb2dVertex
 10
9.943024044999999
 20
7.001670908099999
 30
0.0
  0
VERTEX
  5
251
330
237
100
AcDbEntity
  8
0
100
AcDbVertex
100
AcDb2dVertex
 10
9.950517592899998
 20
6.980720394299999
 30
0.0
  0
VERTEX
  5
252
330
237
100
AcDbEntity
  8
0
100
AcDbVertex
100
AcDb2dVertex
 10
9.966178497899999
 20
6.9613322332
 30
0.0
  0
VERTEX
  5
253
330
237
100
AcDbEntity
  8
0
100
AcDbVertex
100
AcDb2dVertex
 10
9.989162476499998
 20
6.944551645499999
 30
0.0
  0
SEQEND
  5
254
330
237
100
AcDbEntity
  8
0
  0
POLYLINE
  5
255
330
A
100
AcDbEntity
  8
0
  6
Continuous
 62
     7
100
AcDb2dPolyline
 66
     1
 10
0.0
 20
0.0
 30
0.0
 70
   128
 40
0.0017716535
 41
0.0017716535
  0
VERTEX
  5
256
330
255
100
AcDbEntity
  8
0
100
AcDbVertex
100
AcDb2dVertex
 10
9.326249869099999
 20
7.327242947899999
 30
0.0
  0
VERTEX
  5
257
330
255
100
AcDbEntity
  8
0
100
AcDbVertex
100
AcDb2dVertex
 10
9.3553178492
 20
7.3139745794
 30
0.0
  0
VERTEX
  5
258
330
255
100
AcDbEntity
  8
0
100
AcDbVertex
100
AcDb2dVertex
 10
9.388902768300001
 20
7.3049337314
 30
0.0
  0
VERTEX
  5
259
330
255
100
AcDbEntity
  8
0
100
AcDbVertex
100
AcDb2dVertex
 10
9.4251940549
 20
7.3006077983
 30
0.0
  0
VERTEX
  5
25A
330
255
100
AcDbEntity
  8
0
100
AcDbVertex
100
AcDb2dVertex
 10
9.462235236199999
 20
7.3012299923
 30
0.0
  0
VERTEX
  5
25B
330
255
100
AcDbEntity
  8
0
100
AcDbVertex
100
AcDb2dVertex
 10
9.498029412499999
 20
7.306766770599999
 30
0.0
  0
VERTEX
  5
25C
330
255
100
AcDbEntity
  8
0
100
AcDbVertex
100
AcDb2dVertex
 10
9.530646910699999
 20
7.316919644299999
 30
0.0
  0
VERTEX
  5
25D
330
255
100
AcDbEntity
  8
0
100
AcDbVertex
100
AcDb2dVertex
 10
9.558329312799999
 20
7.331141269099999
 30
0.0
  0
VERTEX
  5
25E
330
255
100
AcDbEntity
  8
0
100
AcDbVertex
100
AcDb2dVertex
 10
9.5795842535
 20
7.3486649537
 30
0.0
  0
VERTEX
  5
25F
330
255
100
AcDbEntity
  8
0
100
AcDbVertex
100
AcDb2dVertex
 10
9.5932658733
 20
7.368545991699999
 30
0.0
  0
VERTEX
  5
260
330
255
100
AcDbEntity
  8
0
100
AcDbVertex
100
AcDb2dVertex
 10
9.5986365927
 20
7.3897125912
 30
0.0
  0
VERTEX
  5
261
330
255
100
AcDbEntity
  8
0
100
AcDbVertex
100
AcDb2dVertex
 10
9.5954068747
 20
7.411023655299999
 30
0.0
  0
VERTEX
  5
262
330
255
100
AcDbEntity
  8
0
100
AcDbVertex
100
AcDb2dVertex
 10
9.583750834199999
 20
7.431330298999999
 30
0.0
  0
VERTEX
  5
263
330
255
100
AcDbEntity
  8
0
100
AcDbVertex
100
AcDb2dVertex
 10
9.564296851499999
 20
7.4495377859
 30
0.0
  0
VERTEX
  5
264
330
255
100
AcDbEntity
  8
0
100
AcDbVertex
100
AcDb2dVertex
 10
9.5380936958
 20
7.4646645457
 30
0.0
  0
VERTEX
  5
265
330
255
100
AcDbEntity
  8
0
100
AcDbVertex
100
AcDb2dVertex
 10
9.506553986
 20
7.475895090899999
 30
0.0
  0
VERTEX
  5
266
330
255
100
AcDbEntity
  8
0
100
AcDbVertex
100
AcDb2dVertex
 10
9.471378036
 20
7.4826239798
 30
0.0
  0
VERTEX
  5
267
330
255
100
AcDbEntity
  8
0
100
AcDbVertex
100
AcDb2dVertex
 10
9.434462190299999
 20
7.4844884563
 30
0.0
  0
VERTEX
  5
268
330
255
100
AcDbEntity
  8
0
100
AcDbVertex
100
AcDb2dVertex
 10
9.397796591799998
 20
7.481388006
 30
0.0
  0
VERTEX
  5
269
330
255
100
AcDbEntity
  8
0
100
AcDbVertex
100
AcDb2dVertex
 10
9.363357892399999
 20
7.473489775
 30
0.0
  0
VERTEX
  5
26A
330
255
100
AcDbEntity
  8
0
100
AcDbVertex
100
AcDb2dVertex
 10
9.3330026913
 20
7.461219558899999
 30
0.0
  0
VERTEX
  5
26B
330
255
100
AcDbEntity
  8
0
100
AcDbVertex
100
AcDb2dVertex
 10
9.3083674452
 20
7.4452388483
 30
0.0
  0
VERTEX
  5
26C
330
255
100
AcDbEntity
  8
0
100
AcDbVertex
100
AcDb2dVertex
 10
9.290780246599998
 20
7.4264091675
 30
0.0
  0
VERTEX
  5
26D
330
255
100
AcDbEntity
  8
0
100
AcDbVertex
100
AcDb2dVertex
 10
9.2811892259
 20
7.405745629299999
 30
0.0
  0
VERTEX
  5
26E
330
255
100
AcDbEntity
  8
0
100
AcDbVertex
100
AcDb2dVertex
 10
9.2801114376
 20
7.384362210499999
 30
0.0
  0
VERTEX
  5
26F
330
255
100
AcDbEntity
  8
0
100
AcDbVertex
100
AcDb2dVertex
 10
9.287604985499999
 20
7.363411696699999
 30
0.0
  0
VERTEX
  5
270
330
255
100
AcDbEntity
  8
0
100
AcDbVertex
100
AcDb2dVertex
 10
9.303265890499998
 20
7.344023535599998
 30
0.0
  0
VERTEX
  5
271
330
255
100
AcDbEntity
  8
0
100
AcDbVertex
100
AcDb2dVertex
 10
9.326249869099999
 20
7.327242947899999
 30
0.0
  0
SEQEND
  5
272
330
255
100
AcDbEntity
  8
0
  0
POLYLINE
  5
273
330
A
100
AcDbEntity
  8
0
  6
Continuous
 62
     7
100
AcDb2dPolyline
 66
     1
 10
0.0
 20
0.0
 30
0.0
 70
   128
 40
0.0017716535
 41
0.0017716535
  0
VERTEX
  5
274
330
273
100
AcDbEntity
  8
0
100
AcDbVertex
100
AcDb2dVertex
 10
8.420694407
 20
7.1871682094
 30
0.0
  0
VERTEX
  5
275
330
273
100
AcDbEntity
  8
0
100
AcDbVertex
100
AcDb2dVertex
 10
8.449762387099999
 20
7.173899840999999
 30
0.0
  0
VERTEX
  5
276
330
273
100
AcDbEntity
  8
0
100
AcDbVertex
100
AcDb2dVertex
 10
8.4833473062
 20
7.164858992899999
 30
0.0
  0
VERTEX
  5
277
330
273
100
AcDbEntity
  8
0
100
AcDbVertex
100
AcDb2dVertex
 10
8.519638592699999
 20
7.1605330598
 30
0.0
  0
VERTEX
  5
278
330
273
100
AcDbEntity
  8
0
100
AcDbVertex
100
AcDb2dVertex
 10
8.556679773999999
 20
7.161155253799999
 30
0.0
  0
VERTEX
  5
279
330
273
100
AcDbEntity
  8
0
100
AcDbVertex
100
AcDb2dVertex
 10
8.5924739504
 20
7.1666920321
 30
0.0
  0
VERTEX
  5
27A
330
273
100
AcDbEntity
  8
0
100
AcDbVertex
100
AcDb2dVertex
 10
8.6250914485
 20
7.1768449058
 30
0.0
  0
VERTEX
  5
27B
330
273
100
AcDbEntity
  8
0
100
AcDbVertex
100
AcDb2dVertex
 10
8.652773850599999
 20
7.191066530599999
 30
0.0
  0
VERTEX
  5
27C
330
273
100
AcDbEntity
  8
0
100
AcDbVertex
100
AcDb2dVertex
 10
8.674028791299999
 20
7.2085902153
 30
0.0
  0
VERTEX
  5
27D
330
273
100
AcDbEntity
  8
0
100
AcDbVertex
100
AcDb2dVertex
 10
8.687710411199999
 20
7.2284712532
 30
0.0
  0
VERTEX
  5
27E
330
273
100
AcDbEntity
  8
0
100
AcDbVertex
100
AcDb2dVertex
 10
8.693081130499999
 20
7.249637852699999
 30
0.0
  0
VERTEX
  5
27F
330
273
100
AcDbEntity
  8
0
100
AcDbVertex
100
AcDb2dVertex
 10
8.689851412499999
 20
7.270948916799999
 30
0.0
  0
VERTEX
  5
280
330
273
100
AcDbEntity
  8
0
100
AcDbVertex
100
AcDb2dVertex
 10
8.678195372100001
 20
7.291255560499999
 30
0.0
  0
VERTEX
  5
281
330
273
100
AcDbEntity
  8
0
100
AcDbVertex
100
AcDb2dVertex
 10
8.658741389400001
 20
7.3094630474
 30
0.0
  0
VERTEX
  5
282
330
273
100
AcDbEntity
  8
0
100
AcDbVertex
100
AcDb2dVertex
 10
8.6325382337
 20
7.3245898072
 30
0.0
  0
VERTEX
  5
283
330
273
100
AcDbEntity
  8
0
100
AcDbVertex
100
AcDb2dVertex
 10
8.600998523899999
 20
7.335820352399999
 30
0.0
  0
VERTEX
  5
284
330
273
100
AcDbEntity
  8
0
100
AcDbVertex
100
AcDb2dVertex
 10
8.5658225738
 20
7.342549241299999
 30
0.0
  0
VERTEX
  5
285
330
273
100
AcDbEntity
  8
0
100
AcDbVertex
100
AcDb2dVertex
 10
8.5289067282
 20
7.344413717799999
 30
0.0
  0
VERTEX
  5
286
330
273
100
AcDbEntity
  8
0
100
AcDbVertex
100
AcDb2dVertex
 10
8.4922411297
 20
7.3413132675
 30
0.0
  0
VERTEX
  5
287
330
273
100
AcDbEntity
  8
0
100
AcDbVertex
100
AcDb2dVertex
 10
8.457802430299999
 20
7.333415036499999
 30
0.0
  0
VERTEX
  5
288
330
273
100
AcDbEntity
  8
0
100
AcDbVertex
100
AcDb2dVertex
 10
8.4274472291
 20
7.321144820399999
 30
0.0
  0
VERTEX
  5
289
330
273
100
AcDbEntity
  8
0
100
AcDbVertex
100
AcDb2dVertex
 10
8.402811982999999
 20
7.305164109899999
 30
0.0
  0
VERTEX
  5
28A
330
273
100
AcDbEntity
  8
0
100
AcDbVertex
100
AcDb2dVertex
 10
8.3852247844
 20
7.286334429
 30
0.0
  0
VERTEX
  5
28B
330
273
100
AcDbEntity
  8
0
100
AcDbVertex
100
AcDb2dVertex
 10
8.375633763799999
 20
7.2656708908
 30
0.0
  0
VERTEX
  5
28C
330
273
100
AcDbEntity
  8
0
100
AcDbVertex
100
AcDb2dVertex
 10
8.374555975499999
 20
7.244287472
 30
0.0
  0
VERTEX
  5
28D
330
273
100
AcDbEntity
  8
0
100
AcDbVertex
100
AcDb2dVertex
 10
8.3820495234
 20
7.2233369582
 30
0.0
  0
VERTEX
  5
28E
330
273
100
AcDbEntity
  8
0
100
AcDbVertex
100
AcDb2dVertex
 10
8.397710428399999
 20
7.2039487971
 30
0.0
  0
VERTEX
  5
28F
330
273
100
AcDbEntity
  8
0
100
AcDbVertex
100
AcDb2dVertex
 10
8.420694407
 20
7.1871682094
 30
0.0
  0
SEQEND
  5
290
330
273
100
AcDbEntity
  8
0
  0
POLYLINE
  5
291
330
A
100
AcDbEntity
  8
0
  6
Continuous
 62
     7
100
AcDb2dPolyline
 66
     1
 10
0.0
 20
0.0
 30
0.0
 70
   128
 40
0.0017716535
 41
0.0017716535
  0
VERTEX
  5
292
330
291
100
AcDbEntity
  8
0
100
AcDbVertex
100
AcDb2dVertex
 10
8.178051552199999
 20
6.6644021685
 30
0.0
  0
VERTEX
  5
293
330
291
100
AcDbEntity
  8
0
100
AcDbVertex
100
AcDb2dVertex
 10
8.2071195323
 20
6.6511338
 30
0.0
  0
VERTEX
  5
294
330
291
100
AcDbEntity
  8
0
100
AcDbVertex
100
AcDb2dVertex
 10
8.240704451399999
 20
6.642092952
 30
0.0
  0
VERTEX
  5
295
330
291
100
AcDbEntity
  8
0
100
AcDbVertex
100
AcDb2dVertex
 10
8.276995738
 20
6.637767018899999
 30
0.0
  0
VERTEX
  5
296
330
291
100
AcDbEntity
  8
0
100
AcDbVertex
100
AcDb2dVertex
 10
8.314036919199999
 20
6.638389212799999
 30
0.0
  0
VERTEX
  5
297
330
291
100
AcDbEntity
  8
0
100
AcDbVertex
100
AcDb2dVertex
 10
8.349831095599999
 20
6.643925991199999
 30
0.0
  0
VERTEX
  5
298
330
291
100
AcDbEntity
  8
0
100
AcDbVertex
100
AcDb2dVertex
 10
8.382448593699999
 20
6.654078864899999
 30
0.0
  0
VERTEX
  5
299
330
291
100
AcDbEntity
  8
0
100
AcDbVertex
100
AcDb2dVertex
 10
8.410130995899999
 20
6.668300489699999
 30
0.0
  0
VERTEX
  5
29A
330
291
100
AcDbEntity
  8
0
100
AcDbVertex
100
AcDb2dVertex
 10
8.431385936499999
 20
6.685824174299999
 30
0.0
  0
VERTEX
  5
29B
330
291
100
AcDbEntity
  8
0
100
AcDbVertex
100
AcDb2dVertex
 10
8.445067556399999
 20
6.705705212299999
 30
0.0
  0
VERTEX
  5
29C
330
291
100
AcDbEntity
  8
0
100
AcDbVertex
100
AcDb2dVertex
 10
8.450438275699999
 20
6.726871811799999
 30
0.0
  0
VERTEX
  5
29D
330
291
100
AcDbEntity
  8
0
100
AcDbVertex
100
AcDb2dVertex
 10
8.447208557699999
 20
6.7481828759
 30
0.0
  0
VERTEX
  5
29E
330
291
100
AcDbEntity
  8
0
100
AcDbVertex
100
AcDb2dVertex
 10
8.435552517299999
 20
6.7684895196
 30
0.0
  0
VERTEX
  5
29F
330
291
100
AcDbEntity
  8
0
100
AcDbVertex
100
AcDb2dVertex
 10
8.416098534599999
 20
6.786697006499999
 30
0.0
  0
VERTEX
  5
2A0
330
291
100
AcDbEntity
  8
0
100
AcDbVertex
100
AcDb2dVertex
 10
8.3898953789
 20
6.8018237663
 30
0.0
  0
VERTEX
  5
2A1
330
291
100
AcDbEntity
  8
0
100
AcDbVertex
100
AcDb2dVertex
 10
8.358355669099999
 20
6.8130543115
 30
0.0
  0
VERTEX
  5
2A2
330
291
100
AcDbEntity
  8
0
100
AcDbVertex
100
AcDb2dVertex
 10
8.323179719
 20
6.819783200399999
 30
0.0
  0
VERTEX
  5
2A3
330
291
100
AcDbEntity
  8
0
100
AcDbVertex
100
AcDb2dVertex
 10
8.286263873400001
 20
6.8216476769
 30
0.0
  0
VERTEX
  5
2A4
330
291
100
AcDbEntity
  8
0
100
AcDbVertex
100
AcDb2dVertex
 10
8.2495982749
 20
6.818547226599999
 30
0.0
  0
VERTEX
  5
2A5
330
291
100
AcDbEntity
  8
0
100
AcDbVertex
100
AcDb2dVertex
 10
8.215159575499999
 20
6.810648995599999
 30
0.0
  0
VERTEX
  5
2A6
330
291
100
AcDbEntity
  8
0
100
AcDbVertex
100
AcDb2dVertex
 10
8.184804374299998
 20
6.7983787795
 30
0.0
  0
VERTEX
  5
2A7
330
291
100
AcDbEntity
  8
0
100
AcDbVertex
100
AcDb2dVertex
 10
8.160169128199999
 20
6.7823980689
 30
0.0
  0
VERTEX
  5
2A8
330
291
100
AcDbEntity
  8
0
100
AcDbVertex
100
AcDb2dVertex
 10
8.1425819296
 20
6.763568388099999
 30
0.0
  0
VERTEX
  5
2A9
330
291
100
AcDbEntity
  8
0
100
AcDbVertex
100
AcDb2dVertex
 10
8.132990909
 20
6.7429048499
 30
0.0
  0
VERTEX
  5
2AA
330
291
100
AcDbEntity
  8
0
100
AcDbVertex
100
AcDb2dVertex
 10
8.1319131207
 20
6.7215214311
 30
0.0
  0
VERTEX
  5
2AB
330
291
100
AcDbEntity
  8
0
100
AcDbVertex
100
AcDb2dVertex
 10
8.139406668599999
 20
6.7005709173
 30
0.0
  0
VERTEX
  5
2AC
330
291
100
AcDbEntity
  8
0
100
AcDbVertex
100
AcDb2dVertex
 10
8.1550675736
 20
6.6811827562
 30
0.0
  0
VERTEX
  5
2AD
330
291
100
AcDbEntity
  8
0
100
AcDbVertex
100
AcDb2dVertex
 10
8.178051552199999
 20
6.6644021685
 30
0.0
  0
SEQEND
  5
2AE
330
291
100
AcDbEntity
  8
0
  0
POLYLINE
  5
2AF
330
A
100
AcDbEntity
  8
0
  6
Continuous
 62
     7
100
AcDb2dPolyline
 66
     1
 10
0.0
 20
0.0
 30
0.0
 70
   128
 40
0.0017716535
 41
0.0017716535
  0
VERTEX
  5
2B0
330
2AF
100
AcDbEntity
  8
0
100
AcDbVertex
100
AcDb2dVertex
 10
8.8409641596
 20
6.2817108661
 30
0.0
  0
VERTEX
  5
2B1
330
2AF
100
AcDbEntity
  8
0
100
AcDbVertex
100
AcDb2dVertex
 10
8.870032139600001
 20
6.268442497599999
 30
0.0
  0
VERTEX
  5
2B2
330
2AF
100
AcDbEntity
  8
0
100
AcDbVertex
100
AcDb2dVertex
 10
8.9036170588
 20
6.2594016496
 30
0.0
  0
VERTEX
  5
2B3
330
2AF
100
AcDbEntity
  8
0
100
AcDbVertex
100
AcDb2dVertex
 10
8.939908345299999
 20
6.255075716499999
 30
0.0
  0
VERTEX
  5
2B4
330
2AF
100
AcDbEntity
  8
0
100
AcDbVertex
100
AcDb2dVertex
 10
8.9769495266
 20
6.255697910399999
 30
0.0
  0
VERTEX
  5
2B5
330
2AF
100
AcDbEntity
  8
0
100
AcDbVertex
100
AcDb2dVertex
 10
9.012743702999999
 20
6.2612346888
 30
0.0
  0
VERTEX
  5
2B6
330
2AF
100
AcDbEntity
  8
0
100
AcDbVertex
100
AcDb2dVertex
 10
9.0453612011
 20
6.2713875624
 30
0.0
  0
VERTEX
  5
2B7
330
2AF
100
AcDbEntity
  8
0
100
AcDbVertex
100
AcDb2dVertex
 10
9.0730436032
 20
6.2856091873
 30
0.0
  0
VERTEX
  5
2B8
330
2AF
100
AcDbEntity
  8
0
100
AcDbVertex
100
AcDb2dVertex
 10
9.094298543899999
 20
6.3031328719
 30
0.0
  0
VERTEX
  5
2B9
330
2AF
100
AcDbEntity
  8
0
100
AcDbVertex
100
AcDb2dVertex
 10
9.1079801637
 20
6.3230139099
 30
0.0
  0
VERTEX
  5
2BA
330
2AF
100
AcDbEntity
  8
0
100
AcDbVertex
100
AcDb2dVertex
 10
9.113350883099998
 20
6.344180509400001
 30
0.0
  0
VERTEX
  5
2BB
330
2AF
100
AcDbEntity
  8
0
100
AcDbVertex
100
AcDb2dVertex
 10
9.1101211651
 20
6.365491573499999
 30
0.0
  0
VERTEX
  5
2BC
330
2AF
100
AcDbEntity
  8
0
100
AcDbVertex
100
AcDb2dVertex
 10
9.0984651247
 20
6.3857982172
 30
0.0
  0
VERTEX
  5
2BD
330
2AF
100
AcDbEntity
  8
0
100
AcDbVertex
100
AcDb2dVertex
 10
9.079011142
 20
6.404005704099999
 30
0.0
  0
VERTEX
  5
2BE
330
2AF
100
AcDbEntity
  8
0
100
AcDbVertex
100
AcDb2dVertex
 10
9.052807986299999
 20
6.419132463899999
 30
0.0
  0
VERTEX
  5
2BF
330
2AF
100
AcDbEntity
  8
0
100
AcDbVertex
100
AcDb2dVertex
 10
9.0212682764
 20
6.430363009099999
 30
0.0
  0
VERTEX
  5
2C0
330
2AF
100
AcDbEntity
  8
0
100
AcDbVertex
100
AcDb2dVertex
 10
8.986092326399999
 20
6.437091897999999
 30
0.0
  0
VERTEX
  5
2C1
330
2AF
100
AcDbEntity
  8
0
100
AcDbVertex
100
AcDb2dVertex
 10
8.9491764807
 20
6.4389563745
 30
0.0
  0
VERTEX
  5
2C2
330
2AF
100
AcDbEntity
  8
0
100
AcDbVertex
100
AcDb2dVertex
 10
8.912510882299999
 20
6.435855924199999
 30
0.0
  0
VERTEX
  5
2C3
330
2AF
100
AcDbEntity
  8
0
100
AcDbVertex
100
AcDb2dVertex
 10
8.8780721828
 20
6.4279576932
 30
0.0
  0
VERTEX
  5
2C4
330
2AF
100
AcDbEntity
  8
0
100
AcDbVertex
100
AcDb2dVertex
 10
8.847716981699999
 20
6.4156874771
 30
0.0
  0
VERTEX
  5
2C5
330
2AF
100
AcDbEntity
  8
0
100
AcDbVertex
100
AcDb2dVertex
 10
8.823081735599998
 20
6.399706766499999
 30
0.0
  0
VERTEX
  5
2C6
330
2AF
100
AcDbEntity
  8
0
100
AcDbVertex
100
AcDb2dVertex
 10
8.805494537000001
 20
6.3808770857
 30
0.0
  0
VERTEX
  5
2C7
330
2AF
100
AcDbEntity
  8
0
100
AcDbVertex
100
AcDb2dVertex
 10
8.795903516299999
 20
6.360213547499999
 30
0.0
  0
VERTEX
  5
2C8
330
2AF
100
AcDbEntity
  8
0
100
AcDbVertex
100
AcDb2dVertex
 10
8.794825727999999
 20
6.338830128699999
 30
0.0
  0
VERTEX
  5
2C9
330
2AF
100
AcDbEntity
  8
0
100
AcDbVertex
100
AcDb2dVertex
 10
8.8023192759
 20
6.317879614899999
 30
0.0
  0
VERTEX
  5
2CA
330
2AF
100
AcDbEntity
  8
0
100
AcDbVertex
100
AcDb2dVertex
 10
8.817980180900001
 20
6.298491453799999
 30
0.0
  0
VERTEX
  5
2CB
330
2AF
100
AcDbEntity
  8
0
100
AcDbVertex
100
AcDb2dVertex
 10
8.8409641596
 20
6.2817108661
 30
0.0
  0
SEQEND
  5
2CC
330
2AF
100
AcDbEntity
  8
0
  0
LINE
  5
2CD
330
A
100
AcDbEntity
  8
0
  6
Continuous
 62
     7
370
    15
100
AcDbLine
 10
15.7725543217
 20
6.287576078599999
 30
0.0
 11
15.7725543217
 21
6.9920874911
 31
0.0
  0
LINE
  5
2CE
330
A
100
AcDbEntity
  8
0
  6
Continuous
 62
     7
370
    15
100
AcDbLine
 10
8.984329222299999
 20
2.3688171418
 30
0.0
 11
15.7725543217
 21
6.287576078599999
 31
0.0
  0
LINE
  5
2CF
330
A
100
AcDbEntity
  8
0
  6
Continuous
 62
     7
370
    15
100
AcDbLine
 10
6.7851932223
 20
3.1485064647
 30
0.0
 11
8.1358010849
 21
2.3688171418
 31
0.0
  0
LINE
  5
2D0
330
A
100
AcDbEntity
  8
0
  6
Continuous
 62
     7
370
    15
100
AcDbLine
 10
6.7851932223
 20
3.1485064647
 30
0.0
 11
6.7851932223
 21
3.8530178772
 31
0.0
  0
LINE
  5
2D1
330
A
100
AcDbEntity
  8
0
  6
Continuous
 62
     7
370
    15
100
AcDbLine
 10
6.618330238099999
 20
3.3340810054
 30
0.0
 11
6.618330238099999
 21
4.0385924179
 31
0.0
  0
POLYLINE
  5
2D2
330
A
100
AcDbEntity
  8
0
  6
Continuous
 62
     7
100
AcDb2dPolyline
 66
     1
 10
0.0
 20
0.0
 30
0.0
 70
   128
 40
0.0017716535
 41
0.0017716535
  0
VERTEX
  5
2D3
330
2D2
100
AcDbEntity
  8
0
100
AcDbVertex
100
AcDb2dVertex
 10
6.618330238099999
 20
3.3340810054
 30
0.0
  0
VERTEX
  5
2D4
330
2D2
100
AcDbEntity
  8
0
100
AcDbVertex
100
AcDb2dVertex
 10
6.6279382921
 20
3.308123716199999
 30
0.0
  0
VERTEX
  5
2D5
330
2D2
100
AcDbEntity
  8
0
100
AcDbVertex
100
AcDb2dVertex
 10
6.640961308999999
 20
3.282667380499999
 30
0.0
  0
VERTEX
  5
2D6
330
2D2
100
AcDbEntity
  8
0
100
AcDbVertex
100
AcDb2dVertex
 10
6.6573228112
 20
3.2578614904
 30
0.0
  0
VERTEX
  5
2D7
330
2D2
100
AcDbEntity
  8
0
100
AcDbVertex
100
AcDb2dVertex
 10
6.676926716199999
 20
3.233851718299999
 30
0.0
  0
VERTEX
  5
2D8
330
2D2
100
AcDbEntity
  8
0
100
AcDbVertex
100
AcDb2dVertex
 10
6.6996579001
 20
3.210779061
 30
0.0
  0
VERTEX
  5
2D9
330
2D2
100
AcDbEntity
  8
0
100
AcDbVertex
100
AcDb2dVertex
 10
6.7253828745
 20
3.188779012599999
 30
0.0
  0
VERTEX
  5
2DA
330
2D2
100
AcDbEntity
  8
0
100
AcDbVertex
100
AcDb2dVertex
 10
6.7539505697
 20
3.167980768
 30
0.0
  0
VERTEX
  5
2DB
330
2D2
100
AcDbEntity
  8
0
100
AcDbVertex
100
AcDb2dVertex
 10
6.7851932223
 20
3.1485064647
 30
0.0
  0
SEQEND
  5
2DC
330
2D2
100
AcDbEntity
  8
0
  0
LINE
  5
2DD
330
A
100
AcDbEntity
  8
0
  6
Continuous
 62
     7
370
    15
100
AcDbLine
 10
5.855712527599999
 20
5.8655175469
 30
0.0
 11
5.855712527599999
 21
6.5700289594
 31
0.0
  0
LINE
  5
2DE
330
A
100
AcDbEntity
  8
0
  6
Continuous
 62
     7
370
    15
100
AcDbLine
 10
5.855712527599999
 20
5.8655175469
 30
0.0
 11
6.618330238099999
 21
3.3340810054
 31
0.0
  0
POLYLINE
  5
2DF
330
A
100
AcDbEntity
  8
0
  6
Continuous
 62
     7
100
AcDb2dPolyline
 66
     1
 10
0.0
 20
0.0
 30
0.0
 70
   128
 40
0.0017716535
 41
0.0017716535
  0
VERTEX
  5
2E0
330
2DF
100
AcDbEntity
  8
0
100
AcDbVertex
100
AcDb2dVertex
 10
9.053653581
 20
6.274976676699999
 30
0.0
  0
VERTEX
  5
2E1
330
2DF
100
AcDbEntity
  8
0
100
AcDbVertex
100
AcDb2dVertex
 10
9.063431237199999
 20
6.283356237499999
 30
0.0
  0
VERTEX
  5
2E2
330
2DF
100
AcDbEntity
  8
0
100
AcDbVertex
100
AcDb2dVertex
 10
9.0760756337
 20
6.3009786801
 30
0.0
  0
VERTEX
  5
2E3
330
2DF
100
AcDbEntity
  8
0
100
AcDbVertex
100
AcDb2dVertex
 10
9.0803884019
 20
6.319889890399999
 30
0.0
  0
VERTEX
  5
2E4
330
2DF
100
AcDbEntity
  8
0
100
AcDbVertex
100
AcDb2dVertex
 10
9.0760756337
 20
6.3388011007
 30
0.0
  0
VERTEX
  5
2E5
330
2DF
100
AcDbEntity
  8
0
100
AcDbVertex
100
AcDb2dVertex
 10
9.063431237199999
 20
6.3564235432
 30
0.0
  0
VERTEX
  5
2E6
330
2DF
100
AcDbEntity
  8
0
100
AcDbVertex
100
AcDb2dVertex
 10
9.043316907199999
 20
6.371556277699999
 30
0.0
  0
VERTEX
  5
2E7
330
2DF
100
AcDbEntity
  8
0
100
AcDbVertex
100
AcDb2dVertex
 10
9.0171034019
 20
6.3831680333
 30
0.0
  0
VERTEX
  5
2E8
330
2DF
100
AcDbEntity
  8
0
100
AcDbVertex
100
AcDb2dVertex
 10
8.9865771284
 20
6.390467487999999
 30
0.0
  0
VERTEX
  5
2E9
330
2DF
100
AcDbEntity
  8
0
100
AcDbVertex
100
AcDb2dVertex
 10
8.953818401900001
 20
6.3929571961
 30
0.0
  0
VERTEX
  5
2EA
330
2DF
100
AcDbEntity
  8
0
100
AcDbVertex
100
AcDb2dVertex
 10
8.9210596753
 20
6.390467487999999
 30
0.0
  0
VERTEX
  5
2EB
330
2DF
100
AcDbEntity
  8
0
100
AcDbVertex
100
AcDb2dVertex
 10
8.8905334019
 20
6.3831680333
 30
0.0
  0
VERTEX
  5
2EC
330
2DF
100
AcDbEntity
  8
0
100
AcDbVertex
100
AcDb2dVertex
 10
8.864319896599999
 20
6.371556277699999
 30
0.0
  0
VERTEX
  5
2ED
330
2DF
100
AcDbEntity
  8
0
100
AcDbVertex
100
AcDb2dVertex
 10
8.844205566499999
 20
6.3564235432
 30
0.0
  0
VERTEX
  5
2EE
330
2DF
100
AcDbEntity
  8
0
100
AcDbVertex
100
AcDb2dVertex
 10
8.83156117
 20
6.3388011007
 30
0.0
  0
VERTEX
  5
2EF
330
2DF
100
AcDbEntity
  8
0
100
AcDbVertex
100
AcDb2dVertex
 10
8.8272484019
 20
6.319889890399999
 30
0.0
  0
VERTEX
  5
2F0
330
2DF
100
AcDbEntity
  8
0
100
AcDbVertex
100
AcDb2dVertex
 10
8.83156117
 20
6.3009786801
 30
0.0
  0
VERTEX
  5
2F1
330
2DF
100
AcDbEntity
  8
0
100
AcDbVertex
100
AcDb2dVertex
 10
8.844205566499999
 20
6.283356237499999
 30
0.0
  0
VERTEX
  5
2F2
330
2DF
100
AcDbEntity
  8
0
100
AcDbVertex
100
AcDb2dVertex
 10
8.8539832227
 20
6.274976676699999
 30
0.0
  0
SEQEND
  5
2F3
330
2DF
100
AcDbEntity
  8
0
  0
POLYLINE
  5
2F4
330
A
100
AcDbEntity
  8
0
  6
Continuous
 62
     7
100
AcDb2dPolyline
 66
     1
 10
0.0
 20
0.0
 30
0.0
 70
   128
 40
0.0017716535
 41
0.0017716535
  0
VERTEX
  5
2F5
330
2F4
100
AcDbEntity
  8
0
100
AcDbVertex
100
AcDb2dVertex
 10
9.959209043099999
 20
6.415051415199999
 30
0.0
  0
VERTEX
  5
2F6
330
2F4
100
AcDbEntity
  8
0
100
AcDbVertex
100
AcDb2dVertex
 10
9.9689866994
 20
6.423430976
 30
0.0
  0
VERTEX
  5
2F7
330
2F4
100
AcDbEntity
  8
0
100
AcDbVertex
100
AcDb2dVertex
 10
9.9816310958
 20
6.4410534186
 30
0.0
  0
VERTEX
  5
2F8
330
2F4
100
AcDbEntity
  8
0
100
AcDbVertex
100
AcDb2dVertex
 10
9.985943863999999
 20
6.459964628899999
 30
0.0
  0
VERTEX
  5
2F9
330
2F4
100
AcDbEntity
  8
0
100
AcDbVertex
100
AcDb2dVertex
 10
9.9816310958
 20
6.478875839199999
 30
0.0
  0
VERTEX
  5
2FA
330
2F4
100
AcDbEntity
  8
0
100
AcDbVertex
100
AcDb2dVertex
 10
9.9689866994
 20
6.496498281699999
 30
0.0
  0
VERTEX
  5
2FB
330
2F4
100
AcDbEntity
  8
0
100
AcDbVertex
100
AcDb2dVertex
 10
9.9488723693
 20
6.511631016199999
 30
0.0
  0
VERTEX
  5
2FC
330
2F4
100
AcDbEntity
  8
0
100
AcDbVertex
100
AcDb2dVertex
 10
9.922658864
 20
6.523242771799999
 30
0.0
  0
VERTEX
  5
2FD
330
2F4
100
AcDbEntity
  8
0
100
AcDbVertex
100
AcDb2dVertex
 10
9.892132590499999
 20
6.530542226499999
 30
0.0
  0
VERTEX
  5
2FE
330
2F4
100
AcDbEntity
  8
0
100
AcDbVertex
100
AcDb2dVertex
 10
9.859373864
 20
6.5330319346
 30
0.0
  0
VERTEX
  5
2FF
330
2F4
100
AcDbEntity
  8
0
100
AcDbVertex
100
AcDb2dVertex
 10
9.826615137499999
 20
6.530542226499999
 30
0.0
  0
VERTEX
  5
300
330
2F4
100
AcDbEntity
  8
0
100
AcDbVertex
100
AcDb2dVertex
 10
9.796088863999999
 20
6.523242771799999
 30
0.0
  0
VERTEX
  5
301
330
2F4
100
AcDbEntity
  8
0
100
AcDbVertex
100
AcDb2dVertex
 10
9.7698753587
 20
6.511631016199999
 30
0.0
  0
VERTEX
  5
302
330
2F4
100
AcDbEntity
  8
0
100
AcDbVertex
100
AcDb2dVertex
 10
9.7497610286
 20
6.496498281699999
 30
0.0
  0
VERTEX
  5
303
330
2F4
100
AcDbEntity
  8
0
100
AcDbVertex
100
AcDb2dVertex
 10
9.737116632200001
 20
6.478875839199999
 30
0.0
  0
VERTEX
  5
304
330
2F4
100
AcDbEntity
  8
0
100
AcDbVertex
100
AcDb2dVertex
 10
9.732803863999999
 20
6.459964628899999
 30
0.0
  0
VERTEX
  5
305
330
2F4
100
AcDbEntity
  8
0
100
AcDbVertex
100
AcDb2dVertex
 10
9.737116632200001
 20
6.4410534186
 30
0.0
  0
VERTEX
  5
306
330
2F4
100
AcDbEntity
  8
0
100
AcDbVertex
100
AcDb2dVertex
 10
9.7497610286
 20
6.423430976
 30
0.0
  0
VERTEX
  5
307
330
2F4
100
AcDbEntity
  8
0
100
AcDbVertex
100
AcDb2dVertex
 10
9.7595386849
 20
6.415051415199999
 30
0.0
  0
SEQEND
  5
308
330
2F4
100
AcDbEntity
  8
0
  0
POLYLINE
  5
309
330
A
100
AcDbEntity
  8
0
  6
Continuous
 62
     7
100
AcDb2dPolyline
 66
     1
 10
0.0
 20
0.0
 30
0.0
 70
   128
 40
0.0017716535
 41
0.0017716535
  0
VERTEX
  5
30A
330
309
100
AcDbEntity
  8
0
100
AcDbVertex
100
AcDb2dVertex
 10
5.846839580499999
 20
5.9248654398
 30
0.0
  0
VERTEX
  5
30B
330
309
100
AcDbEntity
  8
0
100
AcDbVertex
100
AcDb2dVertex
 10
5.8476660198
 20
5.9066919299
 30
0.0
  0
VERTEX
  5
30C
330
309
100
AcDbEntity
  8
0
100
AcDbVertex
100
AcDb2dVertex
 10
5.855712527599999
 20
5.8655175469
 30
0.0
  0
SEQEND
  5
30D
330
309
100
AcDbEntity
  8
0
  0
POLYLINE
  5
30E
330
A
100
AcDbEntity
  8
0
  6
Continuous
 62
     7
100
AcDb2dPolyline
 66
     1
 10
0.0
 20
0.0
 30
0.0
 70
   128
 40
0.0017716535
 41
0.0017716535
  0
VERTEX
  5
30F
330
30E
100
AcDbEntity
  8
0
100
AcDbVertex
100
AcDb2dVertex
 10
8.390740973599999
 20
6.657667979099999
 30
0.0
  0
VERTEX
  5
310
330
30E
100
AcDbEntity
  8
0
100
AcDbVertex
100
AcDb2dVertex
 10
8.4005186299
 20
6.6660475399
 30
0.0
  0
VERTEX
  5
311
330
30E
100
AcDbEntity
  8
0
100
AcDbVertex
100
AcDb2dVertex
 10
8.413163026299999
 20
6.683669982499999
 30
0.0
  0
VERTEX
  5
312
330
30E
100
AcDbEntity
  8
0
100
AcDbVertex
100
AcDb2dVertex
 10
8.417475794499999
 20
6.702581192799999
 30
0.0
  0
VERTEX
  5
313
330
30E
100
AcDbEntity
  8
0
100
AcDbVertex
100
AcDb2dVertex
 10
8.413163026299999
 20
6.721492403099999
 30
0.0
  0
VERTEX
  5
314
330
30E
100
AcDbEntity
  8
0
100
AcDbVertex
100
AcDb2dVertex
 10
8.4005186299
 20
6.7391148457
 30
0.0
  0
VERTEX
  5
315
330
30E
100
AcDbEntity
  8
0
100
AcDbVertex
100
AcDb2dVertex
 10
8.3804042998
 20
6.754247580199999
 30
0.0
  0
VERTEX
  5
316
330
30E
100
AcDbEntity
  8
0
100
AcDbVertex
100
AcDb2dVertex
 10
8.3541907945
 20
6.7658593357
 30
0.0
  0
VERTEX
  5
317
330
30E
100
AcDbEntity
  8
0
100
AcDbVertex
100
AcDb2dVertex
 10
8.323664520999999
 20
6.773158790399999
 30
0.0
  0
VERTEX
  5
318
330
30E
100
AcDbEntity
  8
0
100
AcDbVertex
100
AcDb2dVertex
 10
8.2909057945
 20
6.775648498499999
 30
0.0
  0
VERTEX
  5
319
330
30E
100
AcDbEntity
  8
0
100
AcDbVertex
100
AcDb2dVertex
 10
8.258147067999999
 20
6.773158790399999
 30
0.0
  0
VERTEX
  5
31A
330
30E
100
AcDbEntity
  8
0
100
AcDbVertex
100
AcDb2dVertex
 10
8.227620794499999
 20
6.7658593357
 30
0.0
  0
VERTEX
  5
31B
330
30E
100
AcDbEntity
  8
0
100
AcDbVertex
100
AcDb2dVertex
 10
8.201407289199998
 20
6.754247580199999
 30
0.0
  0
VERTEX
  5
31C
330
30E
100
AcDbEntity
  8
0
100
AcDbVertex
100
AcDb2dVertex
 10
8.1812929591
 20
6.7391148457
 30
0.0
  0
VERTEX
  5
31D
330
30E
100
AcDbEntity
  8
0
100
AcDbVertex
100
AcDb2dVertex
 10
8.168648562699999
 20
6.721492403099999
 30
0.0
  0
VERTEX
  5
31E
330
30E
100
AcDbEntity
  8
0
100
AcDbVertex
100
AcDb2dVertex
 10
8.164335794500001
 20
6.702581192799999
 30
0.0
  0
VERTEX
  5
31F
330
30E
100
AcDbEntity
  8
0
100
AcDbVertex
100
AcDb2dVertex
 10
8.168648562699999
 20
6.683669982499999
 30
0.0
  0
VERTEX
  5
320
330
30E
100
AcDbEntity
  8
0
100
AcDbVertex
100
AcDb2dVertex
 10
8.1812929591
 20
6.6660475399
 30
0.0
  0
VERTEX
  5
321
330
30E
100
AcDbEntity
  8
0
100
AcDbVertex
100
AcDb2dVertex
 10
8.191070615399999
 20
6.657667979099999
 30
0.0
  0
SEQEND
  5
322
330
30E
100
AcDbEntity
  8
0
  0
POLYLINE
  5
323
330
A
100
AcDbEntity
  8
0
  6
Continuous
 62
     7
100
AcDb2dPolyline
 66
     1
 10
0.0
 20
0.0
 30
0.0
 70
   128
 40
0.0017716535
 41
0.0017716535
  0
VERTEX
  5
324
330
323
100
AcDbEntity
  8
0
100
AcDbVertex
100
AcDb2dVertex
 10
10.2018518979
 20
6.9378174561
 30
0.0
  0
VERTEX
  5
325
330
323
100
AcDbEntity
  8
0
100
AcDbVertex
100
AcDb2dVertex
 10
10.2116295541
 20
6.9461970169
 30
0.0
  0
VERTEX
  5
326
330
323
100
AcDbEntity
  8
0
100
AcDbVertex
100
AcDb2dVertex
 10
10.2242739506
 20
6.9638194595
 30
0.0
  0
VERTEX
  5
327
330
323
100
AcDbEntity
  8
0
100
AcDbVertex
100
AcDb2dVertex
 10
10.2285867188
 20
6.9827306698
 30
0.0
  0
VERTEX
  5
328
330
323
100
AcDbEntity
  8
0
100
AcDbVertex
100
AcDb2dVertex
 10
10.2242739506
 20
7.0016418801
 30
0.0
  0
VERTEX
  5
329
330
323
100
AcDbEntity
  8
0
100
AcDbVertex
100
AcDb2dVertex
 10
10.2116295541
 20
7.019264322599999
 30
0.0
  0
VERTEX
  5
32A
330
323
100
AcDbEntity
  8
0
100
AcDbVertex
100
AcDb2dVertex
 10
10.1915152241
 20
7.0343970571
 30
0.0
  0
VERTEX
  5
32B
330
323
100
AcDbEntity
  8
0
100
AcDbVertex
100
AcDb2dVertex
 10
10.1653017188
 20
7.0460088127
 30
0.0
  0
VERTEX
  5
32C
330
323
100
AcDbEntity
  8
0
100
AcDbVertex
100
AcDb2dVertex
 10
10.13477544529999
 20
7.0533082674
 30
0.0
  0
VERTEX
  5
32D
330
323
100
AcDbEntity
  8
0
100
AcDbVertex
100
AcDb2dVertex
 10
10.10201671879999
 20
7.055797975499999
 30
0.0
  0
VERTEX
  5
32E
330
323
100
AcDbEntity
  8
0
100
AcDbVertex
100
AcDb2dVertex
 10
10.0692579922
 20
7.0533082674
 30
0.0
  0
VERTEX
  5
32F
330
323
100
AcDbEntity
  8
0
100
AcDbVertex
100
AcDb2dVertex
 10
10.0387317188
 20
7.0460088127
 30
0.0
  0
VERTEX
  5
330
330
323
100
AcDbEntity
  8
0
100
AcDbVertex
100
AcDb2dVertex
 10
10.0125182135
 20
7.0343970571
 30
0.0
  0
VERTEX
  5
331
330
323
100
AcDbEntity
  8
0
100
AcDbVertex
100
AcDb2dVertex
 10
9.992403883399999
 20
7.019264322599999
 30
0.0
  0
VERTEX
  5
332
330
323
100
AcDbEntity
  8
0
100
AcDbVertex
100
AcDb2dVertex
 10
9.979759487
 20
7.0016418801
 30
0.0
  0
VERTEX
  5
333
330
323
100
AcDbEntity
  8
0
100
AcDbVertex
100
AcDb2dVertex
 10
9.9754467188
 20
6.9827306698
 30
0.0
  0
VERTEX
  5
334
330
323
100
AcDbEntity
  8
0
100
AcDbVertex
100
AcDb2dVertex
 10
9.979759487
 20
6.9638194595
 30
0.0
  0
VERTEX
  5
335
330
323
100
AcDbEntity
  8
0
100
AcDbVertex
100
AcDb2dVertex
 10
9.992403883399999
 20
6.9461970169
 30
0.0
  0
VERTEX
  5
336
330
323
100
AcDbEntity
  8
0
100
AcDbVertex
100
AcDb2dVertex
 10
10.0021815397
 20
6.9378174561
 30
0.0
  0
SEQEND
  5
337
330
323
100
AcDbEntity
  8
0
  0
POLYLINE
  5
338
330
A
100
AcDbEntity
  8
0
  6
Continuous
 62
     7
100
AcDb2dPolyline
 66
     1
 10
0.0
 20
0.0
 30
0.0
 70
   128
 40
0.0017716535
 41
0.0017716535
  0
VERTEX
  5
339
330
338
100
AcDbEntity
  8
0
100
AcDbVertex
100
AcDb2dVertex
 10
15.7725543217
 20
6.287576078599999
 30
0.0
  0
VERTEX
  5
33A
330
338
100
AcDbEntity
  8
0
100
AcDbVertex
100
AcDb2dVertex
 10
15.8206003413
 20
6.3188839759
 30
0.0
  0
VERTEX
  5
33B
330
338
100
AcDbEntity
  8
0
100
AcDbVertex
100
AcDb2dVertex
 10
15.8617590163
 20
6.353306854299999
 30
0.0
  0
VERTEX
  5
33C
330
338
100
AcDbEntity
  8
0
100
AcDbVertex
100
AcDb2dVertex
 10
15.8954301606
 20
6.390342750399999
 30
0.0
  0
VERTEX
  5
33D
330
338
100
AcDbEntity
  8
0
100
AcDbVertex
100
AcDb2dVertex
 10
15.9211227729
 20
6.429451597799999
 30
0.0
  0
VERTEX
  5
33E
330
338
100
AcDbEntity
  8
0
100
AcDbVertex
100
AcDb2dVertex
 10
15.9384621971
 20
6.4700631011
 30
0.0
  0
VERTEX
  5
33F
330
338
100
AcDbEntity
  8
0
100
AcDbVertex
100
AcDb2dVertex
 10
15.9471955855
 20
6.5115850533
 30
0.0
  0
VERTEX
  5
340
330
338
100
AcDbEntity
  8
0
100
AcDbVertex
100
AcDb2dVertex
 10
15.948290253
 20
6.5324985121
 30
0.0
  0
SEQEND
  5
341
330
338
100
AcDbEntity
  8
0
  0
POLYLINE
  5
342
330
A
100
AcDbEntity
  8
0
  6
Continuous
 62
     7
100
AcDb2dPolyline
 66
     1
 10
0.0
 20
0.0
 30
0.0
 70
   128
 40
0.0017716535
 41
0.0017716535
  0
VERTEX
  5
343
330
342
100
AcDbEntity
  8
0
100
AcDbVertex
100
AcDb2dVertex
 10
8.633383828399999
 20
7.180434019999999
 30
0.0
  0
VERTEX
  5
344
330
342
100
AcDbEntity
  8
0
100
AcDbVertex
100
AcDb2dVertex
 10
8.6431614846
 20
7.1888135808
 30
0.0
  0
VERTEX
  5
345
330
342
100
AcDbEntity
  8
0
100
AcDbVertex
100
AcDb2dVertex
 10
8.6558058811
 20
7.2064360234
 30
0.0
  0
VERTEX
  5
346
330
342
100
AcDbEntity
  8
0
100
AcDbVertex
100
AcDb2dVertex
 10
8.660118649299999
 20
7.225347233699999
 30
0.0
  0
VERTEX
  5
347
330
342
100
AcDbEntity
  8
0
100
AcDbVertex
100
AcDb2dVertex
 10
8.6558058811
 20
7.244258443999999
 30
0.0
  0
VERTEX
  5
348
330
342
100
AcDbEntity
  8
0
100
AcDbVertex
100
AcDb2dVertex
 10
8.6431614846
 20
7.261880886599999
 30
0.0
  0
VERTEX
  5
349
330
342
100
AcDbEntity
  8
0
100
AcDbVertex
100
AcDb2dVertex
 10
8.6230471546
 20
7.2770136211
 30
0.0
  0
VERTEX
  5
34A
330
342
100
AcDbEntity
  8
0
100
AcDbVertex
100
AcDb2dVertex
 10
8.596833649299998
 20
7.288625376599999
 30
0.0
  0
VERTEX
  5
34B
330
342
100
AcDbEntity
  8
0
100
AcDbVertex
100
AcDb2dVertex
 10
8.566307375800001
 20
7.295924831399999
 30
0.0
  0
VERTEX
  5
34C
330
342
100
AcDbEntity
  8
0
100
AcDbVertex
100
AcDb2dVertex
 10
8.5335486493
 20
7.2984145394
 30
0.0
  0
VERTEX
  5
34D
330
342
100
AcDbEntity
  8
0
100
AcDbVertex
100
AcDb2dVertex
 10
8.500789922699999
 20
7.295924831399999
 30
0.0
  0
VERTEX
  5
34E
330
342
100
AcDbEntity
  8
0
100
AcDbVertex
100
AcDb2dVertex
 10
8.470263649299999
 20
7.288625376599999
 30
0.0
  0
VERTEX
  5
34F
330
342
100
AcDbEntity
  8
0
100
AcDbVertex
100
AcDb2dVertex
 10
8.444050144
 20
7.2770136211
 30
0.0
  0
VERTEX
  5
350
330
342
100
AcDbEntity
  8
0
100
AcDbVertex
100
AcDb2dVertex
 10
8.4239358139
 20
7.261880886599999
 30
0.0
  0
VERTEX
  5
351
330
342
100
AcDbEntity
  8
0
100
AcDbVertex
100
AcDb2dVertex
 10
8.411291417399999
 20
7.244258443999999
 30
0.0
  0
VERTEX
  5
352
330
342
100
AcDbEntity
  8
0
100
AcDbVertex
100
AcDb2dVertex
 10
8.406978649299999
 20
7.225347233699999
 30
0.0
  0
VERTEX
  5
353
330
342
100
AcDbEntity
  8
0
100
AcDbVertex
100
AcDb2dVertex
 10
8.411291417399999
 20
7.2064360234
 30
0.0
  0
VERTEX
  5
354
330
342
100
AcDbEntity
  8
0
100
AcDbVertex
100
AcDb2dVertex
 10
8.4239358139
 20
7.1888135808
 30
0.0
  0
VERTEX
  5
355
330
342
100
AcDbEntity
  8
0
100
AcDbVertex
100
AcDb2dVertex
 10
8.4337134701
 20
7.180434019999999
 30
0.0
  0
SEQEND
  5
356
330
342
100
AcDbEntity
  8
0
  0
POLYLINE
  5
357
330
A
100
AcDbEntity
  8
0
  6
Continuous
 62
     7
100
AcDb2dPolyline
 66
     1
 10
0.0
 20
0.0
 30
0.0
 70
   128
 40
0.0017716535
 41
0.0017716535
  0
VERTEX
  5
358
330
357
100
AcDbEntity
  8
0
100
AcDbVertex
100
AcDb2dVertex
 10
9.5389392906
 20
7.320508758499999
 30
0.0
  0
VERTEX
  5
359
330
357
100
AcDbEntity
  8
0
100
AcDbVertex
100
AcDb2dVertex
 10
9.548716946799999
 20
7.328888319299999
 30
0.0
  0
VERTEX
  5
35A
330
357
100
AcDbEntity
  8
0
100
AcDbVertex
100
AcDb2dVertex
 10
9.561361343299999
 20
7.3465107619
 30
0.0
  0
VERTEX
  5
35B
330
357
100
AcDbEntity
  8
0
100
AcDbVertex
100
AcDb2dVertex
 10
9.565674111399999
 20
7.3654219722
 30
0.0
  0
VERTEX
  5
35C
330
357
100
AcDbEntity
  8
0
100
AcDbVertex
100
AcDb2dVertex
 10
9.561361343299999
 20
7.384333182499999
 30
0.0
  0
VERTEX
  5
35D
330
357
100
AcDbEntity
  8
0
100
AcDbVertex
100
AcDb2dVertex
 10
9.548716946799999
 20
7.4019556251
 30
0.0
  0
VERTEX
  5
35E
330
357
100
AcDbEntity
  8
0
100
AcDbVertex
100
AcDb2dVertex
 10
9.528602616699998
 20
7.4170883596
 30
0.0
  0
VERTEX
  5
35F
330
357
100
AcDbEntity
  8
0
100
AcDbVertex
100
AcDb2dVertex
 10
9.502389111399999
 20
7.428700115099999
 30
0.0
  0
VERTEX
  5
360
330
357
100
AcDbEntity
  8
0
100
AcDbVertex
100
AcDb2dVertex
 10
9.471862837999999
 20
7.435999569799999
 30
0.0
  0
VERTEX
  5
361
330
357
100
AcDbEntity
  8
0
100
AcDbVertex
100
AcDb2dVertex
 10
9.4391041114
 20
7.438489277899999
 30
0.0
  0
VERTEX
  5
362
330
357
100
AcDbEntity
  8
0
100
AcDbVertex
100
AcDb2dVertex
 10
9.406345384899999
 20
7.435999569799999
 30
0.0
  0
VERTEX
  5
363
330
357
100
AcDbEntity
  8
0
100
AcDbVertex
100
AcDb2dVertex
 10
9.3758191114
 20
7.428700115099999
 30
0.0
  0
VERTEX
  5
364
330
357
100
AcDbEntity
  8
0
100
AcDbVertex
100
AcDb2dVertex
 10
9.3496056061
 20
7.4170883596
 30
0.0
  0
VERTEX
  5
365
330
357
100
AcDbEntity
  8
0
100
AcDbVertex
100
AcDb2dVertex
 10
9.3294912761
 20
7.4019556251
 30
0.0
  0
VERTEX
  5
366
330
357
100
AcDbEntity
  8
0
100
AcDbVertex
100
AcDb2dVertex
 10
9.316846879599999
 20
7.384333182499999
 30
0.0
  0
VERTEX
  5
367
330
357
100
AcDbEntity
  8
0
100
AcDbVertex
100
AcDb2dVertex
 10
9.312534111399999
 20
7.3654219722
 30
0.0
  0
VERTEX
  5
368
330
357
100
AcDbEntity
  8
0
100
AcDbVertex
100
AcDb2dVertex
 10
9.316846879599999
 20
7.3465107619
 30
0.0
  0
VERTEX
  5
369
330
357
100
AcDbEntity
  8
0
100
AcDbVertex
100
AcDb2dVertex
 10
9.3294912761
 20
7.328888319299999
 30
0.0
  0
VERTEX
  5
36A
330
357
100
AcDbEntity
  8
0
100
AcDbVertex
100
AcDb2dVertex
 10
9.339268932299999
 20
7.320508758499999
 30
0.0
  0
SEQEND
  5
36B
330
357
100
AcDbEntity
  8
0
  0
LEADER
  5
36C
330
A
100
AcDbEntity
  8
0
 62
     1
100
AcDbLeader
  3
SLDDIMSTYLE4
 73
     0
 76
     3
 10
15.9231005333
 20
7.336318751
 30
0.0
 10
17.94306752339999
 20
8.288850849099999
 30
0.0
 10
18.69306752339999
 20
8.288850849099999
 30
0.0
340
36E
213
0.0
223
-0.224915516531583
233
0.0
  0
MTEXT
  5
36E
102
{ACAD_REACTORS
330
36C
102
}
330
A
100
AcDbEntity
  8
0
 62
     1
100
AcDbMText
 10
18.7525695623
 20
8.513766365599998
 30
0.0
 40
0.3
 41
0.0
 71
     1
 72
     1
  1
RADIUS EXPOSED EDGES 1/32 TO 1/16 RADIUS \PBOTH SIDES EXCEPT EDGE FLUSH TO FLOOR BOOTOM PLATE
  7
SLDTEXTSTYLE0
 73
     1
 44
1.0
  0
POLYLINE
  5
36F
330
A
100
AcDbEntity
  8
0
  6
HIDDEN
 62
     7
100
AcDb2dPolyline
 66
     1
 10
0.0
 20
0.0
 30
0.0
 70
   128
  0
VERTEX
  5
370
330
36F
100
AcDbEntity
  8
0
100
AcDbVertex
100
AcDb2dVertex
 10
9.7533078468
 20
6.398734020499999
 30
0.0
  0
VERTEX
  5
371
330
36F
100
AcDbEntity
  8
0
100
AcDbVertex
100
AcDb2dVertex
 10
9.720791934099999
 20
6.4268268624
 30
0.0
  0
VERTEX
  5
372
330
36F
100
AcDbEntity
  8
0
100
AcDbVertex
100
AcDb2dVertex
 10
9.709373863999999
 20
6.459964628899999
 30
0.0
  0
VERTEX
  5
373
330
36F
100
AcDbEntity
  8
0
100
AcDbVertex
100
AcDb2dVertex
 10
9.720791934099999
 20
6.493102395299999
 30
0.0
  0
VERTEX
  5
374
330
36F
100
AcDbEntity
  8
0
100
AcDbVertex
100
AcDb2dVertex
 10
9.7533078468
 20
6.5211952373
 30
0.0
  0
VERTEX
  5
375
330
36F
100
AcDbEntity
  8
0
100
AcDbVertex
100
AcDb2dVertex
 10
9.8019713491
 20
6.539966274099999
 30
0.0
  0
VERTEX
  5
376
330
36F
100
AcDbEntity
  8
0
100
AcDbVertex
100
AcDb2dVertex
 10
9.859373864
 20
6.5465577857
 30
0.0
  0
VERTEX
  5
377
330
36F
100
AcDbEntity
  8
0
100
AcDbVertex
100
AcDb2dVertex
 10
9.916776378899999
 20
6.539966274099999
 30
0.0
  0
VERTEX
  5
378
330
36F
100
AcDbEntity
  8
0
100
AcDbVertex
100
AcDb2dVertex
 10
9.9654398812
 20
6.5211952373
 30
0.0
  0
VERTEX
  5
379
330
36F
100
AcDbEntity
  8
0
100
AcDbVertex
100
AcDb2dVertex
 10
9.997955793899999
 20
6.493102395299999
 30
0.0
  0
VERTEX
  5
37A
330
36F
100
AcDbEntity
  8
0
100
AcDbVertex
100
AcDb2dVertex
 10
10.009373864
 20
6.459964628899999
 30
0.0
  0
VERTEX
  5
37B
330
36F
100
AcDbEntity
  8
0
100
AcDbVertex
100
AcDb2dVertex
 10
9.997955793899999
 20
6.4268268624
 30
0.0
  0
VERTEX
  5
37C
330
36F
100
AcDbEntity
  8
0
100
AcDbVertex
100
AcDb2dVertex
 10
9.9654398812
 20
6.398734020499999
 30
0.0
  0
VERTEX
  5
37D
330
36F
100
AcDbEntity
  8
0
100
AcDbVertex
100
AcDb2dVertex
 10
9.916776378899999
 20
6.3799629836
 30
0.0
  0
VERTEX
  5
37E
330
36F
100
AcDbEntity
  8
0
100
AcDbVertex
100
AcDb2dVertex
 10
9.859373864
 20
6.3733714721
 30
0.0
  0
VERTEX
  5
37F
330
36F
100
AcDbEntity
  8
0
100
AcDbVertex
100
AcDb2dVertex
 10
9.8019713491
 20
6.3799629836
 30
0.0
  0
VERTEX
  5
380
330
36F
100
AcDbEntity
  8
0
100
AcDbVertex
100
AcDb2dVertex
 10
9.7533078468
 20
6.398734020499999
 30
0.0
  0
SEQEND
  5
381
330
36F
100
AcDbEntity
  8
0
  0
POLYLINE
  5
382
330
A
100
AcDbEntity
  8
0
  6
HIDDEN
 62
     7
100
AcDb2dPolyline
 66
     1
 10
0.0
 20
0.0
 30
0.0
 70
   128
  0
VERTEX
  5
383
330
382
100
AcDbEntity
  8
0
100
AcDbVertex
100
AcDb2dVertex
 10
10.1408395756
 20
6.8990881032
 30
0.0
  0
VERTEX
  5
384
330
382
100
AcDbEntity
  8
0
100
AcDbVertex
100
AcDb2dVertex
 10
10.08243779
 20
6.8968783294
 30
0.0
  0
VERTEX
  5
385
330
382
100
AcDbEntity
  8
0
100
AcDbVertex
100
AcDb2dVertex
 10
10.0270167188
 20
6.9077387962
 30
0.0
  0
VERTEX
  5
386
330
382
100
AcDbEntity
  8
0
100
AcDbVertex
100
AcDb2dVertex
 10
9.9830137177
 20
6.9300160959
 30
0.0
  0
VERTEX
  5
387
330
382
100
AcDbEntity
  8
0
100
AcDbVertex
100
AcDb2dVertex
 10
9.9571278448
 20
6.960318711599999
 30
0.0
  0
VERTEX
  5
388
330
382
100
AcDbEntity
  8
0
100
AcDbVertex
100
AcDb2dVertex
 10
9.953299989599999
 20
6.9940333448
 30
0.0
  0
VERTEX
  5
389
330
382
100
AcDbEntity
  8
0
100
AcDbVertex
100
AcDb2dVertex
 10
9.972112908199999
 20
7.0260272482
 30
0.0
  0
VERTEX
  5
38A
330
382
100
AcDbEntity
  8
0
100
AcDbVertex
100
AcDb2dVertex
 10
10.0107025044
 20
7.05142964
 30
0.0
  0
VERTEX
  5
38B
330
382
100
AcDbEntity
  8
0
100
AcDbVertex
100
AcDb2dVertex
 10
10.063193862
 20
7.066373236299999
 30
0.0
  0
VERTEX
  5
38C
330
382
100
AcDbEntity
  8
0
100
AcDbVertex
100
AcDb2dVertex
 10
10.12159564759999
 20
7.0685830101
 30
0.0
  0
VERTEX
  5
38D
330
382
100
AcDbEntity
  8
0
100
AcDbVertex
100
AcDb2dVertex
 10
10.1770167188
 20
7.0577225434
 30
0.0
  0
VERTEX
  5
38E
330
382
100
AcDbEntity
  8
0
100
AcDbVertex
100
AcDb2dVertex
 10
10.2210197198
 20
7.035445243699999
 30
0.0
  0
VERTEX
  5
38F
330
382
100
AcDbEntity
  8
0
100
AcDbVertex
100
AcDb2dVertex
 10
10.24690559269999
 20
7.005142627899999
 30
0.0
  0
VERTEX
  5
390
330
382
100
AcDbEntity
  8
0
100
AcDbVertex
100
AcDb2dVertex
 10
10.250733448
 20
6.971427994799999
 30
0.0
  0
VERTEX
  5
391
330
382
100
AcDbEntity
  8
0
100
AcDbVertex
100
AcDb2dVertex
 10
10.2319205294
 20
6.939434091399999
 30
0.0
  0
VERTEX
  5
392
330
382
100
AcDbEntity
  8
0
100
AcDbVertex
100
AcDb2dVertex
 10
10.19333093309999
 20
6.9140316996
 30
0.0
  0
VERTEX
  5
393
330
382
100
AcDbEntity
  8
0
100
AcDbVertex
100
AcDb2dVertex
 10
10.1408395756
 20
6.8990881032
 30
0.0
  0
SEQEND
  5
394
330
382
100
AcDbEntity
  8
0
  0
POLYLINE
  5
395
330
A
100
AcDbEntity
  8
0
  6
HIDDEN
 62
     7
100
AcDb2dPolyline
 66
     1
 10
0.0
 20
0.0
 30
0.0
 70
   128
  0
VERTEX
  5
396
330
395
100
AcDbEntity
  8
0
100
AcDbVertex
100
AcDb2dVertex
 10
9.5839929854
 20
7.343010013999999
 30
0.0
  0
VERTEX
  5
397
330
395
100
AcDbEntity
  8
0
100
AcDbVertex
100
AcDb2dVertex
 10
9.5581071125
 20
7.3127073983
 30
0.0
  0
VERTEX
  5
398
330
395
100
AcDbEntity
  8
0
100
AcDbVertex
100
AcDb2dVertex
 10
9.5141041114
 20
7.290430098599999
 30
0.0
  0
VERTEX
  5
399
330
395
100
AcDbEntity
  8
0
100
AcDbVertex
100
AcDb2dVertex
 10
9.4586830403
 20
7.279569631799999
 30
0.0
  0
VERTEX
  5
39A
330
395
100
AcDbEntity
  8
0
100
AcDbVertex
100
AcDb2dVertex
 10
9.400281254699999
 20
7.2817794057
 30
0.0
  0
VERTEX
  5
39B
330
395
100
AcDbEntity
  8
0
100
AcDbVertex
100
AcDb2dVertex
 10
9.3477898971
 20
7.296723002
 30
0.0
  0
VERTEX
  5
39C
330
395
100
AcDbEntity
  8
0
100
AcDbVertex
100
AcDb2dVertex
 10
9.3092003009
 20
7.3221253938
 30
0.0
  0
VERTEX
  5
39D
330
395
100
AcDbEntity
  8
0
100
AcDbVertex
100
AcDb2dVertex
 10
9.2903873822
 20
7.3541192972
 30
0.0
  0
VERTEX
  5
39E
330
395
100
AcDbEntity
  8
0
100
AcDbVertex
100
AcDb2dVertex
 10
9.294215237499999
 20
7.387833930399999
 30
0.0
  0
VERTEX
  5
39F
330
395
100
AcDbEntity
  8
0
100
AcDbVertex
100
AcDb2dVertex
 10
9.320101110399999
 20
7.4181365461
 30
0.0
  0
VERTEX
  5
3A0
330
395
100
AcDbEntity
  8
0
100
AcDbVertex
100
AcDb2dVertex
 10
9.364104111399999
 20
7.4404138458
 30
0.0
  0
VERTEX
  5
3A1
330
395
100
AcDbEntity
  8
0
100
AcDbVertex
100
AcDb2dVertex
 10
9.419525182599999
 20
7.451274312599999
 30
0.0
  0
VERTEX
  5
3A2
330
395
100
AcDbEntity
  8
0
100
AcDbVertex
100
AcDb2dVertex
 10
9.4779269682
 20
7.4490645387
 30
0.0
  0
VERTEX
  5
3A3
330
395
100
AcDbEntity
  8
0
100
AcDbVertex
100
AcDb2dVertex
 10
9.530418325800001
 20
7.434120942399999
 30
0.0
  0
VERTEX
  5
3A4
330
395
100
AcDbEntity
  8
0
100
AcDbVertex
100
AcDb2dVertex
 10
9.569007922
 20
7.408718550599999
 30
0.0
  0
VERTEX
  5
3A5
330
395
100
AcDbEntity
  8
0
100
AcDbVertex
100
AcDb2dVertex
 10
9.587820840599999
 20
7.3767246472
 30
0.0
  0
VERTEX
  5
3A6
330
395
100
AcDbEntity
  8
0
100
AcDbVertex
100
AcDb2dVertex
 10
9.5839929854
 20
7.343010013999999
 30
0.0
  0
SEQEND
  5
3A7
330
395
100
AcDbEntity
  8
0
  0
POLYLINE
  5
3A8
330
A
100
AcDbEntity
  8
0
  6
HIDDEN
 62
     7
100
AcDb2dPolyline
 66
     1
 10
0.0
 20
0.0
 30
0.0
 70
   128
  0
VERTEX
  5
3A9
330
3A8
100
AcDbEntity
  8
0
100
AcDbVertex
100
AcDb2dVertex
 10
8.639614666499999
 20
7.2865778421
 30
0.0
  0
VERTEX
  5
3AA
330
3A8
100
AcDbEntity
  8
0
100
AcDbVertex
100
AcDb2dVertex
 10
8.672130579199999
 20
7.258485000199999
 30
0.0
  0
VERTEX
  5
3AB
330
3A8
100
AcDbEntity
  8
0
100
AcDbVertex
100
AcDb2dVertex
 10
8.683548649299998
 20
7.225347233699999
 30
0.0
  0
VERTEX
  5
3AC
330
3A8
100
AcDbEntity
  8
0
100
AcDbVertex
100
AcDb2dVertex
 10
8.672130579199999
 20
7.1922094672
 30
0.0
  0
VERTEX
  5
3AD
330
3A8
100
AcDbEntity
  8
0
100
AcDbVertex
100
AcDb2dVertex
 10
8.639614666499999
 20
7.1641166253
 30
0.0
  0
VERTEX
  5
3AE
330
3A8
100
AcDbEntity
  8
0
100
AcDbVertex
100
AcDb2dVertex
 10
8.590951164099999
 20
7.1453455885
 30
0.0
  0
VERTEX
  5
3AF
330
3A8
100
AcDbEntity
  8
0
100
AcDbVertex
100
AcDb2dVertex
 10
8.5335486493
 20
7.1387540769
 30
0.0
  0
VERTEX
  5
3B0
330
3A8
100
AcDbEntity
  8
0
100
AcDbVertex
100
AcDb2dVertex
 10
8.4761461344
 20
7.1453455885
 30
0.0
  0
VERTEX
  5
3B1
330
3A8
100
AcDbEntity
  8
0
100
AcDbVertex
100
AcDb2dVertex
 10
8.4274826321
 20
7.1641166253
 30
0.0
  0
VERTEX
  5
3B2
330
3A8
100
AcDbEntity
  8
0
100
AcDbVertex
100
AcDb2dVertex
 10
8.394966719400001
 20
7.1922094672
 30
0.0
  0
VERTEX
  5
3B3
330
3A8
100
AcDbEntity
  8
0
100
AcDbVertex
100
AcDb2dVertex
 10
8.383548649299999
 20
7.225347233699999
 30
0.0
  0
VERTEX
  5
3B4
330
3A8
100
AcDbEntity
  8
0
100
AcDbVertex
100
AcDb2dVertex
 10
8.394966719400001
 20
7.258485000199999
 30
0.0
  0
VERTEX
  5
3B5
330
3A8
100
AcDbEntity
  8
0
100
AcDbVertex
100
AcDb2dVertex
 10
8.4274826321
 20
7.2865778421
 30
0.0
  0
VERTEX
  5
3B6
330
3A8
100
AcDbEntity
  8
0
100
AcDbVertex
100
AcDb2dVertex
 10
8.4761461344
 20
7.3053488789
 30
0.0
  0
VERTEX
  5
3B7
330
3A8
100
AcDbEntity
  8
0
100
AcDbVertex
100
AcDb2dVertex
 10
8.5335486493
 20
7.311940390499999
 30
0.0
  0
VERTEX
  5
3B8
330
3A8
100
AcDbEntity
  8
0
100
AcDbVertex
100
AcDb2dVertex
 10
8.590951164099999
 20
7.3053488789
 30
0.0
  0
VERTEX
  5
3B9
330
3A8
100
AcDbEntity
  8
0
100
AcDbVertex
100
AcDb2dVertex
 10
8.639614666499999
 20
7.2865778421
 30
0.0
  0
SEQEND
  5
3BA
330
3A8
100
AcDbEntity
  8
0
  0
POLYLINE
  5
3BB
330
A
100
AcDbEntity
  8
0
  6
HIDDEN
 62
     7
100
AcDb2dPolyline
 66
     1
 10
0.0
 20
0.0
 30
0.0
 70
   128
  0
VERTEX
  5
3BC
330
3BB
100
AcDbEntity
  8
0
100
AcDbVertex
100
AcDb2dVertex
 10
8.252082937699999
 20
6.786223759299999
 30
0.0
  0
VERTEX
  5
3BD
330
3BB
100
AcDbEntity
  8
0
100
AcDbVertex
100
AcDb2dVertex
 10
8.3104847233
 20
6.788433533099999
 30
0.0
  0
VERTEX
  5
3BE
330
3BB
100
AcDbEntity
  8
0
100
AcDbVertex
100
AcDb2dVertex
 10
8.365905794499999
 20
6.777573066399999
 30
0.0
  0
VERTEX
  5
3BF
330
3BB
100
AcDbEntity
  8
0
100
AcDbVertex
100
AcDb2dVertex
 10
8.409908795499999
 20
6.755295766699999
 30
0.0
  0
VERTEX
  5
3C0
330
3BB
100
AcDbEntity
  8
0
100
AcDbVertex
100
AcDb2dVertex
 10
8.435794668399999
 20
6.724993151
 30
0.0
  0
VERTEX
  5
3C1
330
3BB
100
AcDbEntity
  8
0
100
AcDbVertex
100
AcDb2dVertex
 10
8.4396225237
 20
6.691278517799999
 30
0.0
  0
VERTEX
  5
3C2
330
3BB
100
AcDbEntity
  8
0
100
AcDbVertex
100
AcDb2dVertex
 10
8.4208096051
 20
6.6592846144
 30
0.0
  0
VERTEX
  5
3C3
330
3BB
100
AcDbEntity
  8
0
100
AcDbVertex
100
AcDb2dVertex
 10
8.382220008799999
 20
6.633882222599999
 30
0.0
  0
VERTEX
  5
3C4
330
3BB
100
AcDbEntity
  8
0
100
AcDbVertex
100
AcDb2dVertex
 10
8.329728651299999
 20
6.6189386263
 30
0.0
  0
VERTEX
  5
3C5
330
3BB
100
AcDbEntity
  8
0
100
AcDbVertex
100
AcDb2dVertex
 10
8.2713268657
 20
6.6167288524
 30
0.0
  0
VERTEX
  5
3C6
330
3BB
100
AcDbEntity
  8
0
100
AcDbVertex
100
AcDb2dVertex
 10
8.215905794500001
 20
6.627589319199999
 30
0.0
  0
VERTEX
  5
3C7
330
3BB
100
AcDbEntity
  8
0
100
AcDbVertex
100
AcDb2dVertex
 10
8.171902793500001
 20
6.649866618899999
 30
0.0
  0
VERTEX
  5
3C8
330
3BB
100
AcDbEntity
  8
0
100
AcDbVertex
100
AcDb2dVertex
 10
8.146016920599999
 20
6.6801692346
 30
0.0
  0
VERTEX
  5
3C9
330
3BB
100
AcDbEntity
  8
0
100
AcDbVertex
100
AcDb2dVertex
 10
8.1421890653
 20
6.713883867799999
 30
0.0
  0
VERTEX
  5
3CA
330
3BB
100
AcDbEntity
  8
0
100
AcDbVertex
100
AcDb2dVertex
 10
8.1610019839
 20
6.745877771199999
 30
0.0
  0
VERTEX
  5
3CB
330
3BB
100
AcDbEntity
  8
0
100
AcDbVertex
100
AcDb2dVertex
 10
8.199591580099999
 20
6.771280162999999
 30
0.0
  0
VERTEX
  5
3CC
330
3BB
100
AcDbEntity
  8
0
100
AcDbVertex
100
AcDb2dVertex
 10
8.252082937699999
 20
6.786223759299999
 30
0.0
  0
SEQEND
  5
3CD
330
3BB
100
AcDbEntity
  8
0
  0
POLYLINE
  5
3CE
330
A
100
AcDbEntity
  8
0
  6
HIDDEN
 62
     7
100
AcDb2dPolyline
 66
     1
 10
0.0
 20
0.0
 30
0.0
 70
   128
  0
VERTEX
  5
3CF
330
3CE
100
AcDbEntity
  8
0
100
AcDbVertex
100
AcDb2dVertex
 10
8.8089295279
 20
6.3423018485
 30
0.0
  0
VERTEX
  5
3D0
330
3CE
100
AcDbEntity
  8
0
100
AcDbVertex
100
AcDb2dVertex
 10
8.8348154008
 20
6.372604464299999
 30
0.0
  0
VERTEX
  5
3D1
330
3CE
100
AcDbEntity
  8
0
100
AcDbVertex
100
AcDb2dVertex
 10
8.8788184019
 20
6.394881763999999
 30
0.0
  0
VERTEX
  5
3D2
330
3CE
100
AcDbEntity
  8
0
100
AcDbVertex
100
AcDb2dVertex
 10
8.934239472999999
 20
6.4057422307
 30
0.0
  0
VERTEX
  5
3D3
330
3CE
100
AcDbEntity
  8
0
100
AcDbVertex
100
AcDb2dVertex
 10
8.9926412586
 20
6.4035324569
 30
0.0
  0
VERTEX
  5
3D4
330
3CE
100
AcDbEntity
  8
0
100
AcDbVertex
100
AcDb2dVertex
 10
9.0451326162
 20
6.388588860599999
 30
0.0
  0
VERTEX
  5
3D5
330
3CE
100
AcDbEntity
  8
0
100
AcDbVertex
100
AcDb2dVertex
 10
9.083722212399999
 20
6.3631864688
 30
0.0
  0
VERTEX
  5
3D6
330
3CE
100
AcDbEntity
  8
0
100
AcDbVertex
100
AcDb2dVertex
 10
9.102535131099999
 20
6.331192565399999
 30
0.0
  0
VERTEX
  5
3D7
330
3CE
100
AcDbEntity
  8
0
100
AcDbVertex
100
AcDb2dVertex
 10
9.0987072758
 20
6.2974779322
 30
0.0
  0
VERTEX
  5
3D8
330
3CE
100
AcDbEntity
  8
0
100
AcDbVertex
100
AcDb2dVertex
 10
9.072821402899998
 20
6.267175316499999
 30
0.0
  0
VERTEX
  5
3D9
330
3CE
100
AcDbEntity
  8
0
100
AcDbVertex
100
AcDb2dVertex
 10
9.0288184019
 20
6.244898016799999
 30
0.0
  0
VERTEX
  5
3DA
330
3CE
100
AcDbEntity
  8
0
100
AcDbVertex
100
AcDb2dVertex
 10
8.973397330700001
 20
6.23403755
 30
0.0
  0
VERTEX
  5
3DB
330
3CE
100
AcDbEntity
  8
0
100
AcDbVertex
100
AcDb2dVertex
 10
8.9149955451
 20
6.236247323799999
 30
0.0
  0
VERTEX
  5
3DC
330
3CE
100
AcDbEntity
  8
0
100
AcDbVertex
100
AcDb2dVertex
 10
8.8625041875
 20
6.2511909202
 30
0.0
  0
VERTEX
  5
3DD
330
3CE
100
AcDbEntity
  8
0
100
AcDbVertex
100
AcDb2dVertex
 10
8.823914591299999
 20
6.276593312
 30
0.0
  0
VERTEX
  5
3DE
330
3CE
100
AcDbEntity
  8
0
100
AcDbVertex
100
AcDb2dVertex
 10
8.805101672699999
 20
6.308587215299999
 30
0.0
  0
VERTEX
  5
3DF
330
3CE
100
AcDbEntity
  8
0
100
AcDbVertex
100
AcDb2dVertex
 10
8.8089295279
 20
6.3423018485
 30
0.0
  0
SEQEND
  5
3E0
330
3CE
100
AcDbEntity
  8
0
  0
LINE
  5
3E1
330
A
100
AcDbEntity
  8
0
  6
Continuous
 62
     7
370
    15
100
AcDbLine
 10
41.64677358489999
 20
15.910657212
 30
0.0
 11
40.20877358489999
 21
15.910657212
 31
0.0
  0
LINE
  5
3E2
330
A
100
AcDbEntity
  8
0
  6
Continuous
 62
     7
370
    15
100
AcDbLine
 10
41.64677358489999
 20
14.910657212
 30
0.0
 11
40.20877358489999
 21
14.910657212
 31
0.0
  0
LINE
  5
3E3
330
A
100
AcDbEntity
  8
0
  6
Continuous
 62
     7
370
    15
100
AcDbLine
 10
40.20877358489999
 20
14.910657212
 30
0.0
 11
40.20877358489999
 21
15.910657212
 31
0.0
  0
LINE
  5
3E4
330
A
100
AcDbEntity
  8
0
  6
Continuous
 62
     7
370
    15
100
AcDbLine
 10
41.64677358489999
 20
14.910657212
 30
0.0
 11
41.64677358489999
 21
15.910657212
 31
0.0
  0
LINE
  5
3E5
330
A
100
AcDbEntity
  8
0
  6
Continuous
 62
     7
370
    15
100
AcDbLine
 10
41.64677358489999
 20
19.0940704731
 30
0.0
 11
40.20877358489999
 21
19.0940704731
 31
0.0
  0
LINE
  5
3E6
330
A
100
AcDbEntity
  8
0
  6
Continuous
 62
     7
370
    15
100
AcDbLine
 10
40.20877358489999
 20
15.910657212
 30
0.0
 11
40.20877358489999
 21
19.0940704731
 31
0.0
  0
LINE
  5
3E7
330
A
100
AcDbEntity
  8
0
  6
Continuous
 62
     7
370
    15
100
AcDbLine
 10
41.64677358489999
 20
15.910657212
 30
0.0
 11
41.64677358489999
 21
19.0940704731
 31
0.0
  0
LINE
  5
3E8
330
A
100
AcDbEntity
  8
0
  6
Continuous
 62
     7
370
    15
100
AcDbLine
 10
41.64677358489999
 20
19.6695638793
 30
0.0
 11
40.20877358489999
 21
19.6695638793
 31
0.0
  0
LINE
  5
3E9
330
A
100
AcDbEntity
  8
0
  6
Continuous
 62
     7
370
    15
100
AcDbLine
 10
40.20877358489999
 20
19.0940704731
 30
0.0
 11
40.20877358489999
 21
19.6695638793
 31
0.0
  0
LINE
  5
3EA
330
A
100
AcDbEntity
  8
0
  6
Continuous
 62
     7
370
    15
100
AcDbLine
 10
41.64677358489999
 20
19.0940704731
 30
0.0
 11
41.64677358489999
 21
19.6695638793
 31
0.0
  0
LINE
  5
3EB
330
A
100
AcDbEntity
  8
0
  6
Continuous
 62
     7
370
    15
100
AcDbLine
 10
41.64677358489999
 20
25.73615061809999
 30
0.0
 11
40.20877358489999
 21
25.73615061809999
 31
0.0
  0
LINE
  5
3EC
330
A
100
AcDbEntity
  8
0
  6
Continuous
 62
     7
370
    15
100
AcDbLine
 10
40.20877358489999
 20
19.6695638793
 30
0.0
 11
40.20877358489999
 21
25.73615061809999
 31
0.0
  0
LINE
  5
3ED
330
A
100
AcDbEntity
  8
0
  6
Continuous
 62
     7
370
    15
100
AcDbLine
 10
41.64677358489999
 20
19.6695638793
 30
0.0
 11
41.64677358489999
 21
25.73615061809999
 31
0.0
  0
LINE
  5
3EE
330
A
100
AcDbEntity
  8
0
  6
Continuous
 62
     7
370
    15
100
AcDbLine
 10
41.64677358489999
 20
26.160657212
 30
0.0
 11
40.20877358489999
 21
26.160657212
 31
0.0
  0
LINE
  5
3EF
330
A
100
AcDbEntity
  8
0
  6
Continuous
 62
     7
370
    15
100
AcDbLine
 10
40.20877358489999
 20
25.73615061809999
 30
0.0
 11
40.20877358489999
 21
26.160657212
 31
0.0
  0
LINE
  5
3F0
330
A
100
AcDbEntity
  8
0
  6
Continuous
 62
     7
370
    15
100
AcDbLine
 10
41.64677358489999
 20
25.73615061809999
 30
0.0
 11
41.64677358489999
 21
26.160657212
 31
0.0
  0
DIMENSION
  5
402
330
A
100
AcDbEntity
  8
0
100
AcDbDimension
  2
*D16
 10
41.64677358489999
 20
27.6249980228
 30
0.0
 11
45.2293681505
 21
27.6249980228
 31
0.0
 70
   160
  1
<>\PBLANCHARD GRIND\PBOTH SIDES FROM\P1 1/2" STOCK
 71
     5
 42
0.0
  3
SLDDIMSTYLE5
100
AcDbAlignedDimension
 13
40.20877358489999
 23
25.73615061809999
 33
0.0
 14
41.64677358489999
 24
25.73615061809999
 34
0.0
 50
180.0
100
AcDbRotatedDimension
  0
ENDSEC
  0
SECTION
  2
OBJECTS
  0
DICTIONARY
  5
19
330
0
100
AcDbDictionary
281
     1
  3
ACAD_GROUP
350
1A
  3
ACAD_LAYOUT
350
1E
  3
ACAD_MLINESTYLE
350
1B
  3
ACAD_PLOTSETTINGS
350
22
  3
ACAD_PLOTSTYLENAME
350
1F
  3
ACAD_WIPEOUT_VARS
350
23
  0
DICTIONARY
  5
1A
102
{ACAD_REACTORS
330
19
102
}
330
19
100
AcDbDictionary
281
     1
  0
DICTIONARY
  5
1E
102
{ACAD_REACTORS
330
19
102
}
330
19
100
AcDbDictionary
281
     1
  3
Layout1
350
21
  3
Model
350
20
  0
DICTIONARY
  5
1B
102
{ACAD_REACTORS
330
19
102
}
330
19
100
AcDbDictionary
281
     1
  3
Standard
350
1C
  0
DICTIONARY
  5
22
102
{ACAD_REACTORS
330
19
102
}
330
19
100
AcDbDictionary
281
     1
  0
ACDBDICTIONARYWDFLT
  5
1F
102
{ACAD_REACTORS
330
19
102
}
330
19
100
AcDbDictionary
281
     1
  3
Normal
350
1D
100
AcDbDictionaryWithDefault
340
1D
  0
WIPEOUTVARIABLES
  5
23
330
19
100
AcDbWipeoutVariables
 70
     1
  0
LAYOUT
  5
21
102
{ACAD_REACTORS
330
1E
102
}
330
1E
100
AcDbPlotSettings
  1

  2

  4

  6

 40
0.0
 41
0.0
 42
0.0
 43
0.0
 44
0.0
 45
0.0
 46
0.0
 47
0.0
 48
0.0
 49
0.0
140
0.0
141
0.0
142
1.0
143
1.0
 70
     0
 72
     0
 73
     0
 74
     0
  7

 75
     0
147
1.0
148
0.0
149
0.0
100
AcDbLayout
  1
Layout1
 70
     1
 71
     1
 10
0.0
 20
0.0
 11
12.0
 21
9.0
 12
0.0
 22
0.0
 32
0.0
 14
1.000000000000000E+20
 24
1.000000000000000E+20
 34
1.000000000000000E+20
 15
-1.000000000000000E+20
 25
-1.000000000000000E+20
 35
-1.000000000000000E+20
146
0.0
 13
0.0
 23
0.0
 33
0.0
 16
1.0
 26
0.0
 36
0.0
 17
0.0
 27
1.0
 37
0.0
 76
     0
330
B
  0
LAYOUT
  5
20
102
{ACAD_REACTORS
330
1E
102
}
330
1E
100
AcDbPlotSettings
  1

  2

  4

  6

 40
0.0
 41
0.0
 42
0.0
 43
0.0
 44
0.0
 45
0.0
 46
0.0
 47
0.0
 48
0.0
 49
0.0
140
0.0
141
0.0
142
1.0
143
1.0
 70
  1024
 72
     0
 73
     0
 74
     0
  7

 75
     0
147
1.0
148
0.0
149
0.0
100
AcDbLayout
  1
Model
 70
     0
 71
     0
 10
0.0
 20
0.0
 11
0.0
 21
0.0
 12
0.0
 22
0.0
 32
0.0
 14
0.0
 24
0.0
 34
0.0
 15
0.0
 25
0.0
 35
0.0
146
0.0
 13
0.0
 23
0.0
 33
0.0
 16
0.0
 26
0.0
 36
0.0
 17
0.0
 27
0.0
 37
0.0
 76
     0
330
A
  0
MLINESTYLE
  5
1C
102
{ACAD_REACTORS
330
1B
102
}
330
1B
100
AcDbMlineStyle
  2
STANDARD
 70
     0
  3

 62
     0
 51
90.0
 52
90.0
 71
     2
 49
0.5
 62
   256
  6
BYLAYER
 49
-0.5
 62
   256
  6
BYLAYER
  0
ACDBPLACEHOLDER
  5
1D
102
{ACAD_REACTORS
330
1F
102
}
330
1F
  0
ENDSEC
  0
EOF
