  0
SECTION
  2
HEADER
  9
$ACADVER
  1
AC1015
  9
$ACADMAINTVER
 70
    10
  9
$DWGCODEPAGE
  3
ANSI_1252
  9
$INSBASE
 10
0.0
 20
0.0
 30
0.0
  9
$EXTMIN
 10
4.494873289594977
 20
1.367614901354102
 30
-0.0015258207003583
  9
$EXTMAX
 10
100.5634462807367
 20
64.8539430234278
 30
0.0000000349246037
  9
$LIMMIN
 10
0.0
 20
0.0
  9
$LIMMAX
 10
0.0
 20
0.0
  9
$ORTHOMODE
 70
     0
  9
$REGENMODE
 70
     1
  9
$FILLMODE
 70
     1
  9
$QTEXTMODE
 70
     0
  9
$MIRRTEXT
 70
     1
  9
$LTSCALE
 40
1.0
  9
$ATTMODE
 70
     1
  9
$TEXTSIZE
 40
0.0
  9
$TRACEWID
 40
0.05
  9
$TEXTSTYLE
  7
Standard
  9
$CLAYER
  8
0
  9
$CELTYPE
  6
Continuous
  9
$CECOLOR
 62
   256
  9
$CELTSCALE
 40
1.0
  9
$DISPSILH
 70
     0
  9
$DIMSCALE
 40
1.0
  9
$DIMASZ
 40
0.0
  9
$DIMEXO
 40
0.0
  9
$DIMDLI
 40
0.38
  9
$DIMRND
 40
0.0
  9
$DIMDLE
 40
0.0
  9
$DIMEXE
 40
0.18
  9
$DIMTP
 40
0.0
  9
$DIMTM
 40
0.0
  9
$DIMTXT
 40
0.6
  9
$DIMCEN
 40
0.09
  9
$DIMTSZ
 40
0.0
  9
$DIMTOL
 70
     0
  9
$DIMLIM
 70
     0
  9
$DIMTIH
 70
     1
  9
$DIMTOH
 70
     1
  9
$DIMSE1
 70
     0
  9
$DIMSE2
 70
     0
  9
$DIMTAD
 70
     0
  9
$DIMZIN
 70
     0
  9
$DIMBLK
  1

  9
$DIMASO
 70
     1
  9
$DIMSHO
 70
     1
  9
$DIMPOST
  1

  9
$DIMAPOST
  1

  9
$DIMALT
 70
     0
  9
$DIMALTD
 70
     2
  9
$DIMALTF
 40
25.4
  9
$DIMLFAC
 40
1.0
  9
$DIMTOFL
 70
     0
  9
$DIMTVP
 40
0.0
  9
$DIMTIX
 70
     0
  9
$DIMSOXD
 70
     0
  9
$DIMSAH
 70
     0
  9
$DIMBLK1
  1

  9
$DIMBLK2
  1

  9
$DIMSTYLE
  2
Standard
  9
$DIMCLRD
 70
     0
  9
$DIMCLRE
 70
     0
  9
$DIMCLRT
 70
     0
  9
$DIMTFAC
 40
1.0
  9
$DIMGAP
 40
0.0
  9
$DIMJUST
 70
     0
  9
$DIMSD1
 70
     0
  9
$DIMSD2
 70
     0
  9
$DIMTOLJ
 70
     1
  9
$DIMTZIN
 70
     0
  9
$DIMALTZ
 70
     0
  9
$DIMALTTZ
 70
     0
  9
$DIMUPT
 70
     0
  9
$DIMDEC
 70
     4
  9
$DIMTDEC
 70
     4
  9
$DIMALTU
 70
     2
  9
$DIMALTTD
 70
     2
  9
$DIMTXSTY
  7
Standard
  9
$DIMAUNIT
 70
     0
  9
$DIMADEC
 70
     0
  9
$DIMALTRND
 40
0.0
  9
$DIMAZIN
 70
     0
  9
$DIMDSEP
 70
     0
  9
$DIMATFIT
 70
     3
  9
$DIMFRAC
 70
     0
  9
$DIMLDRBLK
  1

  9
$DIMLUNIT
 70
     2
  9
$DIMLWD
 70
     0
  9
$DIMLWE
 70
     0
  9
$DIMTMOVE
 70
     0
  9
$LUNITS
 70
     2
  9
$LUPREC
 70
     3
  9
$SKETCHINC
 40
0.1
  9
$FILLETRAD
 40
0.0
  9
$AUNITS
 70
     0
  9
$AUPREC
 70
     2
  9
$MENU
  1
acad
  9
$ELEVATION
 40
0.0
  9
$PELEVATION
 40
0.0
  9
$THICKNESS
 40
0.0
  9
$LIMCHECK
 70
     0
  9
$CHAMFERA
 40
0.0
  9
$CHAMFERB
 40
0.0
  9
$CHAMFERC
 40
0.0
  9
$CHAMFERD
 40
0.0
  9
$SKPOLY
 70
     0
  9
$TDCREATE
 40
2453398.546197187
  9
$TDUCREATE
 40
2453398.879530520
  9
$TDUPDATE
 40
2453398.546925452
  9
$TDUUPDATE
 40
2453398.880258784
  9
$TDINDWG
 40
0.0007318866
  9
$TDUSRTIMER
 40
0.0007317014
  9
$USRTIMER
 70
     1
  9
$ANGBASE
 50
0.0
  9
$ANGDIR
 70
     0
  9
$PDMODE
 70
     0
  9
$PDSIZE
 40
-1.0
  9
$PLINEWID
 40
0.0
  9
$SPLFRAME
 70
     0
  9
$SPLINETYPE
 70
     6
  9
$SPLINESEGS
 70
     8
  9
$HANDSEED
  5
1AA
  9
$SURFTAB1
 70
     6
  9
$SURFTAB2
 70
     6
  9
$SURFTYPE
 70
     6
  9
$SURFU
 70
     6
  9
$SURFV
 70
     6
  9
$UCSBASE
  2

  9
$UCSNAME
  2

  9
$UCSORG
 10
0.0
 20
0.0
 30
0.0
  9
$UCSXDIR
 10
1.0
 20
0.0
 30
0.0
  9
$UCSYDIR
 10
0.0
 20
1.0
 30
0.0
  9
$UCSORTHOREF
  2

  9
$UCSORTHOVIEW
 70
     0
  9
$UCSORGTOP
 10
0.0
 20
0.0
 30
0.0
  9
$UCSORGBOTTOM
 10
0.0
 20
0.0
 30
0.0
  9
$UCSORGLEFT
 10
0.0
 20
0.0
 30
0.0
  9
$UCSORGRIGHT
 10
0.0
 20
0.0
 30
0.0
  9
$UCSORGFRONT
 10
0.0
 20
0.0
 30
0.0
  9
$UCSORGBACK
 10
0.0
 20
0.0
 30
0.0
  9
$PUCSBASE
  2

  9
$PUCSNAME
  2

  9
$PUCSORG
 10
0.0
 20
0.0
 30
0.0
  9
$PUCSXDIR
 10
1.0
 20
0.0
 30
0.0
  9
$PUCSYDIR
 10
0.0
 20
1.0
 30
0.0
  9
$PUCSORTHOREF
  2

  9
$PUCSORTHOVIEW
 70
     0
  9
$PUCSORGTOP
 10
0.0
 20
0.0
 30
0.0
  9
$PUCSORGBOTTOM
 10
0.0
 20
0.0
 30
0.0
  9
$PUCSORGLEFT
 10
0.0
 20
0.0
 30
0.0
  9
$PUCSORGRIGHT
 10
0.0
 20
0.0
 30
0.0
  9
$PUCSORGFRONT
 10
0.0
 20
0.0
 30
0.0
  9
$PUCSORGBACK
 10
0.0
 20
0.0
 30
0.0
  9
$USERI1
 70
     0
  9
$USERI2
 70
     0
  9
$USERI3
 70
     0
  9
$USERI4
 70
     0
  9
$USERI5
 70
     0
  9
$USERR1
 40
0.0
  9
$USERR2
 40
0.0
  9
$USERR3
 40
0.0
  9
$USERR4
 40
0.0
  9
$USERR5
 40
0.0
  9
$WORLDVIEW
 70
     1
  9
$SHADEDGE
 70
     3
  9
$SHADEDIF
 70
    70
  9
$TILEMODE
 70
     1
  9
$MAXACTVP
 70
    16
  9
$PINSBASE
 10
0.0
 20
0.0
 30
0.0
  9
$PLIMCHECK
 70
     0
  9
$PEXTMIN
 10
1.000000000000000E+20
 20
1.000000000000000E+20
 30
1.000000000000000E+20
  9
$PEXTMAX
 10
-1.000000000000000E+20
 20
-1.000000000000000E+20
 30
-1.000000000000000E+20
  9
$PLIMMIN
 10
0.0
 20
0.0
  9
$PLIMMAX
 10
12.0
 20
9.0
  9
$UNITMODE
 70
     0
  9
$VISRETAIN
 70
     0
  9
$PLINEGEN
 70
     1
  9
$PSLTSCALE
 70
     1
  9
$TREEDEPTH
 70
  3020
  9
$CMLSTYLE
  2
Standard
  9
$CMLJUST
 70
     0
  9
$CMLSCALE
 40
1.0
  9
$PROXYGRAPHICS
 70
     0
  9
$MEASUREMENT
 70
     0
  9
$CELWEIGHT
370
     0
  9
$ENDCAPS
280
     0
  9
$JOINSTYLE
280
     0
  9
$LWDISPLAY
290
     1
  9
$INSUNITS
 70
     0
  9
$HYPERLINKBASE
  1

  9
$STYLESHEET
  1

  9
$XEDIT
290
     1
  9
$CEPSNTYPE
380
     0
  9
$PSTYLEMODE
290
     1
  9
$FINGERPRINTGUID
  2

  9
$VERSIONGUID
  2
{1775ADF7-C950-4D48-9CA3-CE65628B2B13}
  9
$EXTNAMES
290
     1
  9
$PSVPSCALE
 40
0.0
  9
$OLESTARTUP
290
     0
  0
ENDSEC
  0
SECTION
  2
CLASSES
  0
CLASS
  1
LWPOLYLINE
  2
AcDbPolyline
  3
AutoCAD 2000
 90
    32768
280
     0
281
     1
  0
CLASS
  1
IMAGE
  2
AcDbRasterImage
  3
ISM
 90
    32895
280
     0
281
     1
  0
CLASS
  1
OLE2FRAME
  2
AcDbOle2Frame
  3
AutoCAD 2000
 90
    32768
280
     0
281
     1
  0
CLASS
  1
HATCH
  2
AcDbHatch
  3
AutoCAD 2000
 90
    32768
280
     0
281
     1
  0
CLASS
  1
DICTIONARYVAR
  2
AcDbDictionaryVar
  3
AutoCAD 2000
 90
    32768
280
     0
281
     0
  0
CLASS
  1
RASTERVARIABLES
  2
AcDbRasterVariables
  3
ISM
 90
    32768
280
     0
281
     0
  0
CLASS
  1
IMAGEDEF
  2
AcDbRasterImageDef
  3
ISM
 90
    32768
280
     0
281
     0
  0
CLASS
  1
IMAGEDEF_REACTOR
  2
AcDbRasterImageDefReactor
  3
ISM
 90
    32769
280
     0
281
     0
  0
CLASS
  1
IDBUFFER
  2
AcDbIdBuffer
  3
AutoCAD 2000
 90
    32768
280
     0
281
     0
  0
CLASS
  1
SPATIAL_FILTER
  2
AcDbSpatialFilter
  3
AutoCAD 2000
 90
    32768
280
     0
281
     0
  0
CLASS
  1
XRECORD
  2
AcDbXrecord
  3
AutoCAD 2000
 90
    32768
280
     0
281
     0
  0
CLASS
  1
SORTENTSTABLE
  2
AcDbSortentsTable
  3
AutoCAD 2000
 90
    32768
280
     0
281
     0
  0
CLASS
  1
LAYER_INDEX
  2
AcDbLayerIndex
  3
AutoCAD 2000
 90
    32768
280
     0
281
     0
  0
CLASS
  1
SPATIAL_INDEX
  2
AcDbSpatialIndex
  3
AutoCAD 2000
 90
    32768
280
     0
281
     0
  0
CLASS
  1
OBJECT_PTR
  2
CAseDLPNTableRecord
  3
"ASE-LPNTableRecord"
 90
    32769
280
     0
281
     0
  0
CLASS
  1
LAYOUT
  2
AcDbLayout
  3
AutoCAD 2000
 90
        0
280
     0
281
     0
  0
CLASS
  1
PLOTSETTINGS
  2
AcDbPlotSettings
  3
AutoCAD 2000
 90
    32768
280
     0
281
     0
  0
CLASS
  1
ACDBDICTIONARYWDFLT
  2
AcDbDictionaryWithDefault
  3
AutoCAD 2000
 90
        0
280
     0
281
     0
  0
CLASS
  1
ACDBPLACEHOLDER
  2
AcDbPlaceHolder
  3
AutoCAD 2000
 90
        0
280
     0
281
     0
  0
CLASS
  1
VBA_PROJECT
  2
AcDbVbaProject
  3
acadvba
 90
    32768
280
     0
281
     0
  0
CLASS
  1
WIPEOUT
  2
AcDbWipeout
  3
WipeOut|AutoCAD Express Tool|expresstools@autodesk.com
 90
    32895
280
     0
281
     1
  0
CLASS
  1
WIPEOUTVARIABLES
  2
AcDbWipeoutVariables
  3
WipeOut|AutoCAD Express Tool|expresstools@autodesk.com
 90
        0
280
     0
281
     0
  0
CLASS
  1
RTEXT
  2
RText
  3
RText|AutoCAD Express Tool|expresstools@autodesk.com
 90
    32768
280
     0
281
     1
  0
CLASS
  1
ARCALIGNEDTEXT
  2
AcDbArcAlignedText
  3
ATEXT|AutoCAD Express Tool|expresstools@autodesk.com
 90
    32768
280
     0
281
     1
  0
ENDSEC
  0
SECTION
  2
TABLES
  0
TABLE
  2
VPORT
  5
7
330
0
100
AcDbSymbolTable
 70
     3
  0
VPORT
  5
1A9
330
7
100
AcDbSymbolTableRecord
100
AcDbViewportTableRecord
  2
*Active
 70
     0
 10
0.0
 20
0.0
 11
1.0
 21
1.0
 12
52.52915978516586
 22
33.11077896239095
 13
0.0
 23
0.0
 14
1.0
 24
1.0
 15
0.0
 25
0.0
 16
0.0
 26
0.0
 36
1.0
 17
0.0
 27
0.0
 37
0.0
 40
64.36877063803279
 41
1.5
 42
50.0
 43
0.0
 44
0.0
 50
0.0
 51
0.0
 71
     0
 72
  2000
 73
     1
 74
     1
 75
     0
 76
     0
 77
     0
 78
     0
281
     0
 65
     0
110
0.0
120
0.0
130
0.0
111
1.0
121
0.0
131
0.0
112
0.0
122
1.0
132
0.0
 79
     0
146
0.0
  0
ENDTAB
  0
TABLE
  2
LTYPE
  5
4
330
0
100
AcDbSymbolTable
 70
     6
  0
LTYPE
  5
11
330
4
100
AcDbSymbolTableRecord
100
AcDbLinetypeTableRecord
  2
ByBlock
 70
     0
  3

 72
    65
 73
     0
 40
0.0
  0
LTYPE
  5
12
330
4
100
AcDbSymbolTableRecord
100
AcDbLinetypeTableRecord
  2
ByLayer
 70
     0
  3

 72
    65
 73
     0
 40
0.0
  0
LTYPE
  5
13
330
4
100
AcDbSymbolTableRecord
100
AcDbLinetypeTableRecord
  2
Continuous
 70
     0
  3
Solid line
 72
    65
 73
     0
 40
0.0
  0
LTYPE
  5
24
330
4
100
AcDbSymbolTableRecord
100
AcDbLinetypeTableRecord
  2
HIDDEN
 70
     0
  3
Hidden __ __ __ __ __ __ __ __ __ __ __ __ __ __
 72
    65
 73
     2
 40
0.075
 49
0.05
 74
     0
 49
-0.025
 74
     0
  0
LTYPE
  5
25
330
4
100
AcDbSymbolTableRecord
100
AcDbLinetypeTableRecord
  2
PHANTOM
 70
     0
  3
Phantom ______  __  __  ______  __  __  ______
 72
    65
 73
     6
 40
0.5
 49
0.25
 74
     0
 49
-0.05
 74
     0
 49
0.05
 74
     0
 49
-0.05
 74
     0
 49
0.05
 74
     0
 49
-0.05
 74
     0
  0
LTYPE
  5
26
330
4
100
AcDbSymbolTableRecord
100
AcDbLinetypeTableRecord
  2
CENTER
 70
     0
  3
Center ____ _ ____ _ ____ _ ____ _ ____ _ ____
 72
    65
 73
     4
 40
0.4
 49
0.25
 74
     0
 49
-0.05
 74
     0
 49
0.05
 74
     0
 49
-0.05
 74
     0
  0
LTYPE
  5
27
330
4
100
AcDbSymbolTableRecord
100
AcDbLinetypeTableRecord
  2
CENTERX2
 70
     0
  3
Center (2x) ________  __  ________  __  _____
 72
    65
 73
     4
 40
0.8
 49
0.5
 74
     0
 49
-0.1
 74
     0
 49
0.1
 74
     0
 49
-0.1
 74
     0
  0
LTYPE
  5
28
330
4
100
AcDbSymbolTableRecord
100
AcDbLinetypeTableRecord
  2
DOT2
 70
     0
  3
Dot (.5x) ........................................
 72
    65
 73
     2
 40
0.025
 49
0.0
 74
     0
 49
-0.025
 74
     0
  0
ENDTAB
  0
TABLE
  2
LAYER
  5
2
330
0
100
AcDbSymbolTable
 70
     2
  0
LAYER
  5
14
330
2
100
AcDbSymbolTableRecord
100
AcDbLayerTableRecord
  2
0
 70
     0
 62
     7
  6
Continuous
370
    -3
390
1D
  0
LAYER
  5
19C
330
2
100
AcDbSymbolTableRecord
100
AcDbLayerTableRecord
  2
Defpoints
 70
     0
 62
     7
  6
Continuous
290
     0
370
    -3
390
1D
  0
ENDTAB
  0
TABLE
  2
STYLE
  5
3
330
0
100
AcDbSymbolTable
 70
     2
  0
STYLE
  5
17
330
3
100
AcDbSymbolTableRecord
100
AcDbTextStyleTableRecord
  2
Standard
 70
     0
 40
0.0
 41
1.0
 50
0.0
 71
     0
 42
0.0
  3
txt
  4

  0
STYLE
  5
75
330
3
100
AcDbSymbolTableRecord
100
AcDbTextStyleTableRecord
  2
SLDTEXTSTYLE0
 70
     0
 40
0.0
 41
0.75
 50
0.0
 71
     0
 42
0.0
  3
txt
  4

  0
ENDTAB
  0
TABLE
  2
VIEW
  5
5
330
0
100
AcDbSymbolTable
 70
     0
  0
ENDTAB
  0
TABLE
  2
UCS
  5
6
330
0
100
AcDbSymbolTable
 70
     0
  0
ENDTAB
  0
TABLE
  2
APPID
  5
8
330
0
100
AcDbSymbolTable
 70
     1
  0
APPID
  5
16
330
8
100
AcDbSymbolTableRecord
100
AcDbRegAppTableRecord
  2
ACAD
 70
     0
  0
ENDTAB
  0
TABLE
  2
DIMSTYLE
  5
9
330
0
100
AcDbSymbolTable
 70
     3
100
AcDbDimStyleTable
 71
     1
340
18
  0
DIMSTYLE
105
18
330
9
100
AcDbSymbolTableRecord
100
AcDbDimStyleTableRecord
  2
Standard
 70
     0
340
17
  0
DIMSTYLE
105
CC
102
{ACAD_REACTORS
330
D0
330
E9
330
10C
330
11B
330
12A
330
137
102
}
330
9
100
AcDbSymbolTableRecord
100
AcDbDimStyleTableRecord
  2
SLDDIMSTYLE0
 70
     0
 41
1.125
 44
0.72
 78
    12
140
0.6
147
0.15
173
     1
176
     1
177
     1
178
     1
271
     3
284
    12
340
17
  0
DIMSTYLE
105
F3
102
{ACAD_REACTORS
330
F7
102
}
330
9
100
AcDbSymbolTableRecord
100
AcDbDimStyleTableRecord
  2
SLDDIMSTYLE1
 70
     0
 41
1.125
 44
0.72
 78
    12
140
0.6
147
0.15
173
     1
176
     1
177
     1
178
     1
271
     2
284
    12
340
17
  0
ENDTAB
  0
TABLE
  2
BLOCK_RECORD
  5
1
330
0
100
AcDbSymbolTable
 70
     9
  0
BLOCK_RECORD
  5
A
330
1
100
AcDbSymbolTableRecord
100
AcDbBlockTableRecord
  2
*MODEL_SPACE
340
20
  0
BLOCK_RECORD
  5
B
330
1
100
AcDbSymbolTableRecord
100
AcDbBlockTableRecord
  2
*PAPER_SPACE
340
21
  0
BLOCK_RECORD
  5
A6
330
1
100
AcDbSymbolTableRecord
100
AcDbBlockTableRecord
  2
NOTE48
340
0
102
{BLKREFS
331
AC
102
}
  0
BLOCK_RECORD
  5
C3
330
1
100
AcDbSymbolTableRecord
100
AcDbBlockTableRecord
  2
*D1
340
0
  0
BLOCK_RECORD
  5
DD
330
1
100
AcDbSymbolTableRecord
100
AcDbBlockTableRecord
  2
*D2
340
0
  0
BLOCK_RECORD
  5
EA
330
1
100
AcDbSymbolTableRecord
100
AcDbBlockTableRecord
  2
*D3
340
0
  0
BLOCK_RECORD
  5
FE
330
1
100
AcDbSymbolTableRecord
100
AcDbBlockTableRecord
  2
*D4
340
0
  0
BLOCK_RECORD
  5
10D
330
1
100
AcDbSymbolTableRecord
100
AcDbBlockTableRecord
  2
*D5
340
0
  0
BLOCK_RECORD
  5
11C
330
1
100
AcDbSymbolTableRecord
100
AcDbBlockTableRecord
  2
*D6
340
0
  0
BLOCK_RECORD
  5
12B
330
1
100
AcDbSymbolTableRecord
100
AcDbBlockTableRecord
  2
*D7
340
0
  0
BLOCK_RECORD
  5
19D
330
1
100
AcDbSymbolTableRecord
100
AcDbBlockTableRecord
  2
*D8
340
0
  0
ENDTAB
  0
ENDSEC
  0
SECTION
  2
BLOCKS
  0
BLOCK
  5
D
330
A
100
AcDbEntity
  8
0
100
AcDbBlockBegin
  2
*MODEL_SPACE
 70
     0
 10
0.0
 20
0.0
 30
0.0
  3
*MODEL_SPACE
  1

  0
ENDBLK
  5
E
330
A
100
AcDbEntity
  8
0
100
AcDbBlockEnd
  0
BLOCK
  5
F
330
B
100
AcDbEntity
 67
     1
  8
0
100
AcDbBlockBegin
  2
*PAPER_SPACE
 70
     0
 10
0.0
 20
0.0
 30
0.0
  3
*PAPER_SPACE
  1

  0
ENDBLK
  5
10
330
B
100
AcDbEntity
 67
     1
  8
0
100
AcDbBlockEnd
  0
BLOCK
  5
A7
330
A6
100
AcDbEntity
  8
0
 62
     0
100
AcDbBlockBegin
  2
NOTE48
 70
     0
 10
0.0
 20
0.0
 30
0.0
  3
NOTE48
  1

  0
MTEXT
  5
A8
330
A6
100
AcDbEntity
  8
0
 62
     7
100
AcDbMText
 10
0.0
 20
0.0
 30
0.0
 40
0.5400000000000001
 41
0.0
 71
     1
 72
     1
  1
BREAK SHARP EDGES 0.010 RAD %%p 0.003
  7
SLDTEXTSTYLE0
 73
     1
 44
1.0
  0
MTEXT
  5
A9
330
A6
100
AcDbEntity
  8
0
 62
     7
100
AcDbMText
 10
0.0
 20
-0.8100000000000001
 30
0.0
 40
0.5400000000000001
 41
0.0
 71
     1
 72
     1
  1
MACHINED SURF FINISH  
  7
SLDTEXTSTYLE0
 73
     1
 44
1.0
  0
MTEXT
  5
AA
330
A6
100
AcDbEntity
  8
0
 62
     7
100
AcDbMText
 10
8.316
 20
-0.8100000000000001
 30
0.0
 40
0.5400000000000001
 41
0.0
 71
     1
 72
     1
  1
< 125 MICROINCH
  7
SLDTEXTSTYLE0
 73
     1
 44
1.0
  0
ENDBLK
  5
AB
330
A6
100
AcDbEntity
  8
0
100
AcDbBlockEnd
  0
BLOCK
  5
C4
330
C3
100
AcDbEntity
  8
0
 62
     1
100
AcDbBlockBegin
  2
*D1
 70
     1
 10
0.0
 20
0.0
 30
0.0
  3
*D1
  1

  0
MTEXT
  5
C5
330
C3
100
AcDbEntity
  8
0
100
AcDbMText
 10
65.04313588409999
 20
50.8220151119
 30
0.0
 40
0.6
 41
0.0
 71
     7
 72
     1
  1
6 1/2"
  7
SLDTEXTSTYLE0
 73
     1
 44
1.0
  0
LINE
  5
C6
330
C3
100
AcDbEntity
  8
0
100
AcDbLine
 10
61.0467000516
 20
54.3417813384
 30
0.0
 11
66.9036498464
 21
54.3417813384
 31
0.0
  0
LINE
  5
C7
330
C3
100
AcDbEntity
  8
0
100
AcDbLine
 10
61.0467000516
 20
47.8417813384
 30
0.0
 11
66.9036498464
 21
47.8417813384
 31
0.0
  0
LINE
  5
C8
330
C3
100
AcDbEntity
  8
0
100
AcDbLine
 10
66.1836498464
 20
54.3417813384
 30
0.0
 11
66.1836498464
 21
51.6615475648
 31
0.0
  0
LINE
  5
C9
330
C3
100
AcDbEntity
  8
0
100
AcDbLine
 10
66.1836498464
 20
47.8417813384
 30
0.0
 11
66.1836498464
 21
50.52201511189999
 31
0.0
  0
SOLID
  5
CA
330
C3
100
AcDbEntity
  8
0
100
AcDbTrace
 10
66.1836498464
 20
54.3417813384
 30
0.0
 11
65.9961498464
 21
53.2167813384
 31
0.0
 12
66.3711498464
 22
53.2167813384
 32
0.0
 13
66.3711498464
 23
53.2167813384
 33
0.0
  0
SOLID
  5
CB
330
C3
100
AcDbEntity
  8
0
100
AcDbTrace
 10
66.1836498464
 20
47.8417813384
 30
0.0
 11
66.3711498464
 21
48.9667813384
 31
0.0
 12
65.9961498464
 22
48.9667813384
 32
0.0
 13
65.9961498464
 23
48.9667813384
 33
0.0
  0
POINT
  5
CD
330
C3
100
AcDbEntity
  8
0
100
AcDbPoint
 10
60.8067000516
 20
54.3417813384
 30
0.0
  0
POINT
  5
CE
330
C3
100
AcDbEntity
  8
0
100
AcDbPoint
 10
60.8067000516
 20
47.8417813384
 30
0.0
  0
ENDBLK
  5
CF
330
C3
100
AcDbEntity
  8
0
 62
     1
100
AcDbBlockEnd
  0
BLOCK
  5
DE
330
DD
100
AcDbEntity
  8
0
 62
     1
100
AcDbBlockBegin
  2
*D2
 70
     1
 10
0.0
 20
0.0
 30
0.0
  3
*D2
  1

  0
MTEXT
  5
DF
330
DD
100
AcDbEntity
  8
0
100
AcDbMText
 10
86.5482665881
 20
56.550369873
 30
0.0
 40
0.6
 41
0.0
 71
     7
 72
     1
  1
8"
  7
SLDTEXTSTYLE0
 73
     1
 44
1.0
  0
LINE
  5
E0
330
DD
100
AcDbEntity
  8
0
100
AcDbLine
 10
82.9384165881
 20
54.5817813384
 30
0.0
 11
82.9384165881
 21
57.54013609939999
 31
0.0
  0
LINE
  5
E1
330
DD
100
AcDbEntity
  8
0
100
AcDbLine
 10
90.93841658809999
 20
54.5817813384
 30
0.0
 11
90.93841658809999
 21
57.54013609939999
 31
0.0
  0
LINE
  5
E2
330
DD
100
AcDbEntity
  8
0
100
AcDbLine
 10
82.9384165881
 20
56.8201360994
 30
0.0
 11
86.17326658809998
 21
56.8201360994
 31
0.0
  0
LINE
  5
E3
330
DD
100
AcDbEntity
  8
0
100
AcDbLine
 10
90.93841658809999
 20
56.8201360994
 30
0.0
 11
87.70356658809999
 21
56.8201360994
 31
0.0
  0
SOLID
  5
E4
330
DD
100
AcDbEntity
  8
0
100
AcDbTrace
 10
82.9384165881
 20
56.8201360994
 30
0.0
 11
84.06341658809999
 21
56.63263609939999
 31
0.0
 12
84.06341658809999
 22
57.0076360994
 32
0.0
 13
84.06341658809999
 23
57.0076360994
 33
0.0
  0
SOLID
  5
E5
330
DD
100
AcDbEntity
  8
0
100
AcDbTrace
 10
90.93841658809999
 20
56.8201360994
 30
0.0
 11
89.8134165881
 21
57.0076360994
 31
0.0
 12
89.8134165881
 22
56.63263609939999
 32
0.0
 13
89.8134165881
 23
56.63263609939999
 33
0.0
  0
POINT
  5
E6
330
DD
100
AcDbEntity
  8
0
100
AcDbPoint
 10
82.9384165881
 20
54.3417813384
 30
0.0
  0
POINT
  5
E7
330
DD
100
AcDbEntity
  8
0
100
AcDbPoint
 10
90.93841658809999
 20
54.3417813384
 30
0.0
  0
ENDBLK
  5
E8
330
DD
100
AcDbEntity
  8
0
 62
     1
100
AcDbBlockEnd
  0
BLOCK
  5
EB
330
EA
100
AcDbEntity
  8
0
 62
     1
100
AcDbBlockBegin
  2
*D3
 70
     1
 10
0.0
 20
0.0
 30
0.0
  3
*D3
  1

  0
MTEXT
  5
EC
330
EA
100
AcDbEntity
  8
0
 62
     7
100
AcDbMText
 10
74.51630994520001
 20
47.06781943390001
 30
0.0
 40
0.6
 41
0.0
 71
     7
 72
     1
  1
1/4"
  7
SLDTEXTSTYLE0
 73
     1
 44
1.0
  0
MTEXT
  5
ED
330
EA
100
AcDbEntity
  8
0
 62
     7
100
AcDbMText
 10
76.0769099452
 20
47.06781943390001
 30
0.0
 40
0.6
 41
0.0
 71
     7
 72
     1
  1
 RAD INSIDE
  7
SLDTEXTSTYLE0
 73
     1
 44
1.0
  0
MTEXT
  5
EE
330
EA
100
AcDbEntity
  8
0
 62
     7
100
AcDbMText
 10
75.83989126590001
 20
45.92828698109999
 30
0.0
 40
0.6
 41
0.0
 71
     7
 72
     1
  1
2 PLACES
  7
SLDTEXTSTYLE0
 73
     1
 44
1.0
  0
LINE
  5
EF
330
EA
100
AcDbEntity
  8
0
 62
     7
100
AcDbLine
 10
83.42144710399999
 20
48.2610031433
 30
0.0
 11
82.391277115
 21
46.76781943389999
 31
0.0
  0
LINE
  5
F0
330
EA
100
AcDbEntity
  8
0
 62
     7
100
AcDbLine
 10
83.5634165881
 20
48.46678133840001
 30
0.0
 11
83.42144710399999
 21
48.2610031433
 31
0.0
  0
LINE
  5
F1
330
EA
100
AcDbEntity
  8
0
 62
     7
100
AcDbLine
 10
82.391277115
 20
46.76781943389999
 30
0.0
 11
80.89127711499999
 21
46.76781943389999
 31
0.0
  0
SOLID
  5
F2
330
EA
100
AcDbEntity
  8
0
 62
     7
100
AcDbTrace
 10
83.42144710399999
 20
48.2610031433
 30
0.0
 11
84.214643429
 21
49.080527908
 31
0.0
 12
83.90597613629999
 22
49.29348213429999
 32
0.0
 13
83.90597613629999
 23
49.29348213429999
 33
0.0
  0
POINT
  5
F4
330
EA
100
AcDbEntity
  8
0
 62
     7
100
AcDbPoint
 10
83.42144710399999
 20
48.2610031433
 30
0.0
  0
POINT
  5
F5
330
EA
100
AcDbEntity
  8
0
 62
     7
100
AcDbPoint
 10
83.5634165881
 20
48.46678133840001
 30
0.0
  0
ENDBLK
  5
F6
330
EA
100
AcDbEntity
  8
0
100
AcDbBlockEnd
  0
BLOCK
  5
FF
330
FE
100
AcDbEntity
  8
0
 62
     1
100
AcDbBlockBegin
  2
*D4
 70
     1
 10
0.0
 20
0.0
 30
0.0
  3
*D4
  1

  0
MTEXT
  5
100
330
FE
100
AcDbEntity
  8
0
100
AcDbMText
 10
65.1469862264
 20
34.213874079
 30
0.0
 40
0.6
 41
0.0
 71
     7
 72
     1
  1
6.219
  7
SLDTEXTSTYLE0
 73
     1
 44
1.0
  0
LINE
  5
101
330
FE
100
AcDbEntity
  8
0
100
AcDbLine
 10
61.0467000516
 20
37.5929461536
 30
0.0
 11
66.7370943396
 21
37.5929461536
 31
0.0
  0
LINE
  5
102
330
FE
100
AcDbEntity
  8
0
100
AcDbLine
 10
61.0467000516
 20
31.3743344571
 30
0.0
 11
66.7370943396
 21
31.3743344571
 31
0.0
  0
LINE
  5
103
330
FE
100
AcDbEntity
  8
0
100
AcDbLine
 10
66.0170943396
 20
37.5929461536
 30
0.0
 11
66.0170943396
 21
35.0534065318
 31
0.0
  0
LINE
  5
104
330
FE
100
AcDbEntity
  8
0
100
AcDbLine
 10
66.0170943396
 20
31.3743344571
 30
0.0
 11
66.0170943396
 21
33.913874079
 31
0.0
  0
ARC
  5
105
330
FE
100
AcDbEntity
  8
0
100
AcDbCircle
 10
65.9115186792
 20
34.4836403054
 30
0.0
 40
1.274036013499999
100
AcDbArc
 50
153.4349488229
 51
206.5650511771
  0
ARC
  5
106
330
FE
100
AcDbEntity
  8
0
100
AcDbCircle
 10
66.12267
 20
34.4836403054
 30
0.0
 40
1.274036013499999
100
AcDbArc
 50
333.4349488229
 51
26.5650511771
  0
SOLID
  5
107
330
FE
100
AcDbEntity
  8
0
100
AcDbTrace
 10
66.0170943396
 20
37.5929461536
 30
0.0
 11
65.82959433960001
 21
36.4679461536
 31
0.0
 12
66.2045943396
 22
36.4679461536
 32
0.0
 13
66.2045943396
 23
36.4679461536
 33
0.0
  0
SOLID
  5
108
330
FE
100
AcDbEntity
  8
0
100
AcDbTrace
 10
66.0170943396
 20
31.3743344571
 30
0.0
 11
66.2045943396
 21
32.49933445709999
 31
0.0
 12
65.82959433960001
 22
32.49933445709999
 32
0.0
 13
65.82959433960001
 23
32.49933445709999
 33
0.0
  0
POINT
  5
109
330
FE
100
AcDbEntity
  8
0
100
AcDbPoint
 10
60.8067000516
 20
37.5929461536
 30
0.0
  0
POINT
  5
10A
330
FE
100
AcDbEntity
  8
0
100
AcDbPoint
 10
60.8067000516
 20
31.3743344571
 30
0.0
  0
ENDBLK
  5
10B
330
FE
100
AcDbEntity
  8
0
 62
     1
100
AcDbBlockEnd
  0
BLOCK
  5
10E
330
10D
100
AcDbEntity
  8
0
 62
     1
100
AcDbBlockBegin
  2
*D5
 70
     1
 10
0.0
 20
0.0
 30
0.0
  3
*D5
  1

  0
MTEXT
  5
10F
330
10D
100
AcDbEntity
  8
0
100
AcDbMText
 10
65.24513716979999
 20
20.5580389895
 30
0.0
 40
0.6
 41
0.0
 71
     7
 72
     1
  1
6.219
  7
SLDTEXTSTYLE0
 73
     1
 44
1.0
  0
LINE
  5
110
330
10D
100
AcDbEntity
  8
0
100
AcDbLine
 10
61.0467000516
 20
17.7184993677
 30
0.0
 11
66.83524528300001
 21
17.7184993677
 31
0.0
  0
LINE
  5
111
330
10D
100
AcDbEntity
  8
0
100
AcDbLine
 10
61.0467000516
 20
23.9371110642
 30
0.0
 11
66.83524528300001
 21
23.9371110642
 31
0.0
  0
LINE
  5
112
330
10D
100
AcDbEntity
  8
0
100
AcDbLine
 10
66.11524528300001
 20
17.7184993677
 30
0.0
 11
66.11524528300001
 21
20.2580389895
 31
0.0
  0
LINE
  5
113
330
10D
100
AcDbEntity
  8
0
100
AcDbLine
 10
66.11524528300001
 20
23.9371110642
 30
0.0
 11
66.11524528300001
 21
21.39757144229999
 31
0.0
  0
ARC
  5
114
330
10D
100
AcDbEntity
  8
0
100
AcDbCircle
 10
66.0096696226
 20
20.8278052159
 30
0.0
 40
1.274036013499999
100
AcDbArc
 50
153.4349488229
 51
206.5650511771
  0
ARC
  5
115
330
10D
100
AcDbEntity
  8
0
100
AcDbCircle
 10
66.2208209434
 20
20.8278052159
 30
0.0
 40
1.274036013499999
100
AcDbArc
 50
333.4349488229
 51
26.5650511771
  0
SOLID
  5
116
330
10D
100
AcDbEntity
  8
0
100
AcDbTrace
 10
66.11524528300001
 20
17.7184993677
 30
0.0
 11
66.30274528300001
 21
18.8434993677
 31
0.0
 12
65.92774528300001
 22
18.8434993677
 32
0.0
 13
65.92774528300001
 23
18.8434993677
 33
0.0
  0
SOLID
  5
117
330
10D
100
AcDbEntity
  8
0
100
AcDbTrace
 10
66.11524528300001
 20
23.9371110642
 30
0.0
 11
65.92774528300001
 21
22.8121110642
 31
0.0
 12
66.30274528300001
 22
22.8121110642
 32
0.0
 13
66.30274528300001
 23
22.8121110642
 33
0.0
  0
POINT
  5
118
330
10D
100
AcDbEntity
  8
0
100
AcDbPoint
 10
60.8067000516
 20
17.7184993677
 30
0.0
  0
POINT
  5
119
330
10D
100
AcDbEntity
  8
0
100
AcDbPoint
 10
60.8067000516
 20
23.9371110642
 30
0.0
  0
ENDBLK
  5
11A
330
10D
100
AcDbEntity
  8
0
 62
     1
100
AcDbBlockEnd
  0
BLOCK
  5
11D
330
11C
100
AcDbEntity
  8
0
 62
     1
100
AcDbBlockBegin
  2
*D6
 70
     1
 10
0.0
 20
0.0
 30
0.0
  3
*D6
  1

  0
MTEXT
  5
11E
330
11C
100
AcDbEntity
  8
0
100
AcDbMText
 10
71.9738750943
 20
27.3859565342
 30
0.0
 40
0.6
 41
0.0
 71
     7
 72
     1
  1
19.874
  7
SLDTEXTSTYLE0
 73
     1
 44
1.0
  0
LINE
  5
11F
330
11C
100
AcDbEntity
  8
0
100
AcDbLine
 10
61.0467000516
 20
17.7184993677
 30
0.0
 11
73.8039622642
 21
17.7184993677
 31
0.0
  0
LINE
  5
120
330
11C
100
AcDbEntity
  8
0
100
AcDbLine
 10
61.0467000516
 20
37.5929461536
 30
0.0
 11
73.8039622642
 21
37.5929461536
 31
0.0
  0
LINE
  5
121
330
11C
100
AcDbEntity
  8
0
100
AcDbLine
 10
73.0839622642
 20
17.7184993677
 30
0.0
 11
73.0839622642
 21
27.0859565342
 31
0.0
  0
LINE
  5
122
330
11C
100
AcDbEntity
  8
0
100
AcDbLine
 10
73.0839622642
 20
37.5929461536
 30
0.0
 11
73.0839622642
 21
28.2254889871
 31
0.0
  0
ARC
  5
123
330
11C
100
AcDbEntity
  8
0
100
AcDbCircle
 10
72.7384075472
 20
27.6557227607
 30
0.0
 40
1.274036013499999
100
AcDbArc
 50
153.4349488229
 51
206.5650511771
  0
ARC
  5
124
330
11C
100
AcDbEntity
  8
0
100
AcDbCircle
 10
73.42951698109999
 20
27.6557227607
 30
0.0
 40
1.274036013499999
100
AcDbArc
 50
333.4349488229
 51
26.5650511771
  0
SOLID
  5
125
330
11C
100
AcDbEntity
  8
0
100
AcDbTrace
 10
73.0839622642
 20
17.7184993677
 30
0.0
 11
73.2714622642
 21
18.8434993677
 31
0.0
 12
72.8964622642
 22
18.8434993677
 32
0.0
 13
72.8964622642
 23
18.8434993677
 33
0.0
  0
SOLID
  5
126
330
11C
100
AcDbEntity
  8
0
100
AcDbTrace
 10
73.0839622642
 20
37.5929461536
 30
0.0
 11
72.8964622642
 21
36.4679461536
 31
0.0
 12
73.2714622642
 22
36.4679461536
 32
0.0
 13
73.2714622642
 23
36.4679461536
 33
0.0
  0
POINT
  5
127
330
11C
100
AcDbEntity
  8
0
100
AcDbPoint
 10
60.8067000516
 20
17.7184993677
 30
0.0
  0
POINT
  5
128
330
11C
100
AcDbEntity
  8
0
100
AcDbPoint
 10
60.8067000516
 20
37.5929461536
 30
0.0
  0
ENDBLK
  5
129
330
11C
100
AcDbEntity
  8
0
 62
     1
100
AcDbBlockEnd
  0
BLOCK
  5
12C
330
12B
100
AcDbEntity
  8
0
 62
     1
100
AcDbBlockBegin
  2
*D7
 70
     1
 10
0.0
 20
0.0
 30
0.0
  3
*D7
  1

  0
MTEXT
  5
12D
330
12B
100
AcDbEntity
  8
0
100
AcDbMText
 10
37.176570995
 20
41.6044296728
 30
0.0
 40
0.6
 41
0.0
 71
     7
 72
     1
  1
46"
  7
SLDTEXTSTYLE0
 73
     1
 44
1.0
  0
LINE
  5
12E
330
12B
100
AcDbEntity
  8
0
100
AcDbLine
 10
14.8067000516
 20
37.8329461536
 30
0.0
 11
14.8067000516
 21
42.5941958992
 31
0.0
  0
LINE
  5
12F
330
12B
100
AcDbEntity
  8
0
100
AcDbLine
 10
60.8067000516
 20
37.8329461536
 30
0.0
 11
60.8067000516
 21
42.5941958992
 31
0.0
  0
LINE
  5
130
330
12B
100
AcDbEntity
  8
0
100
AcDbLine
 10
14.8067000516
 20
41.8741958992
 30
0.0
 11
36.801570995
 21
41.8741958992
 31
0.0
  0
LINE
  5
131
330
12B
100
AcDbEntity
  8
0
100
AcDbLine
 10
60.8067000516
 20
41.8741958992
 30
0.0
 11
38.8118291082
 21
41.8741958992
 31
0.0
  0
SOLID
  5
132
330
12B
100
AcDbEntity
  8
0
100
AcDbTrace
 10
14.8067000516
 20
41.8741958992
 30
0.0
 11
15.9317000516
 21
41.6866958992
 31
0.0
 12
15.9317000516
 22
42.0616958992
 32
0.0
 13
15.9317000516
 23
42.0616958992
 33
0.0
  0
SOLID
  5
133
330
12B
100
AcDbEntity
  8
0
100
AcDbTrace
 10
60.8067000516
 20
41.8741958992
 30
0.0
 11
59.6817000516
 21
42.0616958992
 31
0.0
 12
59.6817000516
 22
41.6866958992
 32
0.0
 13
59.6817000516
 23
41.6866958992
 33
0.0
  0
POINT
  5
134
330
12B
100
AcDbEntity
  8
0
100
AcDbPoint
 10
14.8067000516
 20
37.5929461536
 30
0.0
  0
POINT
  5
135
330
12B
100
AcDbEntity
  8
0
100
AcDbPoint
 10
60.8067000516
 20
37.5929461536
 30
0.0
  0
ENDBLK
  5
136
330
12B
100
AcDbEntity
  8
0
 62
     1
100
AcDbBlockEnd
  0
BLOCK
  5
1A6
330
19D
100
AcDbEntity
  8
0
370
     0
100
AcDbBlockBegin
  2
*D8
 70
     1
 10
0.0
 20
0.0
 30
0.0
  3
*D8
  1

  0
LINE
  5
19E
330
19D
100
AcDbEntity
  8
0
  6
Continuous
 62
     0
370
     0
100
AcDbLine
 10
82.93841661229999
 20
51.4042813384
 30
0.0
 11
82.93841661229999
 21
43.30675918799441
 31
0.0
  0
LINE
  5
19F
330
19D
100
AcDbEntity
  8
0
  6
Continuous
 62
     0
370
     0
100
AcDbLine
 10
90.93841656394999
 20
51.4042813384
 30
0.0
 11
90.93841656394999
 21
43.30675918799441
 31
0.0
  0
LINE
  5
1A0
330
19D
100
AcDbEntity
  8
0
  6
Continuous
 62
     0
370
     0
100
AcDbLine
 10
82.93841661229999
 20
43.48675918799441
 30
0.0
 11
85.63841658812499
 21
43.48675918799441
 31
0.0
  0
LINE
  5
1A1
330
19D
100
AcDbEntity
  8
0
  6
Continuous
 62
     0
370
     0
100
AcDbLine
 10
90.93841656394999
 20
43.48675918799441
 30
0.0
 11
88.23841658812499
 21
43.48675918799441
 31
0.0
  0
MTEXT
  5
1A2
330
19D
100
AcDbEntity
  8
0
  6
Continuous
 62
     0
370
     0
100
AcDbMText
 10
86.938416588125
 20
43.48675918799441
 30
0.0
 40
0.6
 41
0.0
 71
     5
 72
     1
  1
\A1;8.0000
 73
     1
 44
1.0
  0
POINT
  5
1A3
330
19D
100
AcDbEntity
  8
Defpoints
  6
Continuous
 62
     0
370
     0
100
AcDbPoint
 10
82.93841661229999
 20
51.4042813384
 30
0.0
  0
POINT
  5
1A4
330
19D
100
AcDbEntity
  8
Defpoints
  6
Continuous
 62
     0
370
     0
100
AcDbPoint
 10
90.93841656394999
 20
51.4042813384
 30
0.0
  0
POINT
  5
1A5
330
19D
100
AcDbEntity
  8
Defpoints
  6
Continuous
 62
     0
370
     0
100
AcDbPoint
 10
90.93841656394999
 20
43.48675918799441
 30
0.0
  0
ENDBLK
  5
1A7
330
19D
100
AcDbEntity
  8
0
370
     0
100
AcDbBlockEnd
  0
ENDSEC
  0
SECTION
  2
ENTITIES
  0
LINE
  5
2A
330
A
100
AcDbEntity
  8
0
  6
Continuous
 62
     7
370
     0
100
AcDbLine
 10
20.24999999999999
 20
63.75
 30
0.0
 11
9.0
 21
63.75
 31
0.0
  0
LINE
  5
2B
330
A
100
AcDbEntity
  8
0
  6
Continuous
 62
     7
370
     0
100
AcDbLine
 10
31.5
 20
63.75
 30
0.0
 11
20.24999999999999
 21
63.75
 31
0.0
  0
LINE
  5
2C
330
A
100
AcDbEntity
  8
0
  6
Continuous
 62
     7
370
     0
100
AcDbLine
 10
99.0
 20
2.25
 30
0.0
 11
87.75
 21
2.25
 31
0.0
  0
LINE
  5
2D
330
A
100
AcDbEntity
  8
0
  6
Continuous
 62
     7
370
     0
100
AcDbLine
 10
99.0
 20
2.25
 30
0.0
 11
99.0
 21
17.625
 31
0.0
  0
LINE
  5
2E
330
A
100
AcDbEntity
  8
0
  6
Continuous
 62
     7
370
     0
100
AcDbLine
 10
99.0
 20
48.375
 30
0.0
 11
99.75000000000001
 21
48.375
 31
0.0
  0
LINE
  5
2F
330
A
100
AcDbEntity
  8
0
  6
Continuous
 62
     7
370
     0
100
AcDbLine
 10
99.0
 20
33.0
 30
0.0
 11
99.75000000000001
 21
33.0
 31
0.0
  0
LINE
  5
30
330
A
100
AcDbEntity
  8
0
  6
Continuous
 62
     7
370
     0
100
AcDbLine
 10
42.75
 20
63.75
 30
0.0
 11
31.5
 21
63.75
 31
0.0
  0
LINE
  5
31
330
A
100
AcDbEntity
  8
0
  6
Continuous
 62
     7
370
     0
100
AcDbLine
 10
54.0
 20
63.75
 30
0.0
 11
42.75
 21
63.75
 31
0.0
  0
LINE
  5
32
330
A
100
AcDbEntity
  8
0
  6
Continuous
 62
     7
370
     0
100
AcDbLine
 10
65.25
 20
63.75
 30
0.0
 11
54.0
 21
63.75
 31
0.0
  0
LINE
  5
33
330
A
100
AcDbEntity
  8
0
  6
Continuous
 62
     7
370
     0
100
AcDbLine
 10
76.5
 20
63.75
 30
0.0
 11
65.25
 21
63.75
 31
0.0
  0
LINE
  5
34
330
A
100
AcDbEntity
  8
0
  6
Continuous
 62
     7
370
     0
100
AcDbLine
 10
87.75
 20
63.75
 30
0.0
 11
76.5
 21
63.75
 31
0.0
  0
LINE
  5
35
330
A
100
AcDbEntity
  8
0
  6
Continuous
 62
     7
370
     0
100
AcDbLine
 10
99.0
 20
17.625
 30
0.0
 11
99.75000000000001
 21
17.625
 31
0.0
  0
LINE
  5
36
330
A
100
AcDbEntity
  8
0
  6
Continuous
 62
     7
370
     0
100
AcDbLine
 10
99.0
 20
63.75
 30
0.0
 11
87.75
 21
63.75
 31
0.0
  0
LINE
  5
37
330
A
100
AcDbEntity
  8
0
  6
Continuous
 62
     7
370
     0
100
AcDbLine
 10
87.75
 20
63.75
 30
0.0
 11
87.75
 21
64.5
 31
0.0
  0
LINE
  5
38
330
A
100
AcDbEntity
  8
0
  6
Continuous
 62
     7
370
     0
100
AcDbLine
 10
76.5
 20
63.75
 30
0.0
 11
76.5
 21
64.5
 31
0.0
  0
LINE
  5
39
330
A
100
AcDbEntity
  8
0
  6
Continuous
 62
     7
370
     0
100
AcDbLine
 10
65.25
 20
63.75
 30
0.0
 11
65.25
 21
64.5
 31
0.0
  0
LINE
  5
3A
330
A
100
AcDbEntity
  8
0
  6
Continuous
 62
     7
370
     0
100
AcDbLine
 10
54.0
 20
63.75
 30
0.0
 11
54.0
 21
64.5
 31
0.0
  0
LINE
  5
3B
330
A
100
AcDbEntity
  8
0
  6
Continuous
 62
     7
370
     0
100
AcDbLine
 10
42.75
 20
63.75
 30
0.0
 11
42.75
 21
64.5
 31
0.0
  0
LINE
  5
3C
330
A
100
AcDbEntity
  8
0
  6
Continuous
 62
     7
370
     0
100
AcDbLine
 10
31.5
 20
63.75
 30
0.0
 11
31.5
 21
64.5
 31
0.0
  0
LINE
  5
3D
330
A
100
AcDbEntity
  8
0
  6
Continuous
 62
     7
370
     0
100
AcDbLine
 10
20.24999999999999
 20
63.75
 30
0.0
 11
20.24999999999999
 21
64.5
 31
0.0
  0
LINE
  5
3E
330
A
100
AcDbEntity
  8
0
  6
Continuous
 62
     7
370
     0
100
AcDbLine
 10
52.5
 20
10.14
 30
0.0
 11
52.5
 21
2.255999999999999
 31
0.0
  0
LINE
  5
3F
330
A
100
AcDbEntity
  8
0
  6
Continuous
 62
     7
370
     0
100
AcDbLine
 10
66.0
 20
14.25
 30
0.0
 11
99.0
 21
14.25
 31
0.0
  0
LINE
  5
40
330
A
100
AcDbEntity
  8
0
  6
Continuous
 62
     7
370
     0
100
AcDbLine
 10
66.0
 20
14.25
 30
0.0
 11
66.0
 21
2.25
 31
0.0
  0
LINE
  5
41
330
A
100
AcDbEntity
  8
0
  6
Continuous
 62
     7
370
     0
100
AcDbLine
 10
81.0
 20
14.25
 30
0.0
 11
81.0
 21
2.25
 31
0.0
  0
LINE
  5
42
330
A
100
AcDbEntity
  8
0
  6
Continuous
 62
     7
370
     0
100
AcDbLine
 10
81.0
 20
3.378
 30
0.0
 11
99.0
 21
3.378
 31
0.0
  0
LINE
  5
43
330
A
100
AcDbEntity
  8
0
  6
Continuous
 62
     7
370
     0
100
AcDbLine
 10
81.0
 20
5.627999999999999
 30
0.0
 11
99.0
 21
5.627999999999999
 31
0.0
  0
LINE
  5
44
330
A
100
AcDbEntity
  8
0
  6
Continuous
 62
     7
370
     0
100
AcDbLine
 10
81.0
 20
10.128
 30
0.0
 11
99.0
 21
10.128
 31
0.0
  0
LINE
  5
45
330
A
100
AcDbEntity
  8
0
  6
Continuous
 62
     7
370
     0
100
AcDbLine
 10
83.25000000000001
 20
5.627999999999999
 30
0.0
 11
83.25000000000001
 21
2.25
 31
0.0
  0
LINE
  5
46
330
A
100
AcDbEntity
  8
0
  6
Continuous
 62
     7
370
     0
100
AcDbLine
 10
52.5
 20
4.506
 30
0.0
 11
81.0
 21
4.506
 31
0.0
  0
LINE
  5
47
330
A
100
AcDbEntity
  8
0
  6
Continuous
 62
     7
370
     0
100
AcDbLine
 10
96.75
 20
5.627999999999999
 30
0.0
 11
96.75
 21
2.25
 31
0.0
  0
LINE
  5
48
330
A
100
AcDbEntity
  8
0
  6
Continuous
 62
     7
370
     0
100
AcDbLine
 10
81.0
 20
12.0
 30
0.0
 11
66.0
 21
12.0
 31
0.0
  0
LINE
  5
49
330
A
100
AcDbEntity
  8
0
  6
Continuous
 62
     7
370
     0
100
AcDbLine
 10
66.0
 20
7.122
 30
0.0
 11
81.0
 21
7.122
 31
0.0
  0
LINE
  5
4A
330
A
100
AcDbEntity
  8
0
  6
Continuous
 62
     7
370
     0
100
AcDbLine
 10
66.0
 20
3.378
 30
0.0
 11
81.0
 21
3.378
 31
0.0
  0
LINE
  5
4B
330
A
100
AcDbEntity
  8
0
  6
Continuous
 62
     7
370
     0
100
AcDbLine
 10
52.5
 20
7.883999999999999
 30
0.0
 11
66.0
 21
7.883999999999999
 31
0.0
  0
LINE
  5
4C
330
A
100
AcDbEntity
  8
0
  6
Continuous
 62
     7
370
     0
100
AcDbLine
 10
99.0
 20
17.625
 30
0.0
 11
99.0
 21
33.0
 31
0.0
  0
LINE
  5
4D
330
A
100
AcDbEntity
  8
0
  6
Continuous
 62
     7
370
     0
100
AcDbLine
 10
99.0
 20
33.0
 30
0.0
 11
99.0
 21
48.375
 31
0.0
  0
LINE
  5
4E
330
A
100
AcDbEntity
  8
0
  6
Continuous
 62
     7
370
     0
100
AcDbLine
 10
99.0
 20
48.375
 30
0.0
 11
99.0
 21
63.75
 31
0.0
  0
LINE
  5
4F
330
A
100
AcDbEntity
  8
0
  6
Continuous
 62
     7
370
     0
100
AcDbLine
 10
87.75
 20
2.25
 30
0.0
 11
76.5
 21
2.25
 31
0.0
  0
LINE
  5
50
330
A
100
AcDbEntity
  8
0
  6
Continuous
 62
     7
370
     0
100
AcDbLine
 10
76.5
 20
2.25
 30
0.0
 11
65.25
 21
2.25
 31
0.0
  0
LINE
  5
51
330
A
100
AcDbEntity
  8
0
  6
Continuous
 62
     7
370
     0
100
AcDbLine
 10
52.5
 20
9.012
 30
0.0
 11
66.0
 21
9.012
 31
0.0
  0
LINE
  5
52
330
A
100
AcDbEntity
  8
0
  6
Continuous
 62
     7
370
     0
100
AcDbLine
 10
52.5
 20
5.625
 30
0.0
 11
30.0
 21
5.625
 31
0.0
  0
LINE
  5
53
330
A
100
AcDbEntity
  8
0
  6
Continuous
 62
     7
370
     0
100
AcDbLine
 10
66.0
 20
10.14
 30
0.0
 11
52.5
 21
10.14
 31
0.0
  0
LINE
  5
54
330
A
100
AcDbEntity
  8
0
  6
Continuous
 62
     7
370
     0
100
AcDbLine
 10
61.5
 20
10.14
 30
0.0
 11
61.5
 21
6.756
 31
0.0
  0
LINE
  5
55
330
A
100
AcDbEntity
  8
0
  6
Continuous
 62
     7
370
     0
100
AcDbLine
 10
66.0
 20
10.87199999999999
 30
0.0
 11
81.0
 21
10.87199999999999
 31
0.0
  0
LINE
  5
56
330
A
100
AcDbEntity
  8
0
  6
Continuous
 62
     7
370
     0
100
AcDbLine
 10
52.5
 20
6.756
 30
0.0
 11
66.0
 21
6.756
 31
0.0
  0
LINE
  5
57
330
A
100
AcDbEntity
  8
0
  6
Continuous
 62
     7
370
     0
100
AcDbLine
 10
73.5
 20
12.0
 30
0.0
 11
73.5
 21
7.122
 31
0.0
  0
LINE
  5
58
330
A
100
AcDbEntity
  8
0
  6
Continuous
 62
     7
370
     0
100
AcDbLine
 10
65.25
 20
2.25
 30
0.0
 11
54.0
 21
2.25
 31
0.0
  0
LINE
  5
59
330
A
100
AcDbEntity
  8
0
  6
Continuous
 62
     7
370
     0
100
AcDbLine
 10
54.0
 20
2.25
 30
0.0
 11
42.75
 21
2.25
 31
0.0
  0
LINE
  5
5A
330
A
100
AcDbEntity
  8
0
  6
Continuous
 62
     7
370
     0
100
AcDbLine
 10
42.75
 20
2.25
 30
0.0
 11
31.5
 21
2.25
 31
0.0
  0
LINE
  5
5B
330
A
100
AcDbEntity
  8
0
  6
Continuous
 62
     7
370
     0
100
AcDbLine
 10
31.5
 20
2.25
 30
0.0
 11
20.24999999999999
 21
2.25
 31
0.0
  0
LINE
  5
5C
330
A
100
AcDbEntity
  8
0
  6
Continuous
 62
     7
370
     0
100
AcDbLine
 10
77.25
 20
12.0
 30
0.0
 11
77.25
 21
7.122
 31
0.0
  0
LINE
  5
5D
330
A
100
AcDbEntity
  8
0
  6
Continuous
 62
     7
370
     0
100
AcDbLine
 10
20.24999999999999
 20
2.25
 30
0.0
 11
9.0
 21
2.25
 31
0.0
  0
LINE
  5
5E
330
A
100
AcDbEntity
  8
0
  6
Continuous
 62
     7
370
     0
100
AcDbLine
 10
4.5
 20
63.75
 30
0.0
 11
4.5
 21
2.25
 31
0.0
  0
LINE
  5
5F
330
A
100
AcDbEntity
  8
0
  6
Continuous
 62
     7
370
     0
100
AcDbLine
 10
9.0
 20
17.625
 30
0.0
 11
9.0
 21
33.0
 31
0.0
  0
LINE
  5
60
330
A
100
AcDbEntity
  8
0
  6
Continuous
 62
     7
370
     0
100
AcDbLine
 10
9.0
 20
33.0
 30
0.0
 11
9.0
 21
48.375
 31
0.0
  0
LINE
  5
61
330
A
100
AcDbEntity
  8
0
  6
Continuous
 62
     7
370
     0
100
AcDbLine
 10
9.0
 20
48.375
 30
0.0
 11
9.0
 21
63.75
 31
0.0
  0
LINE
  5
62
330
A
100
AcDbEntity
  8
0
  6
Continuous
 62
     7
370
     0
100
AcDbLine
 10
9.0
 20
48.375
 30
0.0
 11
8.25
 21
48.375
 31
0.0
  0
LINE
  5
63
330
A
100
AcDbEntity
  8
0
  6
Continuous
 62
     7
370
     0
100
AcDbLine
 10
87.75
 20
2.25
 30
0.0
 11
87.75
 21
1.5
 31
0.0
  0
LINE
  5
64
330
A
100
AcDbEntity
  8
0
  6
Continuous
 62
     7
370
     0
100
AcDbLine
 10
76.5
 20
2.25
 30
0.0
 11
76.5
 21
1.5
 31
0.0
  0
LINE
  5
65
330
A
100
AcDbEntity
  8
0
  6
Continuous
 62
     7
370
     0
100
AcDbLine
 10
65.25
 20
2.25
 30
0.0
 11
65.25
 21
1.5
 31
0.0
  0
LINE
  5
66
330
A
100
AcDbEntity
  8
0
  6
CENTERX2
 62
     7
370
     0
100
AcDbLine
 10
54.0
 20
2.25
 30
0.0
 11
54.0
 21
1.5
 31
0.0
  0
LINE
  5
67
330
A
100
AcDbEntity
  8
0
  6
Continuous
 62
     7
370
     0
100
AcDbLine
 10
42.75
 20
2.25
 30
0.0
 11
42.75
 21
1.5
 31
0.0
  0
LINE
  5
68
330
A
100
AcDbEntity
  8
0
  6
Continuous
 62
     7
370
     0
100
AcDbLine
 10
31.5
 20
2.25
 30
0.0
 11
31.5
 21
1.5
 31
0.0
  0
LINE
  5
69
330
A
100
AcDbEntity
  8
0
  6
Continuous
 62
     7
370
     0
100
AcDbLine
 10
20.24999999999999
 20
2.25
 30
0.0
 11
20.24999999999999
 21
1.5
 31
0.0
  0
LINE
  5
6A
330
A
100
AcDbEntity
  8
0
  6
Continuous
 62
     7
370
     0
100
AcDbLine
 10
9.0
 20
33.0
 30
0.0
 11
8.25
 21
33.0
 31
0.0
  0
LINE
  5
6B
330
A
100
AcDbEntity
  8
0
  6
Continuous
 62
     7
370
     0
100
AcDbLine
 10
9.0
 20
17.625
 30
0.0
 11
8.25
 21
17.625
 31
0.0
  0
LINE
  5
6C
330
A
100
AcDbEntity
  8
0
  6
Continuous
 62
     7
370
     0
100
AcDbLine
 10
9.0
 20
2.25
 30
0.0
 11
9.0
 21
17.625
 31
0.0
  0
LINE
  5
6D
330
A
100
AcDbEntity
  8
0
  6
Continuous
 62
     7
370
     0
100
AcDbLine
 10
30.0
 20
5.625
 30
0.0
 11
30.0
 21
2.25
 31
0.0
  0
LINE
  5
6E
330
A
100
AcDbEntity
  8
0
  6
Continuous
 62
     7
370
     0
100
AcDbLine
 10
99.0
 20
62.62199999999999
 30
0.0
 11
75.0
 21
62.62199999999999
 31
0.0
  0
LINE
  5
6F
330
A
100
AcDbEntity
  8
0
  6
Continuous
 62
     7
370
     0
100
AcDbLine
 10
99.0
 20
61.49399999999999
 30
0.0
 11
75.0
 21
61.49399999999999
 31
0.0
  0
LINE
  5
70
330
A
100
AcDbEntity
  8
0
  6
Continuous
 62
     7
370
     0
100
AcDbLine
 10
99.0
 20
60.366
 30
0.0
 11
75.0
 21
60.366
 31
0.0
  0
LINE
  5
71
330
A
100
AcDbEntity
  8
0
  6
Continuous
 62
     7
370
     0
100
AcDbLine
 10
75.0
 20
63.75
 30
0.0
 11
75.0
 21
60.366
 31
0.0
  0
LINE
  5
72
330
A
100
AcDbEntity
  8
0
  6
Continuous
 62
     7
370
     0
100
AcDbLine
 10
77.25
 20
62.62199999999999
 30
0.0
 11
77.25
 21
60.366
 31
0.0
  0
LINE
  5
73
330
A
100
AcDbEntity
  8
0
  6
Continuous
 62
     7
370
     0
100
AcDbLine
 10
94.50000000000001
 20
62.62199999999999
 30
0.0
 11
94.50000000000001
 21
60.366
 31
0.0
  0
LINE
  5
74
330
A
100
AcDbEntity
  8
0
  6
Continuous
 62
     7
370
     0
100
AcDbLine
 10
90.75000000000001
 20
62.62199999999999
 30
0.0
 11
90.75000000000001
 21
60.366
 31
0.0
  0
MTEXT
  5
76
330
A
100
AcDbEntity
  8
0
 62
     1
100
AcDbMText
 10
91.13919723386855
 20
17.68742696096312
 30
0.0
 40
1.0
 41
0.0
 71
     2
 72
     1
  1
2 REQUIRED\PPER ASSEM
  7
SLDTEXTSTYLE0
 73
     1
 44
1.0
  0
MTEXT
  5
77
330
A
100
AcDbEntity
  8
0
 62
     7
100
AcDbMText
 10
100.2803704771999
 20
54.53197675520001
 30
0.0
 40
0.5625
 41
0.0
 71
     1
 72
     1
  1
D
  7
SLDTEXTSTYLE0
 73
     1
 44
1.0
  0
MTEXT
  5
78
330
A
100
AcDbEntity
  8
0
 62
     7
100
AcDbMText
 10
100.1706350981
 20
39.2772688485
 30
0.0
 40
0.5625
 41
0.0
 71
     1
 72
     1
  1
C
  7
SLDTEXTSTYLE0
 73
     1
 44
1.0
  0
MTEXT
  5
79
330
A
100
AcDbEntity
  8
0
 62
     7
100
AcDbMText
 10
100.2367248009
 20
25.312890958
 30
0.0
 40
0.5625
 41
0.0
 71
     1
 72
     1
  1
B
  7
SLDTEXTSTYLE0
 73
     1
 44
1.0
  0
MTEXT
  5
7A
330
A
100
AcDbEntity
  8
0
 62
     7
100
AcDbMText
 10
100.2333099606
 20
10.2826092497
 30
0.0
 40
0.5625
 41
0.0
 71
     1
 72
     1
  1
A
  7
SLDTEXTSTYLE0
 73
     1
 44
1.0
  0
MTEXT
  5
7B
330
A
100
AcDbEntity
  8
0
 62
     7
100
AcDbMText
 10
5.786115592
 20
10.1604862113
 30
0.0
 40
0.5625
 41
0.0
 71
     1
 72
     1
  1
A
  7
SLDTEXTSTYLE0
 73
     1
 44
1.0
  0
MTEXT
  5
7C
330
A
100
AcDbEntity
  8
0
 62
     7
100
AcDbMText
 10
5.7669570385
 20
25.6667716838
 30
0.0
 40
0.5625
 41
0.0
 71
     1
 72
     1
  1
B
  7
SLDTEXTSTYLE0
 73
     1
 44
1.0
  0
MTEXT
  5
7D
330
A
100
AcDbEntity
  8
0
 62
     7
100
AcDbMText
 10
5.692967432599999
 20
41.24544003949999
 30
0.0
 40
0.5625
 41
0.0
 71
     1
 72
     1
  1
C
  7
SLDTEXTSTYLE0
 73
     1
 44
1.0
  0
MTEXT
  5
7E
330
A
100
AcDbEntity
  8
0
 62
     7
100
AcDbMText
 10
5.6732937728
 20
55.8388103014
 30
0.0
 40
0.5625
 41
0.0
 71
     1
 72
     1
  1
D
  7
SLDTEXTSTYLE0
 73
     1
 44
1.0
  0
MTEXT
  5
7F
330
A
100
AcDbEntity
  8
0
 62
     7
100
AcDbMText
 10
97.1148348692
 20
3.1180713538
 30
0.0
 40
0.5400000000000001
 41
0.0
 71
     1
 72
     1
  1
REV.
  7
SLDTEXTSTYLE0
 73
     1
 44
1.0
  0
MTEXT
  5
80
330
A
100
AcDbEntity
  8
0
 62
     7
100
AcDbMText
 10
74.0944620711
 20
10.5521458468
 30
0.0
 40
0.5400000000000001
 41
0.0
 71
     1
 72
     1
  1
%%p\P%%p\P%%p\P%%p
  7
SLDTEXTSTYLE0
 73
     1
 44
1.0
  0
MTEXT
  5
81
330
A
100
AcDbEntity
  8
0
 62
     7
100
AcDbMText
 10
52.87164914899999
 20
6.5849075998
 30
0.0
 40
0.5400000000000001
 41
0.0
 71
     1
 72
     1
  1
MATERIAL
  7
SLDTEXTSTYLE0
 73
     1
 44
1.0
  0
MTEXT
  5
82
330
A
100
AcDbEntity
  8
0
 62
     7
100
AcDbMText
 10
52.8579204388
 20
4.390042841199999
 30
0.0
 40
0.5400000000000001
 41
0.0
 71
     1
 72
     1
  1
FINISH
  7
SLDTEXTSTYLE0
 73
     1
 44
1.0
  0
MTEXT
  5
83
330
A
100
AcDbEntity
  8
0
 62
     7
100
AcDbMText
 10
94.80259802
 20
1.9306102858
 30
0.0
 40
0.5625
 41
0.0
 71
     1
 72
     1
  1
1
  7
SLDTEXTSTYLE0
 73
     1
 44
1.0
  0
MTEXT
  5
84
330
A
100
AcDbEntity
  8
0
 62
     7
100
AcDbMText
 10
81.5663175241
 20
1.9890647688
 30
0.0
 40
0.5625
 41
0.0
 71
     1
 72
     1
  1
2
  7
SLDTEXTSTYLE0
 73
     1
 44
1.0
  0
MTEXT
  5
85
330
A
100
AcDbEntity
  8
0
 62
     7
100
AcDbMText
 10
69.21763008550001
 20
2.008549596499999
 30
0.0
 40
0.5625
 41
0.0
 71
     1
 72
     1
  1
3
  7
SLDTEXTSTYLE0
 73
     1
 44
1.0
  0
MTEXT
  5
86
330
A
100
AcDbEntity
  8
0
 62
     7
100
AcDbMText
 10
58.09006548439999
 20
2.020469264099999
 30
0.0
 40
0.5625
 41
0.0
 71
     1
 72
     1
  1
4
  7
SLDTEXTSTYLE0
 73
     1
 44
1.0
  0
MTEXT
  5
87
330
A
100
AcDbEntity
  8
0
 62
     7
100
AcDbMText
 10
46.38758801109999
 20
2.039954091699999
 30
0.0
 40
0.5625
 41
0.0
 71
     1
 72
     1
  1
5
  7
SLDTEXTSTYLE0
 73
     1
 44
1.0
  0
MTEXT
  5
88
330
A
100
AcDbEntity
  8
0
 62
     7
100
AcDbMText
 10
35.46129299159999
 20
1.9425299534
 30
0.0
 40
0.5625
 41
0.0
 71
     1
 72
     1
  1
6
  7
SLDTEXTSTYLE0
 73
     1
 44
1.0
  0
MTEXT
  5
89
330
A
100
AcDbEntity
  8
0
 62
     7
100
AcDbMText
 10
23.58138527179999
 20
2.028034424099999
 30
0.0
 40
0.5625
 41
0.0
 71
     1
 72
     1
  1
7
  7
SLDTEXTSTYLE0
 73
     1
 44
1.0
  0
MTEXT
  5
8A
330
A
100
AcDbEntity
  8
0
 62
     7
100
AcDbMText
 10
12.8889081843
 20
2.039954091699999
 30
0.0
 40
0.5625
 41
0.0
 71
     1
 72
     1
  1
8
  7
SLDTEXTSTYLE0
 73
     1
 44
1.0
  0
MTEXT
  5
8B
330
A
100
AcDbEntity
  8
0
 62
     7
100
AcDbMText
 10
12.70367371839999
 20
64.8521377279
 30
0.0
 40
0.5625
 41
0.0
 71
     1
 72
     1
  1
8
  7
SLDTEXTSTYLE0
 73
     1
 44
1.0
  0
MTEXT
  5
8C
330
A
100
AcDbEntity
  8
0
 62
     7
100
AcDbMText
 10
24.42274198659999
 20
64.7184140625
 30
0.0
 40
0.5625
 41
0.0
 71
     1
 72
     1
  1
7
  7
SLDTEXTSTYLE0
 73
     1
 44
1.0
  0
MTEXT
  5
8D
330
A
100
AcDbEntity
  8
0
 62
     7
100
AcDbMText
 10
35.71028843829999
 20
64.67921223960001
 30
0.0
 40
0.5625
 41
0.0
 71
     1
 72
     1
  1
6
  7
SLDTEXTSTYLE0
 73
     1
 44
1.0
  0
MTEXT
  5
8E
330
A
100
AcDbEntity
  8
0
 62
     7
100
AcDbMText
 10
47.43716508539999
 20
64.6080653971
 30
0.0
 40
0.5625
 41
0.0
 71
     1
 72
     1
  1
5
  7
SLDTEXTSTYLE0
 73
     1
 44
1.0
  0
MTEXT
  5
8F
330
A
100
AcDbEntity
  8
0
 62
     7
100
AcDbMText
 10
59.0928948901
 20
64.7809908854
 30
0.0
 40
0.5625
 41
0.0
 71
     1
 72
     1
  1
4
  7
SLDTEXTSTYLE0
 73
     1
 44
1.0
  0
MTEXT
  5
90
330
A
100
AcDbEntity
  8
0
 62
     7
100
AcDbMText
 10
70.8078134447
 20
64.6568798633
 30
0.0
 40
0.5625
 41
0.0
 71
     1
 72
     1
  1
3
  7
SLDTEXTSTYLE0
 73
     1
 44
1.0
  0
MTEXT
  5
91
330
A
100
AcDbEntity
  8
0
 62
     7
100
AcDbMText
 10
82.02628791069999
 20
64.73010156249999
 30
0.0
 40
0.5625
 41
0.0
 71
     1
 72
     1
  1
2
  7
SLDTEXTSTYLE0
 73
     1
 44
1.0
  0
MTEXT
  5
92
330
A
100
AcDbEntity
  8
0
 62
     7
100
AcDbMText
 10
94.00138660219999
 20
64.6303977734
 30
0.0
 40
0.5625
 41
0.0
 71
     1
 72
     1
  1
1
  7
SLDTEXTSTYLE0
 73
     1
 44
1.0
  0
MTEXT
  5
93
330
A
100
AcDbEntity
  8
0
 62
     7
100
AcDbMText
 10
81.9326040698
 20
13.80430431589999
 30
0.0
 40
1.0
 41
0.0
 71
     1
 72
     1
  1
RADIO  ASTRONOMY  LAB
  7
SLDTEXTSTYLE0
 73
     1
 44
1.0
  0
MTEXT
  5
94
330
A
100
AcDbEntity
  8
0
 62
     7
100
AcDbMText
 10
90.1365472528
 20
12.1172946542
 30
0.0
 40
0.6
 41
0.0
 71
     2
 72
     1
  1
University of California - Berkeley\PTel: 510-642-5040    Fax: 510-642-3411
  7
SLDTEXTSTYLE0
 73
     1
 44
1.0
  0
MTEXT
  5
95
330
A
100
AcDbEntity
  8
0
 62
     7
100
AcDbMText
 10
56.3039096438
 20
9.826556316900001
 30
0.0
 40
0.5400000000000001
 41
0.0
 71
     1
 72
     1
  1
NAME
  7
SLDTEXTSTYLE0
 73
     1
 44
1.0
  0
MTEXT
  5
96
330
A
100
AcDbEntity
  8
0
 62
     7
100
AcDbMText
 10
62.9516353413
 20
9.799970562
 30
0.0
 40
0.5400000000000001
 41
0.0
 71
     1
 72
     1
  1
DATE
  7
SLDTEXTSTYLE0
 73
     1
 44
1.0
  0
MTEXT
  5
97
330
A
100
AcDbEntity
  8
0
 62
     7
100
AcDbMText
 10
81.4759825944
 20
3.1449171792
 30
0.0
 40
0.5400000000000001
 41
0.0
 71
     1
 72
     1
  1
SIZE
  7
SLDTEXTSTYLE0
 73
     1
 44
1.0
  0
MTEXT
  5
98
330
A
100
AcDbEntity
  8
0
 62
     7
100
AcDbMText
 10
81.8069992835
 20
5.0647918035
 30
0.0
 40
1.125
 41
0.0
 71
     1
 72
     1
  1
B
  7
SLDTEXTSTYLE0
 73
     1
 44
1.0
  0
MTEXT
  5
99
330
A
100
AcDbEntity
  8
0
 62
     7
100
AcDbMText
 10
66.47527710670001
 20
3.0771970241
 30
0.0
 40
0.5400000000000001
 41
0.0
 71
     1
 72
     1
  1
SCALE:
  7
SLDTEXTSTYLE0
 73
     1
 44
1.0
  0
MTEXT
  5
9A
330
A
100
AcDbEntity
  8
0
 62
     7
100
AcDbMText
 10
83.5463434683
 20
3.1200016872
 30
0.0
 40
0.5400000000000001
 41
0.0
 71
     1
 72
     1
  1
DWG NUM:      SHEET             OF
  7
SLDTEXTSTYLE0
 73
     1
 44
1.0
  0
MTEXT
  5
9B
330
A
100
AcDbEntity
  8
0
 62
     7
100
AcDbMText
 10
95.9926888765
 20
62.3118161116
 30
0.0
 40
0.5400000000000001
 41
0.0
 71
     1
 72
     1
  1
DATE
  7
SLDTEXTSTYLE0
 73
     1
 44
1.0
  0
MTEXT
  5
9C
330
A
100
AcDbEntity
  8
0
 62
     7
100
AcDbMText
 10
91.81493147559999
 20
62.3092473621
 30
0.0
 40
0.5400000000000001
 41
0.0
 71
     1
 72
     1
  1
NAME
  7
SLDTEXTSTYLE0
 73
     1
 44
1.0
  0
MTEXT
  5
9D
330
A
100
AcDbEntity
  8
0
 62
     7
100
AcDbMText
 10
84.19844310450001
 20
63.4317880241
 30
0.0
 40
0.5400000000000001
 41
0.0
 71
     1
 72
     1
  1
REVISIONS
  7
SLDTEXTSTYLE0
 73
     1
 44
1.0
  0
MTEXT
  5
9E
330
A
100
AcDbEntity
  8
0
 62
     7
100
AcDbMText
 10
75.4931915213
 20
62.30059944899999
 30
0.0
 40
0.5400000000000001
 41
0.0
 71
     1
 72
     1
  1
REV
  7
SLDTEXTSTYLE0
 73
     1
 44
1.0
  0
MTEXT
  5
9F
330
A
100
AcDbEntity
  8
0
 62
     7
100
AcDbMText
 10
77.77473414949999
 20
62.2973440515
 30
0.0
 40
0.5400000000000001
 41
0.0
 71
     1
 72
     1
  1
DESCRIPTION
  7
SLDTEXTSTYLE0
 73
     1
 44
1.0
  0
MTEXT
  5
A0
330
A
100
AcDbEntity
  8
0
 62
     7
100
AcDbMText
 10
66.44411806649999
 20
4.190674888999999
 30
0.0
 40
0.5400000000000001
 41
0.0
 71
     1
 72
     1
  1
WEIGHT:
  7
SLDTEXTSTYLE0
 73
     1
 44
1.0
  0
MTEXT
  5
A1
330
A
100
AcDbEntity
  8
0
 62
     7
100
AcDbMText
 10
52.8645847057
 20
8.685266778799999
 30
0.0
 40
0.5400000000000001
 41
0.0
 71
     1
 72
     1
  1
DRAWN
  7
SLDTEXTSTYLE0
 73
     1
 44
1.0
  0
MTEXT
  5
A2
330
A
100
AcDbEntity
  8
0
 62
     7
100
AcDbMText
 10
52.863220204
 20
7.5679825432
 30
0.0
 40
0.5400000000000001
 41
0.0
 71
     1
 72
     1
  1
CHECKED
  7
SLDTEXTSTYLE0
 73
     1
 44
1.0
  0
MTEXT
  5
A3
330
A
100
AcDbEntity
  8
0
 62
     7
100
AcDbMText
 10
72.9916757546
 20
10.5235230582
 30
0.0
 40
0.5400000000000001
 41
0.0
 71
     3
 72
     1
  1
WHOLE & FRACTION\PDECIMAL   X.X\PDECIMAL   X.XX\PDECIMAL   X.XXX
  7
SLDTEXTSTYLE0
 73
     1
 44
1.0
  0
MTEXT
  5
A4
330
A
100
AcDbEntity
  8
0
 62
     7
100
AcDbMText
 10
75.5237854217
 20
11.7884161564
 30
0.0
 40
0.5400000000000001
 41
0.0
 71
     2
 72
     1
  1
LINEAR
  7
SLDTEXTSTYLE0
 73
     1
 44
1.0
  0
MTEXT
  5
A5
330
A
100
AcDbEntity
  8
0
 62
     7
100
AcDbMText
 10
79.0068273082
 20
11.8245225938
 30
0.0
 40
0.5400000000000001
 41
0.0
 71
     2
 72
     1
  1
ANGLE
  7
SLDTEXTSTYLE0
 73
     1
 44
1.0
  0
INSERT
  5
AC
330
A
100
AcDbEntity
  8
0
100
AcDbBlockReference
  2
NOTE48
 10
67.0019801145
 20
6.564268515599999
 30
0.0
  0
MTEXT
  5
AD
330
A
100
AcDbEntity
  8
0
 62
     7
100
AcDbMText
 10
73.4925209285
 20
13.8534170794
 30
0.0
 40
0.5400000000000001
 41
0.0
 71
     2
 72
     1
  1
UNLESS OTHERWISE SPECIFIED\PDIMENSIONS ARE INCHES & DEGREES
  7
SLDTEXTSTYLE0
 73
     1
 44
1.0
  0
MTEXT
  5
AE
330
A
100
AcDbEntity
  8
0
 62
     7
100
AcDbMText
 10
67.20780065399999
 20
11.7502107179
 30
0.0
 40
0.5400000000000001
 41
0.0
 71
     1
 72
     1
  1
TOLERANCES:
  7
SLDTEXTSTYLE0
 73
     1
 44
1.0
  0
MTEXT
  5
AF
330
A
100
AcDbEntity
  8
0
 62
     7
100
AcDbMText
 10
77.7327711075
 20
10.5468730066
 30
0.0
 40
0.5400000000000001
 41
0.0
 71
     1
 72
     1
  1
%%p\P%%p\P%%p\P%%p
  7
SLDTEXTSTYLE0
 73
     1
 44
1.0
  0
MTEXT
  5
B0
330
A
100
AcDbEntity
  8
0
 62
     7
100
AcDbMText
 10
87.98040176120002
 20
62.3173586117
 30
0.0
 40
0.5400000000000001
 41
0.0
 71
     1
 72
     1
  1
ZONE
  7
SLDTEXTSTYLE0
 73
     1
 44
1.0
  0
MTEXT
  5
B1
330
A
100
AcDbEntity
  8
0
 62
     7
100
AcDbMText
 10
30.57130609159999
 20
5.187400003099999
 30
0.0
 40
0.48
 41
0.0
 71
     1
 72
     1
  1
THIS DRAWING IS THE PROPERTY OF AND CONTAINS CONFIDENTIAL\PINFORMATION PROPRIETARY TO THE UNIVERSITY OF CALIFORNIA AND\PSHALL BE USED ONLY FOR THE PURPOSE FOR WHICH IT WAS PROVIDED\PAND SHALL NOT BE REPRODUCED OR DISCLOSED TO OTHERS.
  7
SLDTEXTSTYLE0
 73
     1
 44
1.0
  0
MTEXT
  5
B2
330
A
100
AcDbEntity
  8
0
 62
     7
100
AcDbMText
 10
75.8337516775
 20
61.22939505659999
 30
0.0
 40
0.5400000000000001
 41
0.0
 71
     1
 72
     1
  1
A
  7
SLDTEXTSTYLE0
 73
     1
 44
1.0
  0
MTEXT
  5
B3
330
A
100
AcDbEntity
  8
0
 62
     7
100
AcDbMText
 10
77.8679754835
 20
61.2279090502
 30
0.0
 40
0.5400000000000001
 41
0.0
 71
     1
 72
     1
  1
RELEASED
  7
SLDTEXTSTYLE0
 73
     1
 44
1.0
  0
MTEXT
  5
B4
330
A
100
AcDbEntity
  8
0
 62
     7
100
AcDbMText
 10
56.2150450389
 20
8.760761335899999
 30
0.0
 40
0.625
 41
0.0
 71
     1
 72
     1
  1
M. C. FLEMING
  7
SLDTEXTSTYLE0
 73
     1
 44
1.0
  0
MTEXT
  5
B5
330
A
100
AcDbEntity
  8
0
 62
     7
100
AcDbMText
 10
97.5126263281
 20
4.9624226868
 30
0.0
 40
1.125
 41
0.0
 71
     1
 72
     1
  1
A
  7
SLDTEXTSTYLE0
 73
     1
 44
1.0
  0
MTEXT
  5
B6
330
A
100
AcDbEntity
  8
0
 62
     7
100
AcDbMText
 10
61.9328416618
 20
8.750425057000001
 30
0.0
 40
0.625
 41
0.0
 71
     1
 72
     1
  1
2005-01-15
  7
SLDTEXTSTYLE0
 73
     1
 44
1.0
  0
MTEXT
  5
B7
330
A
100
AcDbEntity
  8
0
 62
     7
100
AcDbMText
 10
75.07446547949999
 20
10.5589603435
 30
0.0
 40
0.5400000000000001
 41
0.0
 71
     1
 72
     1
  1
1/16\P0.1\P0.01\P0.005
  7
SLDTEXTSTYLE0
 73
     1
 44
1.0
  0
MTEXT
  5
B8
330
A
100
AcDbEntity
  8
0
 62
     7
100
AcDbMText
 10
78.61490531680001
 20
10.5472506135
 30
0.0
 40
0.5400000000000001
 41
0.0
 71
     1
 72
     1
  1
1%%d\P0.1%%d\P0.01%%d\P0.001%%d
  7
SLDTEXTSTYLE0
 73
     1
 44
1.0
  0
MTEXT
  5
B9
330
A
100
AcDbEntity
  8
0
 62
     7
100
AcDbMText
 10
84.4902180661
 20
5.070972067599999
 30
0.0
 40
1.125
 41
0.0
 71
     1
 72
     1
  1
24-09-241   1 of 1
  7
SLDTEXTSTYLE0
 73
     1
 44
1.0
  0
MTEXT
  5
BA
330
A
100
AcDbEntity
  8
0
 62
     7
100
AcDbMText
 10
91.77586949669999
 20
61.2305169048
 30
0.0
 40
0.625
 41
0.0
 71
     1
 72
     1
  1
M.C.F.
  7
SLDTEXTSTYLE0
 73
     1
 44
1.0
  0
MTEXT
  5
BB
330
A
100
AcDbEntity
  8
0
 62
     7
100
AcDbMText
 10
95.05184405860001
 20
61.2249143788
 30
0.0
 40
0.625
 41
0.0
 71
     1
 72
     1
  1
2005-01-15
  7
SLDTEXTSTYLE0
 73
     1
 44
1.0
  0
MTEXT
  5
BC
330
A
100
AcDbEntity
  8
0
 62
     7
100
AcDbMText
 10
90.280322742
 20
9.486111124099998
 30
0.0
 40
1.125
 41
0.0
 71
     2
 72
     1
  1
CARMA 6m Base,\PColumn Channel N & S
  7
SLDTEXTSTYLE0
 73
     1
 44
1.0
  0
LINE
  5
BD
330
A
100
AcDbEntity
  8
0
  6
Continuous
 62
     7
370
    15
100
AcDbLine
 10
60.8067000516
 20
47.8417813384
 30
0.0
 11
14.8067000516
 21
47.8417813384
 31
0.0
  0
LINE
  5
BE
330
A
100
AcDbEntity
  8
0
  6
Continuous
 62
     7
370
    15
100
AcDbLine
 10
60.8067000516
 20
47.8417813384
 30
0.0
 11
60.8067000516
 21
48.46678133840001
 31
0.0
  0
LINE
  5
BF
330
A
100
AcDbEntity
  8
0
  6
Continuous
 62
     7
370
    15
100
AcDbLine
 10
14.8067000516
 20
48.46678133840001
 30
0.0
 11
14.8067000516
 21
47.8417813384
 31
0.0
  0
LINE
  5
C0
330
A
100
AcDbEntity
  8
0
  6
Continuous
 62
     7
370
    15
100
AcDbLine
 10
60.806701989
 20
54.3417813384
 30
0.0
 11
14.8067000516
 21
54.3417813384
 31
0.0
  0
LINE
  5
C1
330
A
100
AcDbEntity
  8
0
  6
Continuous
 62
     7
370
    15
100
AcDbLine
 10
60.806701989
 20
54.3417813384
 30
0.0
 11
60.8067000516
 21
48.46678133840001
 31
0.0
  0
LINE
  5
C2
330
A
100
AcDbEntity
  8
0
  6
Continuous
 62
     7
370
    15
100
AcDbLine
 10
14.8067000516
 20
54.3417813384
 30
0.0
 11
14.8067000516
 21
48.46678133840001
 31
0.0
  0
DIMENSION
  5
D0
330
A
100
AcDbEntity
  8
0
100
AcDbDimension
  2
*D1
 10
66.1836498464
 20
47.8417813384
 30
0.0
 11
66.1836498464
 21
51.0917813384
 31
0.0
 70
   160
 71
     5
 42
0.0
  3
SLDDIMSTYLE0
100
AcDbAlignedDimension
 13
60.8067000516
 23
54.3417813384
 33
0.0
 14
60.8067000516
 24
47.8417813384
 34
0.0
 50
90.0
100
AcDbRotatedDimension
  0
ARC
  5
D1
330
A
100
AcDbEntity
  8
0
  6
Continuous
 62
     7
370
    15
100
AcDbCircle
 10
90.31341658809999
 20
48.46678133840001
 30
0.0
 40
0.25
100
AcDbArc
 50
270.0
 51
0.0
  0
ARC
  5
D2
330
A
100
AcDbEntity
  8
0
  6
Continuous
 62
     7
370
    15
100
AcDbCircle
 10
90.31341658809999
 20
48.46678133840001
 30
0.0
 40
0.625
100
AcDbArc
 50
270.0
 51
360.0
  0
LINE
  5
D3
330
A
100
AcDbEntity
  8
0
  6
Continuous
 62
     7
370
    15
100
AcDbLine
 10
90.56341649850001
 20
54.3417813384
 30
0.0
 11
90.5634165881
 21
48.46678133840001
 31
0.0
  0
LINE
  5
D4
330
A
100
AcDbEntity
  8
0
  6
Continuous
 62
     7
370
    15
100
AcDbLine
 10
90.56341649850001
 20
54.3417813384
 30
0.0
 11
90.9384165398
 21
54.3417813384
 31
0.0
  0
LINE
  5
D5
330
A
100
AcDbEntity
  8
0
  6
Continuous
 62
     7
370
    15
100
AcDbLine
 10
90.93841658809999
 20
48.46678133840001
 30
0.0
 11
90.9384165398
 21
54.3417813384
 31
0.0
  0
LINE
  5
D6
330
A
100
AcDbEntity
  8
0
  6
Continuous
 62
     7
370
    15
100
AcDbLine
 10
90.31341658809999
 20
48.2167813384
 30
0.0
 11
83.5634165881
 21
48.2167813384
 31
0.0
  0
LINE
  5
D7
330
A
100
AcDbEntity
  8
0
  6
Continuous
 62
     7
370
    15
100
AcDbLine
 10
83.5634165881
 20
47.8417813384
 30
0.0
 11
90.31341658809999
 21
47.8417813384
 31
0.0
  0
ARC
  5
D8
330
A
100
AcDbEntity
  8
0
  6
Continuous
 62
     7
370
    15
100
AcDbCircle
 10
83.5634165881
 20
48.46678133840001
 30
0.0
 40
0.625
100
AcDbArc
 50
180.0
 51
270.0
  0
ARC
  5
D9
330
A
100
AcDbEntity
  8
0
  6
Continuous
 62
     7
370
    15
100
AcDbCircle
 10
83.5634165881
 20
48.46678133840001
 30
0.0
 40
0.25
100
AcDbArc
 50
180.0
 51
270.0
  0
LINE
  5
DA
330
A
100
AcDbEntity
  8
0
  6
Continuous
 62
     7
370
    15
100
AcDbLine
 10
83.3134166778
 20
54.3417813384
 30
0.0
 11
82.93841663649999
 21
54.3417813384
 31
0.0
  0
LINE
  5
DB
330
A
100
AcDbEntity
  8
0
  6
Continuous
 62
     7
370
    15
100
AcDbLine
 10
83.3134165881
 20
48.46678133840001
 30
0.0
 11
83.3134166778
 21
54.3417813384
 31
0.0
  0
LINE
  5
DC
330
A
100
AcDbEntity
  8
0
  6
Continuous
 62
     7
370
    15
100
AcDbLine
 10
82.93841663649999
 20
54.3417813384
 30
0.0
 11
82.9384165881
 21
48.46678133840001
 31
0.0
  0
DIMENSION
  5
E9
330
A
100
AcDbEntity
  8
0
100
AcDbDimension
  2
*D2
 10
90.93841658809999
 20
56.8201360994
 30
0.0
 11
86.93841658809999
 21
56.8201360994
 31
0.0
 70
   160
 71
     5
 42
0.0
  3
SLDDIMSTYLE0
100
AcDbAlignedDimension
 13
82.9384165881
 23
54.3417813384
 33
0.0
 14
90.93841658809999
 24
54.3417813384
 34
0.0
 50
180.0
100
AcDbRotatedDimension
  0
DIMENSION
  5
F7
330
A
100
AcDbEntity
  8
0
100
AcDbDimension
  2
*D3
 10
83.5634165881
 20
48.46678133840001
 30
0.0
 11
77.5162935301
 21
46.76781943389999
 31
0.0
 70
   164
  1
<> RAD INSIDE\P2 PLACES
 71
     5
 42
0.0
  3
SLDDIMSTYLE1
100
AcDbRadialDimension
 15
83.42144710399999
 25
48.2610031433
 35
0.0
 40
0.0
  0
LINE
  5
F8
330
A
100
AcDbEntity
  8
0
  6
CENTERX2
 62
     7
100
AcDbLine
 10
14.8067000516
 20
23.9371110642
 30
0.0
 11
60.8067000516
 21
23.9371110642
 31
0.0
  0
LINE
  5
F9
330
A
100
AcDbEntity
  8
0
  6
CENTERX2
 62
     7
100
AcDbLine
 10
60.8067000516
 20
31.3743344571
 30
0.0
 11
14.8067000516
 21
31.3743344571
 31
0.0
  0
LINE
  5
FA
330
A
100
AcDbEntity
  8
0
  6
Continuous
 62
     7
370
    15
100
AcDbLine
 10
14.8066981142
 20
37.59294577829999
 30
0.0
 11
60.8067000516
 21
37.59294577829999
 31
0.0
  0
LINE
  5
FB
330
A
100
AcDbEntity
  8
0
  6
Continuous
 62
     7
370
    15
100
AcDbLine
 10
60.8067000516
 20
17.718499743
 30
0.0
 11
60.8067000516
 21
37.59294577829999
 31
0.0
  0
LINE
  5
FC
330
A
100
AcDbEntity
  8
0
  6
Continuous
 62
     7
370
    15
100
AcDbLine
 10
14.8066981142
 20
17.718499743
 30
0.0
 11
60.8067000516
 21
17.718499743
 31
0.0
  0
LINE
  5
FD
330
A
100
AcDbEntity
  8
0
  6
Continuous
 62
     7
370
    15
100
AcDbLine
 10
14.8066981142
 20
17.718499743
 30
0.0
 11
14.8066981142
 21
37.59294577829999
 31
0.0
  0
DIMENSION
  5
10C
330
A
100
AcDbEntity
  8
0
100
AcDbDimension
  2
*D4
 10
66.0170943396
 20
31.3743344571
 30
0.0
 11
66.0170943396
 21
34.4836403054
 31
0.0
 70
   160
  1
(<>)
 71
     5
 42
0.0
  3
SLDDIMSTYLE0
100
AcDbAlignedDimension
 13
60.8067000516
 23
37.5929461536
 33
0.0
 14
60.8067000516
 24
31.3743344571
 34
0.0
 50
90.0
100
AcDbRotatedDimension
  0
DIMENSION
  5
11B
330
A
100
AcDbEntity
  8
0
100
AcDbDimension
  2
*D5
 10
66.11524528300001
 20
23.9371110642
 30
0.0
 11
66.11524528300001
 21
20.8278052159
 31
0.0
 70
   160
  1
(<>)
 71
     5
 42
0.0
  3
SLDDIMSTYLE0
100
AcDbAlignedDimension
 13
60.8067000516
 23
17.7184993677
 33
0.0
 14
60.8067000516
 24
23.9371110642
 34
0.0
 50
-90.0
100
AcDbRotatedDimension
  0
DIMENSION
  5
12A
330
A
100
AcDbEntity
  8
0
100
AcDbDimension
  2
*D6
 10
73.0839622642
 20
37.5929461536
 30
0.0
 11
73.0839622642
 21
27.6557227607
 31
0.0
 70
   160
  1
(<>)
 71
     5
 42
0.0
  3
SLDDIMSTYLE0
100
AcDbAlignedDimension
 13
60.8067000516
 23
17.7184993677
 33
0.0
 14
60.8067000516
 24
37.5929461536
 34
0.0
 50
-90.0
100
AcDbRotatedDimension
  0
DIMENSION
  5
137
330
A
100
AcDbEntity
  8
0
100
AcDbDimension
  2
*D7
 10
60.8067000516
 20
41.8741958992
 30
0.0
 11
37.80670005159999
 21
41.8741958992
 31
0.0
 70
   160
 71
     5
 42
0.0
  3
SLDDIMSTYLE0
100
AcDbAlignedDimension
 13
14.8067000516
 23
37.5929461536
 33
0.0
 14
60.8067000516
 24
37.5929461536
 34
0.0
100
AcDbRotatedDimension
  0
MTEXT
  5
138
330
A
100
AcDbEntity
  8
0
 62
     1
100
AcDbMText
 10
53.6459603934
 20
5.745623754199999
 30
0.0
 40
0.6
 41
0.0
 71
     1
 72
     1
  1
STEEL A-36, 3/8" THICK BURNED
  7
SLDTEXTSTYLE0
 73
     1
 44
1.0
  0
MTEXT
  5
139
330
A
100
AcDbEntity
  8
0
 62
     1
100
AcDbMText
 10
69.5817034837
 20
4.1975756193
 30
0.0
 40
0.6
 41
0.0
 71
     1
 72
     1
  1
97.0 lbs
  7
SLDTEXTSTYLE0
 73
     1
 44
1.0
  0
LINE
  5
13A
330
A
100
AcDbEntity
  8
0
  6
Continuous
 62
     7
370
    15
100
AcDbLine
 10
87.39404675870002
 20
20.3649494254
 30
0.0
 11
87.39404675870002
 21
39.14538809869999
 31
0.0
  0
LINE
  5
13B
330
A
100
AcDbEntity
  8
0
  6
Continuous
 62
     7
370
    15
100
AcDbLine
 10
85.09280893659999
 20
19.1148245041
 30
0.0
 11
85.22539145800001
 21
19.03828624369999
 31
0.0
  0
LINE
  5
13C
330
A
100
AcDbEntity
  8
0
  6
Continuous
 62
     7
370
    15
100
AcDbLine
 10
85.09280893659999
 20
37.8952631775
 30
0.0
 11
85.09280893659999
 21
19.1148245041
 31
0.0
  0
LINE
  5
13D
330
A
100
AcDbEntity
  8
0
  6
Continuous
 62
     7
370
    15
100
AcDbLine
 10
85.09280893659999
 20
37.8952631775
 30
0.0
 11
85.22539145800001
 21
37.81872491699999
 31
0.0
  0
LINE
  5
13E
330
A
100
AcDbEntity
  8
0
  6
Continuous
 62
     7
370
    15
100
AcDbLine
 10
85.22539145800001
 20
37.81872491699999
 30
0.0
 11
85.22539145800001
 21
19.03828624369999
 31
0.0
  0
LINE
  5
13F
330
A
100
AcDbEntity
  8
0
  6
Continuous
 62
     7
370
    15
100
AcDbLine
 10
87.16993510629999
 20
39.0943625917
 30
0.0
 11
85.09280893659999
 21
37.8952631775
 31
0.0
  0
LINE
  5
140
330
A
100
AcDbEntity
  8
0
  6
Continuous
 62
     7
370
    15
100
AcDbLine
 10
87.16993510629999
 20
39.0943625917
 30
0.0
 11
87.3025176278
 21
39.0178243313
 31
0.0
  0
LINE
  5
141
330
A
100
AcDbEntity
  8
0
  6
Continuous
 62
     7
370
    15
100
AcDbLine
 10
85.22539145800001
 20
37.81872491699999
 30
0.0
 11
87.3025176278
 21
39.0178243313
 31
0.0
  0
LINE
  5
142
330
A
100
AcDbEntity
  8
0
  6
Continuous
 62
     7
370
    15
100
AcDbLine
 10
87.3025176278
 20
39.0178243313
 30
0.0
 11
87.3025176278
 21
20.23738565789999
 31
0.0
  0
LINE
  5
143
330
A
100
AcDbEntity
  8
0
  6
Continuous
 62
     7
370
    15
100
AcDbLine
 10
85.22539145800001
 20
19.03828624369999
 30
0.0
 11
87.3025176278
 21
20.23738565789999
 31
0.0
  0
POLYLINE
  5
144
330
A
100
AcDbEntity
  8
0
  6
Continuous
 62
     7
100
AcDb2dPolyline
 66
     1
 10
0.0
 20
0.0
 30
0.0
 70
   128
 40
0.0035433071
 41
0.0035433071
  0
VERTEX
  5
145
330
144
100
AcDbEntity
  8
0
100
AcDbVertex
100
AcDb2dVertex
 10
87.3025176278
 20
20.23738565789999
 30
0.0
  0
VERTEX
  5
146
330
144
100
AcDbEntity
  8
0
100
AcDbVertex
100
AcDb2dVertex
 10
87.33436456940001
 20
20.2589115493
 30
0.0
  0
VERTEX
  5
147
330
144
100
AcDbEntity
  8
0
100
AcDbVertex
100
AcDb2dVertex
 10
87.3599862975
 20
20.2830484451
 30
0.0
  0
VERTEX
  5
148
330
144
100
AcDbEntity
  8
0
100
AcDbVertex
100
AcDb2dVertex
 10
87.37875192
 20
20.3092020148
 30
0.0
  0
VERTEX
  5
149
330
144
100
AcDbEntity
  8
0
100
AcDbVertex
100
AcDb2dVertex
 10
87.3901993651
 20
20.3367282709
 30
0.0
  0
VERTEX
  5
14A
330
144
100
AcDbEntity
  8
0
100
AcDbVertex
100
AcDb2dVertex
 10
87.39404675870002
 20
20.3649494254
 30
0.0
  0
SEQEND
  5
14B
330
144
100
AcDbEntity
  8
0
  0
POLYLINE
  5
14C
330
A
100
AcDbEntity
  8
0
  6
Continuous
 62
     7
100
AcDb2dPolyline
 66
     1
 10
0.0
 20
0.0
 30
0.0
 70
   128
 40
0.0035433071
 41
0.0035433071
  0
VERTEX
  5
14D
330
14C
100
AcDbEntity
  8
0
100
AcDbVertex
100
AcDb2dVertex
 10
87.3025176278
 20
39.27295186619999
 30
0.0
  0
VERTEX
  5
14E
330
14C
100
AcDbEntity
  8
0
100
AcDbVertex
100
AcDb2dVertex
 10
87.33436456940001
 20
39.2514259748
 30
0.0
  0
VERTEX
  5
14F
330
14C
100
AcDbEntity
  8
0
100
AcDbVertex
100
AcDb2dVertex
 10
87.3599862975
 20
39.227289079
 30
0.0
  0
VERTEX
  5
150
330
14C
100
AcDbEntity
  8
0
100
AcDbVertex
100
AcDb2dVertex
 10
87.37875192
 20
39.20113550929999
 30
0.0
  0
VERTEX
  5
151
330
14C
100
AcDbEntity
  8
0
100
AcDbVertex
100
AcDb2dVertex
 10
87.3901993651
 20
39.1736092532
 30
0.0
  0
VERTEX
  5
152
330
14C
100
AcDbEntity
  8
0
100
AcDbVertex
100
AcDb2dVertex
 10
87.39404675870002
 20
39.14538809869999
 30
0.0
  0
VERTEX
  5
153
330
14C
100
AcDbEntity
  8
0
100
AcDbVertex
100
AcDb2dVertex
 10
87.3901993651
 20
39.1171669442
 30
0.0
  0
VERTEX
  5
154
330
14C
100
AcDbEntity
  8
0
100
AcDbVertex
100
AcDb2dVertex
 10
87.37875192
 20
39.08964068819999
 30
0.0
  0
VERTEX
  5
155
330
14C
100
AcDbEntity
  8
0
100
AcDbVertex
100
AcDb2dVertex
 10
87.3599862975
 20
39.0634871185
 30
0.0
  0
VERTEX
  5
156
330
14C
100
AcDbEntity
  8
0
100
AcDbVertex
100
AcDb2dVertex
 10
87.33436456940001
 20
39.0393502226
 30
0.0
  0
VERTEX
  5
157
330
14C
100
AcDbEntity
  8
0
100
AcDbVertex
100
AcDb2dVertex
 10
87.3025176278
 20
39.0178243313
 30
0.0
  0
SEQEND
  5
158
330
14C
100
AcDbEntity
  8
0
  0
LINE
  5
159
330
A
100
AcDbEntity
  8
0
  6
Continuous
 62
     7
370
    15
100
AcDbLine
 10
87.16993510629999
 20
39.1964136057
 30
0.0
 11
87.3025176278
 21
39.27295186619999
 31
0.0
  0
POLYLINE
  5
15A
330
A
100
AcDbEntity
  8
0
  6
Continuous
 62
     7
100
AcDb2dPolyline
 66
     1
 10
0.0
 20
0.0
 30
0.0
 70
   128
 40
0.0035433071
 41
0.0035433071
  0
VERTEX
  5
15B
330
15A
100
AcDbEntity
  8
0
100
AcDbVertex
100
AcDb2dVertex
 10
87.16993510629999
 20
39.1964136057
 30
0.0
  0
VERTEX
  5
15C
330
15A
100
AcDbEntity
  8
0
100
AcDbVertex
100
AcDb2dVertex
 10
87.18548046020002
 20
39.1854785823
 30
0.0
  0
VERTEX
  5
15D
330
15A
100
AcDbEntity
  8
0
100
AcDbVertex
100
AcDb2dVertex
 10
87.1970317002
 20
39.17300290409999
 30
0.0
  0
VERTEX
  5
15E
330
15A
100
AcDbEntity
  8
0
100
AcDbVertex
100
AcDb2dVertex
 10
87.2041449187
 20
39.1594660044
 30
0.0
  0
VERTEX
  5
15F
330
15A
100
AcDbEntity
  8
0
100
AcDbVertex
100
AcDb2dVertex
 10
87.20654675870001
 20
39.14538809869999
 30
0.0
  0
VERTEX
  5
160
330
15A
100
AcDbEntity
  8
0
100
AcDbVertex
100
AcDb2dVertex
 10
87.2041449187
 20
39.131310193
 30
0.0
  0
VERTEX
  5
161
330
15A
100
AcDbEntity
  8
0
100
AcDbVertex
100
AcDb2dVertex
 10
87.1970317002
 20
39.1177732933
 30
0.0
  0
VERTEX
  5
162
330
15A
100
AcDbEntity
  8
0
100
AcDbVertex
100
AcDb2dVertex
 10
87.18548046020002
 20
39.1052976151
 30
0.0
  0
VERTEX
  5
163
330
15A
100
AcDbEntity
  8
0
100
AcDbVertex
100
AcDb2dVertex
 10
87.16993510629999
 20
39.0943625917
 30
0.0
  0
SEQEND
  5
164
330
15A
100
AcDbEntity
  8
0
  0
LINE
  5
165
330
A
100
AcDbEntity
  8
0
  6
Continuous
 62
     7
370
    15
100
AcDbLine
 10
87.16993510629999
 20
39.1964136057
 30
0.0
 11
87.16993510629999
 21
39.0943625917
 31
0.0
  0
LINE
  5
166
330
A
100
AcDbEntity
  8
0
  6
Continuous
 62
     7
370
    15
100
AcDbLine
 10
84.78344971979998
 20
40.5741022944
 30
0.0
 11
84.78344971979998
 21
21.7936636211
 31
0.0
  0
LINE
  5
167
330
A
100
AcDbEntity
  8
0
  6
Continuous
 62
     7
370
    15
100
AcDbLine
 10
84.78344971979998
 20
40.5741022944
 30
0.0
 11
87.16993510629999
 21
39.1964136057
 31
0.0
  0
LINE
  5
168
330
A
100
AcDbEntity
  8
0
  6
Continuous
 62
     7
370
    15
100
AcDbLine
 10
84.78344971979998
 20
21.7936636211
 30
0.0
 11
85.09280893659999
 21
21.6150743466
 31
0.0
  0
LINE
  5
169
330
A
100
AcDbEntity
  8
0
  6
Continuous
 62
     7
370
    15
100
AcDbLine
 10
84.78344971979998
 20
40.5741022944
 30
0.0
 11
84.91603224130001
 21
40.6506405549
 31
0.0
  0
LINE
  5
16A
330
A
100
AcDbEntity
  8
0
  6
Continuous
 62
     7
370
    15
100
AcDbLine
 10
87.3025176278
 20
39.27295186619999
 30
0.0
 11
84.91603224130001
 21
40.6506405549
 31
0.0
  0
LINE
  5
16B
330
A
100
AcDbEntity
  8
0
  6
Continuous
 62
     7
370
    15
100
AcDbLine
 10
82.52954685479998
 20
39.3750028802
 30
0.0
 11
82.52954685479998
 21
20.5945642068
 31
0.0
  0
LINE
  5
16C
330
A
100
AcDbEntity
  8
0
  6
Continuous
 62
     7
370
    15
100
AcDbLine
 10
82.52954685479998
 20
39.3750028802
 30
0.0
 11
84.6066730245
 21
40.5741022944
 31
0.0
  0
LINE
  5
16D
330
A
100
AcDbEntity
  8
0
  6
Continuous
 62
     7
370
    15
100
AcDbLine
 10
84.6066730245
 20
40.5741022944
 30
0.0
 11
84.6066730245
 21
21.7936636211
 31
0.0
  0
LINE
  5
16E
330
A
100
AcDbEntity
  8
0
  6
Continuous
 62
     7
370
    15
100
AcDbLine
 10
82.52954685479998
 20
20.5945642068
 30
0.0
 11
84.6066730245
 21
21.7936636211
 31
0.0
  0
LINE
  5
16F
330
A
100
AcDbEntity
  8
0
  6
Continuous
 62
     7
370
    15
100
AcDbLine
 10
84.6066730245
 20
40.5741022944
 30
0.0
 11
84.474090503
 21
40.6506405549
 31
0.0
  0
LINE
  5
170
330
A
100
AcDbEntity
  8
0
  6
Continuous
 62
     7
370
    15
100
AcDbLine
 10
82.52954685479998
 20
39.3750028802
 30
0.0
 11
82.39696433330001
 21
39.4515411407
 31
0.0
  0
LINE
  5
171
330
A
100
AcDbEntity
  8
0
  6
Continuous
 62
     7
370
    15
100
AcDbLine
 10
84.474090503
 20
40.6506405549
 30
0.0
 11
82.39696433330001
 21
39.4515411407
 31
0.0
  0
LINE
  5
172
330
A
100
AcDbEntity
  8
0
  6
Continuous
 62
     7
370
    15
100
AcDbLine
 10
82.52954685479998
 20
20.5945642068
 30
0.0
 11
82.39696433330001
 21
20.67110246729999
 31
0.0
  0
LINE
  5
173
330
A
100
AcDbEntity
  8
0
  6
Continuous
 62
     7
370
    15
100
AcDbLine
 10
82.39696433330001
 20
39.4515411407
 30
0.0
 11
82.39696433330001
 21
20.67110246729999
 31
0.0
  0
POLYLINE
  5
174
330
A
100
AcDbEntity
  8
0
  6
Continuous
 62
     7
100
AcDb2dPolyline
 66
     1
 10
0.0
 20
0.0
 30
0.0
 70
   128
 40
0.0035433071
 41
0.0035433071
  0
VERTEX
  5
175
330
174
100
AcDbEntity
  8
0
100
AcDbVertex
100
AcDb2dVertex
 10
84.78344971979998
 20
21.7936636211
 30
0.0
  0
VERTEX
  5
176
330
174
100
AcDbEntity
  8
0
100
AcDbVertex
100
AcDb2dVertex
 10
84.76450765130001
 20
21.8026377628
 30
0.0
  0
VERTEX
  5
177
330
174
100
AcDbEntity
  8
0
100
AcDbVertex
100
AcDb2dVertex
 10
84.7428968012
 20
21.80930615179999
 30
0.0
  0
VERTEX
  5
178
330
174
100
AcDbEntity
  8
0
100
AcDbVertex
100
AcDb2dVertex
 10
84.7194476624
 20
21.8134125254
 30
0.0
  0
VERTEX
  5
179
330
174
100
AcDbEntity
  8
0
100
AcDbVertex
100
AcDb2dVertex
 10
84.6950613721
 20
21.8147990781
 30
0.0
  0
VERTEX
  5
17A
330
174
100
AcDbEntity
  8
0
100
AcDbVertex
100
AcDb2dVertex
 10
84.6706750819
 20
21.8134125254
 30
0.0
  0
VERTEX
  5
17B
330
174
100
AcDbEntity
  8
0
100
AcDbVertex
100
AcDb2dVertex
 10
84.64722594310002
 20
21.80930615179999
 30
0.0
  0
VERTEX
  5
17C
330
174
100
AcDbEntity
  8
0
100
AcDbVertex
100
AcDb2dVertex
 10
84.625615093
 20
21.8026377628
 30
0.0
  0
VERTEX
  5
17D
330
174
100
AcDbEntity
  8
0
100
AcDbVertex
100
AcDb2dVertex
 10
84.6066730245
 20
21.7936636211
 30
0.0
  0
SEQEND
  5
17E
330
174
100
AcDbEntity
  8
0
  0
POLYLINE
  5
17F
330
A
100
AcDbEntity
  8
0
  6
Continuous
 62
     7
100
AcDb2dPolyline
 66
     1
 10
0.0
 20
0.0
 30
0.0
 70
   128
 40
0.0035433071
 41
0.0035433071
  0
VERTEX
  5
180
330
17F
100
AcDbEntity
  8
0
100
AcDbVertex
100
AcDb2dVertex
 10
84.6066730245
 20
40.5741022944
 30
0.0
  0
VERTEX
  5
181
330
17F
100
AcDbEntity
  8
0
100
AcDbVertex
100
AcDb2dVertex
 10
84.625615093
 20
40.5830764362
 30
0.0
  0
VERTEX
  5
182
330
17F
100
AcDbEntity
  8
0
100
AcDbVertex
100
AcDb2dVertex
 10
84.64722594310002
 20
40.5897448251
 30
0.0
  0
VERTEX
  5
183
330
17F
100
AcDbEntity
  8
0
100
AcDbVertex
100
AcDb2dVertex
 10
84.6706750819
 20
40.5938511988
 30
0.0
  0
VERTEX
  5
184
330
17F
100
AcDbEntity
  8
0
100
AcDbVertex
100
AcDb2dVertex
 10
84.6950613721
 20
40.59523775139999
 30
0.0
  0
VERTEX
  5
185
330
17F
100
AcDbEntity
  8
0
100
AcDbVertex
100
AcDb2dVertex
 10
84.7194476624
 20
40.5938511988
 30
0.0
  0
VERTEX
  5
186
330
17F
100
AcDbEntity
  8
0
100
AcDbVertex
100
AcDb2dVertex
 10
84.7428968012
 20
40.5897448251
 30
0.0
  0
VERTEX
  5
187
330
17F
100
AcDbEntity
  8
0
100
AcDbVertex
100
AcDb2dVertex
 10
84.76450765130001
 20
40.5830764362
 30
0.0
  0
VERTEX
  5
188
330
17F
100
AcDbEntity
  8
0
100
AcDbVertex
100
AcDb2dVertex
 10
84.78344971979998
 20
40.5741022944
 30
0.0
  0
SEQEND
  5
189
330
17F
100
AcDbEntity
  8
0
  0
POLYLINE
  5
18A
330
A
100
AcDbEntity
  8
0
  6
Continuous
 62
     7
100
AcDb2dPolyline
 66
     1
 10
0.0
 20
0.0
 30
0.0
 70
   128
 40
0.0035433071
 41
0.0035433071
  0
VERTEX
  5
18B
330
18A
100
AcDbEntity
  8
0
100
AcDbVertex
100
AcDb2dVertex
 10
84.474090503
 20
40.6506405549
 30
0.0
  0
VERTEX
  5
18C
330
18A
100
AcDbEntity
  8
0
100
AcDbVertex
100
AcDb2dVertex
 10
84.5113784808
 20
40.669025403
 30
0.0
  0
VERTEX
  5
18D
330
18A
100
AcDbEntity
  8
0
100
AcDbVertex
100
AcDb2dVertex
 10
84.55318934100001
 20
40.6838165118
 30
0.0
  0
VERTEX
  5
18E
330
18A
100
AcDbEntity
  8
0
100
AcDbVertex
100
AcDb2dVertex
 10
84.59849356140001
 20
40.6946496751
 30
0.0
  0
VERTEX
  5
18F
330
18A
100
AcDbEntity
  8
0
100
AcDbVertex
100
AcDb2dVertex
 10
84.6461756018
 20
40.70125814439999
 30
0.0
  0
VERTEX
  5
190
330
18A
100
AcDbEntity
  8
0
100
AcDbVertex
100
AcDb2dVertex
 10
84.6950613721
 20
40.7034791975
 30
0.0
  0
VERTEX
  5
191
330
18A
100
AcDbEntity
  8
0
100
AcDbVertex
100
AcDb2dVertex
 10
84.74394714250001
 20
40.70125814439999
 30
0.0
  0
VERTEX
  5
192
330
18A
100
AcDbEntity
  8
0
100
AcDbVertex
100
AcDb2dVertex
 10
84.79162918289999
 20
40.6946496751
 30
0.0
  0
VERTEX
  5
193
330
18A
100
AcDbEntity
  8
0
100
AcDbVertex
100
AcDb2dVertex
 10
84.83693340329999
 20
40.6838165118
 30
0.0
  0
VERTEX
  5
194
330
18A
100
AcDbEntity
  8
0
100
AcDbVertex
100
AcDb2dVertex
 10
84.87874426350002
 20
40.669025403
 30
0.0
  0
VERTEX
  5
195
330
18A
100
AcDbEntity
  8
0
100
AcDbVertex
100
AcDb2dVertex
 10
84.91603224130001
 20
40.6506405549
 30
0.0
  0
SEQEND
  5
196
330
18A
100
AcDbEntity
  8
0
  0
ENDSEC
  0
SECTION
  2
OBJECTS
  0
DICTIONARY
  5
19
330
0
100
AcDbDictionary
281
     1
  3
ACAD_GROUP
350
1A
  3
ACAD_LAYOUT
350
1E
  3
ACAD_MLINESTYLE
350
1B
  3
ACAD_PLOTSETTINGS
350
22
  3
ACAD_PLOTSTYLENAME
350
1F
  3
ACAD_WIPEOUT_VARS
350
23
  0
DICTIONARY
  5
1A
102
{ACAD_REACTORS
330
19
102
}
330
19
100
AcDbDictionary
281
     1
  0
DICTIONARY
  5
1E
102
{ACAD_REACTORS
330
19
102
}
330
19
100
AcDbDictionary
281
     1
  3
Layout1
350
21
  3
Model
350
20
  0
DICTIONARY
  5
1B
102
{ACAD_REACTORS
330
19
102
}
330
19
100
AcDbDictionary
281
     1
  3
Standard
350
1C
  0
DICTIONARY
  5
22
102
{ACAD_REACTORS
330
19
102
}
330
19
100
AcDbDictionary
281
     1
  0
ACDBDICTIONARYWDFLT
  5
1F
102
{ACAD_REACTORS
330
19
102
}
330
19
100
AcDbDictionary
281
     1
  3
Normal
350
1D
100
AcDbDictionaryWithDefault
340
1D
  0
WIPEOUTVARIABLES
  5
23
330
19
100
AcDbWipeoutVariables
 70
     1
  0
LAYOUT
  5
21
102
{ACAD_REACTORS
330
1E
102
}
330
1E
100
AcDbPlotSettings
  1

  2

  4

  6

 40
0.0
 41
0.0
 42
0.0
 43
0.0
 44
0.0
 45
0.0
 46
0.0
 47
0.0
 48
0.0
 49
0.0
140
0.0
141
0.0
142
1.0
143
1.0
 70
     0
 72
     0
 73
     0
 74
     0
  7

 75
     0
147
1.0
148
0.0
149
0.0
100
AcDbLayout
  1
Layout1
 70
     1
 71
     1
 10
0.0
 20
0.0
 11
12.0
 21
9.0
 12
0.0
 22
0.0
 32
0.0
 14
1.000000000000000E+20
 24
1.000000000000000E+20
 34
1.000000000000000E+20
 15
-1.000000000000000E+20
 25
-1.000000000000000E+20
 35
-1.000000000000000E+20
146
0.0
 13
0.0
 23
0.0
 33
0.0
 16
1.0
 26
0.0
 36
0.0
 17
0.0
 27
1.0
 37
0.0
 76
     0
330
B
  0
LAYOUT
  5
20
102
{ACAD_REACTORS
330
1E
102
}
330
1E
100
AcDbPlotSettings
  1

  2

  4

  6

 40
0.0
 41
0.0
 42
0.0
 43
0.0
 44
0.0
 45
0.0
 46
0.0
 47
0.0
 48
0.0
 49
0.0
140
0.0
141
0.0
142
1.0
143
1.0
 70
  1024
 72
     0
 73
     0
 74
     0
  7

 75
     0
147
1.0
148
0.0
149
0.0
100
AcDbLayout
  1
Model
 70
     0
 71
     0
 10
0.0
 20
0.0
 11
0.0
 21
0.0
 12
0.0
 22
0.0
 32
0.0
 14
0.0
 24
0.0
 34
0.0
 15
0.0
 25
0.0
 35
0.0
146
0.0
 13
0.0
 23
0.0
 33
0.0
 16
0.0
 26
0.0
 36
0.0
 17
0.0
 27
0.0
 37
0.0
 76
     0
330
A
  0
MLINESTYLE
  5
1C
102
{ACAD_REACTORS
330
1B
102
}
330
1B
100
AcDbMlineStyle
  2
STANDARD
 70
     0
  3

 62
     0
 51
90.0
 52
90.0
 71
     2
 49
0.5
 62
   256
  6
BYLAYER
 49
-0.5
 62
   256
  6
BYLAYER
  0
ACDBPLACEHOLDER
  5
1D
102
{ACAD_REACTORS
330
1F
102
}
330
1F
  0
ENDSEC
  0
EOF
