  0
SECTION
  2
HEADER
  9
$ACADVER
  1
AC1015
  9
$ACADMAINTVER
 70
    10
  9
$DWGCODEPAGE
  3
ANSI_1252
  9
$INSBASE
 10
0.0
 20
0.0
 30
0.0
  9
$EXTMIN
 10
1.5
 20
0.1620091788333333
 30
0.0
  9
$EXTMAX
 10
33.5205401591
 20
21.6173792426
 30
0.0
  9
$LIMMIN
 10
0.0
 20
0.0
  9
$LIMMAX
 10
0.0
 20
0.0
  9
$ORTHOMODE
 70
     0
  9
$REGENMODE
 70
     1
  9
$FILLMODE
 70
     1
  9
$QTEXTMODE
 70
     0
  9
$MIRRTEXT
 70
     1
  9
$LTSCALE
 40
1.0
  9
$ATTMODE
 70
     1
  9
$TEXTSIZE
 40
0.0
  9
$TRACEWID
 40
0.05
  9
$TEXTSTYLE
  7
Standard
  9
$CLAYER
  8
0
  9
$CELTYPE
  6
Continuous
  9
$CECOLOR
 62
   256
  9
$CELTSCALE
 40
1.0
  9
$DISPSILH
 70
     0
  9
$DIMSCALE
 40
1.0
  9
$DIMASZ
 40
0.0
  9
$DIMEXO
 40
0.0
  9
$DIMDLI
 40
0.38
  9
$DIMRND
 40
0.0
  9
$DIMDLE
 40
0.0
  9
$DIMEXE
 40
0.18
  9
$DIMTP
 40
0.0
  9
$DIMTM
 40
0.0
  9
$DIMTXT
 40
0.2
  9
$DIMCEN
 40
0.09
  9
$DIMTSZ
 40
0.0
  9
$DIMTOL
 70
     0
  9
$DIMLIM
 70
     0
  9
$DIMTIH
 70
     1
  9
$DIMTOH
 70
     1
  9
$DIMSE1
 70
     0
  9
$DIMSE2
 70
     0
  9
$DIMTAD
 70
     0
  9
$DIMZIN
 70
     0
  9
$DIMBLK
  1

  9
$DIMASO
 70
     1
  9
$DIMSHO
 70
     1
  9
$DIMPOST
  1

  9
$DIMAPOST
  1

  9
$DIMALT
 70
     0
  9
$DIMALTD
 70
     2
  9
$DIMALTF
 40
25.4
  9
$DIMLFAC
 40
1.0
  9
$DIMTOFL
 70
     0
  9
$DIMTVP
 40
0.0
  9
$DIMTIX
 70
     0
  9
$DIMSOXD
 70
     0
  9
$DIMSAH
 70
     0
  9
$DIMBLK1
  1

  9
$DIMBLK2
  1

  9
$DIMSTYLE
  2
Standard
  9
$DIMCLRD
 70
     0
  9
$DIMCLRE
 70
     0
  9
$DIMCLRT
 70
     0
  9
$DIMTFAC
 40
1.0
  9
$DIMGAP
 40
0.0
  9
$DIMJUST
 70
     0
  9
$DIMSD1
 70
     0
  9
$DIMSD2
 70
     0
  9
$DIMTOLJ
 70
     1
  9
$DIMTZIN
 70
     0
  9
$DIMALTZ
 70
     0
  9
$DIMALTTZ
 70
     0
  9
$DIMUPT
 70
     0
  9
$DIMDEC
 70
     4
  9
$DIMTDEC
 70
     4
  9
$DIMALTU
 70
     2
  9
$DIMALTTD
 70
     2
  9
$DIMTXSTY
  7
Standard
  9
$DIMAUNIT
 70
     0
  9
$DIMADEC
 70
     0
  9
$DIMALTRND
 40
0.0
  9
$DIMAZIN
 70
     0
  9
$DIMDSEP
 70
     0
  9
$DIMATFIT
 70
     3
  9
$DIMFRAC
 70
     0
  9
$DIMLDRBLK
  1

  9
$DIMLUNIT
 70
     2
  9
$DIMLWD
 70
     0
  9
$DIMLWE
 70
     0
  9
$DIMTMOVE
 70
     0
  9
$LUNITS
 70
     2
  9
$LUPREC
 70
     3
  9
$SKETCHINC
 40
0.1
  9
$FILLETRAD
 40
0.0
  9
$AUNITS
 70
     0
  9
$AUPREC
 70
     2
  9
$MENU
  1
acad
  9
$ELEVATION
 40
0.0
  9
$PELEVATION
 40
0.0
  9
$THICKNESS
 40
0.0
  9
$LIMCHECK
 70
     0
  9
$CHAMFERA
 40
0.0
  9
$CHAMFERB
 40
0.0
  9
$CHAMFERC
 40
0.0
  9
$CHAMFERD
 40
0.0
  9
$SKPOLY
 70
     0
  9
$TDCREATE
 40
2453398.547129086
  9
$TDUCREATE
 40
2453398.880462418
  9
$TDUPDATE
 40
2453398.547552616
  9
$TDUUPDATE
 40
2453398.880885949
  9
$TDINDWG
 40
0.0004276968
  9
$TDUSRTIMER
 40
0.0004275116
  9
$USRTIMER
 70
     1
  9
$ANGBASE
 50
0.0
  9
$ANGDIR
 70
     0
  9
$PDMODE
 70
     0
  9
$PDSIZE
 40
-1.0
  9
$PLINEWID
 40
0.0
  9
$SPLFRAME
 70
     0
  9
$SPLINETYPE
 70
     6
  9
$SPLINESEGS
 70
     8
  9
$HANDSEED
  5
1FA
  9
$SURFTAB1
 70
     6
  9
$SURFTAB2
 70
     6
  9
$SURFTYPE
 70
     6
  9
$SURFU
 70
     6
  9
$SURFV
 70
     6
  9
$UCSBASE
  2

  9
$UCSNAME
  2

  9
$UCSORG
 10
0.0
 20
0.0
 30
0.0
  9
$UCSXDIR
 10
1.0
 20
0.0
 30
0.0
  9
$UCSYDIR
 10
0.0
 20
1.0
 30
0.0
  9
$UCSORTHOREF
  2

  9
$UCSORTHOVIEW
 70
     0
  9
$UCSORGTOP
 10
0.0
 20
0.0
 30
0.0
  9
$UCSORGBOTTOM
 10
0.0
 20
0.0
 30
0.0
  9
$UCSORGLEFT
 10
0.0
 20
0.0
 30
0.0
  9
$UCSORGRIGHT
 10
0.0
 20
0.0
 30
0.0
  9
$UCSORGFRONT
 10
0.0
 20
0.0
 30
0.0
  9
$UCSORGBACK
 10
0.0
 20
0.0
 30
0.0
  9
$PUCSBASE
  2

  9
$PUCSNAME
  2

  9
$PUCSORG
 10
0.0
 20
0.0
 30
0.0
  9
$PUCSXDIR
 10
1.0
 20
0.0
 30
0.0
  9
$PUCSYDIR
 10
0.0
 20
1.0
 30
0.0
  9
$PUCSORTHOREF
  2

  9
$PUCSORTHOVIEW
 70
     0
  9
$PUCSORGTOP
 10
0.0
 20
0.0
 30
0.0
  9
$PUCSORGBOTTOM
 10
0.0
 20
0.0
 30
0.0
  9
$PUCSORGLEFT
 10
0.0
 20
0.0
 30
0.0
  9
$PUCSORGRIGHT
 10
0.0
 20
0.0
 30
0.0
  9
$PUCSORGFRONT
 10
0.0
 20
0.0
 30
0.0
  9
$PUCSORGBACK
 10
0.0
 20
0.0
 30
0.0
  9
$USERI1
 70
     0
  9
$USERI2
 70
     0
  9
$USERI3
 70
     0
  9
$USERI4
 70
     0
  9
$USERI5
 70
     0
  9
$USERR1
 40
0.0
  9
$USERR2
 40
0.0
  9
$USERR3
 40
0.0
  9
$USERR4
 40
0.0
  9
$USERR5
 40
0.0
  9
$WORLDVIEW
 70
     1
  9
$SHADEDGE
 70
     3
  9
$SHADEDIF
 70
    70
  9
$TILEMODE
 70
     1
  9
$MAXACTVP
 70
    16
  9
$PINSBASE
 10
0.0
 20
0.0
 30
0.0
  9
$PLIMCHECK
 70
     0
  9
$PEXTMIN
 10
1.000000000000000E+20
 20
1.000000000000000E+20
 30
1.000000000000000E+20
  9
$PEXTMAX
 10
-1.000000000000000E+20
 20
-1.000000000000000E+20
 30
-1.000000000000000E+20
  9
$PLIMMIN
 10
0.0
 20
0.0
  9
$PLIMMAX
 10
12.0
 20
9.0
  9
$UNITMODE
 70
     0
  9
$VISRETAIN
 70
     0
  9
$PLINEGEN
 70
     1
  9
$PSLTSCALE
 70
     1
  9
$TREEDEPTH
 70
  3020
  9
$CMLSTYLE
  2
Standard
  9
$CMLJUST
 70
     0
  9
$CMLSCALE
 40
1.0
  9
$PROXYGRAPHICS
 70
     0
  9
$MEASUREMENT
 70
     0
  9
$CELWEIGHT
370
     0
  9
$ENDCAPS
280
     0
  9
$JOINSTYLE
280
     0
  9
$LWDISPLAY
290
     1
  9
$INSUNITS
 70
     0
  9
$HYPERLINKBASE
  1

  9
$STYLESHEET
  1

  9
$XEDIT
290
     1
  9
$CEPSNTYPE
380
     0
  9
$PSTYLEMODE
290
     1
  9
$FINGERPRINTGUID
  2

  9
$VERSIONGUID
  2
{5933D6B1-F16F-4E80-A246-145365A726E9}
  9
$EXTNAMES
290
     1
  9
$PSVPSCALE
 40
0.0
  9
$OLESTARTUP
290
     0
  0
ENDSEC
  0
SECTION
  2
CLASSES
  0
CLASS
  1
LWPOLYLINE
  2
AcDbPolyline
  3
AutoCAD 2000
 90
    32768
280
     0
281
     1
  0
CLASS
  1
IMAGE
  2
AcDbRasterImage
  3
ISM
 90
    32895
280
     0
281
     1
  0
CLASS
  1
OLE2FRAME
  2
AcDbOle2Frame
  3
AutoCAD 2000
 90
    32768
280
     0
281
     1
  0
CLASS
  1
HATCH
  2
AcDbHatch
  3
AutoCAD 2000
 90
    32768
280
     0
281
     1
  0
CLASS
  1
DICTIONARYVAR
  2
AcDbDictionaryVar
  3
AutoCAD 2000
 90
    32768
280
     0
281
     0
  0
CLASS
  1
RASTERVARIABLES
  2
AcDbRasterVariables
  3
ISM
 90
    32768
280
     0
281
     0
  0
CLASS
  1
IMAGEDEF
  2
AcDbRasterImageDef
  3
ISM
 90
    32768
280
     0
281
     0
  0
CLASS
  1
IMAGEDEF_REACTOR
  2
AcDbRasterImageDefReactor
  3
ISM
 90
    32769
280
     0
281
     0
  0
CLASS
  1
IDBUFFER
  2
AcDbIdBuffer
  3
AutoCAD 2000
 90
    32768
280
     0
281
     0
  0
CLASS
  1
SPATIAL_FILTER
  2
AcDbSpatialFilter
  3
AutoCAD 2000
 90
    32768
280
     0
281
     0
  0
CLASS
  1
XRECORD
  2
AcDbXrecord
  3
AutoCAD 2000
 90
    32768
280
     0
281
     0
  0
CLASS
  1
SORTENTSTABLE
  2
AcDbSortentsTable
  3
AutoCAD 2000
 90
    32768
280
     0
281
     0
  0
CLASS
  1
LAYER_INDEX
  2
AcDbLayerIndex
  3
AutoCAD 2000
 90
    32768
280
     0
281
     0
  0
CLASS
  1
SPATIAL_INDEX
  2
AcDbSpatialIndex
  3
AutoCAD 2000
 90
    32768
280
     0
281
     0
  0
CLASS
  1
OBJECT_PTR
  2
CAseDLPNTableRecord
  3
"ASE-LPNTableRecord"
 90
    32769
280
     0
281
     0
  0
CLASS
  1
LAYOUT
  2
AcDbLayout
  3
AutoCAD 2000
 90
        0
280
     0
281
     0
  0
CLASS
  1
PLOTSETTINGS
  2
AcDbPlotSettings
  3
AutoCAD 2000
 90
    32768
280
     0
281
     0
  0
CLASS
  1
ACDBDICTIONARYWDFLT
  2
AcDbDictionaryWithDefault
  3
AutoCAD 2000
 90
        0
280
     0
281
     0
  0
CLASS
  1
ACDBPLACEHOLDER
  2
AcDbPlaceHolder
  3
AutoCAD 2000
 90
        0
280
     0
281
     0
  0
CLASS
  1
VBA_PROJECT
  2
AcDbVbaProject
  3
acadvba
 90
    32768
280
     0
281
     0
  0
CLASS
  1
WIPEOUT
  2
AcDbWipeout
  3
WipeOut|AutoCAD Express Tool|expresstools@autodesk.com
 90
    32895
280
     0
281
     1
  0
CLASS
  1
WIPEOUTVARIABLES
  2
AcDbWipeoutVariables
  3
WipeOut|AutoCAD Express Tool|expresstools@autodesk.com
 90
        0
280
     0
281
     0
  0
CLASS
  1
RTEXT
  2
RText
  3
RText|AutoCAD Express Tool|expresstools@autodesk.com
 90
    32768
280
     0
281
     1
  0
CLASS
  1
ARCALIGNEDTEXT
  2
AcDbArcAlignedText
  3
ATEXT|AutoCAD Express Tool|expresstools@autodesk.com
 90
    32768
280
     0
281
     1
  0
ENDSEC
  0
SECTION
  2
TABLES
  0
TABLE
  2
VPORT
  5
7
330
0
100
AcDbSymbolTable
 70
     5
  0
VPORT
  5
1F9
330
7
100
AcDbSymbolTableRecord
100
AcDbViewportTableRecord
  2
*Active
 70
     0
 10
0.0
 20
0.0
 11
1.0
 21
1.0
 12
16.15235476523496
 22
10.99999999999999
 13
0.0
 23
0.0
 14
1.0
 24
1.0
 15
0.0
 25
0.0
 16
0.0
 26
0.0
 36
1.0
 17
0.0
 27
0.0
 37
0.0
 40
21.99999999375636
 41
1.5
 42
50.0
 43
0.0
 44
0.0
 50
0.0
 51
0.0
 71
     0
 72
  2000
 73
     1
 74
     1
 75
     0
 76
     0
 77
     0
 78
     0
281
     0
 65
     0
110
0.0
120
0.0
130
0.0
111
1.0
121
0.0
131
0.0
112
0.0
122
1.0
132
0.0
 79
     0
146
0.0
  0
ENDTAB
  0
TABLE
  2
LTYPE
  5
4
330
0
100
AcDbSymbolTable
 70
     6
  0
LTYPE
  5
11
330
4
100
AcDbSymbolTableRecord
100
AcDbLinetypeTableRecord
  2
ByBlock
 70
     0
  3

 72
    65
 73
     0
 40
0.0
  0
LTYPE
  5
12
330
4
100
AcDbSymbolTableRecord
100
AcDbLinetypeTableRecord
  2
ByLayer
 70
     0
  3

 72
    65
 73
     0
 40
0.0
  0
LTYPE
  5
13
330
4
100
AcDbSymbolTableRecord
100
AcDbLinetypeTableRecord
  2
Continuous
 70
     0
  3
Solid line
 72
    65
 73
     0
 40
0.0
  0
LTYPE
  5
24
330
4
100
AcDbSymbolTableRecord
100
AcDbLinetypeTableRecord
  2
HIDDEN
 70
     0
  3
Hidden __ __ __ __ __ __ __ __ __ __ __ __ __ __
 72
    65
 73
     2
 40
0.075
 49
0.05
 74
     0
 49
-0.025
 74
     0
  0
LTYPE
  5
25
330
4
100
AcDbSymbolTableRecord
100
AcDbLinetypeTableRecord
  2
PHANTOM
 70
     0
  3
Phantom ______  __  __  ______  __  __  ______
 72
    65
 73
     6
 40
0.5
 49
0.25
 74
     0
 49
-0.05
 74
     0
 49
0.05
 74
     0
 49
-0.05
 74
     0
 49
0.05
 74
     0
 49
-0.05
 74
     0
  0
LTYPE
  5
26
330
4
100
AcDbSymbolTableRecord
100
AcDbLinetypeTableRecord
  2
CENTER
 70
     0
  3
Center ____ _ ____ _ ____ _ ____ _ ____ _ ____
 72
    65
 73
     4
 40
0.4
 49
0.25
 74
     0
 49
-0.05
 74
     0
 49
0.05
 74
     0
 49
-0.05
 74
     0
  0
LTYPE
  5
27
330
4
100
AcDbSymbolTableRecord
100
AcDbLinetypeTableRecord
  2
CENTERX2
 70
     0
  3
Center (2x) ________  __  ________  __  _____
 72
    65
 73
     4
 40
0.8
 49
0.5
 74
     0
 49
-0.1
 74
     0
 49
0.1
 74
     0
 49
-0.1
 74
     0
  0
LTYPE
  5
28
330
4
100
AcDbSymbolTableRecord
100
AcDbLinetypeTableRecord
  2
DOT2
 70
     0
  3
Dot (.5x) ........................................
 72
    65
 73
     2
 40
0.025
 49
0.0
 74
     0
 49
-0.025
 74
     0
  0
ENDTAB
  0
TABLE
  2
LAYER
  5
2
330
0
100
AcDbSymbolTable
 70
     1
  0
LAYER
  5
14
330
2
100
AcDbSymbolTableRecord
100
AcDbLayerTableRecord
  2
0
 70
     0
 62
     7
  6
Continuous
370
    -3
390
1D
  0
ENDTAB
  0
TABLE
  2
STYLE
  5
3
330
0
100
AcDbSymbolTable
 70
     2
  0
STYLE
  5
17
330
3
100
AcDbSymbolTableRecord
100
AcDbTextStyleTableRecord
  2
Standard
 70
     0
 40
0.0
 41
1.0
 50
0.0
 71
     0
 42
0.0
  3
txt
  4

  0
STYLE
  5
75
330
3
100
AcDbSymbolTableRecord
100
AcDbTextStyleTableRecord
  2
SLDTEXTSTYLE0
 70
     0
 40
0.0
 41
0.75
 50
0.0
 71
     0
 42
0.0
  3
txt
  4

  0
ENDTAB
  0
TABLE
  2
VIEW
  5
5
330
0
100
AcDbSymbolTable
 70
     0
  0
ENDTAB
  0
TABLE
  2
UCS
  5
6
330
0
100
AcDbSymbolTable
 70
     0
  0
ENDTAB
  0
TABLE
  2
APPID
  5
8
330
0
100
AcDbSymbolTable
 70
     1
  0
APPID
  5
16
330
8
100
AcDbSymbolTableRecord
100
AcDbRegAppTableRecord
  2
ACAD
 70
     0
  0
ENDTAB
  0
TABLE
  2
DIMSTYLE
  5
9
330
0
100
AcDbSymbolTable
 70
     5
100
AcDbDimStyleTable
 71
     1
340
18
  0
DIMSTYLE
105
18
330
9
100
AcDbSymbolTableRecord
100
AcDbDimStyleTableRecord
  2
Standard
 70
     0
340
17
  0
DIMSTYLE
105
D3
102
{ACAD_REACTORS
330
D7
330
E4
330
F1
330
FE
102
}
330
9
100
AcDbSymbolTableRecord
100
AcDbDimStyleTableRecord
  2
SLDDIMSTYLE0
 70
     0
 41
0.375
 44
0.24
 78
    12
140
0.2
147
0.05
173
     1
176
     1
177
     1
178
     1
271
     3
284
    12
340
17
  0
DIMSTYLE
105
107
102
{ACAD_REACTORS
330
10B
102
}
330
9
100
AcDbSymbolTableRecord
100
AcDbDimStyleTableRecord
  2
SLDDIMSTYLE1
 70
     0
 41
0.375
 44
0.24
 78
    12
140
0.2
147
0.05
173
     1
176
     1
177
     1
178
     1
271
     3
284
    12
340
17
  0
DIMSTYLE
105
10D
330
9
100
AcDbSymbolTableRecord
100
AcDbDimStyleTableRecord
  2
SLDDIMSTYLE2
 70
     0
 41
0.375
 44
0.0
140
0.375
147
0.09375
173
     1
271
     0
272
     0
340
17
  0
DIMSTYLE
105
128
102
{ACAD_REACTORS
330
12C
102
}
330
9
100
AcDbSymbolTableRecord
100
AcDbDimStyleTableRecord
  2
SLDDIMSTYLE3
 70
     0
 41
0.375
 44
0.24
 47
0.02
 48
0.02
 71
     1
 78
    12
140
0.4444444444000001
147
0.1111111111
173
     1
176
     1
177
     1
178
     1
271
     3
272
     3
340
17
  0
ENDTAB
  0
TABLE
  2
BLOCK_RECORD
  5
1
330
0
100
AcDbSymbolTable
 70
     7
  0
BLOCK_RECORD
  5
A
330
1
100
AcDbSymbolTableRecord
100
AcDbBlockTableRecord
  2
*MODEL_SPACE
340
20
  0
BLOCK_RECORD
  5
B
330
1
100
AcDbSymbolTableRecord
100
AcDbBlockTableRecord
  2
*PAPER_SPACE
340
21
  0
BLOCK_RECORD
  5
A9
330
1
100
AcDbSymbolTableRecord
100
AcDbBlockTableRecord
  2
NOTE51
340
0
102
{BLKREFS
331
AF
102
}
  0
BLOCK_RECORD
  5
CA
330
1
100
AcDbSymbolTableRecord
100
AcDbBlockTableRecord
  2
*D1
340
0
  0
BLOCK_RECORD
  5
D8
330
1
100
AcDbSymbolTableRecord
100
AcDbBlockTableRecord
  2
*D2
340
0
  0
BLOCK_RECORD
  5
E5
330
1
100
AcDbSymbolTableRecord
100
AcDbBlockTableRecord
  2
*D3
340
0
  0
BLOCK_RECORD
  5
F2
330
1
100
AcDbSymbolTableRecord
100
AcDbBlockTableRecord
  2
*D4
340
0
  0
BLOCK_RECORD
  5
FF
330
1
100
AcDbSymbolTableRecord
100
AcDbBlockTableRecord
  2
*D5
340
0
  0
BLOCK_RECORD
  5
11A
330
1
100
AcDbSymbolTableRecord
100
AcDbBlockTableRecord
  2
*D6
340
0
  0
ENDTAB
  0
ENDSEC
  0
SECTION
  2
BLOCKS
  0
BLOCK
  5
D
330
A
100
AcDbEntity
  8
0
100
AcDbBlockBegin
  2
*MODEL_SPACE
 70
     0
 10
0.0
 20
0.0
 30
0.0
  3
*MODEL_SPACE
  1

  0
ENDBLK
  5
E
330
A
100
AcDbEntity
  8
0
100
AcDbBlockEnd
  0
BLOCK
  5
F
330
B
100
AcDbEntity
 67
     1
  8
0
100
AcDbBlockBegin
  2
*PAPER_SPACE
 70
     0
 10
0.0
 20
0.0
 30
0.0
  3
*PAPER_SPACE
  1

  0
ENDBLK
  5
10
330
B
100
AcDbEntity
 67
     1
  8
0
100
AcDbBlockEnd
  0
BLOCK
  5
AA
330
A9
100
AcDbEntity
  8
0
 62
     0
100
AcDbBlockBegin
  2
NOTE51
 70
     0
 10
0.0
 20
0.0
 30
0.0
  3
NOTE51
  1

  0
MTEXT
  5
AB
330
A9
100
AcDbEntity
  8
0
 62
     7
100
AcDbMText
 10
0.0
 20
0.0
 30
0.0
 40
0.18
 41
0.0
 71
     1
 72
     1
  1
BREAK SHARP EDGES 0.010 RAD %%p 0.003
  7
SLDTEXTSTYLE0
 73
     1
 44
1.0
  0
MTEXT
  5
AC
330
A9
100
AcDbEntity
  8
0
 62
     7
100
AcDbMText
 10
0.0
 20
-0.27
 30
0.0
 40
0.18
 41
0.0
 71
     1
 72
     1
  1
MACHINED SURF FINISH  
  7
SLDTEXTSTYLE0
 73
     1
 44
1.0
  0
MTEXT
  5
AD
330
A9
100
AcDbEntity
  8
0
 62
     7
100
AcDbMText
 10
2.771999999999999
 20
-0.27
 30
0.0
 40
0.18
 41
0.0
 71
     1
 72
     1
  1
< 125 MICROINCH
  7
SLDTEXTSTYLE0
 73
     1
 44
1.0
  0
ENDBLK
  5
AE
330
A9
100
AcDbEntity
  8
0
100
AcDbBlockEnd
  0
BLOCK
  5
CB
330
CA
100
AcDbEntity
  8
0
 62
     1
100
AcDbBlockBegin
  2
*D1
 70
     1
 10
0.0
 20
0.0
 30
0.0
  3
*D1
  1

  0
MTEXT
  5
CC
330
CA
100
AcDbEntity
  8
0
100
AcDbMText
 10
6.6534671657
 20
11.98905872989999
 30
0.0
 40
0.2
 41
0.0
 71
     7
 72
     1
  1
7 3/4"
  7
SLDTEXTSTYLE0
 73
     1
 44
1.0
  0
LINE
  5
CD
330
CA
100
AcDbEntity
  8
0
100
AcDbLine
 10
11.5298338603
 20
15.95398080539999
 30
0.0
 11
6.823574524199999
 21
15.95398080539999
 31
0.0
  0
LINE
  5
CE
330
CA
100
AcDbEntity
  8
0
100
AcDbLine
 10
11.5298338603
 20
8.203980805399998
 30
0.0
 11
6.823574524199999
 21
8.203980805399998
 31
0.0
  0
LINE
  5
CF
330
CA
100
AcDbEntity
  8
0
100
AcDbLine
 10
7.063574524199999
 20
15.95398080539999
 30
0.0
 11
7.063574524199999
 21
12.26890288089999
 31
0.0
  0
LINE
  5
D0
330
CA
100
AcDbEntity
  8
0
100
AcDbLine
 10
7.063574524199999
 20
8.203980805399998
 30
0.0
 11
7.063574524199999
 21
11.8890587299
 31
0.0
  0
SOLID
  5
D1
330
CA
100
AcDbEntity
  8
0
100
AcDbTrace
 10
7.063574524199999
 20
15.95398080539999
 30
0.0
 11
7.001074524199999
 21
15.5789808054
 31
0.0
 12
7.126074524199999
 22
15.5789808054
 32
0.0
 13
7.126074524199999
 23
15.5789808054
 33
0.0
  0
SOLID
  5
D2
330
CA
100
AcDbEntity
  8
0
100
AcDbTrace
 10
7.063574524199999
 20
8.203980805399998
 30
0.0
 11
7.126074524199999
 21
8.578980805399998
 31
0.0
 12
7.001074524199999
 22
8.578980805399998
 32
0.0
 13
7.001074524199999
 23
8.578980805399998
 33
0.0
  0
POINT
  5
D4
330
CA
100
AcDbEntity
  8
0
100
AcDbPoint
 10
11.6098338603
 20
15.95398080539999
 30
0.0
  0
POINT
  5
D5
330
CA
100
AcDbEntity
  8
0
100
AcDbPoint
 10
11.6098338603
 20
8.203980805399998
 30
0.0
  0
ENDBLK
  5
D6
330
CA
100
AcDbEntity
  8
0
 62
     1
100
AcDbBlockEnd
  0
BLOCK
  5
D9
330
D8
100
AcDbEntity
  8
0
 62
     1
100
AcDbBlockBegin
  2
*D2
 70
     1
 10
0.0
 20
0.0
 30
0.0
  3
*D2
  1

  0
MTEXT
  5
DA
330
D8
100
AcDbEntity
  8
0
100
AcDbMText
 10
15.4797838603
 20
19.3803182491
 30
0.0
 40
0.2
 41
0.0
 71
     7
 72
     1
  1
9"
  7
SLDTEXTSTYLE0
 73
     1
 44
1.0
  0
LINE
  5
DB
330
D8
100
AcDbEntity
  8
0
100
AcDbLine
 10
11.1098338603
 20
15.5339808054
 30
0.0
 11
11.1098338603
 21
19.71024032449999
 31
0.0
  0
LINE
  5
DC
330
D8
100
AcDbEntity
  8
0
100
AcDbLine
 10
20.10983386029999
 20
15.5339808054
 30
0.0
 11
20.10983386029999
 21
19.71024032449999
 31
0.0
  0
LINE
  5
DD
330
D8
100
AcDbEntity
  8
0
100
AcDbLine
 10
11.1098338603
 20
19.4702403245
 30
0.0
 11
15.3547838603
 21
19.4702403245
 31
0.0
  0
LINE
  5
DE
330
D8
100
AcDbEntity
  8
0
100
AcDbLine
 10
20.10983386029999
 20
19.4702403245
 30
0.0
 11
15.8648838603
 21
19.4702403245
 31
0.0
  0
SOLID
  5
DF
330
D8
100
AcDbEntity
  8
0
100
AcDbTrace
 10
11.1098338603
 20
19.4702403245
 30
0.0
 11
11.4848338603
 21
19.4077403245
 31
0.0
 12
11.4848338603
 22
19.5327403245
 32
0.0
 13
11.4848338603
 23
19.5327403245
 33
0.0
  0
SOLID
  5
E0
330
D8
100
AcDbEntity
  8
0
100
AcDbTrace
 10
20.10983386029999
 20
19.4702403245
 30
0.0
 11
19.7348338603
 21
19.5327403245
 31
0.0
 12
19.7348338603
 22
19.4077403245
 32
0.0
 13
19.7348338603
 23
19.4077403245
 33
0.0
  0
POINT
  5
E1
330
D8
100
AcDbEntity
  8
0
100
AcDbPoint
 10
11.1098338603
 20
15.4539808054
 30
0.0
  0
POINT
  5
E2
330
D8
100
AcDbEntity
  8
0
100
AcDbPoint
 10
20.10983386029999
 20
15.4539808054
 30
0.0
  0
ENDBLK
  5
E3
330
D8
100
AcDbEntity
  8
0
 62
     1
100
AcDbBlockEnd
  0
BLOCK
  5
E6
330
E5
100
AcDbEntity
  8
0
 62
     1
100
AcDbBlockBegin
  2
*D3
 70
     1
 10
0.0
 20
0.0
 30
0.0
  3
*D3
  1

  0
MTEXT
  5
E7
330
E5
100
AcDbEntity
  8
0
100
AcDbMText
 10
12.9696838603
 20
17.6120408563
 30
0.0
 40
0.2
 41
0.0
 71
     7
 72
     1
  1
4 1/2"
  7
SLDTEXTSTYLE0
 73
     1
 44
1.0
  0
LINE
  5
E8
330
E5
100
AcDbEntity
  8
0
100
AcDbLine
 10
11.1098338603
 20
15.5339808054
 30
0.0
 11
11.1098338603
 21
17.9419629317
 31
0.0
  0
LINE
  5
E9
330
E5
100
AcDbEntity
  8
0
100
AcDbLine
 10
15.6098338603
 20
12.15898080539999
 30
0.0
 11
15.6098338603
 21
17.9419629317
 31
0.0
  0
LINE
  5
EA
330
E5
100
AcDbEntity
  8
0
100
AcDbLine
 10
11.1098338603
 20
17.7019629317
 30
0.0
 11
12.8446838603
 21
17.7019629317
 31
0.0
  0
LINE
  5
EB
330
E5
100
AcDbEntity
  8
0
100
AcDbLine
 10
15.6098338603
 20
17.7019629317
 30
0.0
 11
13.8749838603
 21
17.7019629317
 31
0.0
  0
SOLID
  5
EC
330
E5
100
AcDbEntity
  8
0
100
AcDbTrace
 10
11.1098338603
 20
17.7019629317
 30
0.0
 11
11.4848338603
 21
17.6394629317
 31
0.0
 12
11.4848338603
 22
17.7644629317
 32
0.0
 13
11.4848338603
 23
17.7644629317
 33
0.0
  0
SOLID
  5
ED
330
E5
100
AcDbEntity
  8
0
100
AcDbTrace
 10
15.6098338603
 20
17.7019629317
 30
0.0
 11
15.2348338603
 21
17.7644629317
 31
0.0
 12
15.2348338603
 22
17.6394629317
 32
0.0
 13
15.2348338603
 23
17.6394629317
 33
0.0
  0
POINT
  5
EE
330
E5
100
AcDbEntity
  8
0
100
AcDbPoint
 10
11.1098338603
 20
15.4539808054
 30
0.0
  0
POINT
  5
EF
330
E5
100
AcDbEntity
  8
0
100
AcDbPoint
 10
15.6098338603
 20
12.07898080539999
 30
0.0
  0
ENDBLK
  5
F0
330
E5
100
AcDbEntity
  8
0
 62
     1
100
AcDbBlockEnd
  0
BLOCK
  5
F3
330
F2
100
AcDbEntity
  8
0
 62
     1
100
AcDbBlockBegin
  2
*D4
 70
     1
 10
0.0
 20
0.0
 30
0.0
  3
*D4
  1

  0
MTEXT
  5
F4
330
F2
100
AcDbEntity
  8
0
100
AcDbMText
 10
8.780933087399999
 20
13.9265587299
 30
0.0
 40
0.2
 41
0.0
 71
     7
 72
     1
  1
3 7/8"
  7
SLDTEXTSTYLE0
 73
     1
 44
1.0
  0
LINE
  5
F5
330
F2
100
AcDbEntity
  8
0
100
AcDbLine
 10
11.5298338603
 20
15.95398080539999
 30
0.0
 11
8.941061766599998
 21
15.95398080539999
 31
0.0
  0
LINE
  5
F6
330
F2
100
AcDbEntity
  8
0
100
AcDbLine
 10
15.5298338603
 20
12.07898080539999
 30
0.0
 11
8.941061766599998
 21
12.07898080539999
 31
0.0
  0
LINE
  5
F7
330
F2
100
AcDbEntity
  8
0
100
AcDbLine
 10
9.181061766599999
 20
15.95398080539999
 30
0.0
 11
9.181061766599999
 21
14.20640288089999
 31
0.0
  0
LINE
  5
F8
330
F2
100
AcDbEntity
  8
0
100
AcDbLine
 10
9.181061766599999
 20
12.07898080539999
 30
0.0
 11
9.181061766599999
 21
13.8265587299
 31
0.0
  0
SOLID
  5
F9
330
F2
100
AcDbEntity
  8
0
100
AcDbTrace
 10
9.181061766599999
 20
15.95398080539999
 30
0.0
 11
9.118561766599999
 21
15.5789808054
 31
0.0
 12
9.243561766599999
 22
15.5789808054
 32
0.0
 13
9.243561766599999
 23
15.5789808054
 33
0.0
  0
SOLID
  5
FA
330
F2
100
AcDbEntity
  8
0
100
AcDbTrace
 10
9.181061766599999
 20
12.07898080539999
 30
0.0
 11
9.243561766599999
 21
12.4539808054
 31
0.0
 12
9.118561766599999
 22
12.4539808054
 32
0.0
 13
9.118561766599999
 23
12.4539808054
 33
0.0
  0
POINT
  5
FB
330
F2
100
AcDbEntity
  8
0
100
AcDbPoint
 10
11.6098338603
 20
15.95398080539999
 30
0.0
  0
POINT
  5
FC
330
F2
100
AcDbEntity
  8
0
100
AcDbPoint
 10
15.6098338603
 20
12.07898080539999
 30
0.0
  0
ENDBLK
  5
FD
330
F2
100
AcDbEntity
  8
0
 62
     1
100
AcDbBlockEnd
  0
BLOCK
  5
100
330
FF
100
AcDbEntity
  8
0
 62
     1
100
AcDbBlockBegin
  2
*D5
 70
     1
 10
0.0
 20
0.0
 30
0.0
  3
*D5
  1

  0
MTEXT
  5
101
330
FF
100
AcDbEntity
  8
0
 62
     7
100
AcDbMText
 10
21.82706974899999
 20
8.223711601299999
 30
0.0
 40
0.2
 41
0.0
 71
     7
 72
     1
  1
1/2"
  7
SLDTEXTSTYLE0
 73
     1
 44
1.0
  0
MTEXT
  5
102
330
FF
100
AcDbEntity
  8
0
 62
     7
100
AcDbMText
 10
22.3273123905
 20
8.223711601299999
 30
0.0
 40
0.2
 41
0.0
 71
     7
 72
     1
  1
 RAD
  7
SLDTEXTSTYLE0
 73
     1
 44
1.0
  0
MTEXT
  5
103
330
FF
100
AcDbEntity
  8
0
 62
     7
100
AcDbMText
 10
21.8184050321
 20
7.843867450299999
 30
0.0
 40
0.2
 41
0.0
 71
     7
 72
     1
  1
4 PLACES
  7
SLDTEXTSTYLE0
 73
     1
 44
1.0
  0
LINE
  5
104
330
FF
100
AcDbEntity
  8
0
 62
     7
100
AcDbLine
 10
20.0781818202
 20
8.5289088532
 30
0.0
 11
21.16215503209999
 21
8.1237116013
 31
0.0
  0
LINE
  5
105
330
FF
100
AcDbEntity
  8
0
 62
     7
100
AcDbLine
 10
21.16215503209999
 20
8.1237116013
 30
0.0
 11
21.6621550321
 21
8.1237116013
 31
0.0
  0
SOLID
  5
106
330
FF
100
AcDbEntity
  8
0
 62
     7
100
AcDbTrace
 10
20.0781818202
 20
8.5289088532
 30
0.0
 11
20.40755879609999
 21
8.339061394099999
 31
0.0
 12
20.45132678419999
 22
8.4561483841
 32
0.0
 13
20.45132678419999
 23
8.4561483841
 33
0.0
  0
POINT
  5
108
330
FF
100
AcDbEntity
  8
0
 62
     7
100
AcDbPoint
 10
20.0781818202
 20
8.5289088532
 30
0.0
  0
POINT
  5
109
330
FF
100
AcDbEntity
  8
0
 62
     7
100
AcDbPoint
 10
19.6098338603
 20
8.703980805399998
 30
0.0
  0
ENDBLK
  5
10A
330
FF
100
AcDbEntity
  8
0
100
AcDbBlockEnd
  0
BLOCK
  5
11B
330
11A
100
AcDbEntity
  8
0
 62
     1
100
AcDbBlockBegin
  2
*D6
 70
     1
 10
0.0
 20
0.0
 30
0.0
  3
*D6
  1

  0
MTEXT
  5
11C
330
11A
100
AcDbEntity
  8
0
100
AcDbMText
 10
28.71040737719999
 20
17.7769503912
 30
0.0
 40
0.3333333333
 41
0.0
 71
     7
 72
     1
  1
1.438
  7
SLDTEXTSTYLE0
 73
     1
 44
1.0
  0
MTEXT
  5
11D
330
11A
100
AcDbEntity
  8
0
100
AcDbMText
 10
29.5715183206
 20
17.7769503912
 30
0.0
 40
0.3333333333
 41
0.0
 71
     7
 72
     1
  1
%%p.010
  7
SLDTEXTSTYLE0
 73
     1
 44
1.0
  0
MTEXT
  5
11E
330
11A
100
AcDbEntity
  8
0
100
AcDbMText
 10
30.4041654904
 20
17.7769503912
 30
0.0
 40
0.3333333333
 41
0.0
 71
     7
 72
     1
  1
 
  7
SLDTEXTSTYLE0
 73
     1
 44
1.0
  0
MTEXT
  5
11F
330
11A
100
AcDbEntity
  8
0
100
AcDbMText
 10
27.9682279432
 20
17.2328669949
 30
0.0
 40
0.3333333333
 41
0.0
 71
     7
 72
     1
  1
BLANCHARD GRIND 
  7
SLDTEXTSTYLE0
 73
     1
 44
1.0
  0
MTEXT
  5
120
330
11A
100
AcDbEntity
  8
0
100
AcDbMText
 10
28.0972964338
 20
16.68878359869999
 30
0.0
 40
0.3333333333
 41
0.0
 71
     7
 72
     1
  1
BOTH SIDES FROM
  7
SLDTEXTSTYLE0
 73
     1
 44
1.0
  0
MTEXT
  5
121
330
11A
100
AcDbEntity
  8
0
100
AcDbMText
 10
28.5128020942
 20
16.1447002025
 30
0.0
 40
0.3333333333
 41
0.0
 71
     7
 72
     1
  1
1 1/2" STOCK
  7
SLDTEXTSTYLE0
 73
     1
 44
1.0
  0
LINE
  5
122
330
11A
100
AcDbEntity
  8
0
100
AcDbLine
 10
24.5674830082
 20
15.5339808054
 30
0.0
 11
24.5674830082
 21
17.3284225505
 31
0.0
  0
LINE
  5
123
330
11A
100
AcDbEntity
  8
0
100
AcDbLine
 10
26.0054830082
 20
15.5339808054
 30
0.0
 11
26.0054830082
 21
17.3284225505
 31
0.0
  0
LINE
  5
124
330
11A
100
AcDbEntity
  8
0
100
AcDbLine
 10
24.5674830082
 20
17.08842255049999
 30
0.0
 11
26.0054830082
 21
17.08842255049999
 31
0.0
  0
LINE
  5
125
330
11A
100
AcDbEntity
  8
0
100
AcDbLine
 10
26.0054830082
 20
17.08842255049999
 30
0.0
 11
27.8119779432
 21
17.08842255049999
 31
0.0
  0
SOLID
  5
126
330
11A
100
AcDbEntity
  8
0
100
AcDbTrace
 10
24.5674830082
 20
17.08842255049999
 30
0.0
 11
24.9424830082
 21
17.02592255049999
 31
0.0
 12
24.9424830082
 22
17.1509225505
 32
0.0
 13
24.9424830082
 23
17.1509225505
 33
0.0
  0
SOLID
  5
127
330
11A
100
AcDbEntity
  8
0
100
AcDbTrace
 10
26.0054830082
 20
17.08842255049999
 30
0.0
 11
25.6304830082
 21
17.1509225505
 31
0.0
 12
25.6304830082
 22
17.02592255049999
 32
0.0
 13
25.6304830082
 23
17.02592255049999
 33
0.0
  0
POINT
  5
129
330
11A
100
AcDbEntity
  8
0
100
AcDbPoint
 10
24.5674830082
 20
15.4539808054
 30
0.0
  0
POINT
  5
12A
330
11A
100
AcDbEntity
  8
0
100
AcDbPoint
 10
26.0054830082
 20
15.4539808054
 30
0.0
  0
ENDBLK
  5
12B
330
11A
100
AcDbEntity
  8
0
 62
     1
100
AcDbBlockEnd
  0
ENDSEC
  0
SECTION
  2
ENTITIES
  0
LINE
  5
2A
330
A
100
AcDbEntity
  8
0
  6
Continuous
 62
     7
370
     0
100
AcDbLine
 10
6.75
 20
21.25
 30
0.0
 11
3.0
 21
21.25
 31
0.0
  0
LINE
  5
2B
330
A
100
AcDbEntity
  8
0
  6
Continuous
 62
     7
370
     0
100
AcDbLine
 10
10.5
 20
21.25
 30
0.0
 11
6.75
 21
21.25
 31
0.0
  0
LINE
  5
2C
330
A
100
AcDbEntity
  8
0
  6
Continuous
 62
     7
370
     0
100
AcDbLine
 10
33.0
 20
0.75
 30
0.0
 11
29.25
 21
0.75
 31
0.0
  0
LINE
  5
2D
330
A
100
AcDbEntity
  8
0
  6
Continuous
 62
     7
370
     0
100
AcDbLine
 10
33.0
 20
0.75
 30
0.0
 11
33.0
 21
5.875
 31
0.0
  0
LINE
  5
2E
330
A
100
AcDbEntity
  8
0
  6
Continuous
 62
     7
370
     0
100
AcDbLine
 10
33.0
 20
16.125
 30
0.0
 11
33.25
 21
16.125
 31
0.0
  0
LINE
  5
2F
330
A
100
AcDbEntity
  8
0
  6
Continuous
 62
     7
370
     0
100
AcDbLine
 10
33.0
 20
11.0
 30
0.0
 11
33.25
 21
11.0
 31
0.0
  0
LINE
  5
30
330
A
100
AcDbEntity
  8
0
  6
Continuous
 62
     7
370
     0
100
AcDbLine
 10
14.25
 20
21.25
 30
0.0
 11
10.5
 21
21.25
 31
0.0
  0
LINE
  5
31
330
A
100
AcDbEntity
  8
0
  6
Continuous
 62
     7
370
     0
100
AcDbLine
 10
18.0
 20
21.25
 30
0.0
 11
14.25
 21
21.25
 31
0.0
  0
LINE
  5
32
330
A
100
AcDbEntity
  8
0
  6
Continuous
 62
     7
370
     0
100
AcDbLine
 10
21.75
 20
21.25
 30
0.0
 11
18.0
 21
21.25
 31
0.0
  0
LINE
  5
33
330
A
100
AcDbEntity
  8
0
  6
Continuous
 62
     7
370
     0
100
AcDbLine
 10
25.5
 20
21.25
 30
0.0
 11
21.75
 21
21.25
 31
0.0
  0
LINE
  5
34
330
A
100
AcDbEntity
  8
0
  6
Continuous
 62
     7
370
     0
100
AcDbLine
 10
29.25
 20
21.25
 30
0.0
 11
25.5
 21
21.25
 31
0.0
  0
LINE
  5
35
330
A
100
AcDbEntity
  8
0
  6
Continuous
 62
     7
370
     0
100
AcDbLine
 10
33.0
 20
5.875
 30
0.0
 11
33.25
 21
5.875
 31
0.0
  0
LINE
  5
36
330
A
100
AcDbEntity
  8
0
  6
Continuous
 62
     7
370
     0
100
AcDbLine
 10
33.0
 20
21.25
 30
0.0
 11
29.25
 21
21.25
 31
0.0
  0
LINE
  5
37
330
A
100
AcDbEntity
  8
0
  6
Continuous
 62
     7
370
     0
100
AcDbLine
 10
29.25
 20
21.25
 30
0.0
 11
29.25
 21
21.49999999999999
 31
0.0
  0
LINE
  5
38
330
A
100
AcDbEntity
  8
0
  6
Continuous
 62
     7
370
     0
100
AcDbLine
 10
25.5
 20
21.25
 30
0.0
 11
25.5
 21
21.49999999999999
 31
0.0
  0
LINE
  5
39
330
A
100
AcDbEntity
  8
0
  6
Continuous
 62
     7
370
     0
100
AcDbLine
 10
21.75
 20
21.25
 30
0.0
 11
21.75
 21
21.49999999999999
 31
0.0
  0
LINE
  5
3A
330
A
100
AcDbEntity
  8
0
  6
Continuous
 62
     7
370
     0
100
AcDbLine
 10
18.0
 20
21.25
 30
0.0
 11
18.0
 21
21.49999999999999
 31
0.0
  0
LINE
  5
3B
330
A
100
AcDbEntity
  8
0
  6
Continuous
 62
     7
370
     0
100
AcDbLine
 10
14.25
 20
21.25
 30
0.0
 11
14.25
 21
21.49999999999999
 31
0.0
  0
LINE
  5
3C
330
A
100
AcDbEntity
  8
0
  6
Continuous
 62
     7
370
     0
100
AcDbLine
 10
10.5
 20
21.25
 30
0.0
 11
10.5
 21
21.49999999999999
 31
0.0
  0
LINE
  5
3D
330
A
100
AcDbEntity
  8
0
  6
Continuous
 62
     7
370
     0
100
AcDbLine
 10
6.75
 20
21.25
 30
0.0
 11
6.75
 21
21.49999999999999
 31
0.0
  0
LINE
  5
3E
330
A
100
AcDbEntity
  8
0
  6
Continuous
 62
     7
370
     0
100
AcDbLine
 10
17.5
 20
3.379999999999999
 30
0.0
 11
17.5
 21
0.752
 31
0.0
  0
LINE
  5
3F
330
A
100
AcDbEntity
  8
0
  6
Continuous
 62
     7
370
     0
100
AcDbLine
 10
22.0
 20
4.75
 30
0.0
 11
33.0
 21
4.75
 31
0.0
  0
LINE
  5
40
330
A
100
AcDbEntity
  8
0
  6
Continuous
 62
     7
370
     0
100
AcDbLine
 10
22.0
 20
4.75
 30
0.0
 11
22.0
 21
0.75
 31
0.0
  0
LINE
  5
41
330
A
100
AcDbEntity
  8
0
  6
Continuous
 62
     7
370
     0
100
AcDbLine
 10
27.0
 20
4.75
 30
0.0
 11
27.0
 21
0.75
 31
0.0
  0
LINE
  5
42
330
A
100
AcDbEntity
  8
0
  6
Continuous
 62
     7
370
     0
100
AcDbLine
 10
27.0
 20
1.125999999999999
 30
0.0
 11
33.0
 21
1.125999999999999
 31
0.0
  0
LINE
  5
43
330
A
100
AcDbEntity
  8
0
  6
Continuous
 62
     7
370
     0
100
AcDbLine
 10
27.0
 20
1.875999999999999
 30
0.0
 11
33.0
 21
1.875999999999999
 31
0.0
  0
LINE
  5
44
330
A
100
AcDbEntity
  8
0
  6
Continuous
 62
     7
370
     0
100
AcDbLine
 10
27.0
 20
3.376
 30
0.0
 11
33.0
 21
3.376
 31
0.0
  0
LINE
  5
45
330
A
100
AcDbEntity
  8
0
  6
Continuous
 62
     7
370
     0
100
AcDbLine
 10
27.75
 20
1.875999999999999
 30
0.0
 11
27.75
 21
0.75
 31
0.0
  0
LINE
  5
46
330
A
100
AcDbEntity
  8
0
  6
Continuous
 62
     7
370
     0
100
AcDbLine
 10
17.5
 20
1.501999999999999
 30
0.0
 11
27.0
 21
1.501999999999999
 31
0.0
  0
LINE
  5
47
330
A
100
AcDbEntity
  8
0
  6
Continuous
 62
     7
370
     0
100
AcDbLine
 10
32.25
 20
1.875999999999999
 30
0.0
 11
32.25
 21
0.75
 31
0.0
  0
LINE
  5
48
330
A
100
AcDbEntity
  8
0
  6
Continuous
 62
     7
370
     0
100
AcDbLine
 10
27.0
 20
4.0
 30
0.0
 11
22.0
 21
4.0
 31
0.0
  0
LINE
  5
49
330
A
100
AcDbEntity
  8
0
  6
Continuous
 62
     7
370
     0
100
AcDbLine
 10
22.0
 20
2.374
 30
0.0
 11
27.0
 21
2.374
 31
0.0
  0
LINE
  5
4A
330
A
100
AcDbEntity
  8
0
  6
Continuous
 62
     7
370
     0
100
AcDbLine
 10
22.0
 20
1.125999999999999
 30
0.0
 11
27.0
 21
1.125999999999999
 31
0.0
  0
LINE
  5
4B
330
A
100
AcDbEntity
  8
0
  6
Continuous
 62
     7
370
     0
100
AcDbLine
 10
17.5
 20
2.628
 30
0.0
 11
22.0
 21
2.628
 31
0.0
  0
LINE
  5
4C
330
A
100
AcDbEntity
  8
0
  6
Continuous
 62
     7
370
     0
100
AcDbLine
 10
33.0
 20
5.875
 30
0.0
 11
33.0
 21
11.0
 31
0.0
  0
LINE
  5
4D
330
A
100
AcDbEntity
  8
0
  6
Continuous
 62
     7
370
     0
100
AcDbLine
 10
33.0
 20
11.0
 30
0.0
 11
33.0
 21
16.125
 31
0.0
  0
LINE
  5
4E
330
A
100
AcDbEntity
  8
0
  6
Continuous
 62
     7
370
     0
100
AcDbLine
 10
33.0
 20
16.125
 30
0.0
 11
33.0
 21
21.25
 31
0.0
  0
LINE
  5
4F
330
A
100
AcDbEntity
  8
0
  6
Continuous
 62
     7
370
     0
100
AcDbLine
 10
29.25
 20
0.75
 30
0.0
 11
25.5
 21
0.75
 31
0.0
  0
LINE
  5
50
330
A
100
AcDbEntity
  8
0
  6
Continuous
 62
     7
370
     0
100
AcDbLine
 10
25.5
 20
0.75
 30
0.0
 11
21.75
 21
0.75
 31
0.0
  0
LINE
  5
51
330
A
100
AcDbEntity
  8
0
  6
Continuous
 62
     7
370
     0
100
AcDbLine
 10
17.5
 20
3.003999999999999
 30
0.0
 11
22.0
 21
3.003999999999999
 31
0.0
  0
LINE
  5
52
330
A
100
AcDbEntity
  8
0
  6
Continuous
 62
     7
370
     0
100
AcDbLine
 10
17.5
 20
1.875
 30
0.0
 11
10.0
 21
1.875
 31
0.0
  0
LINE
  5
53
330
A
100
AcDbEntity
  8
0
  6
Continuous
 62
     7
370
     0
100
AcDbLine
 10
22.0
 20
3.379999999999999
 30
0.0
 11
17.5
 21
3.379999999999999
 31
0.0
  0
LINE
  5
54
330
A
100
AcDbEntity
  8
0
  6
Continuous
 62
     7
370
     0
100
AcDbLine
 10
20.5
 20
3.379999999999999
 30
0.0
 11
20.5
 21
2.251999999999999
 31
0.0
  0
LINE
  5
55
330
A
100
AcDbEntity
  8
0
  6
Continuous
 62
     7
370
     0
100
AcDbLine
 10
22.0
 20
3.623999999999999
 30
0.0
 11
27.0
 21
3.623999999999999
 31
0.0
  0
LINE
  5
56
330
A
100
AcDbEntity
  8
0
  6
Continuous
 62
     7
370
     0
100
AcDbLine
 10
17.5
 20
2.251999999999999
 30
0.0
 11
22.0
 21
2.251999999999999
 31
0.0
  0
LINE
  5
57
330
A
100
AcDbEntity
  8
0
  6
Continuous
 62
     7
370
     0
100
AcDbLine
 10
24.5
 20
4.0
 30
0.0
 11
24.5
 21
2.374
 31
0.0
  0
LINE
  5
58
330
A
100
AcDbEntity
  8
0
  6
Continuous
 62
     7
370
     0
100
AcDbLine
 10
21.75
 20
0.75
 30
0.0
 11
18.0
 21
0.75
 31
0.0
  0
LINE
  5
59
330
A
100
AcDbEntity
  8
0
  6
Continuous
 62
     7
370
     0
100
AcDbLine
 10
18.0
 20
0.75
 30
0.0
 11
14.25
 21
0.75
 31
0.0
  0
LINE
  5
5A
330
A
100
AcDbEntity
  8
0
  6
Continuous
 62
     7
370
     0
100
AcDbLine
 10
14.25
 20
0.75
 30
0.0
 11
10.5
 21
0.75
 31
0.0
  0
LINE
  5
5B
330
A
100
AcDbEntity
  8
0
  6
Continuous
 62
     7
370
     0
100
AcDbLine
 10
10.5
 20
0.75
 30
0.0
 11
6.75
 21
0.75
 31
0.0
  0
LINE
  5
5C
330
A
100
AcDbEntity
  8
0
  6
Continuous
 62
     7
370
     0
100
AcDbLine
 10
25.75
 20
4.0
 30
0.0
 11
25.75
 21
2.374
 31
0.0
  0
LINE
  5
5D
330
A
100
AcDbEntity
  8
0
  6
Continuous
 62
     7
370
     0
100
AcDbLine
 10
6.75
 20
0.75
 30
0.0
 11
3.0
 21
0.75
 31
0.0
  0
LINE
  5
5E
330
A
100
AcDbEntity
  8
0
  6
Continuous
 62
     7
370
     0
100
AcDbLine
 10
1.5
 20
21.25
 30
0.0
 11
1.5
 21
0.75
 31
0.0
  0
LINE
  5
5F
330
A
100
AcDbEntity
  8
0
  6
Continuous
 62
     7
370
     0
100
AcDbLine
 10
3.0
 20
5.875
 30
0.0
 11
3.0
 21
11.0
 31
0.0
  0
LINE
  5
60
330
A
100
AcDbEntity
  8
0
  6
Continuous
 62
     7
370
     0
100
AcDbLine
 10
3.0
 20
11.0
 30
0.0
 11
3.0
 21
16.125
 31
0.0
  0
LINE
  5
61
330
A
100
AcDbEntity
  8
0
  6
Continuous
 62
     7
370
     0
100
AcDbLine
 10
3.0
 20
16.125
 30
0.0
 11
3.0
 21
21.25
 31
0.0
  0
LINE
  5
62
330
A
100
AcDbEntity
  8
0
  6
Continuous
 62
     7
370
     0
100
AcDbLine
 10
3.0
 20
16.125
 30
0.0
 11
2.75
 21
16.125
 31
0.0
  0
LINE
  5
63
330
A
100
AcDbEntity
  8
0
  6
Continuous
 62
     7
370
     0
100
AcDbLine
 10
29.25
 20
0.75
 30
0.0
 11
29.25
 21
0.5
 31
0.0
  0
LINE
  5
64
330
A
100
AcDbEntity
  8
0
  6
Continuous
 62
     7
370
     0
100
AcDbLine
 10
25.5
 20
0.75
 30
0.0
 11
25.5
 21
0.5
 31
0.0
  0
LINE
  5
65
330
A
100
AcDbEntity
  8
0
  6
Continuous
 62
     7
370
     0
100
AcDbLine
 10
21.75
 20
0.75
 30
0.0
 11
21.75
 21
0.5
 31
0.0
  0
LINE
  5
66
330
A
100
AcDbEntity
  8
0
  6
CENTERX2
 62
     7
370
     0
100
AcDbLine
 10
18.0
 20
0.75
 30
0.0
 11
18.0
 21
0.5
 31
0.0
  0
LINE
  5
67
330
A
100
AcDbEntity
  8
0
  6
Continuous
 62
     7
370
     0
100
AcDbLine
 10
14.25
 20
0.75
 30
0.0
 11
14.25
 21
0.5
 31
0.0
  0
LINE
  5
68
330
A
100
AcDbEntity
  8
0
  6
Continuous
 62
     7
370
     0
100
AcDbLine
 10
10.5
 20
0.75
 30
0.0
 11
10.5
 21
0.5
 31
0.0
  0
LINE
  5
69
330
A
100
AcDbEntity
  8
0
  6
Continuous
 62
     7
370
     0
100
AcDbLine
 10
6.75
 20
0.75
 30
0.0
 11
6.75
 21
0.5
 31
0.0
  0
LINE
  5
6A
330
A
100
AcDbEntity
  8
0
  6
Continuous
 62
     7
370
     0
100
AcDbLine
 10
3.0
 20
11.0
 30
0.0
 11
2.75
 21
11.0
 31
0.0
  0
LINE
  5
6B
330
A
100
AcDbEntity
  8
0
  6
Continuous
 62
     7
370
     0
100
AcDbLine
 10
3.0
 20
5.875
 30
0.0
 11
2.75
 21
5.875
 31
0.0
  0
LINE
  5
6C
330
A
100
AcDbEntity
  8
0
  6
Continuous
 62
     7
370
     0
100
AcDbLine
 10
3.0
 20
0.75
 30
0.0
 11
3.0
 21
5.875
 31
0.0
  0
LINE
  5
6D
330
A
100
AcDbEntity
  8
0
  6
Continuous
 62
     7
370
     0
100
AcDbLine
 10
10.0
 20
1.875
 30
0.0
 11
10.0
 21
0.75
 31
0.0
  0
LINE
  5
6E
330
A
100
AcDbEntity
  8
0
  6
Continuous
 62
     7
370
     0
100
AcDbLine
 10
33.0
 20
20.874
 30
0.0
 11
25.0
 21
20.874
 31
0.0
  0
LINE
  5
6F
330
A
100
AcDbEntity
  8
0
  6
Continuous
 62
     7
370
     0
100
AcDbLine
 10
33.0
 20
20.498
 30
0.0
 11
25.0
 21
20.498
 31
0.0
  0
LINE
  5
70
330
A
100
AcDbEntity
  8
0
  6
Continuous
 62
     7
370
     0
100
AcDbLine
 10
33.0
 20
20.12199999999999
 30
0.0
 11
25.0
 21
20.12199999999999
 31
0.0
  0
LINE
  5
71
330
A
100
AcDbEntity
  8
0
  6
Continuous
 62
     7
370
     0
100
AcDbLine
 10
25.0
 20
21.25
 30
0.0
 11
25.0
 21
20.12199999999999
 31
0.0
  0
LINE
  5
72
330
A
100
AcDbEntity
  8
0
  6
Continuous
 62
     7
370
     0
100
AcDbLine
 10
25.75
 20
20.874
 30
0.0
 11
25.75
 21
20.12199999999999
 31
0.0
  0
LINE
  5
73
330
A
100
AcDbEntity
  8
0
  6
Continuous
 62
     7
370
     0
100
AcDbLine
 10
31.5
 20
20.874
 30
0.0
 11
31.5
 21
20.12199999999999
 31
0.0
  0
LINE
  5
74
330
A
100
AcDbEntity
  8
0
  6
Continuous
 62
     7
370
     0
100
AcDbLine
 10
30.25
 20
20.874
 30
0.0
 11
30.25
 21
20.12199999999999
 31
0.0
  0
MTEXT
  5
76
330
A
100
AcDbEntity
  8
0
 62
     1
100
AcDbMText
 10
17.65919922952379
 20
1.84531024502045
 30
0.0
 40
0.2
 41
0.0
 71
     1
 72
     1
  1
STEEL A-36 1 1/2" THICK BURNED
  7
SLDTEXTSTYLE0
 73
     1
 44
1.0
  0
MTEXT
  5
77
330
A
100
AcDbEntity
  8
0
 62
     1
100
AcDbMText
 10
23.41586990927097
 20
1.420120739522063
 30
0.0
 40
0.2
 41
0.0
 71
     1
 72
     1
  1
29.1 lbs
  7
SLDTEXTSTYLE0
 73
     1
 44
1.0
  0
MTEXT
  5
78
330
A
100
AcDbEntity
  8
0
 62
     1
100
AcDbMText
 10
18.63494175786669
 20
1.422244561922063
 30
0.0
 40
0.2
 41
0.0
 71
     1
 72
     1
  1
BLANCHARD GROUND\PTWO SIDES, SEE NOTE
  7
SLDTEXTSTYLE0
 73
     1
 44
1.0
  0
MTEXT
  5
79
330
A
100
AcDbEntity
  8
0
 62
     1
100
AcDbMText
 10
14.8307358491
 20
2.923537735799999
 30
0.0
 40
0.3333333333
 41
0.0
 71
     2
 72
     1
  1
2 REQUIRED\PPER ASSEM
  7
SLDTEXTSTYLE0
 73
     1
 44
1.0
  0
MTEXT
  5
7A
330
A
100
AcDbEntity
  8
0
 62
     7
100
AcDbMText
 10
33.4267901591
 20
18.1773255851
 30
0.0
 40
0.1875
 41
0.0
 71
     1
 72
     1
  1
D
  7
SLDTEXTSTYLE0
 73
     1
 44
1.0
  0
MTEXT
  5
7B
330
A
100
AcDbEntity
  8
0
 62
     7
100
AcDbMText
 10
33.3902116994
 20
13.0924229495
 30
0.0
 40
0.1875
 41
0.0
 71
     1
 72
     1
  1
C
  7
SLDTEXTSTYLE0
 73
     1
 44
1.0
  0
MTEXT
  5
7C
330
A
100
AcDbEntity
  8
0
 62
     7
100
AcDbMText
 10
33.4122416003
 20
8.4376303193
 30
0.0
 40
0.1875
 41
0.0
 71
     1
 72
     1
  1
B
  7
SLDTEXTSTYLE0
 73
     1
 44
1.0
  0
MTEXT
  5
7D
330
A
100
AcDbEntity
  8
0
 62
     7
100
AcDbMText
 10
33.41110332019999
 20
3.4275364166
 30
0.0
 40
0.1875
 41
0.0
 71
     1
 72
     1
  1
A
  7
SLDTEXTSTYLE0
 73
     1
 44
1.0
  0
MTEXT
  5
7E
330
A
100
AcDbEntity
  8
0
 62
     7
100
AcDbMText
 10
1.928705197299999
 20
3.386828737099999
 30
0.0
 40
0.1875
 41
0.0
 71
     1
 72
     1
  1
A
  7
SLDTEXTSTYLE0
 73
     1
 44
1.0
  0
MTEXT
  5
7F
330
A
100
AcDbEntity
  8
0
 62
     7
100
AcDbMText
 10
1.9223190128
 20
8.5555905613
 30
0.0
 40
0.1875
 41
0.0
 71
     1
 72
     1
  1
B
  7
SLDTEXTSTYLE0
 73
     1
 44
1.0
  0
MTEXT
  5
80
330
A
100
AcDbEntity
  8
0
 62
     7
100
AcDbMText
 10
1.8976558109
 20
13.7484800132
 30
0.0
 40
0.1875
 41
0.0
 71
     1
 72
     1
  1
C
  7
SLDTEXTSTYLE0
 73
     1
 44
1.0
  0
MTEXT
  5
81
330
A
100
AcDbEntity
  8
0
 62
     7
100
AcDbMText
 10
1.8910979243
 20
18.61293676709999
 30
0.0
 40
0.1875
 41
0.0
 71
     1
 72
     1
  1
D
  7
SLDTEXTSTYLE0
 73
     1
 44
1.0
  0
MTEXT
  5
82
330
A
100
AcDbEntity
  8
0
 62
     7
100
AcDbMText
 10
32.3716116231
 20
1.0393571179
 30
0.0
 40
0.18
 41
0.0
 71
     1
 72
     1
  1
REV.
  7
SLDTEXTSTYLE0
 73
     1
 44
1.0
  0
MTEXT
  5
83
330
A
100
AcDbEntity
  8
0
 62
     7
100
AcDbMText
 10
24.6981540237
 20
3.517381948899999
 30
0.0
 40
0.18
 41
0.0
 71
     1
 72
     1
  1
%%p\P%%p\P%%p\P%%p
  7
SLDTEXTSTYLE0
 73
     1
 44
1.0
  0
MTEXT
  5
84
330
A
100
AcDbEntity
  8
0
 62
     7
100
AcDbMText
 10
17.6238830497
 20
2.1949691999
 30
0.0
 40
0.18
 41
0.0
 71
     1
 72
     1
  1
MATERIAL
  7
SLDTEXTSTYLE0
 73
     1
 44
1.0
  0
MTEXT
  5
85
330
A
100
AcDbEntity
  8
0
 62
     7
100
AcDbMText
 10
17.61930681289999
 20
1.4633476137
 30
0.0
 40
0.18
 41
0.0
 71
     1
 72
     1
  1
FINISH
  7
SLDTEXTSTYLE0
 73
     1
 44
1.0
  0
MTEXT
  5
86
330
A
100
AcDbEntity
  8
0
 62
     7
100
AcDbMText
 10
31.6008660067
 20
0.6435367619
 30
0.0
 40
0.1875
 41
0.0
 71
     1
 72
     1
  1
1
  7
SLDTEXTSTYLE0
 73
     1
 44
1.0
  0
MTEXT
  5
87
330
A
100
AcDbEntity
  8
0
 62
     7
100
AcDbMText
 10
27.188772508
 20
0.6630215896000001
 30
0.0
 40
0.1875
 41
0.0
 71
     1
 72
     1
  1
2
  7
SLDTEXTSTYLE0
 73
     1
 44
1.0
  0
MTEXT
  5
88
330
A
100
AcDbEntity
  8
0
 62
     7
100
AcDbMText
 10
23.07254336179999
 20
0.6695165322
 30
0.0
 40
0.1875
 41
0.0
 71
     1
 72
     1
  1
3
  7
SLDTEXTSTYLE0
 73
     1
 44
1.0
  0
MTEXT
  5
89
330
A
100
AcDbEntity
  8
0
 62
     7
100
AcDbMText
 10
19.36335516149999
 20
0.6734897547
 30
0.0
 40
0.1875
 41
0.0
 71
     1
 72
     1
  1
4
  7
SLDTEXTSTYLE0
 73
     1
 44
1.0
  0
MTEXT
  5
8A
330
A
100
AcDbEntity
  8
0
 62
     7
100
AcDbMText
 10
15.462529337
 20
0.6799846972
 30
0.0
 40
0.1875
 41
0.0
 71
     1
 72
     1
  1
5
  7
SLDTEXTSTYLE0
 73
     1
 44
1.0
  0
MTEXT
  5
8B
330
A
100
AcDbEntity
  8
0
 62
     7
100
AcDbMText
 10
11.8204309972
 20
0.6475099845000001
 30
0.0
 40
0.1875
 41
0.0
 71
     1
 72
     1
  1
6
  7
SLDTEXTSTYLE0
 73
     1
 44
1.0
  0
MTEXT
  5
8C
330
A
100
AcDbEntity
  8
0
 62
     7
100
AcDbMText
 10
7.8604617573
 20
0.6760114747000001
 30
0.0
 40
0.1875
 41
0.0
 71
     1
 72
     1
  1
7
  7
SLDTEXTSTYLE0
 73
     1
 44
1.0
  0
MTEXT
  5
8D
330
A
100
AcDbEntity
  8
0
 62
     7
100
AcDbMText
 10
4.296302728099999
 20
0.6799846972
 30
0.0
 40
0.1875
 41
0.0
 71
     1
 72
     1
  1
8
  7
SLDTEXTSTYLE0
 73
     1
 44
1.0
  0
MTEXT
  5
8E
330
A
100
AcDbEntity
  8
0
 62
     7
100
AcDbMText
 10
4.2345579061
 20
21.6173792426
 30
0.0
 40
0.1875
 41
0.0
 71
     1
 72
     1
  1
8
  7
SLDTEXTSTYLE0
 73
     1
 44
1.0
  0
MTEXT
  5
8F
330
A
100
AcDbEntity
  8
0
 62
     7
100
AcDbMText
 10
8.1409139955
 20
21.5728046875
 30
0.0
 40
0.1875
 41
0.0
 71
     1
 72
     1
  1
7
  7
SLDTEXTSTYLE0
 73
     1
 44
1.0
  0
MTEXT
  5
90
330
A
100
AcDbEntity
  8
0
 62
     7
100
AcDbMText
 10
11.9034294794
 20
21.55973741319999
 30
0.0
 40
0.1875
 41
0.0
 71
     1
 72
     1
  1
6
  7
SLDTEXTSTYLE0
 73
     1
 44
1.0
  0
MTEXT
  5
91
330
A
100
AcDbEntity
  8
0
 62
     7
100
AcDbMText
 10
15.8123883618
 20
21.536021799
 30
0.0
 40
0.1875
 41
0.0
 71
     1
 72
     1
  1
5
  7
SLDTEXTSTYLE0
 73
     1
 44
1.0
  0
MTEXT
  5
92
330
A
100
AcDbEntity
  8
0
 62
     7
100
AcDbMText
 10
19.69763163
 20
21.5936636285
 30
0.0
 40
0.1875
 41
0.0
 71
     1
 72
     1
  1
4
  7
SLDTEXTSTYLE0
 73
     1
 44
1.0
  0
MTEXT
  5
93
330
A
100
AcDbEntity
  8
0
 62
     7
100
AcDbMText
 10
23.6026044816
 20
21.5522932878
 30
0.0
 40
0.1875
 41
0.0
 71
     1
 72
     1
  1
3
  7
SLDTEXTSTYLE0
 73
     1
 44
1.0
  0
MTEXT
  5
94
330
A
100
AcDbEntity
  8
0
 62
     7
100
AcDbMText
 10
27.34209597019999
 20
21.57670052079999
 30
0.0
 40
0.1875
 41
0.0
 71
     1
 72
     1
  1
2
  7
SLDTEXTSTYLE0
 73
     1
 44
1.0
  0
MTEXT
  5
95
330
A
100
AcDbEntity
  8
0
 62
     7
100
AcDbMText
 10
31.3337955341
 20
21.5434659245
 30
0.0
 40
0.1875
 41
0.0
 71
     1
 72
     1
  1
1
  7
SLDTEXTSTYLE0
 73
     1
 44
1.0
  0
MTEXT
  5
96
330
A
100
AcDbEntity
  8
0
 62
     7
100
AcDbMText
 10
27.3108680233
 20
4.601434772
 30
0.0
 40
0.3333333333
 41
0.0
 71
     1
 72
     1
  1
RADIO  ASTRONOMY  LAB
  7
SLDTEXTSTYLE0
 73
     1
 44
1.0
  0
MTEXT
  5
97
330
A
100
AcDbEntity
  8
0
 62
     7
100
AcDbMText
 10
30.0455157509
 20
4.0390982181
 30
0.0
 40
0.2
 41
0.0
 71
     2
 72
     1
  1
University of California - Berkeley\PTel: 510-642-5040    Fax: 510-642-3411
  7
SLDTEXTSTYLE0
 73
     1
 44
1.0
  0
MTEXT
  5
98
330
A
100
AcDbEntity
  8
0
 62
     7
100
AcDbMText
 10
18.7679698813
 20
3.2755187723
 30
0.0
 40
0.18
 41
0.0
 71
     1
 72
     1
  1
NAME
  7
SLDTEXTSTYLE0
 73
     1
 44
1.0
  0
MTEXT
  5
99
330
A
100
AcDbEntity
  8
0
 62
     7
100
AcDbMText
 10
20.98387844709999
 20
3.266656853999999
 30
0.0
 40
0.18
 41
0.0
 71
     1
 72
     1
  1
DATE
  7
SLDTEXTSTYLE0
 73
     1
 44
1.0
  0
MTEXT
  5
9A
330
A
100
AcDbEntity
  8
0
 62
     7
100
AcDbMText
 10
27.1586608648
 20
1.048305726399999
 30
0.0
 40
0.18
 41
0.0
 71
     1
 72
     1
  1
SIZE
  7
SLDTEXTSTYLE0
 73
     1
 44
1.0
  0
MTEXT
  5
9B
330
A
100
AcDbEntity
  8
0
 62
     7
100
AcDbMText
 10
27.2689997612
 20
1.688263934499999
 30
0.0
 40
0.375
 41
0.0
 71
     1
 72
     1
  1
B
  7
SLDTEXTSTYLE0
 73
     1
 44
1.0
  0
MTEXT
  5
9C
330
A
100
AcDbEntity
  8
0
 62
     7
100
AcDbMText
 10
22.15842570219999
 20
1.025732341399999
 30
0.0
 40
0.18
 41
0.0
 71
     1
 72
     1
  1
SCALE:
  7
SLDTEXTSTYLE0
 73
     1
 44
1.0
  0
MTEXT
  5
9D
330
A
100
AcDbEntity
  8
0
 62
     7
100
AcDbMText
 10
27.8487811561
 20
1.040000562399999
 30
0.0
 40
0.18
 41
0.0
 71
     1
 72
     1
  1
DWG NUM:      SHEET             OF
  7
SLDTEXTSTYLE0
 73
     1
 44
1.0
  0
MTEXT
  5
9E
330
A
100
AcDbEntity
  8
0
 62
     7
100
AcDbMText
 10
31.9975629588
 20
20.77060537049999
 30
0.0
 40
0.18
 41
0.0
 71
     1
 72
     1
  1
DATE
  7
SLDTEXTSTYLE0
 73
     1
 44
1.0
  0
MTEXT
  5
9F
330
A
100
AcDbEntity
  8
0
 62
     7
100
AcDbMText
 10
30.60497715849999
 20
20.76974912069999
 30
0.0
 40
0.18
 41
0.0
 71
     1
 72
     1
  1
NAME
  7
SLDTEXTSTYLE0
 73
     1
 44
1.0
  0
MTEXT
  5
A0
330
A
100
AcDbEntity
  8
0
 62
     7
100
AcDbMText
 10
28.0661477015
 20
21.1439293414
 30
0.0
 40
0.18
 41
0.0
 71
     1
 72
     1
  1
REVISIONS
  7
SLDTEXTSTYLE0
 73
     1
 44
1.0
  0
MTEXT
  5
A1
330
A
100
AcDbEntity
  8
0
 62
     7
100
AcDbMText
 10
25.1643971738
 20
20.766866483
 30
0.0
 40
0.18
 41
0.0
 71
     1
 72
     1
  1
REV
  7
SLDTEXTSTYLE0
 73
     1
 44
1.0
  0
MTEXT
  5
A2
330
A
100
AcDbEntity
  8
0
 62
     7
100
AcDbMText
 10
25.9249113832
 20
20.7657813505
 30
0.0
 40
0.18
 41
0.0
 71
     1
 72
     1
  1
DESCRIPTION
  7
SLDTEXTSTYLE0
 73
     1
 44
1.0
  0
MTEXT
  5
A3
330
A
100
AcDbEntity
  8
0
 62
     7
100
AcDbMText
 10
22.1480393555
 20
1.3968916297
 30
0.0
 40
0.18
 41
0.0
 71
     1
 72
     1
  1
WEIGHT:
  7
SLDTEXTSTYLE0
 73
     1
 44
1.0
  0
MTEXT
  5
A4
330
A
100
AcDbEntity
  8
0
 62
     7
100
AcDbMText
 10
17.6215282352
 20
2.8950889263
 30
0.0
 40
0.18
 41
0.0
 71
     1
 72
     1
  1
DRAWN
  7
SLDTEXTSTYLE0
 73
     1
 44
1.0
  0
MTEXT
  5
A5
330
A
100
AcDbEntity
  8
0
 62
     7
100
AcDbMText
 10
17.6210734013
 20
2.5226608477
 30
0.0
 40
0.18
 41
0.0
 71
     1
 72
     1
  1
CHECKED
  7
SLDTEXTSTYLE0
 73
     1
 44
1.0
  0
MTEXT
  5
A6
330
A
100
AcDbEntity
  8
0
 62
     7
100
AcDbMText
 10
24.33055858489999
 20
3.507841019399999
 30
0.0
 40
0.18
 41
0.0
 71
     3
 72
     1
  1
WHOLE & FRACTION\PDECIMAL   X.X\PDECIMAL   X.XX\PDECIMAL   X.XXX
  7
SLDTEXTSTYLE0
 73
     1
 44
1.0
  0
MTEXT
  5
A7
330
A
100
AcDbEntity
  8
0
 62
     7
100
AcDbMText
 10
25.1745951406
 20
3.929472052099999
 30
0.0
 40
0.18
 41
0.0
 71
     2
 72
     1
  1
LINEAR
  7
SLDTEXTSTYLE0
 73
     1
 44
1.0
  0
MTEXT
  5
A8
330
A
100
AcDbEntity
  8
0
 62
     7
100
AcDbMText
 10
26.3356091027
 20
3.9415075313
 30
0.0
 40
0.18
 41
0.0
 71
     2
 72
     1
  1
ANGLE
  7
SLDTEXTSTYLE0
 73
     1
 44
1.0
  0
INSERT
  5
AF
330
A
100
AcDbEntity
  8
0
100
AcDbBlockReference
  2
NOTE51
 10
22.3339933715
 20
2.1880895052
 30
0.0
  0
MTEXT
  5
B0
330
A
100
AcDbEntity
  8
0
 62
     7
100
AcDbMText
 10
24.4975069762
 20
4.6178056931
 30
0.0
 40
0.18
 41
0.0
 71
     2
 72
     1
  1
UNLESS OTHERWISE SPECIFIED\PDIMENSIONS ARE INCHES & DEGREES
  7
SLDTEXTSTYLE0
 73
     1
 44
1.0
  0
MTEXT
  5
B1
330
A
100
AcDbEntity
  8
0
 62
     7
100
AcDbMText
 10
22.402600218
 20
3.916736906
 30
0.0
 40
0.18
 41
0.0
 71
     1
 72
     1
  1
TOLERANCES:
  7
SLDTEXTSTYLE0
 73
     1
 44
1.0
  0
MTEXT
  5
B2
330
A
100
AcDbEntity
  8
0
 62
     7
100
AcDbMText
 10
25.9109237025
 20
3.5156243355
 30
0.0
 40
0.18
 41
0.0
 71
     1
 72
     1
  1
%%p\P%%p\P%%p\P%%p
  7
SLDTEXTSTYLE0
 73
     1
 44
1.0
  0
MTEXT
  5
B3
330
A
100
AcDbEntity
  8
0
 62
     7
100
AcDbMText
 10
29.32680058709999
 20
20.77245287059999
 30
0.0
 40
0.18
 41
0.0
 71
     1
 72
     1
  1
ZONE
  7
SLDTEXTSTYLE0
 73
     1
 44
1.0
  0
MTEXT
  5
B4
330
A
100
AcDbEntity
  8
0
 62
     7
100
AcDbMText
 10
10.1904353639
 20
1.729133334399999
 30
0.0
 40
0.16
 41
0.0
 71
     1
 72
     1
  1
THIS DRAWING IS THE PROPERTY OF AND CONTAINS CONFIDENTIAL\PINFORMATION PROPRIETARY TO THE UNIVERSITY OF CALIFORNIA AND\PSHALL BE USED ONLY FOR THE PURPOSE FOR WHICH IT WAS PROVIDED\PAND SHALL NOT BE REPRODUCED OR DISCLOSED TO OTHERS.
  7
SLDTEXTSTYLE0
 73
     1
 44
1.0
  0
MTEXT
  5
B5
330
A
100
AcDbEntity
  8
0
 62
     7
100
AcDbMText
 10
25.27791722579999
 20
20.40979835219999
 30
0.0
 40
0.18
 41
0.0
 71
     1
 72
     1
  1
A
  7
SLDTEXTSTYLE0
 73
     1
 44
1.0
  0
MTEXT
  5
B6
330
A
100
AcDbEntity
  8
0
 62
     7
100
AcDbMText
 10
25.9559918278
 20
20.4093030167
 30
0.0
 40
0.18
 41
0.0
 71
     1
 72
     1
  1
RELEASED
  7
SLDTEXTSTYLE0
 73
     1
 44
1.0
  0
MTEXT
  5
B7
330
A
100
AcDbEntity
  8
0
 62
     7
100
AcDbMText
 10
18.7383483463
 20
2.9202537786
 30
0.0
 40
0.2083333333
 41
0.0
 71
     1
 72
     1
  1
M. C. FLEMING
  7
SLDTEXTSTYLE0
 73
     1
 44
1.0
  0
MTEXT
  5
B8
330
A
100
AcDbEntity
  8
0
 62
     7
100
AcDbMText
 10
32.50420877599999
 20
1.6541408956
 30
0.0
 40
0.375
 41
0.0
 71
     1
 72
     1
  1
A
  7
SLDTEXTSTYLE0
 73
     1
 44
1.0
  0
MTEXT
  5
B9
330
A
100
AcDbEntity
  8
0
 62
     7
100
AcDbMText
 10
20.6442805539
 20
2.9168083523
 30
0.0
 40
0.2083333333
 41
0.0
 71
     1
 72
     1
  1
2005-01-15
  7
SLDTEXTSTYLE0
 73
     1
 44
1.0
  0
MTEXT
  5
BA
330
A
100
AcDbEntity
  8
0
 62
     7
100
AcDbMText
 10
25.0248218265
 20
3.519653447799999
 30
0.0
 40
0.18
 41
0.0
 71
     1
 72
     1
  1
1/16\P0.1\P0.01\P0.005
  7
SLDTEXTSTYLE0
 73
     1
 44
1.0
  0
MTEXT
  5
BB
330
A
100
AcDbEntity
  8
0
 62
     7
100
AcDbMText
 10
26.2049684389
 20
3.515750204499999
 30
0.0
 40
0.18
 41
0.0
 71
     1
 72
     1
  1
1%%d\P0.1%%d\P0.01%%d\P0.001%%d
  7
SLDTEXTSTYLE0
 73
     1
 44
1.0
  0
MTEXT
  5
BC
330
A
100
AcDbEntity
  8
0
 62
     7
100
AcDbMText
 10
28.163406022
 20
1.6903240225
 30
0.0
 40
0.375
 41
0.0
 71
     1
 72
     1
  1
24-09-242  1 of 1
  7
SLDTEXTSTYLE0
 73
     1
 44
1.0
  0
MTEXT
  5
BD
330
A
100
AcDbEntity
  8
0
 62
     7
100
AcDbMText
 10
30.5919564989
 20
20.4101723016
 30
0.0
 40
0.2083333333
 41
0.0
 71
     1
 72
     1
  1
M.C.F.
  7
SLDTEXTSTYLE0
 73
     1
 44
1.0
  0
MTEXT
  5
BE
330
A
100
AcDbEntity
  8
0
 62
     7
100
AcDbMText
 10
31.68394801949999
 20
20.4083047929
 30
0.0
 40
0.2083333333
 41
0.0
 71
     1
 72
     1
  1
2005-01-15
  7
SLDTEXTSTYLE0
 73
     1
 44
1.0
  0
MTEXT
  5
BF
330
A
100
AcDbEntity
  8
0
 62
     7
100
AcDbMText
 10
29.877358803
 20
3.072572223199999
 30
0.0
 40
0.375
 41
0.0
 71
     2
 72
     1
  1
CARMA 6m Base,\PColumn Cap N & S
  7
SLDTEXTSTYLE0
 73
     1
 44
1.0
  0
CIRCLE
  5
C0
330
A
100
AcDbEntity
  8
0
  6
Continuous
 62
     7
370
    15
100
AcDbCircle
 10
15.6098338603
 20
12.07898080539999
 30
0.0
 40
0.6565
  0
LINE
  5
C1
330
A
100
AcDbEntity
  8
0
  6
Continuous
 62
     7
370
    15
100
AcDbLine
 10
19.6098338603
 20
15.95398080539999
 30
0.0
 11
11.6098338603
 21
15.95398080539999
 31
0.0
  0
ARC
  5
C2
330
A
100
AcDbEntity
  8
0
  6
Continuous
 62
     7
370
    15
100
AcDbCircle
 10
11.6098338603
 20
15.4539808054
 30
0.0
 40
0.5
100
AcDbArc
 50
90.0
 51
180.0
  0
LINE
  5
C3
330
A
100
AcDbEntity
  8
0
  6
Continuous
 62
     7
370
    15
100
AcDbLine
 10
11.1098338603
 20
15.4539808054
 30
0.0
 11
11.1098338603
 21
8.703980805399998
 31
0.0
  0
ARC
  5
C4
330
A
100
AcDbEntity
  8
0
  6
Continuous
 62
     7
370
    15
100
AcDbCircle
 10
11.6098338603
 20
8.703980805399998
 30
0.0
 40
0.5
100
AcDbArc
 50
180.0
 51
270.0
  0
LINE
  5
C5
330
A
100
AcDbEntity
  8
0
  6
Continuous
 62
     7
370
    15
100
AcDbLine
 10
11.6098338603
 20
8.203980805399998
 30
0.0
 11
19.6098338603
 21
8.203980805399998
 31
0.0
  0
ARC
  5
C6
330
A
100
AcDbEntity
  8
0
  6
Continuous
 62
     7
370
    15
100
AcDbCircle
 10
19.6098338603
 20
8.703980805399998
 30
0.0
 40
0.5
100
AcDbArc
 50
270.0
 51
0.0
  0
LINE
  5
C7
330
A
100
AcDbEntity
  8
0
  6
Continuous
 62
     7
370
    15
100
AcDbLine
 10
20.10983386029999
 20
8.703980805399998
 30
0.0
 11
20.10983386029999
 21
15.4539808054
 31
0.0
  0
ARC
  5
C8
330
A
100
AcDbEntity
  8
0
  6
Continuous
 62
     7
370
    15
100
AcDbCircle
 10
19.6098338603
 20
15.4539808054
 30
0.0
 40
0.5
100
AcDbArc
 50
0.0
 51
90.0
  0
CIRCLE
  5
C9
330
A
100
AcDbEntity
  8
0
  6
Continuous
 62
     7
370
    15
100
AcDbCircle
 10
15.6098338603
 20
12.07898080539999
 30
0.0
 40
0.5547
  0
DIMENSION
  5
D7
330
A
100
AcDbEntity
  8
0
100
AcDbDimension
  2
*D1
 10
7.063574524199999
 20
8.203980805399998
 30
0.0
 11
7.063574524199999
 21
12.07898080539999
 31
0.0
 70
   160
 71
     5
 42
0.0
  3
SLDDIMSTYLE0
100
AcDbAlignedDimension
 13
11.6098338603
 23
15.95398080539999
 33
0.0
 14
11.6098338603
 24
8.203980805399998
 34
0.0
 50
90.0
100
AcDbRotatedDimension
  0
DIMENSION
  5
E4
330
A
100
AcDbEntity
  8
0
100
AcDbDimension
  2
*D2
 10
20.10983386029999
 20
19.4702403245
 30
0.0
 11
15.6098338603
 21
19.4702403245
 31
0.0
 70
   160
 71
     5
 42
0.0
  3
SLDDIMSTYLE0
100
AcDbAlignedDimension
 13
11.1098338603
 23
15.4539808054
 33
0.0
 14
20.10983386029999
 24
15.4539808054
 34
0.0
100
AcDbRotatedDimension
  0
DIMENSION
  5
F1
330
A
100
AcDbEntity
  8
0
100
AcDbDimension
  2
*D3
 10
15.6098338603
 20
17.7019629317
 30
0.0
 11
13.3598338603
 21
17.7019629317
 31
0.0
 70
   160
 71
     5
 42
0.0
  3
SLDDIMSTYLE0
100
AcDbAlignedDimension
 13
11.1098338603
 23
15.4539808054
 33
0.0
 14
15.6098338603
 24
12.07898080539999
 34
0.0
100
AcDbRotatedDimension
  0
DIMENSION
  5
FE
330
A
100
AcDbEntity
  8
0
100
AcDbDimension
  2
*D4
 10
9.181061766599999
 20
12.07898080539999
 30
0.0
 11
9.181061766599999
 21
14.0164808054
 31
0.0
 70
   160
 71
     5
 42
0.0
  3
SLDDIMSTYLE0
100
AcDbAlignedDimension
 13
11.6098338603
 23
15.95398080539999
 33
0.0
 14
15.6098338603
 24
12.07898080539999
 34
0.0
 50
90.0
100
AcDbRotatedDimension
  0
DIMENSION
  5
10B
330
A
100
AcDbEntity
  8
0
100
AcDbDimension
  2
*D5
 10
19.6098338603
 20
8.703980805399998
 30
0.0
 11
22.387184466
 21
8.1237116013
 31
0.0
 70
   164
  1
<> RAD\P4 PLACES
 71
     5
 42
0.0
  3
SLDDIMSTYLE1
100
AcDbRadialDimension
 15
20.0781818202
 25
8.5289088532
 35
0.0
 40
0.0
  0
LEADER
  5
10C
330
A
100
AcDbEntity
  8
0
 62
     1
100
AcDbLeader
  3
SLDDIMSTYLE2
 73
     0
 76
     3
 10
15.7797265044
 20
11.4881900623
 30
0.0
 10
17.04168350619999
 20
6.901649622599999
 30
0.0
 10
17.54168350619999
 20
6.901649622599999
 30
0.0
340
10E
213
0.0
223
-0.1500507404452511
233
0.0
  0
MTEXT
  5
10E
102
{ACAD_REACTORS
330
10C
102
}
330
A
100
AcDbEntity
  8
0
 62
     1
100
AcDbMText
 10
17.5811345395
 20
7.051700363099999
 30
0.0
 40
0.2
 41
0.0
 71
     1
 72
     1
  1
%%c1 7/64 DRILL THRU\P%%c1 5/16 X 45%%d COUNTERSINK, BOTH SIDES\PTAP 1 1/4-7 THRU, STANDARD TAP\PCUSTOMER WILL RE-TAP IN FIELD WITH\PSPECIAL GH21 TO ACCEPT GALVANIZED BOLT\P1/2"CUSTOMER HAS TAP ( Matt 925-757-6785 )
  7
SLDTEXTSTYLE0
 73
     1
 44
1.0
  0
CIRCLE
  5
10F
330
A
100
AcDbEntity
  8
0
  6
HIDDEN
 62
     7
100
AcDbCircle
 10
15.6098338603
 20
12.07898080539999
 30
0.0
 40
0.625
  0
LINE
  5
110
330
A
100
AcDbEntity
  8
0
  6
Continuous
 62
     7
370
    15
100
AcDbLine
 10
26.0054830082
 20
15.4539808054
 30
0.0
 11
24.5674830082
 21
15.4539808054
 31
0.0
  0
LINE
  5
111
330
A
100
AcDbEntity
  8
0
  6
Continuous
 62
     7
370
    15
100
AcDbLine
 10
26.0054830082
 20
8.703980805399998
 30
0.0
 11
26.0054830082
 21
15.4539808054
 31
0.0
  0
LINE
  5
112
330
A
100
AcDbEntity
  8
0
  6
Continuous
 62
     7
370
    15
100
AcDbLine
 10
26.0054830082
 20
8.703980805399998
 30
0.0
 11
24.5674830082
 21
8.703980805399998
 31
0.0
  0
LINE
  5
113
330
A
100
AcDbEntity
  8
0
  6
Continuous
 62
     7
370
    15
100
AcDbLine
 10
24.5674830082
 20
8.703980805399998
 30
0.0
 11
24.5674830082
 21
15.4539808054
 31
0.0
  0
LINE
  5
114
330
A
100
AcDbEntity
  8
0
  6
Continuous
 62
     7
370
    15
100
AcDbLine
 10
26.0054830082
 20
8.203980805399998
 30
0.0
 11
26.0054830082
 21
8.703980805399998
 31
0.0
  0
LINE
  5
115
330
A
100
AcDbEntity
  8
0
  6
Continuous
 62
     7
370
    15
100
AcDbLine
 10
26.0054830082
 20
8.203980805399998
 30
0.0
 11
24.5674830082
 21
8.203980805399998
 31
0.0
  0
LINE
  5
116
330
A
100
AcDbEntity
  8
0
  6
Continuous
 62
     7
370
    15
100
AcDbLine
 10
24.5674830082
 20
8.203980805399998
 30
0.0
 11
24.5674830082
 21
8.703980805399998
 31
0.0
  0
LINE
  5
117
330
A
100
AcDbEntity
  8
0
  6
Continuous
 62
     7
370
    15
100
AcDbLine
 10
26.0054830082
 20
15.95398080539999
 30
0.0
 11
24.5674830082
 21
15.95398080539999
 31
0.0
  0
LINE
  5
118
330
A
100
AcDbEntity
  8
0
  6
Continuous
 62
     7
370
    15
100
AcDbLine
 10
24.5674830082
 20
15.4539808054
 30
0.0
 11
24.5674830082
 21
15.95398080539999
 31
0.0
  0
LINE
  5
119
330
A
100
AcDbEntity
  8
0
  6
Continuous
 62
     7
370
    15
100
AcDbLine
 10
26.0054830082
 20
15.4539808054
 30
0.0
 11
26.0054830082
 21
15.95398080539999
 31
0.0
  0
DIMENSION
  5
12C
330
A
100
AcDbEntity
  8
0
100
AcDbDimension
  2
*D6
 10
26.0054830082
 20
17.08842255049999
 30
0.0
 11
29.6433320942
 21
17.08842255049999
 31
0.0
 70
   160
  1
<> \PBLANCHARD GRIND \PBOTH SIDES FROM\P1 1/2" STOCK
 71
     5
 42
0.0
  3
SLDDIMSTYLE3
100
AcDbAlignedDimension
 13
24.5674830082
 23
15.4539808054
 33
0.0
 14
26.0054830082
 24
15.4539808054
 34
0.0
100
AcDbRotatedDimension
  0
LINE
  5
12D
330
A
100
AcDbEntity
  8
0
  6
Continuous
 62
     7
370
    15
100
AcDbLine
 10
9.617041161299999
 20
3.082999023399999
 30
0.0
 11
9.617041161299999
 21
3.6700918672
 31
0.0
  0
LINE
  5
12E
330
A
100
AcDbEntity
  8
0
  6
Continuous
 62
     7
370
    15
100
AcDbLine
 10
3.902128649999999
 20
3.925219402099999
 30
0.0
 11
3.902128649999999
 21
3.338126558399999
 31
0.0
  0
LINE
  5
12F
330
A
100
AcDbEntity
  8
0
  6
Continuous
 62
     7
370
    15
100
AcDbLine
 10
7.1573324701
 20
2.190352164499999
 30
0.0
 11
9.5438178566
 21
3.568040853199999
 31
0.0
  0
POLYLINE
  5
130
330
A
100
AcDbEntity
  8
0
  6
Continuous
 62
     7
100
AcDb2dPolyline
 66
     1
 10
0.0
 20
0.0
 30
0.0
 70
   128
 40
0.0011811024
 41
0.0011811024
  0
VERTEX
  5
131
330
130
100
AcDbEntity
  8
0
100
AcDbVertex
100
AcDb2dVertex
 10
6.8037790795
 20
2.190352164499999
 30
0.0
  0
VERTEX
  5
132
330
130
100
AcDbEntity
  8
0
100
AcDbVertex
100
AcDb2dVertex
 10
6.833609461699999
 20
2.175644285999999
 30
0.0
  0
VERTEX
  5
133
330
130
100
AcDbEntity
  8
0
100
AcDbVertex
100
AcDb2dVertex
 10
6.8670581498
 20
2.163811399
 30
0.0
  0
VERTEX
  5
134
330
130
100
AcDbEntity
  8
0
100
AcDbVertex
100
AcDb2dVertex
 10
6.903301526199999
 20
2.155144868399999
 30
0.0
  0
VERTEX
  5
135
330
130
100
AcDbEntity
  8
0
100
AcDbVertex
100
AcDb2dVertex
 10
6.941447158499999
 20
2.149858092899999
 30
0.0
  0
VERTEX
  5
136
330
130
100
AcDbEntity
  8
0
100
AcDbVertex
100
AcDb2dVertex
 10
6.9805557748
 20
2.1480812505
 30
0.0
  0
VERTEX
  5
137
330
130
100
AcDbEntity
  8
0
100
AcDbVertex
100
AcDb2dVertex
 10
7.019664391
 20
2.149858092899999
 30
0.0
  0
VERTEX
  5
138
330
130
100
AcDbEntity
  8
0
100
AcDbVertex
100
AcDb2dVertex
 10
7.0578100234
 20
2.155144868399999
 30
0.0
  0
VERTEX
  5
139
330
130
100
AcDbEntity
  8
0
100
AcDbVertex
100
AcDb2dVertex
 10
7.094053399699999
 20
2.163811399
 30
0.0
  0
VERTEX
  5
13A
330
130
100
AcDbEntity
  8
0
100
AcDbVertex
100
AcDb2dVertex
 10
7.127502087899999
 20
2.175644285999999
 30
0.0
  0
VERTEX
  5
13B
330
130
100
AcDbEntity
  8
0
100
AcDbVertex
100
AcDb2dVertex
 10
7.1573324701
 20
2.190352164499999
 30
0.0
  0
SEQEND
  5
13C
330
130
100
AcDbEntity
  8
0
  0
LINE
  5
13D
330
A
100
AcDbEntity
  8
0
  6
Continuous
 62
     7
370
    15
100
AcDbLine
 10
3.9753519547
 20
3.8231683881
 30
0.0
 11
6.8037790795
 21
2.190352164499999
 31
0.0
  0
POLYLINE
  5
13E
330
A
100
AcDbEntity
  8
0
  6
Continuous
 62
     7
100
AcDb2dPolyline
 66
     1
 10
0.0
 20
0.0
 30
0.0
 70
   128
 40
0.0011811024
 41
0.0011811024
  0
VERTEX
  5
13F
330
13E
100
AcDbEntity
  8
0
100
AcDbVertex
100
AcDb2dVertex
 10
3.9753519547
 20
4.0272704161
 30
0.0
  0
VERTEX
  5
140
330
13E
100
AcDbEntity
  8
0
100
AcDbVertex
100
AcDb2dVertex
 10
3.949874401399999
 20
4.010049702999999
 30
0.0
  0
VERTEX
  5
141
330
13E
100
AcDbEntity
  8
0
100
AcDbVertex
100
AcDb2dVertex
 10
3.929377019
 20
3.9907401863
 30
0.0
  0
VERTEX
  5
142
330
13E
100
AcDbEntity
  8
0
100
AcDbVertex
100
AcDb2dVertex
 10
3.914364521
 20
3.9698173305
 30
0.0
  0
VERTEX
  5
143
330
13E
100
AcDbEntity
  8
0
100
AcDbVertex
100
AcDb2dVertex
 10
3.9052065649
 20
3.947796325699999
 30
0.0
  0
VERTEX
  5
144
330
13E
100
AcDbEntity
  8
0
100
AcDbVertex
100
AcDb2dVertex
 10
3.902128649999999
 20
3.925219402099999
 30
0.0
  0
VERTEX
  5
145
330
13E
100
AcDbEntity
  8
0
100
AcDbVertex
100
AcDb2dVertex
 10
3.9052065649
 20
3.9026424785
 30
0.0
  0
VERTEX
  5
146
330
13E
100
AcDbEntity
  8
0
100
AcDbVertex
100
AcDb2dVertex
 10
3.914364521
 20
3.8806214737
 30
0.0
  0
VERTEX
  5
147
330
13E
100
AcDbEntity
  8
0
100
AcDbVertex
100
AcDb2dVertex
 10
3.929377019
 20
3.8596986179
 30
0.0
  0
VERTEX
  5
148
330
13E
100
AcDbEntity
  8
0
100
AcDbVertex
100
AcDb2dVertex
 10
3.949874401399999
 20
3.840389101199999
 30
0.0
  0
VERTEX
  5
149
330
13E
100
AcDbEntity
  8
0
100
AcDbVertex
100
AcDb2dVertex
 10
3.9753519547
 20
3.8231683881
 30
0.0
  0
SEQEND
  5
14A
330
13E
100
AcDbEntity
  8
0
  0
LINE
  5
14B
330
A
100
AcDbEntity
  8
0
  6
Continuous
 62
     7
370
    15
100
AcDbLine
 10
6.3618373412
 20
5.4049591048
 30
0.0
 11
3.9753519547
 21
4.0272704161
 31
0.0
  0
POLYLINE
  5
14C
330
A
100
AcDbEntity
  8
0
  6
Continuous
 62
     7
100
AcDb2dPolyline
 66
     1
 10
0.0
 20
0.0
 30
0.0
 70
   128
 40
0.0011811024
 41
0.0011811024
  0
VERTEX
  5
14D
330
14C
100
AcDbEntity
  8
0
100
AcDbVertex
100
AcDb2dVertex
 10
6.715390731799999
 20
5.4049591048
 30
0.0
  0
VERTEX
  5
14E
330
14C
100
AcDbEntity
  8
0
100
AcDbVertex
100
AcDb2dVertex
 10
6.6855603496
 20
5.4196669832
 30
0.0
  0
VERTEX
  5
14F
330
14C
100
AcDbEntity
  8
0
100
AcDbVertex
100
AcDb2dVertex
 10
6.652111661499999
 20
5.431499870299999
 30
0.0
  0
VERTEX
  5
150
330
14C
100
AcDbEntity
  8
0
100
AcDbVertex
100
AcDb2dVertex
 10
6.615868285099999
 20
5.440166400899999
 30
0.0
  0
VERTEX
  5
151
330
14C
100
AcDbEntity
  8
0
100
AcDbVertex
100
AcDb2dVertex
 10
6.577722652799999
 20
5.4454531764
 30
0.0
  0
VERTEX
  5
152
330
14C
100
AcDbEntity
  8
0
100
AcDbVertex
100
AcDb2dVertex
 10
6.538614036499999
 20
5.4472300188
 30
0.0
  0
VERTEX
  5
153
330
14C
100
AcDbEntity
  8
0
100
AcDbVertex
100
AcDb2dVertex
 10
6.499505420299999
 20
5.4454531764
 30
0.0
  0
VERTEX
  5
154
330
14C
100
AcDbEntity
  8
0
100
AcDbVertex
100
AcDb2dVertex
 10
6.461359787899999
 20
5.440166400899999
 30
0.0
  0
VERTEX
  5
155
330
14C
100
AcDbEntity
  8
0
100
AcDbVertex
100
AcDb2dVertex
 10
6.425116411599999
 20
5.431499870299999
 30
0.0
  0
VERTEX
  5
156
330
14C
100
AcDbEntity
  8
0
100
AcDbVertex
100
AcDb2dVertex
 10
6.3916677235
 20
5.4196669832
 30
0.0
  0
VERTEX
  5
157
330
14C
100
AcDbEntity
  8
0
100
AcDbVertex
100
AcDb2dVertex
 10
6.3618373412
 20
5.4049591048
 30
0.0
  0
SEQEND
  5
158
330
14C
100
AcDbEntity
  8
0
  0
LINE
  5
159
330
A
100
AcDbEntity
  8
0
  6
Continuous
 62
     7
370
    15
100
AcDbLine
 10
9.5438178566
 20
3.7721428812
 30
0.0
 11
6.715390731799999
 21
5.4049591048
 31
0.0
  0
POLYLINE
  5
15A
330
A
100
AcDbEntity
  8
0
  6
Continuous
 62
     7
100
AcDb2dPolyline
 66
     1
 10
0.0
 20
0.0
 30
0.0
 70
   128
 40
0.0011811024
 41
0.0011811024
  0
VERTEX
  5
15B
330
15A
100
AcDbEntity
  8
0
100
AcDbVertex
100
AcDb2dVertex
 10
9.5438178566
 20
3.568040853199999
 30
0.0
  0
VERTEX
  5
15C
330
15A
100
AcDbEntity
  8
0
100
AcDbVertex
100
AcDb2dVertex
 10
9.5692954099
 20
3.585261566299999
 30
0.0
  0
VERTEX
  5
15D
330
15A
100
AcDbEntity
  8
0
100
AcDbVertex
100
AcDb2dVertex
 10
9.5897927923
 20
3.6045710829
 30
0.0
  0
VERTEX
  5
15E
330
15A
100
AcDbEntity
  8
0
100
AcDbVertex
100
AcDb2dVertex
 10
9.604805290399999
 20
3.6254939388
 30
0.0
  0
VERTEX
  5
15F
330
15A
100
AcDbEntity
  8
0
100
AcDbVertex
100
AcDb2dVertex
 10
9.613963246399999
 20
3.6475149436
 30
0.0
  0
VERTEX
  5
160
330
15A
100
AcDbEntity
  8
0
100
AcDbVertex
100
AcDb2dVertex
 10
9.617041161299999
 20
3.6700918672
 30
0.0
  0
VERTEX
  5
161
330
15A
100
AcDbEntity
  8
0
100
AcDbVertex
100
AcDb2dVertex
 10
9.613963246399999
 20
3.692668790799999
 30
0.0
  0
VERTEX
  5
162
330
15A
100
AcDbEntity
  8
0
100
AcDbVertex
100
AcDb2dVertex
 10
9.604805290399999
 20
3.7146897956
 30
0.0
  0
VERTEX
  5
163
330
15A
100
AcDbEntity
  8
0
100
AcDbVertex
100
AcDb2dVertex
 10
9.5897927923
 20
3.735612651399999
 30
0.0
  0
VERTEX
  5
164
330
15A
100
AcDbEntity
  8
0
100
AcDbVertex
100
AcDb2dVertex
 10
9.5692954099
 20
3.754922168
 30
0.0
  0
VERTEX
  5
165
330
15A
100
AcDbEntity
  8
0
100
AcDbVertex
100
AcDb2dVertex
 10
9.5438178566
 20
3.7721428812
 30
0.0
  0
SEQEND
  5
166
330
15A
100
AcDbEntity
  8
0
  0
POLYLINE
  5
167
330
A
100
AcDbEntity
  8
0
  6
Continuous
 62
     7
100
AcDb2dPolyline
 66
     1
 10
0.0
 20
0.0
 30
0.0
 70
   128
 40
0.0011811024
 41
0.0011811024
  0
VERTEX
  5
168
330
167
100
AcDbEntity
  8
0
100
AcDbVertex
100
AcDb2dVertex
 10
6.527477104699999
 20
3.663662653299999
 30
0.0
  0
VERTEX
  5
169
330
167
100
AcDbEntity
  8
0
100
AcDbVertex
100
AcDb2dVertex
 10
6.5612443108
 20
3.646665295899999
 30
0.0
  0
VERTEX
  5
16A
330
167
100
AcDbEntity
  8
0
100
AcDbVertex
100
AcDb2dVertex
 10
6.5987062269
 20
3.632480602799999
 30
0.0
  0
VERTEX
  5
16B
330
167
100
AcDbEntity
  8
0
100
AcDbVertex
100
AcDb2dVertex
 10
6.6391650083
 20
3.621372808
 30
0.0
  0
VERTEX
  5
16C
330
167
100
AcDbEntity
  8
0
100
AcDbVertex
100
AcDb2dVertex
 10
6.6818669846
 20
3.613548828799999
 30
0.0
  0
VERTEX
  5
16D
330
167
100
AcDbEntity
  8
0
100
AcDbVertex
100
AcDb2dVertex
 10
6.726016698799999
 20
3.609154411
 30
0.0
  0
VERTEX
  5
16E
330
167
100
AcDbEntity
  8
0
100
AcDbVertex
100
AcDb2dVertex
 10
6.770791725099999
 20
3.608271414299999
 30
0.0
  0
VERTEX
  5
16F
330
167
100
AcDbEntity
  8
0
100
AcDbVertex
100
AcDb2dVertex
 10
6.8153579895
 20
3.6109162874
 30
0.0
  0
VERTEX
  5
170
330
167
100
AcDbEntity
  8
0
100
AcDbVertex
100
AcDb2dVertex
 10
6.858885307
 20
3.6170397611
 30
0.0
  0
VERTEX
  5
171
330
167
100
AcDbEntity
  8
0
100
AcDbVertex
100
AcDb2dVertex
 10
6.9005628458
 20
3.6265277668
 30
0.0
  0
VERTEX
  5
172
330
167
100
AcDbEntity
  8
0
100
AcDbVertex
100
AcDb2dVertex
 10
6.9396142324
 20
3.639203561
 30
0.0
  0
VERTEX
  5
173
330
167
100
AcDbEntity
  8
0
100
AcDbVertex
100
AcDb2dVertex
 10
6.9753120132
 20
3.6548310174
 30
0.0
  0
VERTEX
  5
174
330
167
100
AcDbEntity
  8
0
100
AcDbVertex
100
AcDb2dVertex
 10
7.0069912062
 20
3.673119026299999
 30
0.0
  0
VERTEX
  5
175
330
167
100
AcDbEntity
  8
0
100
AcDbVertex
100
AcDb2dVertex
 10
7.034061687899999
 20
3.693726916499999
 30
0.0
  0
VERTEX
  5
176
330
167
100
AcDbEntity
  8
0
100
AcDbVertex
100
AcDb2dVertex
 10
7.056019186499999
 20
3.716270802099999
 30
0.0
  0
VERTEX
  5
177
330
167
100
AcDbEntity
  8
0
100
AcDbVertex
100
AcDb2dVertex
 10
7.072454675399999
 20
3.740330733199999
 30
0.0
  0
VERTEX
  5
178
330
167
100
AcDbEntity
  8
0
100
AcDbVertex
100
AcDb2dVertex
 10
7.0830619924
 20
3.7654585187
 30
0.0
  0
VERTEX
  5
179
330
167
100
AcDbEntity
  8
0
100
AcDbVertex
100
AcDb2dVertex
 10
7.0876435433
 20
3.7911860755
 30
0.0
  0
VERTEX
  5
17A
330
167
100
AcDbEntity
  8
0
100
AcDbVertex
100
AcDb2dVertex
 10
7.086113982399999
 20
3.817034148
 30
0.0
  0
VERTEX
  5
17B
330
167
100
AcDbEntity
  8
0
100
AcDbVertex
100
AcDb2dVertex
 10
7.078501802799999
 20
3.842521235499999
 30
0.0
  0
VERTEX
  5
17C
330
167
100
AcDbEntity
  8
0
100
AcDbVertex
100
AcDb2dVertex
 10
7.0649488047
 20
3.8671725617
 30
0.0
  0
VERTEX
  5
17D
330
167
100
AcDbEntity
  8
0
100
AcDbVertex
100
AcDb2dVertex
 10
7.0457074549
 20
3.890528918999999
 30
0.0
  0
VERTEX
  5
17E
330
167
100
AcDbEntity
  8
0
100
AcDbVertex
100
AcDb2dVertex
 10
7.0211361835
 20
3.9121552229
 30
0.0
  0
VERTEX
  5
17F
330
167
100
AcDbEntity
  8
0
100
AcDbVertex
100
AcDb2dVertex
 10
6.991692706599999
 20
3.931648616
 30
0.0
  0
VERTEX
  5
180
330
167
100
AcDbEntity
  8
0
100
AcDbVertex
100
AcDb2dVertex
 10
6.957925500499999
 20
3.948645973399999
 30
0.0
  0
VERTEX
  5
181
330
167
100
AcDbEntity
  8
0
100
AcDbVertex
100
AcDb2dVertex
 10
6.9204635844
 20
3.9628306665
 30
0.0
  0
VERTEX
  5
182
330
167
100
AcDbEntity
  8
0
100
AcDbVertex
100
AcDb2dVertex
 10
6.880004802999999
 20
3.973938461299999
 30
0.0
  0
VERTEX
  5
183
330
167
100
AcDbEntity
  8
0
100
AcDbVertex
100
AcDb2dVertex
 10
6.837302826699999
 20
3.9817624405
 30
0.0
  0
VERTEX
  5
184
330
167
100
AcDbEntity
  8
0
100
AcDbVertex
100
AcDb2dVertex
 10
6.793153112599999
 20
3.986156858299999
 30
0.0
  0
VERTEX
  5
185
330
167
100
AcDbEntity
  8
0
100
AcDbVertex
100
AcDb2dVertex
 10
6.748378086199999
 20
3.987039854999999
 30
0.0
  0
VERTEX
  5
186
330
167
100
AcDbEntity
  8
0
100
AcDbVertex
100
AcDb2dVertex
 10
6.703811821799999
 20
3.984394981899999
 30
0.0
  0
VERTEX
  5
187
330
167
100
AcDbEntity
  8
0
100
AcDbVertex
100
AcDb2dVertex
 10
6.660284504299999
 20
3.978271508199999
 30
0.0
  0
VERTEX
  5
188
330
167
100
AcDbEntity
  8
0
100
AcDbVertex
100
AcDb2dVertex
 10
6.618606965499999
 20
3.968783502399999
 30
0.0
  0
VERTEX
  5
189
330
167
100
AcDbEntity
  8
0
100
AcDbVertex
100
AcDb2dVertex
 10
6.579555578899999
 20
3.956107708299999
 30
0.0
  0
VERTEX
  5
18A
330
167
100
AcDbEntity
  8
0
100
AcDbVertex
100
AcDb2dVertex
 10
6.543857798099999
 20
3.9404802519
 30
0.0
  0
VERTEX
  5
18B
330
167
100
AcDbEntity
  8
0
100
AcDbVertex
100
AcDb2dVertex
 10
6.512178605099999
 20
3.922192242999999
 30
0.0
  0
VERTEX
  5
18C
330
167
100
AcDbEntity
  8
0
100
AcDbVertex
100
AcDb2dVertex
 10
6.4851081234
 20
3.901584352799999
 30
0.0
  0
VERTEX
  5
18D
330
167
100
AcDbEntity
  8
0
100
AcDbVertex
100
AcDb2dVertex
 10
6.463150624799999
 20
3.8790404672
 30
0.0
  0
VERTEX
  5
18E
330
167
100
AcDbEntity
  8
0
100
AcDbVertex
100
AcDb2dVertex
 10
6.446715135999999
 20
3.8549805361
 30
0.0
  0
VERTEX
  5
18F
330
167
100
AcDbEntity
  8
0
100
AcDbVertex
100
AcDb2dVertex
 10
6.436107819
 20
3.8298527506
 30
0.0
  0
VERTEX
  5
190
330
167
100
AcDbEntity
  8
0
100
AcDbVertex
100
AcDb2dVertex
 10
6.431526268099999
 20
3.8041251938
 30
0.0
  0
VERTEX
  5
191
330
167
100
AcDbEntity
  8
0
100
AcDbVertex
100
AcDb2dVertex
 10
6.433055828899999
 20
3.778277121299999
 30
0.0
  0
VERTEX
  5
192
330
167
100
AcDbEntity
  8
0
100
AcDbVertex
100
AcDb2dVertex
 10
6.4406680086
 20
3.752790033799999
 30
0.0
  0
VERTEX
  5
193
330
167
100
AcDbEntity
  8
0
100
AcDbVertex
100
AcDb2dVertex
 10
6.4542210066
 20
3.728138707599999
 30
0.0
  0
VERTEX
  5
194
330
167
100
AcDbEntity
  8
0
100
AcDbVertex
100
AcDb2dVertex
 10
6.473462356399999
 20
3.704782350199999
 30
0.0
  0
VERTEX
  5
195
330
167
100
AcDbEntity
  8
0
100
AcDbVertex
100
AcDb2dVertex
 10
6.498033627799999
 20
3.683156046399999
 30
0.0
  0
VERTEX
  5
196
330
167
100
AcDbEntity
  8
0
100
AcDbVertex
100
AcDb2dVertex
 10
6.527477104699999
 20
3.663662653299999
 30
0.0
  0
SEQEND
  5
197
330
167
100
AcDbEntity
  8
0
  0
LINE
  5
198
330
A
100
AcDbEntity
  8
0
  6
Continuous
 62
     7
370
    15
100
AcDbLine
 10
7.1573324701
 20
1.603259320699999
 30
0.0
 11
7.1573324701
 21
2.190352164499999
 31
0.0
  0
POLYLINE
  5
199
330
A
100
AcDbEntity
  8
0
  6
Continuous
 62
     7
100
AcDb2dPolyline
 66
     1
 10
0.0
 20
0.0
 30
0.0
 70
   128
 40
0.0011811024
 41
0.0011811024
  0
VERTEX
  5
19A
330
199
100
AcDbEntity
  8
0
100
AcDbVertex
100
AcDb2dVertex
 10
6.8037790795
 20
1.603259320699999
 30
0.0
  0
VERTEX
  5
19B
330
199
100
AcDbEntity
  8
0
100
AcDbVertex
100
AcDb2dVertex
 10
6.833609461699999
 20
1.588551442299999
 30
0.0
  0
VERTEX
  5
19C
330
199
100
AcDbEntity
  8
0
100
AcDbVertex
100
AcDb2dVertex
 10
6.8670581498
 20
1.5767185553
 30
0.0
  0
VERTEX
  5
19D
330
199
100
AcDbEntity
  8
0
100
AcDbVertex
100
AcDb2dVertex
 10
6.903301526199999
 20
1.5680520246
 30
0.0
  0
VERTEX
  5
19E
330
199
100
AcDbEntity
  8
0
100
AcDbVertex
100
AcDb2dVertex
 10
6.941447158499999
 20
1.562765249099999
 30
0.0
  0
VERTEX
  5
19F
330
199
100
AcDbEntity
  8
0
100
AcDbVertex
100
AcDb2dVertex
 10
6.9805557748
 20
1.560988406699999
 30
0.0
  0
VERTEX
  5
1A0
330
199
100
AcDbEntity
  8
0
100
AcDbVertex
100
AcDb2dVertex
 10
7.019664391
 20
1.562765249099999
 30
0.0
  0
VERTEX
  5
1A1
330
199
100
AcDbEntity
  8
0
100
AcDbVertex
100
AcDb2dVertex
 10
7.0578100234
 20
1.5680520246
 30
0.0
  0
VERTEX
  5
1A2
330
199
100
AcDbEntity
  8
0
100
AcDbVertex
100
AcDb2dVertex
 10
7.094053399699999
 20
1.5767185553
 30
0.0
  0
VERTEX
  5
1A3
330
199
100
AcDbEntity
  8
0
100
AcDbVertex
100
AcDb2dVertex
 10
7.127502087899999
 20
1.588551442299999
 30
0.0
  0
VERTEX
  5
1A4
330
199
100
AcDbEntity
  8
0
100
AcDbVertex
100
AcDb2dVertex
 10
7.1573324701
 20
1.603259320699999
 30
0.0
  0
SEQEND
  5
1A5
330
199
100
AcDbEntity
  8
0
  0
LINE
  5
1A6
330
A
100
AcDbEntity
  8
0
  6
Continuous
 62
     7
370
    15
100
AcDbLine
 10
6.8037790795
 20
1.603259320699999
 30
0.0
 11
6.8037790795
 21
2.190352164499999
 31
0.0
  0
LINE
  5
1A7
330
A
100
AcDbEntity
  8
0
  6
Continuous
 62
     7
370
    15
100
AcDbLine
 10
9.5438178566
 20
2.9809480094
 30
0.0
 11
9.5438178566
 21
3.568040853199999
 31
0.0
  0
LINE
  5
1A8
330
A
100
AcDbEntity
  8
0
  6
Continuous
 62
     7
370
    15
100
AcDbLine
 10
7.1573324701
 20
1.603259320699999
 30
0.0
 11
9.5438178566
 21
2.9809480094
 31
0.0
  0
LINE
  5
1A9
330
A
100
AcDbEntity
  8
0
  6
Continuous
 62
     7
370
    15
100
AcDbLine
 10
3.9753519547
 20
3.236075544399999
 30
0.0
 11
6.8037790795
 21
1.603259320699999
 31
0.0
  0
LINE
  5
1AA
330
A
100
AcDbEntity
  8
0
  6
Continuous
 62
     7
370
    15
100
AcDbLine
 10
3.9753519547
 20
3.236075544399999
 30
0.0
 11
3.9753519547
 21
3.8231683881
 31
0.0
  0
POLYLINE
  5
1AB
330
A
100
AcDbEntity
  8
0
  6
Continuous
 62
     7
100
AcDb2dPolyline
 66
     1
 10
0.0
 20
0.0
 30
0.0
 70
   128
 40
0.0011811024
 41
0.0011811024
  0
VERTEX
  5
1AC
330
1AB
100
AcDbEntity
  8
0
100
AcDbVertex
100
AcDb2dVertex
 10
6.9722129748
 20
3.6532905704
 30
0.0
  0
VERTEX
  5
1AD
330
1AB
100
AcDbEntity
  8
0
100
AcDbVertex
100
AcDb2dVertex
 10
6.9944238623
 20
3.6709096542
 30
0.0
  0
VERTEX
  5
1AE
330
1AB
100
AcDbEntity
  8
0
100
AcDbVertex
100
AcDb2dVertex
 10
7.0137934473
 20
3.6920666966
 30
0.0
  0
VERTEX
  5
1AF
330
1AB
100
AcDbEntity
  8
0
100
AcDbVertex
100
AcDb2dVertex
 10
7.027484433599999
 20
3.7146539967
 30
0.0
  0
VERTEX
  5
1B0
330
1AB
100
AcDbEntity
  8
0
100
AcDbVertex
100
AcDb2dVertex
 10
7.0351909871
 20
3.738166991399999
 30
0.0
  0
VERTEX
  5
1B1
330
1AB
100
AcDbEntity
  8
0
100
AcDbVertex
100
AcDb2dVertex
 10
7.0367409561
 20
3.7620804394
 30
0.0
  0
VERTEX
  5
1B2
330
1AB
100
AcDbEntity
  8
0
100
AcDbVertex
100
AcDb2dVertex
 10
7.032099717
 20
3.7858601536
 30
0.0
  0
VERTEX
  5
1B3
330
1AB
100
AcDbEntity
  8
0
100
AcDbVertex
100
AcDb2dVertex
 10
7.0213709473
 20
3.808974934599999
 30
0.0
  0
VERTEX
  5
1B4
330
1AB
100
AcDbEntity
  8
0
100
AcDbVertex
100
AcDb2dVertex
 10
7.00479431
 20
3.830908436399999
 30
0.0
  0
VERTEX
  5
1B5
330
1AB
100
AcDbEntity
  8
0
100
AcDbVertex
100
AcDb2dVertex
 10
6.982740099899999
 20
3.8511707008
 30
0.0
  0
VERTEX
  5
1B6
330
1AB
100
AcDbEntity
  8
0
100
AcDbVertex
100
AcDb2dVertex
 10
6.955700971399999
 20
3.8693091022
 30
0.0
  0
VERTEX
  5
1B7
330
1AB
100
AcDbEntity
  8
0
100
AcDbVertex
100
AcDb2dVertex
 10
6.924280934099999
 20
3.884918458799999
 30
0.0
  0
VERTEX
  5
1B8
330
1AB
100
AcDbEntity
  8
0
100
AcDbVertex
100
AcDb2dVertex
 10
6.889181859699999
 20
3.897650083399999
 30
0.0
  0
VERTEX
  5
1B9
330
1AB
100
AcDbEntity
  8
0
100
AcDbVertex
100
AcDb2dVertex
 10
6.8511878035
 20
3.9072195724
 30
0.0
  0
VERTEX
  5
1BA
330
1AB
100
AcDbEntity
  8
0
100
AcDbVertex
100
AcDb2dVertex
 10
6.811147489899999
 20
3.9134131593
 30
0.0
  0
VERTEX
  5
1BB
330
1AB
100
AcDbEntity
  8
0
100
AcDbVertex
100
AcDb2dVertex
 10
6.7699553534
 20
3.9160924896
 30
0.0
  0
VERTEX
  5
1BC
330
1AB
100
AcDbEntity
  8
0
100
AcDbVertex
100
AcDb2dVertex
 10
6.7285315582
 20
3.915197711499999
 30
0.0
  0
VERTEX
  5
1BD
330
1AB
100
AcDbEntity
  8
0
100
AcDbVertex
100
AcDb2dVertex
 10
6.6878014435
 20
3.9107488129
 30
0.0
  0
VERTEX
  5
1BE
330
1AB
100
AcDbEntity
  8
0
100
AcDbVertex
100
AcDb2dVertex
 10
6.6486748527
 20
3.9028451747
 30
0.0
  0
VERTEX
  5
1BF
330
1AB
100
AcDbEntity
  8
0
100
AcDbVertex
100
AcDb2dVertex
 10
6.612025809199999
 20
3.8916633513
 30
0.0
  0
VERTEX
  5
1C0
330
1AB
100
AcDbEntity
  8
0
100
AcDbVertex
100
AcDb2dVertex
 10
6.5786729921
 20
3.8774531261
 30
0.0
  0
VERTEX
  5
1C1
330
1AB
100
AcDbEntity
  8
0
100
AcDbVertex
100
AcDb2dVertex
 10
6.5493614482
 20
3.860531931999999
 30
0.0
  0
VERTEX
  5
1C2
330
1AB
100
AcDbEntity
  8
0
100
AcDbVertex
100
AcDb2dVertex
 10
6.524745948999999
 20
3.8412777605
 30
0.0
  0
VERTEX
  5
1C3
330
1AB
100
AcDbEntity
  8
0
100
AcDbVertex
100
AcDb2dVertex
 10
6.505376363999999
 20
3.820120718
 30
0.0
  0
VERTEX
  5
1C4
330
1AB
100
AcDbEntity
  8
0
100
AcDbVertex
100
AcDb2dVertex
 10
6.491685377699999
 20
3.797533417999999
 30
0.0
  0
VERTEX
  5
1C5
330
1AB
100
AcDbEntity
  8
0
100
AcDbVertex
100
AcDb2dVertex
 10
6.483978824199999
 20
3.7740204232
 30
0.0
  0
VERTEX
  5
1C6
330
1AB
100
AcDbEntity
  8
0
100
AcDbVertex
100
AcDb2dVertex
 10
6.4824288552
 20
3.750106975299999
 30
0.0
  0
VERTEX
  5
1C7
330
1AB
100
AcDbEntity
  8
0
100
AcDbVertex
100
AcDb2dVertex
 10
6.487070094299999
 20
3.726327261
 30
0.0
  0
VERTEX
  5
1C8
330
1AB
100
AcDbEntity
  8
0
100
AcDbVertex
100
AcDb2dVertex
 10
6.497798863999999
 20
3.703212479999999
 30
0.0
  0
VERTEX
  5
1C9
330
1AB
100
AcDbEntity
  8
0
100
AcDbVertex
100
AcDb2dVertex
 10
6.514375501299999
 20
3.681278978199999
 30
0.0
  0
VERTEX
  5
1CA
330
1AB
100
AcDbEntity
  8
0
100
AcDbVertex
100
AcDb2dVertex
 10
6.5364297114
 20
3.6610167139
 30
0.0
  0
VERTEX
  5
1CB
330
1AB
100
AcDbEntity
  8
0
100
AcDbVertex
100
AcDb2dVertex
 10
6.546956836499999
 20
3.6532905704
 30
0.0
  0
SEQEND
  5
1CC
330
1AB
100
AcDbEntity
  8
0
  0
POLYLINE
  5
1CD
330
A
100
AcDbEntity
  8
0
  6
Continuous
 62
     7
100
AcDb2dPolyline
 66
     1
 10
0.0
 20
0.0
 30
0.0
 70
   128
 40
0.0011811024
 41
0.0011811024
  0
VERTEX
  5
1CE
330
1CD
100
AcDbEntity
  8
0
100
AcDbVertex
100
AcDb2dVertex
 10
9.5438178566
 20
2.9809480094
 30
0.0
  0
VERTEX
  5
1CF
330
1CD
100
AcDbEntity
  8
0
100
AcDbVertex
100
AcDb2dVertex
 10
9.5692954099
 20
2.9981687226
 30
0.0
  0
VERTEX
  5
1D0
330
1CD
100
AcDbEntity
  8
0
100
AcDbVertex
100
AcDb2dVertex
 10
9.5897927923
 20
3.0174782392
 30
0.0
  0
VERTEX
  5
1D1
330
1CD
100
AcDbEntity
  8
0
100
AcDbVertex
100
AcDb2dVertex
 10
9.604805290399999
 20
3.038401095
 30
0.0
  0
VERTEX
  5
1D2
330
1CD
100
AcDbEntity
  8
0
100
AcDbVertex
100
AcDb2dVertex
 10
9.613963246399999
 20
3.0604220998
 30
0.0
  0
VERTEX
  5
1D3
330
1CD
100
AcDbEntity
  8
0
100
AcDbVertex
100
AcDb2dVertex
 10
9.617041161299999
 20
3.082999023399999
 30
0.0
  0
SEQEND
  5
1D4
330
1CD
100
AcDbEntity
  8
0
  0
POLYLINE
  5
1D5
330
A
100
AcDbEntity
  8
0
  6
Continuous
 62
     7
100
AcDb2dPolyline
 66
     1
 10
0.0
 20
0.0
 30
0.0
 70
   128
 40
0.0011811024
 41
0.0011811024
  0
VERTEX
  5
1D6
330
1D5
100
AcDbEntity
  8
0
100
AcDbVertex
100
AcDb2dVertex
 10
3.902128649999999
 20
3.338126558399999
 30
0.0
  0
VERTEX
  5
1D7
330
1D5
100
AcDbEntity
  8
0
100
AcDbVertex
100
AcDb2dVertex
 10
3.9052065649
 20
3.315549634799999
 30
0.0
  0
VERTEX
  5
1D8
330
1D5
100
AcDbEntity
  8
0
100
AcDbVertex
100
AcDb2dVertex
 10
3.914364521
 20
3.293528629999999
 30
0.0
  0
VERTEX
  5
1D9
330
1D5
100
AcDbEntity
  8
0
100
AcDbVertex
100
AcDb2dVertex
 10
3.929377019
 20
3.2726057741
 30
0.0
  0
VERTEX
  5
1DA
330
1D5
100
AcDbEntity
  8
0
100
AcDbVertex
100
AcDb2dVertex
 10
3.949874401399999
 20
3.2532962575
 30
0.0
  0
VERTEX
  5
1DB
330
1D5
100
AcDbEntity
  8
0
100
AcDbVertex
100
AcDb2dVertex
 10
3.9753519547
 20
3.236075544399999
 30
0.0
  0
SEQEND
  5
1DC
330
1D5
100
AcDbEntity
  8
0
  0
LEADER
  5
1DD
330
A
100
AcDbEntity
  8
0
 62
     1
100
AcDbLeader
  3
SLDDIMSTYLE2
 73
     0
 76
     3
 10
9.124712415499999
 20
4.0140873024
 30
0.0
 10
9.9970631288
 20
4.347107735799999
 30
0.0
 10
10.4970631288
 20
4.347107735799999
 30
0.0
340
1DE
213
0.0
223
-0.1498861219481711
233
0.0
  0
MTEXT
  5
1DE
102
{ACAD_REACTORS
330
1DD
102
}
330
A
100
AcDbEntity
  8
0
 62
     1
100
AcDbMText
 10
10.53645284899999
 20
4.496993857799999
 30
0.0
 40
0.2
 41
0.0
 71
     1
 72
     1
  1
RADIUS EXPOSED EDGES 1/32 TO 1/16 ONE SIDE
  7
SLDTEXTSTYLE0
 73
     1
 44
1.0
  0
POLYLINE
  5
1DF
330
A
100
AcDbEntity
  8
0
  6
HIDDEN
 62
     7
100
AcDb2dPolyline
 66
     1
 10
0.0
 20
0.0
 30
0.0
 70
   128
  0
VERTEX
  5
1E0
330
1DF
100
AcDbEntity
  8
0
100
AcDbVertex
100
AcDb2dVertex
 10
6.538614036499999
 20
3.6285299398
 30
0.0
  0
VERTEX
  5
1E1
330
1DF
100
AcDbEntity
  8
0
100
AcDbVertex
100
AcDb2dVertex
 10
6.470872551799999
 20
3.687056693799999
 30
0.0
  0
VERTEX
  5
1E2
330
1DF
100
AcDbEntity
  8
0
100
AcDbVertex
100
AcDb2dVertex
 10
6.4470849057
 20
3.7560937073
 30
0.0
  0
VERTEX
  5
1E3
330
1DF
100
AcDbEntity
  8
0
100
AcDbVertex
100
AcDb2dVertex
 10
6.470872551799999
 20
3.825130720799999
 30
0.0
  0
VERTEX
  5
1E4
330
1DF
100
AcDbEntity
  8
0
100
AcDbVertex
100
AcDb2dVertex
 10
6.538614036499999
 20
3.8836574748
 30
0.0
  0
VERTEX
  5
1E5
330
1DF
100
AcDbEntity
  8
0
100
AcDbVertex
100
AcDb2dVertex
 10
6.639996332999999
 20
3.9227638016
 30
0.0
  0
VERTEX
  5
1E6
330
1DF
100
AcDbEntity
  8
0
100
AcDbVertex
100
AcDb2dVertex
 10
6.7595849057
 20
3.9364961173
 30
0.0
  0
VERTEX
  5
1E7
330
1DF
100
AcDbEntity
  8
0
100
AcDbVertex
100
AcDb2dVertex
 10
6.8791734783
 20
3.9227638016
 30
0.0
  0
VERTEX
  5
1E8
330
1DF
100
AcDbEntity
  8
0
100
AcDbVertex
100
AcDb2dVertex
 10
6.9805557748
 20
3.8836574748
 30
0.0
  0
VERTEX
  5
1E9
330
1DF
100
AcDbEntity
  8
0
100
AcDbVertex
100
AcDb2dVertex
 10
7.048297259599999
 20
3.825130720799999
 30
0.0
  0
VERTEX
  5
1EA
330
1DF
100
AcDbEntity
  8
0
100
AcDbVertex
100
AcDb2dVertex
 10
7.0720849057
 20
3.7560937073
 30
0.0
  0
VERTEX
  5
1EB
330
1DF
100
AcDbEntity
  8
0
100
AcDbVertex
100
AcDb2dVertex
 10
7.048297259599999
 20
3.687056693799999
 30
0.0
  0
VERTEX
  5
1EC
330
1DF
100
AcDbEntity
  8
0
100
AcDbVertex
100
AcDb2dVertex
 10
6.9805557748
 20
3.6285299398
 30
0.0
  0
VERTEX
  5
1ED
330
1DF
100
AcDbEntity
  8
0
100
AcDbVertex
100
AcDb2dVertex
 10
6.8791734783
 20
3.5894236131
 30
0.0
  0
VERTEX
  5
1EE
330
1DF
100
AcDbEntity
  8
0
100
AcDbVertex
100
AcDb2dVertex
 10
6.7595849057
 20
3.5756912973
 30
0.0
  0
VERTEX
  5
1EF
330
1DF
100
AcDbEntity
  8
0
100
AcDbVertex
100
AcDb2dVertex
 10
6.639996332999999
 20
3.5894236131
 30
0.0
  0
VERTEX
  5
1F0
330
1DF
100
AcDbEntity
  8
0
100
AcDbVertex
100
AcDb2dVertex
 10
6.538614036499999
 20
3.6285299398
 30
0.0
  0
SEQEND
  5
1F1
330
1DF
100
AcDbEntity
  8
0
  0
ENDSEC
  0
SECTION
  2
OBJECTS
  0
DICTIONARY
  5
19
330
0
100
AcDbDictionary
281
     1
  3
ACAD_GROUP
350
1A
  3
ACAD_LAYOUT
350
1E
  3
ACAD_MLINESTYLE
350
1B
  3
ACAD_PLOTSETTINGS
350
22
  3
ACAD_PLOTSTYLENAME
350
1F
  3
ACAD_WIPEOUT_VARS
350
23
  0
DICTIONARY
  5
1A
102
{ACAD_REACTORS
330
19
102
}
330
19
100
AcDbDictionary
281
     1
  0
DICTIONARY
  5
1E
102
{ACAD_REACTORS
330
19
102
}
330
19
100
AcDbDictionary
281
     1
  3
Layout1
350
21
  3
Model
350
20
  0
DICTIONARY
  5
1B
102
{ACAD_REACTORS
330
19
102
}
330
19
100
AcDbDictionary
281
     1
  3
Standard
350
1C
  0
DICTIONARY
  5
22
102
{ACAD_REACTORS
330
19
102
}
330
19
100
AcDbDictionary
281
     1
  0
ACDBDICTIONARYWDFLT
  5
1F
102
{ACAD_REACTORS
330
19
102
}
330
19
100
AcDbDictionary
281
     1
  3
Normal
350
1D
100
AcDbDictionaryWithDefault
340
1D
  0
WIPEOUTVARIABLES
  5
23
330
19
100
AcDbWipeoutVariables
 70
     1
  0
LAYOUT
  5
21
102
{ACAD_REACTORS
330
1E
102
}
330
1E
100
AcDbPlotSettings
  1

  2

  4

  6

 40
0.0
 41
0.0
 42
0.0
 43
0.0
 44
0.0
 45
0.0
 46
0.0
 47
0.0
 48
0.0
 49
0.0
140
0.0
141
0.0
142
1.0
143
1.0
 70
     0
 72
     0
 73
     0
 74
     0
  7

 75
     0
147
1.0
148
0.0
149
0.0
100
AcDbLayout
  1
Layout1
 70
     1
 71
     1
 10
0.0
 20
0.0
 11
12.0
 21
9.0
 12
0.0
 22
0.0
 32
0.0
 14
1.000000000000000E+20
 24
1.000000000000000E+20
 34
1.000000000000000E+20
 15
-1.000000000000000E+20
 25
-1.000000000000000E+20
 35
-1.000000000000000E+20
146
0.0
 13
0.0
 23
0.0
 33
0.0
 16
1.0
 26
0.0
 36
0.0
 17
0.0
 27
1.0
 37
0.0
 76
     0
330
B
  0
LAYOUT
  5
20
102
{ACAD_REACTORS
330
1E
102
}
330
1E
100
AcDbPlotSettings
  1

  2

  4

  6

 40
0.0
 41
0.0
 42
0.0
 43
0.0
 44
0.0
 45
0.0
 46
0.0
 47
0.0
 48
0.0
 49
0.0
140
0.0
141
0.0
142
1.0
143
1.0
 70
  1024
 72
     0
 73
     0
 74
     0
  7

 75
     0
147
1.0
148
0.0
149
0.0
100
AcDbLayout
  1
Model
 70
     0
 71
     0
 10
0.0
 20
0.0
 11
0.0
 21
0.0
 12
0.0
 22
0.0
 32
0.0
 14
0.0
 24
0.0
 34
0.0
 15
0.0
 25
0.0
 35
0.0
146
0.0
 13
0.0
 23
0.0
 33
0.0
 16
0.0
 26
0.0
 36
0.0
 17
0.0
 27
0.0
 37
0.0
 76
     0
330
A
  0
MLINESTYLE
  5
1C
102
{ACAD_REACTORS
330
1B
102
}
330
1B
100
AcDbMlineStyle
  2
STANDARD
 70
     0
  3

 62
     0
 51
90.0
 52
90.0
 71
     2
 49
0.5
 62
   256
  6
BYLAYER
 49
-0.5
 62
   256
  6
BYLAYER
  0
ACDBPLACEHOLDER
  5
1D
102
{ACAD_REACTORS
330
1F
102
}
330
1F
  0
ENDSEC
  0
EOF
