  0
SECTION
  2
HEADER
  9
$ACADVER
  1
AC1015
  9
$ACADMAINTVER
 70
    10
  9
$DWGCODEPAGE
  3
ANSI_1252
  9
$INSBASE
 10
0.0
 20
0.0
 30
0.0
  9
$EXTMIN
 10
1.5
 20
0.1461059481333334
 30
0.0
  9
$EXTMAX
 10
33.5205401591
 20
21.6173792426
 30
0.0
  9
$LIMMIN
 10
0.0
 20
0.0
  9
$LIMMAX
 10
0.0
 20
0.0
  9
$ORTHOMODE
 70
     0
  9
$REGENMODE
 70
     1
  9
$FILLMODE
 70
     1
  9
$QTEXTMODE
 70
     0
  9
$MIRRTEXT
 70
     1
  9
$LTSCALE
 40
1.0
  9
$ATTMODE
 70
     1
  9
$TEXTSIZE
 40
0.0
  9
$TRACEWID
 40
0.05
  9
$TEXTSTYLE
  7
Standard
  9
$CLAYER
  8
0
  9
$CELTYPE
  6
Continuous
  9
$CECOLOR
 62
   256
  9
$CELTSCALE
 40
1.0
  9
$DISPSILH
 70
     0
  9
$DIMSCALE
 40
1.0
  9
$DIMASZ
 40
0.0
  9
$DIMEXO
 40
0.0
  9
$DIMDLI
 40
0.38
  9
$DIMRND
 40
0.0
  9
$DIMDLE
 40
0.0
  9
$DIMEXE
 40
0.18
  9
$DIMTP
 40
0.0
  9
$DIMTM
 40
0.0
  9
$DIMTXT
 40
0.2
  9
$DIMCEN
 40
0.09
  9
$DIMTSZ
 40
0.0
  9
$DIMTOL
 70
     0
  9
$DIMLIM
 70
     0
  9
$DIMTIH
 70
     1
  9
$DIMTOH
 70
     1
  9
$DIMSE1
 70
     0
  9
$DIMSE2
 70
     0
  9
$DIMTAD
 70
     0
  9
$DIMZIN
 70
     0
  9
$DIMBLK
  1

  9
$DIMASO
 70
     1
  9
$DIMSHO
 70
     1
  9
$DIMPOST
  1

  9
$DIMAPOST
  1

  9
$DIMALT
 70
     0
  9
$DIMALTD
 70
     2
  9
$DIMALTF
 40
25.4
  9
$DIMLFAC
 40
1.0
  9
$DIMTOFL
 70
     0
  9
$DIMTVP
 40
0.0
  9
$DIMTIX
 70
     0
  9
$DIMSOXD
 70
     0
  9
$DIMSAH
 70
     0
  9
$DIMBLK1
  1

  9
$DIMBLK2
  1

  9
$DIMSTYLE
  2
Standard
  9
$DIMCLRD
 70
     0
  9
$DIMCLRE
 70
     0
  9
$DIMCLRT
 70
     0
  9
$DIMTFAC
 40
1.0
  9
$DIMGAP
 40
0.0
  9
$DIMJUST
 70
     0
  9
$DIMSD1
 70
     0
  9
$DIMSD2
 70
     0
  9
$DIMTOLJ
 70
     1
  9
$DIMTZIN
 70
     0
  9
$DIMALTZ
 70
     0
  9
$DIMALTTZ
 70
     0
  9
$DIMUPT
 70
     0
  9
$DIMDEC
 70
     4
  9
$DIMTDEC
 70
     4
  9
$DIMALTU
 70
     2
  9
$DIMALTTD
 70
     2
  9
$DIMTXSTY
  7
Standard
  9
$DIMAUNIT
 70
     0
  9
$DIMADEC
 70
     0
  9
$DIMALTRND
 40
0.0
  9
$DIMAZIN
 70
     0
  9
$DIMDSEP
 70
     0
  9
$DIMATFIT
 70
     3
  9
$DIMFRAC
 70
     0
  9
$DIMLDRBLK
  1

  9
$DIMLUNIT
 70
     2
  9
$DIMLWD
 70
     0
  9
$DIMLWE
 70
     0
  9
$DIMTMOVE
 70
     0
  9
$LUNITS
 70
     2
  9
$LUPREC
 70
     3
  9
$SKETCHINC
 40
0.1
  9
$FILLETRAD
 40
0.0
  9
$AUNITS
 70
     0
  9
$AUPREC
 70
     2
  9
$MENU
  1
acad
  9
$ELEVATION
 40
0.0
  9
$PELEVATION
 40
0.0
  9
$THICKNESS
 40
0.0
  9
$LIMCHECK
 70
     0
  9
$CHAMFERA
 40
0.0
  9
$CHAMFERB
 40
0.0
  9
$CHAMFERC
 40
0.0
  9
$CHAMFERD
 40
0.0
  9
$SKPOLY
 70
     0
  9
$TDCREATE
 40
2453398.547664745
  9
$TDUCREATE
 40
2453398.880998078
  9
$TDUPDATE
 40
2453398.551149629
  9
$TDUUPDATE
 40
2453398.884482963
  9
$TDINDWG
 40
0.0034895833
  9
$TDUSRTIMER
 40
0.0034895833
  9
$USRTIMER
 70
     1
  9
$ANGBASE
 50
0.0
  9
$ANGDIR
 70
     0
  9
$PDMODE
 70
     0
  9
$PDSIZE
 40
-1.0
  9
$PLINEWID
 40
0.0
  9
$SPLFRAME
 70
     0
  9
$SPLINETYPE
 70
     6
  9
$SPLINESEGS
 70
     8
  9
$HANDSEED
  5
398
  9
$SURFTAB1
 70
     6
  9
$SURFTAB2
 70
     6
  9
$SURFTYPE
 70
     6
  9
$SURFU
 70
     6
  9
$SURFV
 70
     6
  9
$UCSBASE
  2

  9
$UCSNAME
  2

  9
$UCSORG
 10
0.0
 20
0.0
 30
0.0
  9
$UCSXDIR
 10
1.0
 20
0.0
 30
0.0
  9
$UCSYDIR
 10
0.0
 20
1.0
 30
0.0
  9
$UCSORTHOREF
  2

  9
$UCSORTHOVIEW
 70
     0
  9
$UCSORGTOP
 10
0.0
 20
0.0
 30
0.0
  9
$UCSORGBOTTOM
 10
0.0
 20
0.0
 30
0.0
  9
$UCSORGLEFT
 10
0.0
 20
0.0
 30
0.0
  9
$UCSORGRIGHT
 10
0.0
 20
0.0
 30
0.0
  9
$UCSORGFRONT
 10
0.0
 20
0.0
 30
0.0
  9
$UCSORGBACK
 10
0.0
 20
0.0
 30
0.0
  9
$PUCSBASE
  2

  9
$PUCSNAME
  2

  9
$PUCSORG
 10
0.0
 20
0.0
 30
0.0
  9
$PUCSXDIR
 10
1.0
 20
0.0
 30
0.0
  9
$PUCSYDIR
 10
0.0
 20
1.0
 30
0.0
  9
$PUCSORTHOREF
  2

  9
$PUCSORTHOVIEW
 70
     0
  9
$PUCSORGTOP
 10
0.0
 20
0.0
 30
0.0
  9
$PUCSORGBOTTOM
 10
0.0
 20
0.0
 30
0.0
  9
$PUCSORGLEFT
 10
0.0
 20
0.0
 30
0.0
  9
$PUCSORGRIGHT
 10
0.0
 20
0.0
 30
0.0
  9
$PUCSORGFRONT
 10
0.0
 20
0.0
 30
0.0
  9
$PUCSORGBACK
 10
0.0
 20
0.0
 30
0.0
  9
$USERI1
 70
     0
  9
$USERI2
 70
     0
  9
$USERI3
 70
     0
  9
$USERI4
 70
     0
  9
$USERI5
 70
     0
  9
$USERR1
 40
0.0
  9
$USERR2
 40
0.0
  9
$USERR3
 40
0.0
  9
$USERR4
 40
0.0
  9
$USERR5
 40
0.0
  9
$WORLDVIEW
 70
     1
  9
$SHADEDGE
 70
     3
  9
$SHADEDIF
 70
    70
  9
$TILEMODE
 70
     1
  9
$MAXACTVP
 70
    16
  9
$PINSBASE
 10
0.0
 20
0.0
 30
0.0
  9
$PLIMCHECK
 70
     0
  9
$PEXTMIN
 10
1.000000000000000E+20
 20
1.000000000000000E+20
 30
1.000000000000000E+20
  9
$PEXTMAX
 10
-1.000000000000000E+20
 20
-1.000000000000000E+20
 30
-1.000000000000000E+20
  9
$PLIMMIN
 10
0.0
 20
0.0
  9
$PLIMMAX
 10
12.0
 20
9.0
  9
$UNITMODE
 70
     0
  9
$VISRETAIN
 70
     0
  9
$PLINEGEN
 70
     1
  9
$PSLTSCALE
 70
     1
  9
$TREEDEPTH
 70
  3020
  9
$CMLSTYLE
  2
Standard
  9
$CMLJUST
 70
     0
  9
$CMLSCALE
 40
1.0
  9
$PROXYGRAPHICS
 70
     0
  9
$MEASUREMENT
 70
     0
  9
$CELWEIGHT
370
     0
  9
$ENDCAPS
280
     0
  9
$JOINSTYLE
280
     0
  9
$LWDISPLAY
290
     1
  9
$INSUNITS
 70
     0
  9
$HYPERLINKBASE
  1

  9
$STYLESHEET
  1

  9
$XEDIT
290
     1
  9
$CEPSNTYPE
380
     0
  9
$PSTYLEMODE
290
     1
  9
$FINGERPRINTGUID
  2

  9
$VERSIONGUID
  2
{BFE35800-8704-4077-BDB0-FA0927FABBCE}
  9
$EXTNAMES
290
     1
  9
$PSVPSCALE
 40
0.0
  9
$OLESTARTUP
290
     0
  0
ENDSEC
  0
SECTION
  2
CLASSES
  0
CLASS
  1
LWPOLYLINE
  2
AcDbPolyline
  3
AutoCAD 2000
 90
    32768
280
     0
281
     1
  0
CLASS
  1
IMAGE
  2
AcDbRasterImage
  3
ISM
 90
    32895
280
     0
281
     1
  0
CLASS
  1
OLE2FRAME
  2
AcDbOle2Frame
  3
AutoCAD 2000
 90
    32768
280
     0
281
     1
  0
CLASS
  1
HATCH
  2
AcDbHatch
  3
AutoCAD 2000
 90
    32768
280
     0
281
     1
  0
CLASS
  1
DICTIONARYVAR
  2
AcDbDictionaryVar
  3
AutoCAD 2000
 90
    32768
280
     0
281
     0
  0
CLASS
  1
RASTERVARIABLES
  2
AcDbRasterVariables
  3
ISM
 90
    32768
280
     0
281
     0
  0
CLASS
  1
IMAGEDEF
  2
AcDbRasterImageDef
  3
ISM
 90
    32768
280
     0
281
     0
  0
CLASS
  1
IMAGEDEF_REACTOR
  2
AcDbRasterImageDefReactor
  3
ISM
 90
    32769
280
     0
281
     0
  0
CLASS
  1
IDBUFFER
  2
AcDbIdBuffer
  3
AutoCAD 2000
 90
    32768
280
     0
281
     0
  0
CLASS
  1
SPATIAL_FILTER
  2
AcDbSpatialFilter
  3
AutoCAD 2000
 90
    32768
280
     0
281
     0
  0
CLASS
  1
XRECORD
  2
AcDbXrecord
  3
AutoCAD 2000
 90
    32768
280
     0
281
     0
  0
CLASS
  1
SORTENTSTABLE
  2
AcDbSortentsTable
  3
AutoCAD 2000
 90
    32768
280
     0
281
     0
  0
CLASS
  1
LAYER_INDEX
  2
AcDbLayerIndex
  3
AutoCAD 2000
 90
    32768
280
     0
281
     0
  0
CLASS
  1
SPATIAL_INDEX
  2
AcDbSpatialIndex
  3
AutoCAD 2000
 90
    32768
280
     0
281
     0
  0
CLASS
  1
OBJECT_PTR
  2
CAseDLPNTableRecord
  3
"ASE-LPNTableRecord"
 90
    32769
280
     0
281
     0
  0
CLASS
  1
LAYOUT
  2
AcDbLayout
  3
AutoCAD 2000
 90
        0
280
     0
281
     0
  0
CLASS
  1
PLOTSETTINGS
  2
AcDbPlotSettings
  3
AutoCAD 2000
 90
    32768
280
     0
281
     0
  0
CLASS
  1
ACDBDICTIONARYWDFLT
  2
AcDbDictionaryWithDefault
  3
AutoCAD 2000
 90
        0
280
     0
281
     0
  0
CLASS
  1
ACDBPLACEHOLDER
  2
AcDbPlaceHolder
  3
AutoCAD 2000
 90
        0
280
     0
281
     0
  0
CLASS
  1
VBA_PROJECT
  2
AcDbVbaProject
  3
acadvba
 90
    32768
280
     0
281
     0
  0
CLASS
  1
WIPEOUT
  2
AcDbWipeout
  3
WipeOut|AutoCAD Express Tool|expresstools@autodesk.com
 90
    32895
280
     0
281
     1
  0
CLASS
  1
WIPEOUTVARIABLES
  2
AcDbWipeoutVariables
  3
WipeOut|AutoCAD Express Tool|expresstools@autodesk.com
 90
        0
280
     0
281
     0
  0
CLASS
  1
RTEXT
  2
RText
  3
RText|AutoCAD Express Tool|expresstools@autodesk.com
 90
    32768
280
     0
281
     1
  0
CLASS
  1
ARCALIGNEDTEXT
  2
AcDbArcAlignedText
  3
ATEXT|AutoCAD Express Tool|expresstools@autodesk.com
 90
    32768
280
     0
281
     1
  0
ENDSEC
  0
SECTION
  2
TABLES
  0
TABLE
  2
VPORT
  5
7
330
0
100
AcDbSymbolTable
 70
     6
  0
VPORT
  5
397
330
7
100
AcDbSymbolTableRecord
100
AcDbViewportTableRecord
  2
*Active
 70
     0
 10
0.0
 20
0.0
 11
1.0
 21
1.0
 12
17.14235458823142
 22
10.99999999999999
 13
0.0
 23
0.0
 14
1.0
 24
1.0
 15
0.0
 25
0.0
 16
0.0
 26
0.0
 36
1.0
 17
0.0
 27
0.0
 37
0.0
 40
21.99999999375636
 41
1.5
 42
50.0
 43
0.0
 44
0.0
 50
0.0
 51
0.0
 71
     0
 72
  2000
 73
     1
 74
     1
 75
     0
 76
     0
 77
     0
 78
     0
281
     0
 65
     0
110
0.0
120
0.0
130
0.0
111
1.0
121
0.0
131
0.0
112
0.0
122
1.0
132
0.0
 79
     0
146
0.0
  0
ENDTAB
  0
TABLE
  2
LTYPE
  5
4
330
0
100
AcDbSymbolTable
 70
     6
  0
LTYPE
  5
11
330
4
100
AcDbSymbolTableRecord
100
AcDbLinetypeTableRecord
  2
ByBlock
 70
     0
  3

 72
    65
 73
     0
 40
0.0
  0
LTYPE
  5
12
330
4
100
AcDbSymbolTableRecord
100
AcDbLinetypeTableRecord
  2
ByLayer
 70
     0
  3

 72
    65
 73
     0
 40
0.0
  0
LTYPE
  5
13
330
4
100
AcDbSymbolTableRecord
100
AcDbLinetypeTableRecord
  2
Continuous
 70
     0
  3
Solid line
 72
    65
 73
     0
 40
0.0
  0
LTYPE
  5
24
330
4
100
AcDbSymbolTableRecord
100
AcDbLinetypeTableRecord
  2
HIDDEN
 70
     0
  3
Hidden __ __ __ __ __ __ __ __ __ __ __ __ __ __
 72
    65
 73
     2
 40
0.075
 49
0.05
 74
     0
 49
-0.025
 74
     0
  0
LTYPE
  5
25
330
4
100
AcDbSymbolTableRecord
100
AcDbLinetypeTableRecord
  2
PHANTOM
 70
     0
  3
Phantom ______  __  __  ______  __  __  ______
 72
    65
 73
     6
 40
0.5
 49
0.25
 74
     0
 49
-0.05
 74
     0
 49
0.05
 74
     0
 49
-0.05
 74
     0
 49
0.05
 74
     0
 49
-0.05
 74
     0
  0
LTYPE
  5
26
330
4
100
AcDbSymbolTableRecord
100
AcDbLinetypeTableRecord
  2
CENTER
 70
     0
  3
Center ____ _ ____ _ ____ _ ____ _ ____ _ ____
 72
    65
 73
     4
 40
0.4
 49
0.25
 74
     0
 49
-0.05
 74
     0
 49
0.05
 74
     0
 49
-0.05
 74
     0
  0
LTYPE
  5
27
330
4
100
AcDbSymbolTableRecord
100
AcDbLinetypeTableRecord
  2
CENTERX2
 70
     0
  3
Center (2x) ________  __  ________  __  _____
 72
    65
 73
     4
 40
0.8
 49
0.5
 74
     0
 49
-0.1
 74
     0
 49
0.1
 74
     0
 49
-0.1
 74
     0
  0
LTYPE
  5
28
330
4
100
AcDbSymbolTableRecord
100
AcDbLinetypeTableRecord
  2
DOT2
 70
     0
  3
Dot (.5x) ........................................
 72
    65
 73
     2
 40
0.025
 49
0.0
 74
     0
 49
-0.025
 74
     0
  0
ENDTAB
  0
TABLE
  2
LAYER
  5
2
330
0
100
AcDbSymbolTable
 70
     1
  0
LAYER
  5
14
330
2
100
AcDbSymbolTableRecord
100
AcDbLayerTableRecord
  2
0
 70
     0
 62
     7
  6
Continuous
370
    -3
390
1D
  0
ENDTAB
  0
TABLE
  2
STYLE
  5
3
330
0
100
AcDbSymbolTable
 70
     2
  0
STYLE
  5
17
330
3
100
AcDbSymbolTableRecord
100
AcDbTextStyleTableRecord
  2
Standard
 70
     0
 40
0.0
 41
1.0
 50
0.0
 71
     0
 42
0.0
  3
txt
  4

  0
STYLE
  5
75
330
3
100
AcDbSymbolTableRecord
100
AcDbTextStyleTableRecord
  2
SLDTEXTSTYLE0
 70
     0
 40
0.0
 41
0.75
 50
0.0
 71
     0
 42
0.0
  3
txt
  4

  0
ENDTAB
  0
TABLE
  2
VIEW
  5
5
330
0
100
AcDbSymbolTable
 70
     0
  0
ENDTAB
  0
TABLE
  2
UCS
  5
6
330
0
100
AcDbSymbolTable
 70
     0
  0
ENDTAB
  0
TABLE
  2
APPID
  5
8
330
0
100
AcDbSymbolTable
 70
     1
  0
APPID
  5
16
330
8
100
AcDbSymbolTableRecord
100
AcDbRegAppTableRecord
  2
ACAD
 70
     0
  0
ENDTAB
  0
TABLE
  2
DIMSTYLE
  5
9
330
0
100
AcDbSymbolTable
 70
     7
100
AcDbDimStyleTable
 71
     1
340
18
  0
DIMSTYLE
105
18
330
9
100
AcDbSymbolTableRecord
100
AcDbDimStyleTableRecord
  2
Standard
 70
     0
340
17
  0
DIMSTYLE
105
DE
102
{ACAD_REACTORS
330
E2
330
EF
330
116
330
123
330
131
330
149
330
156
102
}
330
9
100
AcDbSymbolTableRecord
100
AcDbDimStyleTableRecord
  2
SLDDIMSTYLE0
 70
     0
 41
0.375
 44
0.24
 78
    12
140
0.2
147
0.05
173
     1
176
     1
177
     1
178
     1
271
     3
284
    12
340
17
  0
DIMSTYLE
105
F8
102
{ACAD_REACTORS
330
FC
102
}
330
9
100
AcDbSymbolTableRecord
100
AcDbDimStyleTableRecord
  2
SLDDIMSTYLE1
 70
     0
 41
0.375
 44
0.24
 47
0.02
 48
0.02
 71
     1
 78
    12
140
0.2
147
0.05
172
     1
173
     1
176
     1
177
     1
178
     1
271
     3
272
     3
340
17
  0
DIMSTYLE
105
105
102
{ACAD_REACTORS
330
109
102
}
330
9
100
AcDbSymbolTableRecord
100
AcDbDimStyleTableRecord
  2
SLDDIMSTYLE2
 70
     0
 41
0.375
 44
0.24
 78
    12
140
0.2
147
0.05
173
     1
176
     1
177
     1
178
     1
271
     3
284
    12
340
17
  0
DIMSTYLE
105
135
102
{ACAD_REACTORS
330
13C
102
}
330
9
100
AcDbSymbolTableRecord
100
AcDbDimStyleTableRecord
  2
SLDDIMSTYLE3
 70
     0
 41
0.375
 44
0.24
 78
     4
140
0.2
147
0.05
173
     1
176
     1
177
     1
178
     1
271
     3
284
    12
340
17
341
136
343
136
344
136
  0
DIMSTYLE
105
158
330
9
100
AcDbSymbolTableRecord
100
AcDbDimStyleTableRecord
  2
SLDDIMSTYLE4
 70
     0
 41
0.375
 44
0.0
140
0.375
147
0.09375
173
     1
271
     0
272
     0
340
17
  0
DIMSTYLE
105
172
102
{ACAD_REACTORS
330
176
102
}
330
9
100
AcDbSymbolTableRecord
100
AcDbDimStyleTableRecord
  2
SLDDIMSTYLE5
 70
     0
 41
0.375
 44
0.24
 47
0.02
 48
0.02
 71
     1
 78
    12
140
0.4444444444000001
147
0.1111111111
173
     1
176
     1
177
     1
178
     1
271
     3
272
     3
340
17
  0
ENDTAB
  0
TABLE
  2
BLOCK_RECORD
  5
1
330
0
100
AcDbSymbolTable
 70
    13
  0
BLOCK_RECORD
  5
A
330
1
100
AcDbSymbolTableRecord
100
AcDbBlockTableRecord
  2
*MODEL_SPACE
340
20
  0
BLOCK_RECORD
  5
B
330
1
100
AcDbSymbolTableRecord
100
AcDbBlockTableRecord
  2
*PAPER_SPACE
340
21
  0
BLOCK_RECORD
  5
A9
330
1
100
AcDbSymbolTableRecord
100
AcDbBlockTableRecord
  2
NOTE51
340
0
102
{BLKREFS
331
AF
102
}
  0
BLOCK_RECORD
  5
D5
330
1
100
AcDbSymbolTableRecord
100
AcDbBlockTableRecord
  2
*D1
340
0
  0
BLOCK_RECORD
  5
E3
330
1
100
AcDbSymbolTableRecord
100
AcDbBlockTableRecord
  2
*D2
340
0
  0
BLOCK_RECORD
  5
F0
330
1
100
AcDbSymbolTableRecord
100
AcDbBlockTableRecord
  2
*D3
340
0
  0
BLOCK_RECORD
  5
FD
330
1
100
AcDbSymbolTableRecord
100
AcDbBlockTableRecord
  2
*D4
340
0
  0
BLOCK_RECORD
  5
10A
330
1
100
AcDbSymbolTableRecord
100
AcDbBlockTableRecord
  2
*D5
340
0
  0
BLOCK_RECORD
  5
117
330
1
100
AcDbSymbolTableRecord
100
AcDbBlockTableRecord
  2
*D6
340
0
  0
BLOCK_RECORD
  5
124
330
1
100
AcDbSymbolTableRecord
100
AcDbBlockTableRecord
  2
*D7
340
0
  0
BLOCK_RECORD
  5
132
330
1
100
AcDbSymbolTableRecord
100
AcDbBlockTableRecord
  2
*D8
340
0
  0
BLOCK_RECORD
  5
136
330
1
100
AcDbSymbolTableRecord
100
AcDbBlockTableRecord
  2
_NONE
340
0
  0
BLOCK_RECORD
  5
13D
330
1
100
AcDbSymbolTableRecord
100
AcDbBlockTableRecord
  2
*D10
340
0
  0
BLOCK_RECORD
  5
14A
330
1
100
AcDbSymbolTableRecord
100
AcDbBlockTableRecord
  2
*D11
340
0
  0
BLOCK_RECORD
  5
164
330
1
100
AcDbSymbolTableRecord
100
AcDbBlockTableRecord
  2
*D12
340
0
  0
ENDTAB
  0
ENDSEC
  0
SECTION
  2
BLOCKS
  0
BLOCK
  5
D
330
A
100
AcDbEntity
  8
0
100
AcDbBlockBegin
  2
*MODEL_SPACE
 70
     0
 10
0.0
 20
0.0
 30
0.0
  3
*MODEL_SPACE
  1

  0
ENDBLK
  5
E
330
A
100
AcDbEntity
  8
0
100
AcDbBlockEnd
  0
BLOCK
  5
F
330
B
100
AcDbEntity
 67
     1
  8
0
100
AcDbBlockBegin
  2
*PAPER_SPACE
 70
     0
 10
0.0
 20
0.0
 30
0.0
  3
*PAPER_SPACE
  1

  0
ENDBLK
  5
10
330
B
100
AcDbEntity
 67
     1
  8
0
100
AcDbBlockEnd
  0
BLOCK
  5
AA
330
A9
100
AcDbEntity
  8
0
 62
     0
100
AcDbBlockBegin
  2
NOTE51
 70
     0
 10
0.0
 20
0.0
 30
0.0
  3
NOTE51
  1

  0
MTEXT
  5
AB
330
A9
100
AcDbEntity
  8
0
 62
     7
100
AcDbMText
 10
0.0
 20
0.0
 30
0.0
 40
0.18
 41
0.0
 71
     1
 72
     1
  1
BREAK SHARP EDGES 0.010 RAD %%p 0.003
  7
SLDTEXTSTYLE0
 73
     1
 44
1.0
  0
MTEXT
  5
AC
330
A9
100
AcDbEntity
  8
0
 62
     7
100
AcDbMText
 10
0.0
 20
-0.27
 30
0.0
 40
0.18
 41
0.0
 71
     1
 72
     1
  1
MACHINED SURF FINISH  
  7
SLDTEXTSTYLE0
 73
     1
 44
1.0
  0
MTEXT
  5
AD
330
A9
100
AcDbEntity
  8
0
 62
     7
100
AcDbMText
 10
2.771999999999999
 20
-0.27
 30
0.0
 40
0.18
 41
0.0
 71
     1
 72
     1
  1
< 125 MICROINCH
  7
SLDTEXTSTYLE0
 73
     1
 44
1.0
  0
ENDBLK
  5
AE
330
A9
100
AcDbEntity
  8
0
100
AcDbBlockEnd
  0
BLOCK
  5
D6
330
D5
100
AcDbEntity
  8
0
 62
     1
100
AcDbBlockBegin
  2
*D1
 70
     1
 10
0.0
 20
0.0
 30
0.0
  3
*D1
  1

  0
MTEXT
  5
D7
330
D5
100
AcDbEntity
  8
0
100
AcDbMText
 10
14.67392929619999
 20
6.2479081132
 30
0.0
 40
0.2
 41
0.0
 71
     7
 72
     1
  1
9"
  7
SLDTEXTSTYLE0
 73
     1
 44
1.0
  0
LINE
  5
D8
330
D5
100
AcDbEntity
  8
0
100
AcDbLine
 10
10.3039792962
 20
9.570957530499999
 30
0.0
 11
10.3039792962
 21
6.097830188699999
 31
0.0
  0
LINE
  5
D9
330
D5
100
AcDbEntity
  8
0
100
AcDbLine
 10
19.30397929619999
 20
9.570957530499999
 30
0.0
 11
19.30397929619999
 21
6.097830188699999
 31
0.0
  0
LINE
  5
DA
330
D5
100
AcDbEntity
  8
0
100
AcDbLine
 10
10.3039792962
 20
6.337830188699999
 30
0.0
 11
14.54892929619999
 21
6.337830188699999
 31
0.0
  0
LINE
  5
DB
330
D5
100
AcDbEntity
  8
0
100
AcDbLine
 10
19.30397929619999
 20
6.337830188699999
 30
0.0
 11
15.05902929619999
 21
6.337830188699999
 31
0.0
  0
SOLID
  5
DC
330
D5
100
AcDbEntity
  8
0
100
AcDbTrace
 10
10.3039792962
 20
6.337830188699999
 30
0.0
 11
10.67897929619999
 21
6.275330188699999
 31
0.0
 12
10.67897929619999
 22
6.400330188699999
 32
0.0
 13
10.67897929619999
 23
6.400330188699999
 33
0.0
  0
SOLID
  5
DD
330
D5
100
AcDbEntity
  8
0
100
AcDbTrace
 10
19.30397929619999
 20
6.337830188699999
 30
0.0
 11
18.92897929619999
 21
6.400330188699999
 31
0.0
 12
18.92897929619999
 22
6.275330188699999
 32
0.0
 13
18.92897929619999
 23
6.275330188699999
 33
0.0
  0
POINT
  5
DF
330
D5
100
AcDbEntity
  8
0
100
AcDbPoint
 10
10.3039792962
 20
9.650957530499999
 30
0.0
  0
POINT
  5
E0
330
D5
100
AcDbEntity
  8
0
100
AcDbPoint
 10
19.30397929619999
 20
9.650957530499999
 30
0.0
  0
ENDBLK
  5
E1
330
D5
100
AcDbEntity
  8
0
 62
     1
100
AcDbBlockEnd
  0
BLOCK
  5
E4
330
E3
100
AcDbEntity
  8
0
 62
     1
100
AcDbBlockBegin
  2
*D2
 70
     1
 10
0.0
 20
0.0
 30
0.0
  3
*D2
  1

  0
MTEXT
  5
E5
330
E3
100
AcDbEntity
  8
0
100
AcDbMText
 10
5.445194561599999
 20
12.936035455
 30
0.0
 40
0.2
 41
0.0
 71
     7
 72
     1
  1
7 3/4"
  7
SLDTEXTSTYLE0
 73
     1
 44
1.0
  0
LINE
  5
E6
330
E3
100
AcDbEntity
  8
0
100
AcDbLine
 10
10.72397929619999
 20
16.9009575305
 30
0.0
 11
5.6153019201
 21
16.9009575305
 31
0.0
  0
LINE
  5
E7
330
E3
100
AcDbEntity
  8
0
100
AcDbLine
 10
10.72397929619999
 20
9.150957530499999
 30
0.0
 11
5.6153019201
 21
9.150957530499999
 31
0.0
  0
LINE
  5
E8
330
E3
100
AcDbEntity
  8
0
100
AcDbLine
 10
5.855301920099999
 20
16.9009575305
 30
0.0
 11
5.855301920099999
 21
13.215879606
 31
0.0
  0
LINE
  5
E9
330
E3
100
AcDbEntity
  8
0
100
AcDbLine
 10
5.855301920099999
 20
9.150957530499999
 30
0.0
 11
5.855301920099999
 21
12.836035455
 31
0.0
  0
SOLID
  5
EA
330
E3
100
AcDbEntity
  8
0
100
AcDbTrace
 10
5.855301920099999
 20
16.9009575305
 30
0.0
 11
5.792801920099999
 21
16.5259575305
 31
0.0
 12
5.917801920099999
 22
16.5259575305
 32
0.0
 13
5.917801920099999
 23
16.5259575305
 33
0.0
  0
SOLID
  5
EB
330
E3
100
AcDbEntity
  8
0
100
AcDbTrace
 10
5.855301920099999
 20
9.150957530499999
 30
0.0
 11
5.917801920099999
 21
9.525957530499999
 31
0.0
 12
5.792801920099999
 22
9.525957530499999
 32
0.0
 13
5.792801920099999
 23
9.525957530499999
 33
0.0
  0
POINT
  5
EC
330
E3
100
AcDbEntity
  8
0
100
AcDbPoint
 10
10.80397929619999
 20
16.9009575305
 30
0.0
  0
POINT
  5
ED
330
E3
100
AcDbEntity
  8
0
100
AcDbPoint
 10
10.80397929619999
 20
9.150957530499999
 30
0.0
  0
ENDBLK
  5
EE
330
E3
100
AcDbEntity
  8
0
 62
     1
100
AcDbBlockEnd
  0
BLOCK
  5
F1
330
F0
100
AcDbEntity
  8
0
 62
     1
100
AcDbBlockBegin
  2
*D3
 70
     1
 10
0.0
 20
0.0
 30
0.0
  3
*D3
  1

  0
MTEXT
  5
F2
330
F0
100
AcDbEntity
  8
0
 62
     7
100
AcDbMText
 10
20.42905367329999
 20
13.6152026626
 30
0.0
 40
0.2
 41
0.0
 71
     7
 72
     1
  1
%%c
  7
SLDTEXTSTYLE0
 73
     1
 44
1.0
  0
MTEXT
  5
F3
330
F0
100
AcDbEntity
  8
0
 62
     7
100
AcDbMText
 10
20.7706189563
 20
13.6152026626
 30
0.0
 40
0.2
 41
0.0
 71
     7
 72
     1
  1
3.438
  7
SLDTEXTSTYLE0
 73
     1
 44
1.0
  0
MTEXT
  5
F4
330
F0
100
AcDbEntity
  8
0
 62
     7
100
AcDbMText
 10
21.4105631073
 20
13.6152026626
 30
0.0
 40
0.2
 41
0.0
 71
     7
 72
     1
  1
%%p.010
  7
SLDTEXTSTYLE0
 73
     1
 44
1.0
  0
LINE
  5
F5
330
F0
100
AcDbEntity
  8
0
 62
     7
100
AcDbLine
 10
16.5073374867
 20
13.2573270939
 30
0.0
 11
19.8040536733
 21
13.705124738
 31
0.0
  0
LINE
  5
F6
330
F0
100
AcDbEntity
  8
0
 62
     7
100
AcDbLine
 10
19.8040536733
 20
13.705124738
 30
0.0
 11
20.3040536733
 21
13.705124738
 31
0.0
  0
SOLID
  5
F7
330
F0
100
AcDbEntity
  8
0
 62
     7
100
AcDbTrace
 10
16.5073374867
 20
13.2573270939
 30
0.0
 11
16.8873374396
 21
13.2458690947
 31
0.0
 12
16.8705130095
 22
13.369731674
 32
0.0
 13
16.8705130095
 23
13.369731674
 33
0.0
  0
POINT
  5
F9
330
F0
100
AcDbEntity
  8
0
 62
     7
100
AcDbPoint
 10
16.5073374867
 20
13.2573270939
 30
0.0
  0
POINT
  5
FA
330
F0
100
AcDbEntity
  8
0
 62
     7
100
AcDbPoint
 10
13.1006211057
 20
12.7945879671
 30
0.0
  0
ENDBLK
  5
FB
330
F0
100
AcDbEntity
  8
0
100
AcDbBlockEnd
  0
BLOCK
  5
FE
330
FD
100
AcDbEntity
  8
0
 62
     1
100
AcDbBlockBegin
  2
*D4
 70
     1
 10
0.0
 20
0.0
 30
0.0
  3
*D4
  1

  0
MTEXT
  5
FF
330
FD
100
AcDbEntity
  8
0
 62
     7
100
AcDbMText
 10
20.8295552224
 20
18.0757751131
 30
0.0
 40
0.2
 41
0.0
 71
     7
 72
     1
  1
1/2"
  7
SLDTEXTSTYLE0
 73
     1
 44
1.0
  0
MTEXT
  5
100
330
FD
100
AcDbEntity
  8
0
 62
     7
100
AcDbMText
 10
21.3297978639
 20
18.0757751131
 30
0.0
 40
0.2
 41
0.0
 71
     7
 72
     1
  1
 RAD
  7
SLDTEXTSTYLE0
 73
     1
 44
1.0
  0
MTEXT
  5
101
330
FD
100
AcDbEntity
  8
0
 62
     7
100
AcDbMText
 10
20.8208905054
 20
17.6959309621
 30
0.0
 40
0.2
 41
0.0
 71
     7
 72
     1
  1
4 PLACES
  7
SLDTEXTSTYLE0
 73
     1
 44
1.0
  0
LINE
  5
102
330
FD
100
AcDbEntity
  8
0
 62
     7
100
AcDbLine
 10
19.1308706157
 20
16.7792987326
 30
0.0
 11
20.1646405054
 21
17.9757751131
 31
0.0
  0
LINE
  5
103
330
FD
100
AcDbEntity
  8
0
 62
     7
100
AcDbLine
 10
20.1646405054
 20
17.9757751131
 30
0.0
 11
20.6646405054
 21
17.9757751131
 31
0.0
  0
SOLID
  5
104
330
FD
100
AcDbEntity
  8
0
 62
     7
100
AcDbTrace
 10
19.1308706157
 20
16.7792987326
 30
0.0
 11
19.42333175559999
 21
17.0221932193
 31
0.0
 12
19.3287464551
 22
17.1039160491
 32
0.0
 13
19.3287464551
 23
17.1039160491
 33
0.0
  0
POINT
  5
106
330
FD
100
AcDbEntity
  8
0
 62
     7
100
AcDbPoint
 10
19.1308706157
 20
16.7792987326
 30
0.0
  0
POINT
  5
107
330
FD
100
AcDbEntity
  8
0
 62
     7
100
AcDbPoint
 10
18.80397929619999
 20
16.4009575305
 30
0.0
  0
ENDBLK
  5
108
330
FD
100
AcDbEntity
  8
0
100
AcDbBlockEnd
  0
BLOCK
  5
10B
330
10A
100
AcDbEntity
  8
0
 62
     1
100
AcDbBlockBegin
  2
*D5
 70
     1
 10
0.0
 20
0.0
 30
0.0
  3
*D5
  1

  0
MTEXT
  5
10C
330
10A
100
AcDbEntity
  8
0
100
AcDbMText
 10
12.16382929619999
 20
7.6220213208
 30
0.0
 40
0.2
 41
0.0
 71
     7
 72
     1
  1
4 1/2"
  7
SLDTEXTSTYLE0
 73
     1
 44
1.0
  0
LINE
  5
10D
330
10A
100
AcDbEntity
  8
0
100
AcDbLine
 10
10.3039792962
 20
9.570957530499999
 30
0.0
 11
10.3039792962
 21
7.4719433962
 31
0.0
  0
LINE
  5
10E
330
10A
100
AcDbEntity
  8
0
100
AcDbLine
 10
14.8039792962
 20
12.9459575305
 30
0.0
 11
14.8039792962
 21
7.4719433962
 31
0.0
  0
LINE
  5
10F
330
10A
100
AcDbEntity
  8
0
100
AcDbLine
 10
10.3039792962
 20
7.711943396199999
 30
0.0
 11
12.03882929619999
 21
7.711943396199999
 31
0.0
  0
LINE
  5
110
330
10A
100
AcDbEntity
  8
0
100
AcDbLine
 10
14.8039792962
 20
7.711943396199999
 30
0.0
 11
13.06912929619999
 21
7.711943396199999
 31
0.0
  0
SOLID
  5
111
330
10A
100
AcDbEntity
  8
0
100
AcDbTrace
 10
10.3039792962
 20
7.711943396199999
 30
0.0
 11
10.67897929619999
 21
7.649443396199999
 31
0.0
 12
10.67897929619999
 22
7.774443396199999
 32
0.0
 13
10.67897929619999
 23
7.774443396199999
 33
0.0
  0
SOLID
  5
112
330
10A
100
AcDbEntity
  8
0
100
AcDbTrace
 10
14.8039792962
 20
7.711943396199999
 30
0.0
 11
14.42897929619999
 21
7.774443396199999
 31
0.0
 12
14.42897929619999
 22
7.649443396199999
 32
0.0
 13
14.42897929619999
 23
7.649443396199999
 33
0.0
  0
POINT
  5
113
330
10A
100
AcDbEntity
  8
0
100
AcDbPoint
 10
10.3039792962
 20
9.650957530499999
 30
0.0
  0
POINT
  5
114
330
10A
100
AcDbEntity
  8
0
100
AcDbPoint
 10
14.8039792962
 20
13.0259575305
 30
0.0
  0
ENDBLK
  5
115
330
10A
100
AcDbEntity
  8
0
 62
     1
100
AcDbBlockEnd
  0
BLOCK
  5
118
330
117
100
AcDbEntity
  8
0
 62
     1
100
AcDbBlockBegin
  2
*D6
 70
     1
 10
0.0
 20
0.0
 30
0.0
  3
*D6
  1

  0
MTEXT
  5
119
330
117
100
AcDbEntity
  8
0
100
AcDbMText
 10
7.9216997845
 20
10.998535455
 30
0.0
 40
0.2
 41
0.0
 71
     7
 72
     1
  1
3 7/8"
  7
SLDTEXTSTYLE0
 73
     1
 44
1.0
  0
LINE
  5
11A
330
117
100
AcDbEntity
  8
0
100
AcDbLine
 10
14.7239792962
 20
13.0259575305
 30
0.0
 11
8.0818284637
 21
13.0259575305
 31
0.0
  0
LINE
  5
11B
330
117
100
AcDbEntity
  8
0
100
AcDbLine
 10
10.72397929619999
 20
9.150957530499999
 30
0.0
 11
8.0818284637
 21
9.150957530499999
 31
0.0
  0
LINE
  5
11C
330
117
100
AcDbEntity
  8
0
100
AcDbLine
 10
8.321828463699999
 20
13.0259575305
 30
0.0
 11
8.321828463699999
 21
11.27837960599999
 31
0.0
  0
LINE
  5
11D
330
117
100
AcDbEntity
  8
0
100
AcDbLine
 10
8.321828463699999
 20
9.150957530499999
 30
0.0
 11
8.321828463699999
 21
10.898535455
 31
0.0
  0
SOLID
  5
11E
330
117
100
AcDbEntity
  8
0
100
AcDbTrace
 10
8.321828463699999
 20
13.0259575305
 30
0.0
 11
8.259328463699999
 21
12.65095753049999
 31
0.0
 12
8.384328463699999
 22
12.65095753049999
 32
0.0
 13
8.384328463699999
 23
12.65095753049999
 33
0.0
  0
SOLID
  5
11F
330
117
100
AcDbEntity
  8
0
100
AcDbTrace
 10
8.321828463699999
 20
9.150957530499999
 30
0.0
 11
8.384328463699999
 21
9.525957530499999
 31
0.0
 12
8.259328463699999
 22
9.525957530499999
 32
0.0
 13
8.259328463699999
 23
9.525957530499999
 33
0.0
  0
POINT
  5
120
330
117
100
AcDbEntity
  8
0
100
AcDbPoint
 10
14.8039792962
 20
13.0259575305
 30
0.0
  0
POINT
  5
121
330
117
100
AcDbEntity
  8
0
100
AcDbPoint
 10
10.80397929619999
 20
9.150957530499999
 30
0.0
  0
ENDBLK
  5
122
330
117
100
AcDbEntity
  8
0
 62
     1
100
AcDbBlockEnd
  0
BLOCK
  5
125
330
124
100
AcDbEntity
  8
0
 62
     1
100
AcDbBlockBegin
  2
*D7
 70
     1
 10
0.0
 20
0.0
 30
0.0
  3
*D7
  1

  0
MTEXT
  5
126
330
124
100
AcDbEntity
  8
0
100
AcDbMText
 10
7.3467990298
 20
14.88709555359999
 30
0.0
 40
0.2
 41
0.0
 71
     7
 72
     1
  1
1.094
  7
SLDTEXTSTYLE0
 73
     1
 44
1.0
  0
LINE
  5
127
330
124
100
AcDbEntity
  8
0
100
AcDbLine
 10
14.7239792962
 20
13.0259575305
 30
0.0
 11
8.0818284637
 21
13.0259575305
 31
0.0
  0
LINE
  5
128
330
124
100
AcDbEntity
  8
0
100
AcDbLine
 10
12.8295487254
 20
14.1197075305
 30
0.0
 11
8.0818284637
 21
14.1197075305
 31
0.0
  0
LINE
  5
129
330
124
100
AcDbEntity
  8
0
100
AcDbLine
 10
8.071828463699999
 20
14.9770176291
 30
0.0
 11
8.321828463699999
 21
14.9770176291
 31
0.0
  0
LINE
  5
12A
330
124
100
AcDbEntity
  8
0
100
AcDbLine
 10
8.321828463699999
 20
14.9770176291
 30
0.0
 11
8.321828463699999
 21
14.1197075305
 31
0.0
  0
LINE
  5
12B
330
124
100
AcDbEntity
  8
0
100
AcDbLine
 10
8.321828463699999
 20
13.0259575305
 30
0.0
 11
8.321828463699999
 21
14.1197075305
 31
0.0
  0
SOLID
  5
12C
330
124
100
AcDbEntity
  8
0
100
AcDbTrace
 10
8.321828463699999
 20
13.0259575305
 30
0.0
 11
8.384328463699999
 21
13.40095753049999
 31
0.0
 12
8.259328463699999
 22
13.40095753049999
 32
0.0
 13
8.259328463699999
 23
13.40095753049999
 33
0.0
  0
SOLID
  5
12D
330
124
100
AcDbEntity
  8
0
100
AcDbTrace
 10
8.321828463699999
 20
14.1197075305
 30
0.0
 11
8.259328463699999
 21
13.74470753049999
 31
0.0
 12
8.384328463699999
 22
13.74470753049999
 32
0.0
 13
8.384328463699999
 23
13.74470753049999
 33
0.0
  0
POINT
  5
12E
330
124
100
AcDbEntity
  8
0
100
AcDbPoint
 10
14.8039792962
 20
13.0259575305
 30
0.0
  0
POINT
  5
12F
330
124
100
AcDbEntity
  8
0
100
AcDbPoint
 10
12.90954872539999
 20
14.1197075305
 30
0.0
  0
ENDBLK
  5
130
330
124
100
AcDbEntity
  8
0
 62
     1
100
AcDbBlockEnd
  0
BLOCK
  5
133
330
132
100
AcDbEntity
  8
0
 62
     1
100
AcDbBlockBegin
  2
*D8
 70
     1
 10
0.0
 20
0.0
 30
0.0
  3
*D8
  1

  0
MTEXT
  5
134
330
132
100
AcDbEntity
  8
0
100
AcDbMText
 10
14.5640002396
 20
7.589304339599999
 30
0.0
 40
0.2
 41
0.0
 71
     7
 72
     1
  1
.000
  7
SLDTEXTSTYLE0
 73
     1
 44
1.0
  0
POINT
  5
139
330
132
100
AcDbEntity
  8
0
100
AcDbPoint
 10
14.8039792962
 20
13.0259575305
 30
0.0
  0
POINT
  5
13A
330
132
100
AcDbEntity
  8
0
100
AcDbPoint
 10
14.8039792962
 20
10.8384575305
 30
0.0
  0
ENDBLK
  5
13B
330
132
100
AcDbEntity
  8
0
 62
     1
100
AcDbBlockEnd
  0
BLOCK
  5
137
330
136
100
AcDbEntity
  8
0
100
AcDbBlockBegin
  2
_NONE
 70
     0
 10
0.0
 20
0.0
 30
0.0
  3
_NONE
  1

  0
ENDBLK
  5
138
330
136
100
AcDbEntity
  8
0
100
AcDbBlockEnd
  0
BLOCK
  5
13E
330
13D
100
AcDbEntity
  8
0
 62
     7
100
AcDbBlockBegin
  2
*D10
 70
     1
 10
0.0
 20
0.0
 30
0.0
  3
*D10
  1

  0
MTEXT
  5
13F
330
13D
100
AcDbEntity
  8
0
 62
     7
100
AcDbMText
 10
13.5318987905
 20
18.17730627839999
 30
0.0
 40
0.2
 41
0.0
 71
     7
 72
     1
  1
1.894
  7
SLDTEXTSTYLE0
 73
     1
 44
1.0
  0
LINE
  5
140
330
13D
100
AcDbEntity
  8
0
 62
     7
100
AcDbLine
 10
14.8039792962
 20
13.1059575305
 30
0.0
 11
14.8039792962
 21
18.5072283539
 31
0.0
  0
LINE
  5
141
330
13D
100
AcDbEntity
  8
0
 62
     7
100
AcDbLine
 10
12.90954872539999
 20
14.1997075305
 30
0.0
 11
12.90954872539999
 21
18.5072283539
 31
0.0
  0
LINE
  5
142
330
13D
100
AcDbEntity
  8
0
 62
     7
100
AcDbLine
 10
14.8039792962
 20
18.2672283539
 30
0.0
 11
14.2569282245
 21
18.2672283539
 31
0.0
  0
LINE
  5
143
330
13D
100
AcDbEntity
  8
0
 62
     7
100
AcDbLine
 10
12.90954872539999
 20
18.2672283539
 30
0.0
 11
13.4068987905
 21
18.2672283539
 31
0.0
  0
SOLID
  5
144
330
13D
100
AcDbEntity
  8
0
 62
     7
100
AcDbTrace
 10
14.8039792962
 20
18.2672283539
 30
0.0
 11
14.42897929619999
 21
18.3297283539
 31
0.0
 12
14.42897929619999
 22
18.2047283539
 32
0.0
 13
14.42897929619999
 23
18.2047283539
 33
0.0
  0
SOLID
  5
145
330
13D
100
AcDbEntity
  8
0
 62
     7
100
AcDbTrace
 10
12.90954872539999
 20
18.2672283539
 30
0.0
 11
13.2845487254
 21
18.2047283539
 31
0.0
 12
13.2845487254
 22
18.3297283539
 32
0.0
 13
13.2845487254
 23
18.3297283539
 33
0.0
  0
POINT
  5
146
330
13D
100
AcDbEntity
  8
0
 62
     7
100
AcDbPoint
 10
14.8039792962
 20
13.0259575305
 30
0.0
  0
POINT
  5
147
330
13D
100
AcDbEntity
  8
0
 62
     7
100
AcDbPoint
 10
12.90954872539999
 20
14.1197075305
 30
0.0
  0
ENDBLK
  5
148
330
13D
100
AcDbEntity
  8
0
 62
     7
100
AcDbBlockEnd
  0
BLOCK
  5
14B
330
14A
100
AcDbEntity
  8
0
 62
     7
100
AcDbBlockBegin
  2
*D11
 70
     1
 10
0.0
 20
0.0
 30
0.0
  3
*D11
  1

  0
MTEXT
  5
14C
330
14A
100
AcDbEntity
  8
0
 62
     7
100
AcDbMText
 10
20.59645907959999
 20
11.7841837144
 30
0.0
 40
0.2
 41
0.0
 71
     7
 72
     1
  1
2.188
  7
SLDTEXTSTYLE0
 73
     1
 44
1.0
  0
LINE
  5
14D
330
14A
100
AcDbEntity
  8
0
 62
     7
100
AcDbLine
 10
14.8839792962
 20
13.0259575305
 30
0.0
 11
21.12649511729999
 21
13.0259575305
 31
0.0
  0
LINE
  5
14E
330
14A
100
AcDbEntity
  8
0
 62
     7
100
AcDbLine
 10
14.8839792962
 20
10.8384575305
 30
0.0
 11
21.12649511729999
 21
10.8384575305
 31
0.0
  0
LINE
  5
14F
330
14A
100
AcDbEntity
  8
0
 62
     7
100
AcDbLine
 10
20.8864951173
 20
13.0259575305
 30
0.0
 11
20.8864951173
 21
12.06402786539999
 31
0.0
  0
LINE
  5
150
330
14A
100
AcDbEntity
  8
0
 62
     7
100
AcDbLine
 10
20.8864951173
 20
10.8384575305
 30
0.0
 11
20.8864951173
 21
11.6841837144
 31
0.0
  0
SOLID
  5
151
330
14A
100
AcDbEntity
  8
0
 62
     7
100
AcDbTrace
 10
20.8864951173
 20
13.0259575305
 30
0.0
 11
20.8239951173
 21
12.65095753049999
 31
0.0
 12
20.94899511729999
 22
12.65095753049999
 32
0.0
 13
20.94899511729999
 23
12.65095753049999
 33
0.0
  0
SOLID
  5
152
330
14A
100
AcDbEntity
  8
0
 62
     7
100
AcDbTrace
 10
20.8864951173
 20
10.8384575305
 30
0.0
 11
20.94899511729999
 21
11.21345753049999
 31
0.0
 12
20.8239951173
 22
11.21345753049999
 32
0.0
 13
20.8239951173
 23
11.21345753049999
 33
0.0
  0
POINT
  5
153
330
14A
100
AcDbEntity
  8
0
 62
     7
100
AcDbPoint
 10
14.8039792962
 20
13.0259575305
 30
0.0
  0
POINT
  5
154
330
14A
100
AcDbEntity
  8
0
 62
     7
100
AcDbPoint
 10
14.8039792962
 20
10.8384575305
 30
0.0
  0
ENDBLK
  5
155
330
14A
100
AcDbEntity
  8
0
 62
     7
100
AcDbBlockEnd
  0
BLOCK
  5
165
330
164
100
AcDbEntity
  8
0
 62
     1
100
AcDbBlockBegin
  2
*D12
 70
     1
 10
0.0
 20
0.0
 30
0.0
  3
*D12
  1

  0
MTEXT
  5
166
330
164
100
AcDbEntity
  8
0
100
AcDbMText
 10
29.2087118101
 20
18.4091530518
 30
0.0
 40
0.3333333333
 41
0.0
 71
     7
 72
     1
  1
1.438
  7
SLDTEXTSTYLE0
 73
     1
 44
1.0
  0
MTEXT
  5
167
330
164
100
AcDbEntity
  8
0
100
AcDbMText
 10
30.06982275349999
 20
18.4091530518
 30
0.0
 40
0.3333333333
 41
0.0
 71
     7
 72
     1
  1
%%p.010
  7
SLDTEXTSTYLE0
 73
     1
 44
1.0
  0
MTEXT
  5
168
330
164
100
AcDbEntity
  8
0
100
AcDbMText
 10
30.90246992329999
 20
18.4091530518
 30
0.0
 40
0.3333333333
 41
0.0
 71
     7
 72
     1
  1
 
  7
SLDTEXTSTYLE0
 73
     1
 44
1.0
  0
MTEXT
  5
169
330
164
100
AcDbEntity
  8
0
100
AcDbMText
 10
28.5525780365
 20
17.8650696555
 30
0.0
 40
0.3333333333
 41
0.0
 71
     7
 72
     1
  1
BLANCHARD GRIND
  7
SLDTEXTSTYLE0
 73
     1
 44
1.0
  0
MTEXT
  5
16A
330
164
100
AcDbEntity
  8
0
100
AcDbMText
 10
28.5956008667
 20
17.32098625929999
 30
0.0
 40
0.3333333333
 41
0.0
 71
     7
 72
     1
  1
BOTH SIDES FROM
  7
SLDTEXTSTYLE0
 73
     1
 44
1.0
  0
MTEXT
  5
16B
330
164
100
AcDbEntity
  8
0
100
AcDbMText
 10
28.8820380365
 20
16.77690286309999
 30
0.0
 40
0.3333333333
 41
0.0
 71
     7
 72
     1
  1
1 1/2" STOACK
  7
SLDTEXTSTYLE0
 73
     1
 44
1.0
  0
LINE
  5
16C
330
164
100
AcDbEntity
  8
0
100
AcDbLine
 10
26.20293119699999
 20
16.48095753049999
 30
0.0
 11
26.20293119699999
 21
17.96062521109999
 31
0.0
  0
LINE
  5
16D
330
164
100
AcDbEntity
  8
0
100
AcDbLine
 10
27.640931197
 20
16.48095753049999
 30
0.0
 11
27.640931197
 21
17.96062521109999
 31
0.0
  0
LINE
  5
16E
330
164
100
AcDbEntity
  8
0
100
AcDbLine
 10
26.20293119699999
 20
17.7206252111
 30
0.0
 11
27.640931197
 21
17.7206252111
 31
0.0
  0
LINE
  5
16F
330
164
100
AcDbEntity
  8
0
100
AcDbLine
 10
27.640931197
 20
17.7206252111
 30
0.0
 11
28.3963280365
 21
17.7206252111
 31
0.0
  0
SOLID
  5
170
330
164
100
AcDbEntity
  8
0
100
AcDbTrace
 10
26.20293119699999
 20
17.7206252111
 30
0.0
 11
26.57793119699999
 21
17.65812521109999
 31
0.0
 12
26.57793119699999
 22
17.7831252111
 32
0.0
 13
26.57793119699999
 23
17.7831252111
 33
0.0
  0
SOLID
  5
171
330
164
100
AcDbEntity
  8
0
100
AcDbTrace
 10
27.640931197
 20
17.7206252111
 30
0.0
 11
27.26593119699999
 21
17.7831252111
 31
0.0
 12
27.26593119699999
 22
17.65812521109999
 32
0.0
 13
27.26593119699999
 23
17.65812521109999
 33
0.0
  0
POINT
  5
173
330
164
100
AcDbEntity
  8
0
100
AcDbPoint
 10
26.20293119699999
 20
16.4009575305
 30
0.0
  0
POINT
  5
174
330
164
100
AcDbEntity
  8
0
100
AcDbPoint
 10
27.640931197
 20
16.4009575305
 30
0.0
  0
ENDBLK
  5
175
330
164
100
AcDbEntity
  8
0
 62
     1
100
AcDbBlockEnd
  0
ENDSEC
  0
SECTION
  2
ENTITIES
  0
LINE
  5
2A
330
A
100
AcDbEntity
  8
0
  6
Continuous
 62
     7
370
     0
100
AcDbLine
 10
6.75
 20
21.25
 30
0.0
 11
3.0
 21
21.25
 31
0.0
  0
LINE
  5
2B
330
A
100
AcDbEntity
  8
0
  6
Continuous
 62
     7
370
     0
100
AcDbLine
 10
10.5
 20
21.25
 30
0.0
 11
6.75
 21
21.25
 31
0.0
  0
LINE
  5
2C
330
A
100
AcDbEntity
  8
0
  6
Continuous
 62
     7
370
     0
100
AcDbLine
 10
33.0
 20
0.75
 30
0.0
 11
29.25
 21
0.75
 31
0.0
  0
LINE
  5
2D
330
A
100
AcDbEntity
  8
0
  6
Continuous
 62
     7
370
     0
100
AcDbLine
 10
33.0
 20
0.75
 30
0.0
 11
33.0
 21
5.875
 31
0.0
  0
LINE
  5
2E
330
A
100
AcDbEntity
  8
0
  6
Continuous
 62
     7
370
     0
100
AcDbLine
 10
33.0
 20
16.125
 30
0.0
 11
33.25
 21
16.125
 31
0.0
  0
LINE
  5
2F
330
A
100
AcDbEntity
  8
0
  6
Continuous
 62
     7
370
     0
100
AcDbLine
 10
33.0
 20
11.0
 30
0.0
 11
33.25
 21
11.0
 31
0.0
  0
LINE
  5
30
330
A
100
AcDbEntity
  8
0
  6
Continuous
 62
     7
370
     0
100
AcDbLine
 10
14.25
 20
21.25
 30
0.0
 11
10.5
 21
21.25
 31
0.0
  0
LINE
  5
31
330
A
100
AcDbEntity
  8
0
  6
Continuous
 62
     7
370
     0
100
AcDbLine
 10
18.0
 20
21.25
 30
0.0
 11
14.25
 21
21.25
 31
0.0
  0
LINE
  5
32
330
A
100
AcDbEntity
  8
0
  6
Continuous
 62
     7
370
     0
100
AcDbLine
 10
21.75
 20
21.25
 30
0.0
 11
18.0
 21
21.25
 31
0.0
  0
LINE
  5
33
330
A
100
AcDbEntity
  8
0
  6
Continuous
 62
     7
370
     0
100
AcDbLine
 10
25.5
 20
21.25
 30
0.0
 11
21.75
 21
21.25
 31
0.0
  0
LINE
  5
34
330
A
100
AcDbEntity
  8
0
  6
Continuous
 62
     7
370
     0
100
AcDbLine
 10
29.25
 20
21.25
 30
0.0
 11
25.5
 21
21.25
 31
0.0
  0
LINE
  5
35
330
A
100
AcDbEntity
  8
0
  6
Continuous
 62
     7
370
     0
100
AcDbLine
 10
33.0
 20
5.875
 30
0.0
 11
33.25
 21
5.875
 31
0.0
  0
LINE
  5
36
330
A
100
AcDbEntity
  8
0
  6
Continuous
 62
     7
370
     0
100
AcDbLine
 10
33.0
 20
21.25
 30
0.0
 11
29.25
 21
21.25
 31
0.0
  0
LINE
  5
37
330
A
100
AcDbEntity
  8
0
  6
Continuous
 62
     7
370
     0
100
AcDbLine
 10
29.25
 20
21.25
 30
0.0
 11
29.25
 21
21.49999999999999
 31
0.0
  0
LINE
  5
38
330
A
100
AcDbEntity
  8
0
  6
Continuous
 62
     7
370
     0
100
AcDbLine
 10
25.5
 20
21.25
 30
0.0
 11
25.5
 21
21.49999999999999
 31
0.0
  0
LINE
  5
39
330
A
100
AcDbEntity
  8
0
  6
Continuous
 62
     7
370
     0
100
AcDbLine
 10
21.75
 20
21.25
 30
0.0
 11
21.75
 21
21.49999999999999
 31
0.0
  0
LINE
  5
3A
330
A
100
AcDbEntity
  8
0
  6
Continuous
 62
     7
370
     0
100
AcDbLine
 10
18.0
 20
21.25
 30
0.0
 11
18.0
 21
21.49999999999999
 31
0.0
  0
LINE
  5
3B
330
A
100
AcDbEntity
  8
0
  6
Continuous
 62
     7
370
     0
100
AcDbLine
 10
14.25
 20
21.25
 30
0.0
 11
14.25
 21
21.49999999999999
 31
0.0
  0
LINE
  5
3C
330
A
100
AcDbEntity
  8
0
  6
Continuous
 62
     7
370
     0
100
AcDbLine
 10
10.5
 20
21.25
 30
0.0
 11
10.5
 21
21.49999999999999
 31
0.0
  0
LINE
  5
3D
330
A
100
AcDbEntity
  8
0
  6
Continuous
 62
     7
370
     0
100
AcDbLine
 10
6.75
 20
21.25
 30
0.0
 11
6.75
 21
21.49999999999999
 31
0.0
  0
LINE
  5
3E
330
A
100
AcDbEntity
  8
0
  6
Continuous
 62
     7
370
     0
100
AcDbLine
 10
17.5
 20
3.379999999999999
 30
0.0
 11
17.5
 21
0.752
 31
0.0
  0
LINE
  5
3F
330
A
100
AcDbEntity
  8
0
  6
Continuous
 62
     7
370
     0
100
AcDbLine
 10
22.0
 20
4.75
 30
0.0
 11
33.0
 21
4.75
 31
0.0
  0
LINE
  5
40
330
A
100
AcDbEntity
  8
0
  6
Continuous
 62
     7
370
     0
100
AcDbLine
 10
22.0
 20
4.75
 30
0.0
 11
22.0
 21
0.75
 31
0.0
  0
LINE
  5
41
330
A
100
AcDbEntity
  8
0
  6
Continuous
 62
     7
370
     0
100
AcDbLine
 10
27.0
 20
4.75
 30
0.0
 11
27.0
 21
0.75
 31
0.0
  0
LINE
  5
42
330
A
100
AcDbEntity
  8
0
  6
Continuous
 62
     7
370
     0
100
AcDbLine
 10
27.0
 20
1.125999999999999
 30
0.0
 11
33.0
 21
1.125999999999999
 31
0.0
  0
LINE
  5
43
330
A
100
AcDbEntity
  8
0
  6
Continuous
 62
     7
370
     0
100
AcDbLine
 10
27.0
 20
1.875999999999999
 30
0.0
 11
33.0
 21
1.875999999999999
 31
0.0
  0
LINE
  5
44
330
A
100
AcDbEntity
  8
0
  6
Continuous
 62
     7
370
     0
100
AcDbLine
 10
27.0
 20
3.376
 30
0.0
 11
33.0
 21
3.376
 31
0.0
  0
LINE
  5
45
330
A
100
AcDbEntity
  8
0
  6
Continuous
 62
     7
370
     0
100
AcDbLine
 10
27.75
 20
1.875999999999999
 30
0.0
 11
27.75
 21
0.75
 31
0.0
  0
LINE
  5
46
330
A
100
AcDbEntity
  8
0
  6
Continuous
 62
     7
370
     0
100
AcDbLine
 10
17.5
 20
1.501999999999999
 30
0.0
 11
27.0
 21
1.501999999999999
 31
0.0
  0
LINE
  5
47
330
A
100
AcDbEntity
  8
0
  6
Continuous
 62
     7
370
     0
100
AcDbLine
 10
32.25
 20
1.875999999999999
 30
0.0
 11
32.25
 21
0.75
 31
0.0
  0
LINE
  5
48
330
A
100
AcDbEntity
  8
0
  6
Continuous
 62
     7
370
     0
100
AcDbLine
 10
27.0
 20
4.0
 30
0.0
 11
22.0
 21
4.0
 31
0.0
  0
LINE
  5
49
330
A
100
AcDbEntity
  8
0
  6
Continuous
 62
     7
370
     0
100
AcDbLine
 10
22.0
 20
2.374
 30
0.0
 11
27.0
 21
2.374
 31
0.0
  0
LINE
  5
4A
330
A
100
AcDbEntity
  8
0
  6
Continuous
 62
     7
370
     0
100
AcDbLine
 10
22.0
 20
1.125999999999999
 30
0.0
 11
27.0
 21
1.125999999999999
 31
0.0
  0
LINE
  5
4B
330
A
100
AcDbEntity
  8
0
  6
Continuous
 62
     7
370
     0
100
AcDbLine
 10
17.5
 20
2.628
 30
0.0
 11
22.0
 21
2.628
 31
0.0
  0
LINE
  5
4C
330
A
100
AcDbEntity
  8
0
  6
Continuous
 62
     7
370
     0
100
AcDbLine
 10
33.0
 20
5.875
 30
0.0
 11
33.0
 21
11.0
 31
0.0
  0
LINE
  5
4D
330
A
100
AcDbEntity
  8
0
  6
Continuous
 62
     7
370
     0
100
AcDbLine
 10
33.0
 20
11.0
 30
0.0
 11
33.0
 21
16.125
 31
0.0
  0
LINE
  5
4E
330
A
100
AcDbEntity
  8
0
  6
Continuous
 62
     7
370
     0
100
AcDbLine
 10
33.0
 20
16.125
 30
0.0
 11
33.0
 21
21.25
 31
0.0
  0
LINE
  5
4F
330
A
100
AcDbEntity
  8
0
  6
Continuous
 62
     7
370
     0
100
AcDbLine
 10
29.25
 20
0.75
 30
0.0
 11
25.5
 21
0.75
 31
0.0
  0
LINE
  5
50
330
A
100
AcDbEntity
  8
0
  6
Continuous
 62
     7
370
     0
100
AcDbLine
 10
25.5
 20
0.75
 30
0.0
 11
21.75
 21
0.75
 31
0.0
  0
LINE
  5
51
330
A
100
AcDbEntity
  8
0
  6
Continuous
 62
     7
370
     0
100
AcDbLine
 10
17.5
 20
3.003999999999999
 30
0.0
 11
22.0
 21
3.003999999999999
 31
0.0
  0
LINE
  5
52
330
A
100
AcDbEntity
  8
0
  6
Continuous
 62
     7
370
     0
100
AcDbLine
 10
17.5
 20
1.875
 30
0.0
 11
10.0
 21
1.875
 31
0.0
  0
LINE
  5
53
330
A
100
AcDbEntity
  8
0
  6
Continuous
 62
     7
370
     0
100
AcDbLine
 10
22.0
 20
3.379999999999999
 30
0.0
 11
17.5
 21
3.379999999999999
 31
0.0
  0
LINE
  5
54
330
A
100
AcDbEntity
  8
0
  6
Continuous
 62
     7
370
     0
100
AcDbLine
 10
20.5
 20
3.379999999999999
 30
0.0
 11
20.5
 21
2.251999999999999
 31
0.0
  0
LINE
  5
55
330
A
100
AcDbEntity
  8
0
  6
Continuous
 62
     7
370
     0
100
AcDbLine
 10
22.0
 20
3.623999999999999
 30
0.0
 11
27.0
 21
3.623999999999999
 31
0.0
  0
LINE
  5
56
330
A
100
AcDbEntity
  8
0
  6
Continuous
 62
     7
370
     0
100
AcDbLine
 10
17.5
 20
2.251999999999999
 30
0.0
 11
22.0
 21
2.251999999999999
 31
0.0
  0
LINE
  5
57
330
A
100
AcDbEntity
  8
0
  6
Continuous
 62
     7
370
     0
100
AcDbLine
 10
24.5
 20
4.0
 30
0.0
 11
24.5
 21
2.374
 31
0.0
  0
LINE
  5
58
330
A
100
AcDbEntity
  8
0
  6
Continuous
 62
     7
370
     0
100
AcDbLine
 10
21.75
 20
0.75
 30
0.0
 11
18.0
 21
0.75
 31
0.0
  0
LINE
  5
59
330
A
100
AcDbEntity
  8
0
  6
Continuous
 62
     7
370
     0
100
AcDbLine
 10
18.0
 20
0.75
 30
0.0
 11
14.25
 21
0.75
 31
0.0
  0
LINE
  5
5A
330
A
100
AcDbEntity
  8
0
  6
Continuous
 62
     7
370
     0
100
AcDbLine
 10
14.25
 20
0.75
 30
0.0
 11
10.5
 21
0.75
 31
0.0
  0
LINE
  5
5B
330
A
100
AcDbEntity
  8
0
  6
Continuous
 62
     7
370
     0
100
AcDbLine
 10
10.5
 20
0.75
 30
0.0
 11
6.75
 21
0.75
 31
0.0
  0
LINE
  5
5C
330
A
100
AcDbEntity
  8
0
  6
Continuous
 62
     7
370
     0
100
AcDbLine
 10
25.75
 20
4.0
 30
0.0
 11
25.75
 21
2.374
 31
0.0
  0
LINE
  5
5D
330
A
100
AcDbEntity
  8
0
  6
Continuous
 62
     7
370
     0
100
AcDbLine
 10
6.75
 20
0.75
 30
0.0
 11
3.0
 21
0.75
 31
0.0
  0
LINE
  5
5E
330
A
100
AcDbEntity
  8
0
  6
Continuous
 62
     7
370
     0
100
AcDbLine
 10
1.5
 20
21.25
 30
0.0
 11
1.5
 21
0.75
 31
0.0
  0
LINE
  5
5F
330
A
100
AcDbEntity
  8
0
  6
Continuous
 62
     7
370
     0
100
AcDbLine
 10
3.0
 20
5.875
 30
0.0
 11
3.0
 21
11.0
 31
0.0
  0
LINE
  5
60
330
A
100
AcDbEntity
  8
0
  6
Continuous
 62
     7
370
     0
100
AcDbLine
 10
3.0
 20
11.0
 30
0.0
 11
3.0
 21
16.125
 31
0.0
  0
LINE
  5
61
330
A
100
AcDbEntity
  8
0
  6
Continuous
 62
     7
370
     0
100
AcDbLine
 10
3.0
 20
16.125
 30
0.0
 11
3.0
 21
21.25
 31
0.0
  0
LINE
  5
62
330
A
100
AcDbEntity
  8
0
  6
Continuous
 62
     7
370
     0
100
AcDbLine
 10
3.0
 20
16.125
 30
0.0
 11
2.75
 21
16.125
 31
0.0
  0
LINE
  5
63
330
A
100
AcDbEntity
  8
0
  6
Continuous
 62
     7
370
     0
100
AcDbLine
 10
29.25
 20
0.75
 30
0.0
 11
29.25
 21
0.5
 31
0.0
  0
LINE
  5
64
330
A
100
AcDbEntity
  8
0
  6
Continuous
 62
     7
370
     0
100
AcDbLine
 10
25.5
 20
0.75
 30
0.0
 11
25.5
 21
0.5
 31
0.0
  0
LINE
  5
65
330
A
100
AcDbEntity
  8
0
  6
Continuous
 62
     7
370
     0
100
AcDbLine
 10
21.75
 20
0.75
 30
0.0
 11
21.75
 21
0.5
 31
0.0
  0
LINE
  5
66
330
A
100
AcDbEntity
  8
0
  6
CENTERX2
 62
     7
370
     0
100
AcDbLine
 10
18.0
 20
0.75
 30
0.0
 11
18.0
 21
0.5
 31
0.0
  0
LINE
  5
67
330
A
100
AcDbEntity
  8
0
  6
Continuous
 62
     7
370
     0
100
AcDbLine
 10
14.25
 20
0.75
 30
0.0
 11
14.25
 21
0.5
 31
0.0
  0
LINE
  5
68
330
A
100
AcDbEntity
  8
0
  6
Continuous
 62
     7
370
     0
100
AcDbLine
 10
10.5
 20
0.75
 30
0.0
 11
10.5
 21
0.5
 31
0.0
  0
LINE
  5
69
330
A
100
AcDbEntity
  8
0
  6
Continuous
 62
     7
370
     0
100
AcDbLine
 10
6.75
 20
0.75
 30
0.0
 11
6.75
 21
0.5
 31
0.0
  0
LINE
  5
6A
330
A
100
AcDbEntity
  8
0
  6
Continuous
 62
     7
370
     0
100
AcDbLine
 10
3.0
 20
11.0
 30
0.0
 11
2.75
 21
11.0
 31
0.0
  0
LINE
  5
6B
330
A
100
AcDbEntity
  8
0
  6
Continuous
 62
     7
370
     0
100
AcDbLine
 10
3.0
 20
5.875
 30
0.0
 11
2.75
 21
5.875
 31
0.0
  0
LINE
  5
6C
330
A
100
AcDbEntity
  8
0
  6
Continuous
 62
     7
370
     0
100
AcDbLine
 10
3.0
 20
0.75
 30
0.0
 11
3.0
 21
5.875
 31
0.0
  0
LINE
  5
6D
330
A
100
AcDbEntity
  8
0
  6
Continuous
 62
     7
370
     0
100
AcDbLine
 10
10.0
 20
1.875
 30
0.0
 11
10.0
 21
0.75
 31
0.0
  0
LINE
  5
6E
330
A
100
AcDbEntity
  8
0
  6
Continuous
 62
     7
370
     0
100
AcDbLine
 10
33.0
 20
20.874
 30
0.0
 11
25.0
 21
20.874
 31
0.0
  0
LINE
  5
6F
330
A
100
AcDbEntity
  8
0
  6
Continuous
 62
     7
370
     0
100
AcDbLine
 10
33.0
 20
20.498
 30
0.0
 11
25.0
 21
20.498
 31
0.0
  0
LINE
  5
70
330
A
100
AcDbEntity
  8
0
  6
Continuous
 62
     7
370
     0
100
AcDbLine
 10
33.0
 20
20.12199999999999
 30
0.0
 11
25.0
 21
20.12199999999999
 31
0.0
  0
LINE
  5
71
330
A
100
AcDbEntity
  8
0
  6
Continuous
 62
     7
370
     0
100
AcDbLine
 10
25.0
 20
21.25
 30
0.0
 11
25.0
 21
20.12199999999999
 31
0.0
  0
LINE
  5
72
330
A
100
AcDbEntity
  8
0
  6
Continuous
 62
     7
370
     0
100
AcDbLine
 10
25.75
 20
20.874
 30
0.0
 11
25.75
 21
20.12199999999999
 31
0.0
  0
LINE
  5
73
330
A
100
AcDbEntity
  8
0
  6
Continuous
 62
     7
370
     0
100
AcDbLine
 10
31.5
 20
20.874
 30
0.0
 11
31.5
 21
20.12199999999999
 31
0.0
  0
LINE
  5
74
330
A
100
AcDbEntity
  8
0
  6
Continuous
 62
     7
370
     0
100
AcDbLine
 10
30.25
 20
20.874
 30
0.0
 11
30.25
 21
20.12199999999999
 31
0.0
  0
MTEXT
  5
76
330
A
100
AcDbEntity
  8
0
 62
     1
100
AcDbMText
 10
17.6599050803674
 20
1.811992624582623
 30
0.0
 40
0.2
 41
0.0
 71
     1
 72
     1
  1
STEEL A-36, 1 1/2" THICK BURNED
  7
SLDTEXTSTYLE0
 73
     1
 44
1.0
  0
MTEXT
  5
77
330
A
100
AcDbEntity
  8
0
 62
     1
100
AcDbMText
 10
23.48254422155783
 20
1.434863704828793
 30
0.0
 40
0.2
 41
0.0
 71
     1
 72
     1
  1
25.2 lbs
  7
SLDTEXTSTYLE0
 73
     1
 44
1.0
  0
MTEXT
  5
78
330
A
100
AcDbEntity
  8
0
 62
     1
100
AcDbMText
 10
18.77657356551847
 20
1.378598550615341
 30
0.0
 40
0.2
 41
0.0
 71
     1
 72
     1
  1
BLNCHARD GROUND\PTWO SIDES, SEE NOTE
  7
SLDTEXTSTYLE0
 73
     1
 44
1.0
  0
MTEXT
  5
79
330
A
100
AcDbEntity
  8
0
 62
     1
100
AcDbMText
 10
14.9396559917
 20
3.090572715299999
 30
0.0
 40
0.3333333333
 41
0.0
 71
     2
 72
     1
  1
2 REQUIRED\PPER ASSEM
  7
SLDTEXTSTYLE0
 73
     1
 44
1.0
  0
MTEXT
  5
7A
330
A
100
AcDbEntity
  8
0
 62
     7
100
AcDbMText
 10
33.4267901591
 20
18.1773255851
 30
0.0
 40
0.1875
 41
0.0
 71
     1
 72
     1
  1
D
  7
SLDTEXTSTYLE0
 73
     1
 44
1.0
  0
MTEXT
  5
7B
330
A
100
AcDbEntity
  8
0
 62
     7
100
AcDbMText
 10
33.3902116994
 20
13.0924229495
 30
0.0
 40
0.1875
 41
0.0
 71
     1
 72
     1
  1
C
  7
SLDTEXTSTYLE0
 73
     1
 44
1.0
  0
MTEXT
  5
7C
330
A
100
AcDbEntity
  8
0
 62
     7
100
AcDbMText
 10
33.4122416003
 20
8.4376303193
 30
0.0
 40
0.1875
 41
0.0
 71
     1
 72
     1
  1
B
  7
SLDTEXTSTYLE0
 73
     1
 44
1.0
  0
MTEXT
  5
7D
330
A
100
AcDbEntity
  8
0
 62
     7
100
AcDbMText
 10
33.41110332019999
 20
3.4275364166
 30
0.0
 40
0.1875
 41
0.0
 71
     1
 72
     1
  1
A
  7
SLDTEXTSTYLE0
 73
     1
 44
1.0
  0
MTEXT
  5
7E
330
A
100
AcDbEntity
  8
0
 62
     7
100
AcDbMText
 10
1.928705197299999
 20
3.386828737099999
 30
0.0
 40
0.1875
 41
0.0
 71
     1
 72
     1
  1
A
  7
SLDTEXTSTYLE0
 73
     1
 44
1.0
  0
MTEXT
  5
7F
330
A
100
AcDbEntity
  8
0
 62
     7
100
AcDbMText
 10
1.9223190128
 20
8.5555905613
 30
0.0
 40
0.1875
 41
0.0
 71
     1
 72
     1
  1
B
  7
SLDTEXTSTYLE0
 73
     1
 44
1.0
  0
MTEXT
  5
80
330
A
100
AcDbEntity
  8
0
 62
     7
100
AcDbMText
 10
1.8976558109
 20
13.7484800132
 30
0.0
 40
0.1875
 41
0.0
 71
     1
 72
     1
  1
C
  7
SLDTEXTSTYLE0
 73
     1
 44
1.0
  0
MTEXT
  5
81
330
A
100
AcDbEntity
  8
0
 62
     7
100
AcDbMText
 10
1.8910979243
 20
18.61293676709999
 30
0.0
 40
0.1875
 41
0.0
 71
     1
 72
     1
  1
D
  7
SLDTEXTSTYLE0
 73
     1
 44
1.0
  0
MTEXT
  5
82
330
A
100
AcDbEntity
  8
0
 62
     7
100
AcDbMText
 10
32.3716116231
 20
1.0393571179
 30
0.0
 40
0.18
 41
0.0
 71
     1
 72
     1
  1
REV.
  7
SLDTEXTSTYLE0
 73
     1
 44
1.0
  0
MTEXT
  5
83
330
A
100
AcDbEntity
  8
0
 62
     7
100
AcDbMText
 10
24.6981540237
 20
3.517381948899999
 30
0.0
 40
0.18
 41
0.0
 71
     1
 72
     1
  1
%%p\P%%p\P%%p\P%%p
  7
SLDTEXTSTYLE0
 73
     1
 44
1.0
  0
MTEXT
  5
84
330
A
100
AcDbEntity
  8
0
 62
     7
100
AcDbMText
 10
17.6238830497
 20
2.1949691999
 30
0.0
 40
0.18
 41
0.0
 71
     1
 72
     1
  1
MATERIAL
  7
SLDTEXTSTYLE0
 73
     1
 44
1.0
  0
MTEXT
  5
85
330
A
100
AcDbEntity
  8
0
 62
     7
100
AcDbMText
 10
17.61930681289999
 20
1.4633476137
 30
0.0
 40
0.18
 41
0.0
 71
     1
 72
     1
  1
FINISH
  7
SLDTEXTSTYLE0
 73
     1
 44
1.0
  0
MTEXT
  5
86
330
A
100
AcDbEntity
  8
0
 62
     7
100
AcDbMText
 10
31.6008660067
 20
0.6435367619
 30
0.0
 40
0.1875
 41
0.0
 71
     1
 72
     1
  1
1
  7
SLDTEXTSTYLE0
 73
     1
 44
1.0
  0
MTEXT
  5
87
330
A
100
AcDbEntity
  8
0
 62
     7
100
AcDbMText
 10
27.188772508
 20
0.6630215896000001
 30
0.0
 40
0.1875
 41
0.0
 71
     1
 72
     1
  1
2
  7
SLDTEXTSTYLE0
 73
     1
 44
1.0
  0
MTEXT
  5
88
330
A
100
AcDbEntity
  8
0
 62
     7
100
AcDbMText
 10
23.07254336179999
 20
0.6695165322
 30
0.0
 40
0.1875
 41
0.0
 71
     1
 72
     1
  1
3
  7
SLDTEXTSTYLE0
 73
     1
 44
1.0
  0
MTEXT
  5
89
330
A
100
AcDbEntity
  8
0
 62
     7
100
AcDbMText
 10
19.36335516149999
 20
0.6734897547
 30
0.0
 40
0.1875
 41
0.0
 71
     1
 72
     1
  1
4
  7
SLDTEXTSTYLE0
 73
     1
 44
1.0
  0
MTEXT
  5
8A
330
A
100
AcDbEntity
  8
0
 62
     7
100
AcDbMText
 10
15.462529337
 20
0.6799846972
 30
0.0
 40
0.1875
 41
0.0
 71
     1
 72
     1
  1
5
  7
SLDTEXTSTYLE0
 73
     1
 44
1.0
  0
MTEXT
  5
8B
330
A
100
AcDbEntity
  8
0
 62
     7
100
AcDbMText
 10
11.8204309972
 20
0.6475099845000001
 30
0.0
 40
0.1875
 41
0.0
 71
     1
 72
     1
  1
6
  7
SLDTEXTSTYLE0
 73
     1
 44
1.0
  0
MTEXT
  5
8C
330
A
100
AcDbEntity
  8
0
 62
     7
100
AcDbMText
 10
7.8604617573
 20
0.6760114747000001
 30
0.0
 40
0.1875
 41
0.0
 71
     1
 72
     1
  1
7
  7
SLDTEXTSTYLE0
 73
     1
 44
1.0
  0
MTEXT
  5
8D
330
A
100
AcDbEntity
  8
0
 62
     7
100
AcDbMText
 10
4.296302728099999
 20
0.6799846972
 30
0.0
 40
0.1875
 41
0.0
 71
     1
 72
     1
  1
8
  7
SLDTEXTSTYLE0
 73
     1
 44
1.0
  0
MTEXT
  5
8E
330
A
100
AcDbEntity
  8
0
 62
     7
100
AcDbMText
 10
4.2345579061
 20
21.6173792426
 30
0.0
 40
0.1875
 41
0.0
 71
     1
 72
     1
  1
8
  7
SLDTEXTSTYLE0
 73
     1
 44
1.0
  0
MTEXT
  5
8F
330
A
100
AcDbEntity
  8
0
 62
     7
100
AcDbMText
 10
8.1409139955
 20
21.5728046875
 30
0.0
 40
0.1875
 41
0.0
 71
     1
 72
     1
  1
7
  7
SLDTEXTSTYLE0
 73
     1
 44
1.0
  0
MTEXT
  5
90
330
A
100
AcDbEntity
  8
0
 62
     7
100
AcDbMText
 10
11.9034294794
 20
21.55973741319999
 30
0.0
 40
0.1875
 41
0.0
 71
     1
 72
     1
  1
6
  7
SLDTEXTSTYLE0
 73
     1
 44
1.0
  0
MTEXT
  5
91
330
A
100
AcDbEntity
  8
0
 62
     7
100
AcDbMText
 10
15.8123883618
 20
21.536021799
 30
0.0
 40
0.1875
 41
0.0
 71
     1
 72
     1
  1
5
  7
SLDTEXTSTYLE0
 73
     1
 44
1.0
  0
MTEXT
  5
92
330
A
100
AcDbEntity
  8
0
 62
     7
100
AcDbMText
 10
19.69763163
 20
21.5936636285
 30
0.0
 40
0.1875
 41
0.0
 71
     1
 72
     1
  1
4
  7
SLDTEXTSTYLE0
 73
     1
 44
1.0
  0
MTEXT
  5
93
330
A
100
AcDbEntity
  8
0
 62
     7
100
AcDbMText
 10
23.6026044816
 20
21.5522932878
 30
0.0
 40
0.1875
 41
0.0
 71
     1
 72
     1
  1
3
  7
SLDTEXTSTYLE0
 73
     1
 44
1.0
  0
MTEXT
  5
94
330
A
100
AcDbEntity
  8
0
 62
     7
100
AcDbMText
 10
27.34209597019999
 20
21.57670052079999
 30
0.0
 40
0.1875
 41
0.0
 71
     1
 72
     1
  1
2
  7
SLDTEXTSTYLE0
 73
     1
 44
1.0
  0
MTEXT
  5
95
330
A
100
AcDbEntity
  8
0
 62
     7
100
AcDbMText
 10
31.3337955341
 20
21.5434659245
 30
0.0
 40
0.1875
 41
0.0
 71
     1
 72
     1
  1
1
  7
SLDTEXTSTYLE0
 73
     1
 44
1.0
  0
MTEXT
  5
96
330
A
100
AcDbEntity
  8
0
 62
     7
100
AcDbMText
 10
27.3108680233
 20
4.601434772
 30
0.0
 40
0.3333333333
 41
0.0
 71
     1
 72
     1
  1
RADIO  ASTRONOMY  LAB
  7
SLDTEXTSTYLE0
 73
     1
 44
1.0
  0
MTEXT
  5
97
330
A
100
AcDbEntity
  8
0
 62
     7
100
AcDbMText
 10
30.0455157509
 20
4.0390982181
 30
0.0
 40
0.2
 41
0.0
 71
     2
 72
     1
  1
University of California - Berkeley\PTel: 510-642-5040    Fax: 510-642-3411
  7
SLDTEXTSTYLE0
 73
     1
 44
1.0
  0
MTEXT
  5
98
330
A
100
AcDbEntity
  8
0
 62
     7
100
AcDbMText
 10
18.7679698813
 20
3.2755187723
 30
0.0
 40
0.18
 41
0.0
 71
     1
 72
     1
  1
NAME
  7
SLDTEXTSTYLE0
 73
     1
 44
1.0
  0
MTEXT
  5
99
330
A
100
AcDbEntity
  8
0
 62
     7
100
AcDbMText
 10
20.98387844709999
 20
3.266656853999999
 30
0.0
 40
0.18
 41
0.0
 71
     1
 72
     1
  1
DATE
  7
SLDTEXTSTYLE0
 73
     1
 44
1.0
  0
MTEXT
  5
9A
330
A
100
AcDbEntity
  8
0
 62
     7
100
AcDbMText
 10
27.1586608648
 20
1.048305726399999
 30
0.0
 40
0.18
 41
0.0
 71
     1
 72
     1
  1
SIZE
  7
SLDTEXTSTYLE0
 73
     1
 44
1.0
  0
MTEXT
  5
9B
330
A
100
AcDbEntity
  8
0
 62
     7
100
AcDbMText
 10
27.2689997612
 20
1.688263934499999
 30
0.0
 40
0.375
 41
0.0
 71
     1
 72
     1
  1
B
  7
SLDTEXTSTYLE0
 73
     1
 44
1.0
  0
MTEXT
  5
9C
330
A
100
AcDbEntity
  8
0
 62
     7
100
AcDbMText
 10
22.15842570219999
 20
1.025732341399999
 30
0.0
 40
0.18
 41
0.0
 71
     1
 72
     1
  1
SCALE:
  7
SLDTEXTSTYLE0
 73
     1
 44
1.0
  0
MTEXT
  5
9D
330
A
100
AcDbEntity
  8
0
 62
     7
100
AcDbMText
 10
27.8487811561
 20
1.040000562399999
 30
0.0
 40
0.18
 41
0.0
 71
     1
 72
     1
  1
DWG NUM:      SHEET             OF
  7
SLDTEXTSTYLE0
 73
     1
 44
1.0
  0
MTEXT
  5
9E
330
A
100
AcDbEntity
  8
0
 62
     7
100
AcDbMText
 10
31.9975629588
 20
20.77060537049999
 30
0.0
 40
0.18
 41
0.0
 71
     1
 72
     1
  1
DATE
  7
SLDTEXTSTYLE0
 73
     1
 44
1.0
  0
MTEXT
  5
9F
330
A
100
AcDbEntity
  8
0
 62
     7
100
AcDbMText
 10
30.60497715849999
 20
20.76974912069999
 30
0.0
 40
0.18
 41
0.0
 71
     1
 72
     1
  1
NAME
  7
SLDTEXTSTYLE0
 73
     1
 44
1.0
  0
MTEXT
  5
A0
330
A
100
AcDbEntity
  8
0
 62
     7
100
AcDbMText
 10
28.0661477015
 20
21.1439293414
 30
0.0
 40
0.18
 41
0.0
 71
     1
 72
     1
  1
REVISIONS
  7
SLDTEXTSTYLE0
 73
     1
 44
1.0
  0
MTEXT
  5
A1
330
A
100
AcDbEntity
  8
0
 62
     7
100
AcDbMText
 10
25.1643971738
 20
20.766866483
 30
0.0
 40
0.18
 41
0.0
 71
     1
 72
     1
  1
REV
  7
SLDTEXTSTYLE0
 73
     1
 44
1.0
  0
MTEXT
  5
A2
330
A
100
AcDbEntity
  8
0
 62
     7
100
AcDbMText
 10
25.9249113832
 20
20.7657813505
 30
0.0
 40
0.18
 41
0.0
 71
     1
 72
     1
  1
DESCRIPTION
  7
SLDTEXTSTYLE0
 73
     1
 44
1.0
  0
MTEXT
  5
A3
330
A
100
AcDbEntity
  8
0
 62
     7
100
AcDbMText
 10
22.1480393555
 20
1.3968916297
 30
0.0
 40
0.18
 41
0.0
 71
     1
 72
     1
  1
WEIGHT:
  7
SLDTEXTSTYLE0
 73
     1
 44
1.0
  0
MTEXT
  5
A4
330
A
100
AcDbEntity
  8
0
 62
     7
100
AcDbMText
 10
17.6215282352
 20
2.8950889263
 30
0.0
 40
0.18
 41
0.0
 71
     1
 72
     1
  1
DRAWN
  7
SLDTEXTSTYLE0
 73
     1
 44
1.0
  0
MTEXT
  5
A5
330
A
100
AcDbEntity
  8
0
 62
     7
100
AcDbMText
 10
17.6210734013
 20
2.5226608477
 30
0.0
 40
0.18
 41
0.0
 71
     1
 72
     1
  1
CHECKED
  7
SLDTEXTSTYLE0
 73
     1
 44
1.0
  0
MTEXT
  5
A6
330
A
100
AcDbEntity
  8
0
 62
     7
100
AcDbMText
 10
24.33055858489999
 20
3.507841019399999
 30
0.0
 40
0.18
 41
0.0
 71
     3
 72
     1
  1
WHOLE & FRACTION\PDECIMAL   X.X\PDECIMAL   X.XX\PDECIMAL   X.XXX
  7
SLDTEXTSTYLE0
 73
     1
 44
1.0
  0
MTEXT
  5
A7
330
A
100
AcDbEntity
  8
0
 62
     7
100
AcDbMText
 10
25.1745951406
 20
3.929472052099999
 30
0.0
 40
0.18
 41
0.0
 71
     2
 72
     1
  1
LINEAR
  7
SLDTEXTSTYLE0
 73
     1
 44
1.0
  0
MTEXT
  5
A8
330
A
100
AcDbEntity
  8
0
 62
     7
100
AcDbMText
 10
26.3356091027
 20
3.9415075313
 30
0.0
 40
0.18
 41
0.0
 71
     2
 72
     1
  1
ANGLE
  7
SLDTEXTSTYLE0
 73
     1
 44
1.0
  0
INSERT
  5
AF
330
A
100
AcDbEntity
  8
0
100
AcDbBlockReference
  2
NOTE51
 10
22.3339933715
 20
2.1880895052
 30
0.0
  0
MTEXT
  5
B0
330
A
100
AcDbEntity
  8
0
 62
     7
100
AcDbMText
 10
24.4975069762
 20
4.6178056931
 30
0.0
 40
0.18
 41
0.0
 71
     2
 72
     1
  1
UNLESS OTHERWISE SPECIFIED\PDIMENSIONS ARE INCHES & DEGREES
  7
SLDTEXTSTYLE0
 73
     1
 44
1.0
  0
MTEXT
  5
B1
330
A
100
AcDbEntity
  8
0
 62
     7
100
AcDbMText
 10
22.402600218
 20
3.916736906
 30
0.0
 40
0.18
 41
0.0
 71
     1
 72
     1
  1
TOLERANCES:
  7
SLDTEXTSTYLE0
 73
     1
 44
1.0
  0
MTEXT
  5
B2
330
A
100
AcDbEntity
  8
0
 62
     7
100
AcDbMText
 10
25.9109237025
 20
3.5156243355
 30
0.0
 40
0.18
 41
0.0
 71
     1
 72
     1
  1
%%p\P%%p\P%%p\P%%p
  7
SLDTEXTSTYLE0
 73
     1
 44
1.0
  0
MTEXT
  5
B3
330
A
100
AcDbEntity
  8
0
 62
     7
100
AcDbMText
 10
29.32680058709999
 20
20.77245287059999
 30
0.0
 40
0.18
 41
0.0
 71
     1
 72
     1
  1
ZONE
  7
SLDTEXTSTYLE0
 73
     1
 44
1.0
  0
MTEXT
  5
B4
330
A
100
AcDbEntity
  8
0
 62
     7
100
AcDbMText
 10
10.1904353639
 20
1.729133334399999
 30
0.0
 40
0.16
 41
0.0
 71
     1
 72
     1
  1
THIS DRAWING IS THE PROPERTY OF AND CONTAINS CONFIDENTIAL\PINFORMATION PROPRIETARY TO THE UNIVERSITY OF CALIFORNIA AND\PSHALL BE USED ONLY FOR THE PURPOSE FOR WHICH IT WAS PROVIDED\PAND SHALL NOT BE REPRODUCED OR DISCLOSED TO OTHERS.
  7
SLDTEXTSTYLE0
 73
     1
 44
1.0
  0
MTEXT
  5
B5
330
A
100
AcDbEntity
  8
0
 62
     7
100
AcDbMText
 10
25.27791722579999
 20
20.40979835219999
 30
0.0
 40
0.18
 41
0.0
 71
     1
 72
     1
  1
A
  7
SLDTEXTSTYLE0
 73
     1
 44
1.0
  0
MTEXT
  5
B6
330
A
100
AcDbEntity
  8
0
 62
     7
100
AcDbMText
 10
25.9559918278
 20
20.4093030167
 30
0.0
 40
0.18
 41
0.0
 71
     1
 72
     1
  1
RELEASED
  7
SLDTEXTSTYLE0
 73
     1
 44
1.0
  0
MTEXT
  5
B7
330
A
100
AcDbEntity
  8
0
 62
     7
100
AcDbMText
 10
18.7383483463
 20
2.9202537786
 30
0.0
 40
0.2083333333
 41
0.0
 71
     1
 72
     1
  1
M. C. FLEMING
  7
SLDTEXTSTYLE0
 73
     1
 44
1.0
  0
MTEXT
  5
B8
330
A
100
AcDbEntity
  8
0
 62
     7
100
AcDbMText
 10
32.50420877599999
 20
1.6541408956
 30
0.0
 40
0.375
 41
0.0
 71
     1
 72
     1
  1
A
  7
SLDTEXTSTYLE0
 73
     1
 44
1.0
  0
MTEXT
  5
B9
330
A
100
AcDbEntity
  8
0
 62
     7
100
AcDbMText
 10
20.6442805539
 20
2.9168083523
 30
0.0
 40
0.2083333333
 41
0.0
 71
     1
 72
     1
  1
2005-01-15
  7
SLDTEXTSTYLE0
 73
     1
 44
1.0
  0
MTEXT
  5
BA
330
A
100
AcDbEntity
  8
0
 62
     7
100
AcDbMText
 10
25.0248218265
 20
3.519653447799999
 30
0.0
 40
0.18
 41
0.0
 71
     1
 72
     1
  1
1/16\P0.1\P0.01\P0.005
  7
SLDTEXTSTYLE0
 73
     1
 44
1.0
  0
MTEXT
  5
BB
330
A
100
AcDbEntity
  8
0
 62
     7
100
AcDbMText
 10
26.2049684389
 20
3.515750204499999
 30
0.0
 40
0.18
 41
0.0
 71
     1
 72
     1
  1
1%%d\P0.1%%d\P0.01%%d\P0.001%%d
  7
SLDTEXTSTYLE0
 73
     1
 44
1.0
  0
MTEXT
  5
BC
330
A
100
AcDbEntity
  8
0
 62
     7
100
AcDbMText
 10
28.163406022
 20
1.6903240225
 30
0.0
 40
0.375
 41
0.0
 71
     1
 72
     1
  1
24-09-243   1 of 1
  7
SLDTEXTSTYLE0
 73
     1
 44
1.0
  0
MTEXT
  5
BD
330
A
100
AcDbEntity
  8
0
 62
     7
100
AcDbMText
 10
30.5919564989
 20
20.4101723016
 30
0.0
 40
0.2083333333
 41
0.0
 71
     1
 72
     1
  1
M.C.F.
  7
SLDTEXTSTYLE0
 73
     1
 44
1.0
  0
MTEXT
  5
BE
330
A
100
AcDbEntity
  8
0
 62
     7
100
AcDbMText
 10
31.68394801949999
 20
20.4083047929
 30
0.0
 40
0.2083333333
 41
0.0
 71
     1
 72
     1
  1
2005-01-15
  7
SLDTEXTSTYLE0
 73
     1
 44
1.0
  0
MTEXT
  5
BF
330
A
100
AcDbEntity
  8
0
 62
     7
100
AcDbMText
 10
29.877358803
 20
3.0651726468
 30
0.0
 40
0.375
 41
0.0
 71
     2
 72
     1
  1
CARMA 6m Base,\PColumn Base, N & S
  7
SLDTEXTSTYLE0
 73
     1
 44
1.0
  0
CIRCLE
  5
C0
330
A
100
AcDbEntity
  8
0
  6
Continuous
 62
     7
370
    15
100
AcDbCircle
 10
14.8039792962
 20
10.8384575305
 30
0.0
 40
0.2655
  0
CIRCLE
  5
C1
330
A
100
AcDbEntity
  8
0
  6
Continuous
 62
     7
370
    15
100
AcDbCircle
 10
14.8039792962
 20
10.8384575305
 30
0.0
 40
0.25
  0
CIRCLE
  5
C2
330
A
100
AcDbEntity
  8
0
  6
Continuous
 62
     7
370
    15
100
AcDbCircle
 10
14.8039792962
 20
13.0259575305
 30
0.0
 40
1.719
  0
CIRCLE
  5
C3
330
A
100
AcDbEntity
  8
0
  6
Continuous
 62
     7
370
    15
100
AcDbCircle
 10
12.90954872539999
 20
11.9322075305
 30
0.0
 40
0.2655
  0
CIRCLE
  5
C4
330
A
100
AcDbEntity
  8
0
  6
Continuous
 62
     7
370
    15
100
AcDbCircle
 10
12.90954872539999
 20
14.1197075305
 30
0.0
 40
0.2655
  0
CIRCLE
  5
C5
330
A
100
AcDbEntity
  8
0
  6
Continuous
 62
     7
370
    15
100
AcDbCircle
 10
14.8039792962
 20
15.2134575305
 30
0.0
 40
0.2655
  0
CIRCLE
  5
C6
330
A
100
AcDbEntity
  8
0
  6
Continuous
 62
     7
370
    15
100
AcDbCircle
 10
16.6984098669
 20
14.1197075305
 30
0.0
 40
0.2655
  0
CIRCLE
  5
C7
330
A
100
AcDbEntity
  8
0
  6
Continuous
 62
     7
370
    15
100
AcDbCircle
 10
16.6984098669
 20
11.9322075305
 30
0.0
 40
0.2655
  0
LINE
  5
C8
330
A
100
AcDbEntity
  8
0
  6
Continuous
 62
     7
370
    15
100
AcDbLine
 10
18.80397929619999
 20
16.9009575305
 30
0.0
 11
10.80397929619999
 21
16.9009575305
 31
0.0
  0
ARC
  5
C9
330
A
100
AcDbEntity
  8
0
  6
Continuous
 62
     7
370
    15
100
AcDbCircle
 10
10.80397929619999
 20
16.4009575305
 30
0.0
 40
0.5
100
AcDbArc
 50
90.0
 51
180.0
  0
LINE
  5
CA
330
A
100
AcDbEntity
  8
0
  6
Continuous
 62
     7
370
    15
100
AcDbLine
 10
10.3039792962
 20
16.4009575305
 30
0.0
 11
10.3039792962
 21
9.650957530499999
 31
0.0
  0
ARC
  5
CB
330
A
100
AcDbEntity
  8
0
  6
Continuous
 62
     7
370
    15
100
AcDbCircle
 10
10.80397929619999
 20
9.650957530499999
 30
0.0
 40
0.5
100
AcDbArc
 50
180.0
 51
270.0
  0
LINE
  5
CC
330
A
100
AcDbEntity
  8
0
  6
Continuous
 62
     7
370
    15
100
AcDbLine
 10
10.80397929619999
 20
9.150957530499999
 30
0.0
 11
18.80397929619999
 21
9.150957530499999
 31
0.0
  0
ARC
  5
CD
330
A
100
AcDbEntity
  8
0
  6
Continuous
 62
     7
370
    15
100
AcDbCircle
 10
18.80397929619999
 20
9.650957530499999
 30
0.0
 40
0.5
100
AcDbArc
 50
270.0
 51
0.0
  0
LINE
  5
CE
330
A
100
AcDbEntity
  8
0
  6
Continuous
 62
     7
370
    15
100
AcDbLine
 10
19.30397929619999
 20
9.650957530499999
 30
0.0
 11
19.30397929619999
 21
16.4009575305
 31
0.0
  0
ARC
  5
CF
330
A
100
AcDbEntity
  8
0
  6
Continuous
 62
     7
370
    15
100
AcDbCircle
 10
18.80397929619999
 20
16.4009575305
 30
0.0
 40
0.5
100
AcDbArc
 50
0.0
 51
90.0
  0
CIRCLE
  5
D0
330
A
100
AcDbEntity
  8
0
  6
Continuous
 62
     7
370
    15
100
AcDbCircle
 10
12.90954872539999
 20
11.9322075305
 30
0.0
 40
0.25
  0
CIRCLE
  5
D1
330
A
100
AcDbEntity
  8
0
  6
Continuous
 62
     7
370
    15
100
AcDbCircle
 10
16.6984098669
 20
11.9322075305
 30
0.0
 40
0.25
  0
CIRCLE
  5
D2
330
A
100
AcDbEntity
  8
0
  6
Continuous
 62
     7
370
    15
100
AcDbCircle
 10
14.8039792962
 20
15.2134575305
 30
0.0
 40
0.25
  0
CIRCLE
  5
D3
330
A
100
AcDbEntity
  8
0
  6
Continuous
 62
     7
370
    15
100
AcDbCircle
 10
12.90954872539999
 20
14.1197075305
 30
0.0
 40
0.25
  0
CIRCLE
  5
D4
330
A
100
AcDbEntity
  8
0
  6
Continuous
 62
     7
370
    15
100
AcDbCircle
 10
16.6984098669
 20
14.1197075305
 30
0.0
 40
0.25
  0
DIMENSION
  5
E2
330
A
100
AcDbEntity
  8
0
100
AcDbDimension
  2
*D1
 10
19.30397929619999
 20
6.337830188699999
 30
0.0
 11
14.8039792962
 21
6.337830188699999
 31
0.0
 70
   160
 71
     5
 42
0.0
  3
SLDDIMSTYLE0
100
AcDbAlignedDimension
 13
10.3039792962
 23
9.650957530499999
 33
0.0
 14
19.30397929619999
 24
9.650957530499999
 34
0.0
100
AcDbRotatedDimension
  0
DIMENSION
  5
EF
330
A
100
AcDbEntity
  8
0
100
AcDbDimension
  2
*D2
 10
5.855301920099999
 20
9.150957530499999
 30
0.0
 11
5.855301920099999
 21
13.0259575305
 31
0.0
 70
   160
 71
     5
 42
0.0
  3
SLDDIMSTYLE0
100
AcDbAlignedDimension
 13
10.80397929619999
 23
16.9009575305
 33
0.0
 14
10.80397929619999
 24
9.150957530499999
 34
0.0
 50
90.0
100
AcDbRotatedDimension
  0
DIMENSION
  5
FC
330
A
100
AcDbEntity
  8
0
100
AcDbDimension
  2
*D3
 10
13.1006211057
 20
12.7945879671
 30
0.0
 11
21.20968084309999
 21
13.705124738
 31
0.0
 70
   163
  1
<>
 71
     5
 42
0.0
  3
SLDDIMSTYLE1
100
AcDbDiametricDimension
 15
16.5073374867
 25
13.2573270939
 35
0.0
 40
0.0
  0
DIMENSION
  5
109
330
A
100
AcDbEntity
  8
0
100
AcDbDimension
  2
*D4
 10
18.80397929619999
 20
16.4009575305
 30
0.0
 11
21.3896699394
 21
17.9757751131
 31
0.0
 70
   164
  1
<> RAD\P4 PLACES
 71
     5
 42
0.0
  3
SLDDIMSTYLE2
100
AcDbRadialDimension
 15
19.1308706157
 25
16.7792987326
 35
0.0
 40
0.0
  0
DIMENSION
  5
116
330
A
100
AcDbEntity
  8
0
100
AcDbDimension
  2
*D5
 10
14.8039792962
 20
7.711943396199999
 30
0.0
 11
12.55397929619999
 21
7.711943396199999
 31
0.0
 70
   160
 71
     5
 42
0.0
  3
SLDDIMSTYLE0
100
AcDbAlignedDimension
 13
10.3039792962
 23
9.650957530499999
 33
0.0
 14
14.8039792962
 24
13.0259575305
 34
0.0
 50
180.0
100
AcDbRotatedDimension
  0
DIMENSION
  5
123
330
A
100
AcDbEntity
  8
0
100
AcDbDimension
  2
*D6
 10
8.321828463699999
 20
9.150957530499999
 30
0.0
 11
8.321828463699999
 21
11.08845753049999
 31
0.0
 70
   160
 71
     5
 42
0.0
  3
SLDDIMSTYLE0
100
AcDbAlignedDimension
 13
14.8039792962
 23
13.0259575305
 33
0.0
 14
10.80397929619999
 24
9.150957530499999
 34
0.0
 50
90.0
100
AcDbRotatedDimension
  0
DIMENSION
  5
131
330
A
100
AcDbEntity
  8
0
100
AcDbDimension
  2
*D7
 10
8.321828463699999
 20
14.1197075305
 30
0.0
 11
8.321828463699999
 21
14.9770176291
 31
0.0
 70
   160
 71
     5
 42
0.0
  3
SLDDIMSTYLE0
100
AcDbAlignedDimension
 13
14.8039792962
 23
13.0259575305
 33
0.0
 14
12.90954872539999
 24
14.1197075305
 34
0.0
 50
90.0
100
AcDbRotatedDimension
  0
DIMENSION
  5
13C
330
A
100
AcDbEntity
  8
0
100
AcDbDimension
  2
*D8
 10
14.8039792962
 20
7.679226415099999
 30
0.0
 11
14.8039792962
 21
7.679226415099999
 31
0.0
 70
   160
 71
     5
 42
0.0
  3
SLDDIMSTYLE3
100
AcDbAlignedDimension
 13
14.8039792962
 23
13.0259575305
 33
0.0
 14
14.8039792962
 24
10.8384575305
 34
0.0
100
AcDbRotatedDimension
  0
DIMENSION
  5
149
330
A
100
AcDbEntity
  8
0
 62
     7
100
AcDbDimension
  2
*D10
 10
12.90954872539999
 20
18.2672283539
 30
0.0
 11
13.83191350749999
 21
18.2672283539
 31
0.0
 70
   160
 71
     5
 42
0.0
  3
SLDDIMSTYLE0
100
AcDbAlignedDimension
 13
14.8039792962
 23
13.0259575305
 33
0.0
 14
12.90954872539999
 24
14.1197075305
 34
0.0
100
AcDbRotatedDimension
  0
DIMENSION
  5
156
330
A
100
AcDbEntity
  8
0
 62
     7
100
AcDbDimension
  2
*D11
 10
20.8864951173
 20
10.8384575305
 30
0.0
 11
20.8864951173
 21
11.8741057899
 31
0.0
 70
   160
 71
     5
 42
0.0
  3
SLDDIMSTYLE0
100
AcDbAlignedDimension
 13
14.8039792962
 23
13.0259575305
 33
0.0
 14
14.8039792962
 24
10.8384575305
 34
0.0
 50
90.0
100
AcDbRotatedDimension
  0
LEADER
  5
157
330
A
100
AcDbEntity
  8
0
 62
     1
100
AcDbLeader
  3
SLDDIMSTYLE4
 73
     0
 76
     3
 10
14.9862033595
 20
10.6453652191
 30
0.0
 10
19.9197963364
 20
7.674751886799999
 30
0.0
 10
20.4197963364
 20
7.674751886799999
 30
0.0
340
159
213
0.0
223
-0.150093970439773
233
0.0
  0
MTEXT
  5
159
102
{ACAD_REACTORS
330
157
102
}
330
A
100
AcDbEntity
  8
0
 62
     1
100
AcDbMText
 10
20.45923644539999
 20
7.8248458572
 30
0.0
 40
0.2
 41
0.0
 71
     1
 72
     1
  1
%%c27/64 DRILL THRU\P%%c.531 X 45%%d C-SINK, BOTH SIDES\PTAP 1/2-13 THRU\P6 PLACES ON 4.375 BOLT CIRCLE
  7
SLDTEXTSTYLE0
 73
     1
 44
1.0
  0
LINE
  5
15A
330
A
100
AcDbEntity
  8
0
  6
Continuous
 62
     7
370
    15
100
AcDbLine
 10
27.640931197
 20
16.4009575305
 30
0.0
 11
26.20293119699999
 21
16.4009575305
 31
0.0
  0
LINE
  5
15B
330
A
100
AcDbEntity
  8
0
  6
Continuous
 62
     7
370
    15
100
AcDbLine
 10
27.640931197
 20
9.650957530499999
 30
0.0
 11
27.640931197
 21
16.4009575305
 31
0.0
  0
LINE
  5
15C
330
A
100
AcDbEntity
  8
0
  6
Continuous
 62
     7
370
    15
100
AcDbLine
 10
27.640931197
 20
9.650957530499999
 30
0.0
 11
26.20293119699999
 21
9.650957530499999
 31
0.0
  0
LINE
  5
15D
330
A
100
AcDbEntity
  8
0
  6
Continuous
 62
     7
370
    15
100
AcDbLine
 10
26.20293119699999
 20
9.650957530499999
 30
0.0
 11
26.20293119699999
 21
16.4009575305
 31
0.0
  0
LINE
  5
15E
330
A
100
AcDbEntity
  8
0
  6
Continuous
 62
     7
370
    15
100
AcDbLine
 10
27.640931197
 20
9.150957530499999
 30
0.0
 11
27.640931197
 21
9.650957530499999
 31
0.0
  0
LINE
  5
15F
330
A
100
AcDbEntity
  8
0
  6
Continuous
 62
     7
370
    15
100
AcDbLine
 10
27.640931197
 20
9.150957530499999
 30
0.0
 11
26.20293119699999
 21
9.150957530499999
 31
0.0
  0
LINE
  5
160
330
A
100
AcDbEntity
  8
0
  6
Continuous
 62
     7
370
    15
100
AcDbLine
 10
26.20293119699999
 20
9.150957530499999
 30
0.0
 11
26.20293119699999
 21
9.650957530499999
 31
0.0
  0
LINE
  5
161
330
A
100
AcDbEntity
  8
0
  6
Continuous
 62
     7
370
    15
100
AcDbLine
 10
27.640931197
 20
16.9009575305
 30
0.0
 11
26.20293119699999
 21
16.9009575305
 31
0.0
  0
LINE
  5
162
330
A
100
AcDbEntity
  8
0
  6
Continuous
 62
     7
370
    15
100
AcDbLine
 10
26.20293119699999
 20
16.4009575305
 30
0.0
 11
26.20293119699999
 21
16.9009575305
 31
0.0
  0
LINE
  5
163
330
A
100
AcDbEntity
  8
0
  6
Continuous
 62
     7
370
    15
100
AcDbLine
 10
27.640931197
 20
16.4009575305
 30
0.0
 11
27.640931197
 21
16.9009575305
 31
0.0
  0
DIMENSION
  5
176
330
A
100
AcDbEntity
  8
0
100
AcDbDimension
  2
*D12
 10
27.640931197
 20
17.7206252111
 30
0.0
 11
30.1416365271
 21
17.7206252111
 31
0.0
 70
   160
  1
<> \PBLANCHARD GRIND\PBOTH SIDES FROM\P1 1/2" STOACK\P
 71
     5
 42
0.0
  3
SLDDIMSTYLE5
100
AcDbAlignedDimension
 13
26.20293119699999
 23
16.4009575305
 33
0.0
 14
27.640931197
 24
16.4009575305
 34
0.0
100
AcDbRotatedDimension
  0
LINE
  5
177
330
A
100
AcDbEntity
  8
0
  6
Continuous
 62
     7
370
    15
100
AcDbLine
 10
9.9769279537
 20
3.5083197781
 30
0.0
 11
9.9769279537
 21
4.095412621899999
 31
0.0
  0
LINE
  5
178
330
A
100
AcDbEntity
  8
0
  6
Continuous
 62
     7
370
    15
100
AcDbLine
 10
4.2620154425
 20
4.3505401568
 30
0.0
 11
4.2620154425
 21
3.763447313099999
 31
0.0
  0
LINE
  5
179
330
A
100
AcDbEntity
  8
0
  6
Continuous
 62
     7
370
    15
100
AcDbLine
 10
7.5172192625
 20
2.615672919199999
 30
0.0
 11
9.903704648999999
 21
3.9933616079
 31
0.0
  0
POLYLINE
  5
17A
330
A
100
AcDbEntity
  8
0
  6
Continuous
 62
     7
100
AcDb2dPolyline
 66
     1
 10
0.0
 20
0.0
 30
0.0
 70
   128
 40
0.0011811024
 41
0.0011811024
  0
VERTEX
  5
17B
330
17A
100
AcDbEntity
  8
0
100
AcDbVertex
100
AcDb2dVertex
 10
7.1636658719
 20
2.615672919199999
 30
0.0
  0
VERTEX
  5
17C
330
17A
100
AcDbEntity
  8
0
100
AcDbVertex
100
AcDb2dVertex
 10
7.193496254199999
 20
2.6009650408
 30
0.0
  0
VERTEX
  5
17D
330
17A
100
AcDbEntity
  8
0
100
AcDbVertex
100
AcDb2dVertex
 10
7.2269449423
 20
2.5891321537
 30
0.0
  0
VERTEX
  5
17E
330
17A
100
AcDbEntity
  8
0
100
AcDbVertex
100
AcDb2dVertex
 10
7.2631883186
 20
2.580465623099999
 30
0.0
  0
VERTEX
  5
17F
330
17A
100
AcDbEntity
  8
0
100
AcDbVertex
100
AcDb2dVertex
 10
7.301333951
 20
2.575178847599999
 30
0.0
  0
VERTEX
  5
180
330
17A
100
AcDbEntity
  8
0
100
AcDbVertex
100
AcDb2dVertex
 10
7.3404425672
 20
2.5734020052
 30
0.0
  0
VERTEX
  5
181
330
17A
100
AcDbEntity
  8
0
100
AcDbVertex
100
AcDb2dVertex
 10
7.3795511835
 20
2.575178847599999
 30
0.0
  0
VERTEX
  5
182
330
17A
100
AcDbEntity
  8
0
100
AcDbVertex
100
AcDb2dVertex
 10
7.4176968158
 20
2.580465623099999
 30
0.0
  0
VERTEX
  5
183
330
17A
100
AcDbEntity
  8
0
100
AcDbVertex
100
AcDb2dVertex
 10
7.4539401922
 20
2.5891321537
 30
0.0
  0
VERTEX
  5
184
330
17A
100
AcDbEntity
  8
0
100
AcDbVertex
100
AcDb2dVertex
 10
7.487388880299999
 20
2.6009650408
 30
0.0
  0
VERTEX
  5
185
330
17A
100
AcDbEntity
  8
0
100
AcDbVertex
100
AcDb2dVertex
 10
7.5172192625
 20
2.615672919199999
 30
0.0
  0
SEQEND
  5
186
330
17A
100
AcDbEntity
  8
0
  0
LINE
  5
187
330
A
100
AcDbEntity
  8
0
  6
Continuous
 62
     7
370
    15
100
AcDbLine
 10
4.3352387472
 20
4.2484891429
 30
0.0
 11
7.1636658719
 21
2.615672919199999
 31
0.0
  0
POLYLINE
  5
188
330
A
100
AcDbEntity
  8
0
  6
Continuous
 62
     7
100
AcDb2dPolyline
 66
     1
 10
0.0
 20
0.0
 30
0.0
 70
   128
 40
0.0011811024
 41
0.0011811024
  0
VERTEX
  5
189
330
188
100
AcDbEntity
  8
0
100
AcDbVertex
100
AcDb2dVertex
 10
4.3352387472
 20
4.452591170799999
 30
0.0
  0
VERTEX
  5
18A
330
188
100
AcDbEntity
  8
0
100
AcDbVertex
100
AcDb2dVertex
 10
4.3097611939
 20
4.435370457699999
 30
0.0
  0
VERTEX
  5
18B
330
188
100
AcDbEntity
  8
0
100
AcDbVertex
100
AcDb2dVertex
 10
4.289263811399999
 20
4.4160609411
 30
0.0
  0
VERTEX
  5
18C
330
188
100
AcDbEntity
  8
0
100
AcDbVertex
100
AcDb2dVertex
 10
4.274251313399999
 20
4.395138085299999
 30
0.0
  0
VERTEX
  5
18D
330
188
100
AcDbEntity
  8
0
100
AcDbVertex
100
AcDb2dVertex
 10
4.2650933573
 20
4.3731170804
 30
0.0
  0
VERTEX
  5
18E
330
188
100
AcDbEntity
  8
0
100
AcDbVertex
100
AcDb2dVertex
 10
4.2620154425
 20
4.3505401568
 30
0.0
  0
VERTEX
  5
18F
330
188
100
AcDbEntity
  8
0
100
AcDbVertex
100
AcDb2dVertex
 10
4.2650933573
 20
4.3279632332
 30
0.0
  0
VERTEX
  5
190
330
188
100
AcDbEntity
  8
0
100
AcDbVertex
100
AcDb2dVertex
 10
4.274251313399999
 20
4.305942228399999
 30
0.0
  0
VERTEX
  5
191
330
188
100
AcDbEntity
  8
0
100
AcDbVertex
100
AcDb2dVertex
 10
4.289263811399999
 20
4.285019372599999
 30
0.0
  0
VERTEX
  5
192
330
188
100
AcDbEntity
  8
0
100
AcDbVertex
100
AcDb2dVertex
 10
4.3097611939
 20
4.265709855999999
 30
0.0
  0
VERTEX
  5
193
330
188
100
AcDbEntity
  8
0
100
AcDbVertex
100
AcDb2dVertex
 10
4.3352387472
 20
4.2484891429
 30
0.0
  0
SEQEND
  5
194
330
188
100
AcDbEntity
  8
0
  0
LINE
  5
195
330
A
100
AcDbEntity
  8
0
  6
Continuous
 62
     7
370
    15
100
AcDbLine
 10
6.7217241337
 20
5.8302798595
 30
0.0
 11
4.3352387472
 21
4.452591170799999
 31
0.0
  0
POLYLINE
  5
196
330
A
100
AcDbEntity
  8
0
  6
Continuous
 62
     7
100
AcDb2dPolyline
 66
     1
 10
0.0
 20
0.0
 30
0.0
 70
   128
 40
0.0011811024
 41
0.0011811024
  0
VERTEX
  5
197
330
196
100
AcDbEntity
  8
0
100
AcDbVertex
100
AcDb2dVertex
 10
7.075277524299999
 20
5.8302798595
 30
0.0
  0
VERTEX
  5
198
330
196
100
AcDbEntity
  8
0
100
AcDbVertex
100
AcDb2dVertex
 10
7.0454471421
 20
5.844987737999999
 30
0.0
  0
VERTEX
  5
199
330
196
100
AcDbEntity
  8
0
100
AcDbVertex
100
AcDb2dVertex
 10
7.011998453899999
 20
5.856820625
 30
0.0
  0
VERTEX
  5
19A
330
196
100
AcDbEntity
  8
0
100
AcDbVertex
100
AcDb2dVertex
 10
6.975755077599999
 20
5.865487155599999
 30
0.0
  0
VERTEX
  5
19B
330
196
100
AcDbEntity
  8
0
100
AcDbVertex
100
AcDb2dVertex
 10
6.937609445299999
 20
5.8707739311
 30
0.0
  0
VERTEX
  5
19C
330
196
100
AcDbEntity
  8
0
100
AcDbVertex
100
AcDb2dVertex
 10
6.898500828999999
 20
5.8725507736
 30
0.0
  0
VERTEX
  5
19D
330
196
100
AcDbEntity
  8
0
100
AcDbVertex
100
AcDb2dVertex
 10
6.859392212699999
 20
5.8707739311
 30
0.0
  0
VERTEX
  5
19E
330
196
100
AcDbEntity
  8
0
100
AcDbVertex
100
AcDb2dVertex
 10
6.821246580399999
 20
5.865487155599999
 30
0.0
  0
VERTEX
  5
19F
330
196
100
AcDbEntity
  8
0
100
AcDbVertex
100
AcDb2dVertex
 10
6.785003204099999
 20
5.856820625
 30
0.0
  0
VERTEX
  5
1A0
330
196
100
AcDbEntity
  8
0
100
AcDbVertex
100
AcDb2dVertex
 10
6.7515545159
 20
5.844987737999999
 30
0.0
  0
VERTEX
  5
1A1
330
196
100
AcDbEntity
  8
0
100
AcDbVertex
100
AcDb2dVertex
 10
6.7217241337
 20
5.8302798595
 30
0.0
  0
SEQEND
  5
1A2
330
196
100
AcDbEntity
  8
0
  0
LINE
  5
1A3
330
A
100
AcDbEntity
  8
0
  6
Continuous
 62
     7
370
    15
100
AcDbLine
 10
9.903704648999999
 20
4.1974636359
 30
0.0
 11
7.075277524299999
 21
5.8302798595
 31
0.0
  0
POLYLINE
  5
1A4
330
A
100
AcDbEntity
  8
0
  6
Continuous
 62
     7
100
AcDb2dPolyline
 66
     1
 10
0.0
 20
0.0
 30
0.0
 70
   128
 40
0.0011811024
 41
0.0011811024
  0
VERTEX
  5
1A5
330
1A4
100
AcDbEntity
  8
0
100
AcDbVertex
100
AcDb2dVertex
 10
9.903704648999999
 20
3.9933616079
 30
0.0
  0
VERTEX
  5
1A6
330
1A4
100
AcDbEntity
  8
0
100
AcDbVertex
100
AcDb2dVertex
 10
9.929182202299999
 20
4.010582321
 30
0.0
  0
VERTEX
  5
1A7
330
1A4
100
AcDbEntity
  8
0
100
AcDbVertex
100
AcDb2dVertex
 10
9.9496795848
 20
4.0298918377
 30
0.0
  0
VERTEX
  5
1A8
330
1A4
100
AcDbEntity
  8
0
100
AcDbVertex
100
AcDb2dVertex
 10
9.964692082799999
 20
4.0508146935
 30
0.0
  0
VERTEX
  5
1A9
330
1A4
100
AcDbEntity
  8
0
100
AcDbVertex
100
AcDb2dVertex
 10
9.9738500389
 20
4.072835698299999
 30
0.0
  0
VERTEX
  5
1AA
330
1A4
100
AcDbEntity
  8
0
100
AcDbVertex
100
AcDb2dVertex
 10
9.9769279537
 20
4.095412621899999
 30
0.0
  0
VERTEX
  5
1AB
330
1A4
100
AcDbEntity
  8
0
100
AcDbVertex
100
AcDb2dVertex
 10
9.9738500389
 20
4.1179895455
 30
0.0
  0
VERTEX
  5
1AC
330
1A4
100
AcDbEntity
  8
0
100
AcDbVertex
100
AcDb2dVertex
 10
9.964692082799999
 20
4.140010550299999
 30
0.0
  0
VERTEX
  5
1AD
330
1A4
100
AcDbEntity
  8
0
100
AcDbVertex
100
AcDb2dVertex
 10
9.9496795848
 20
4.160933406099999
 30
0.0
  0
VERTEX
  5
1AE
330
1A4
100
AcDbEntity
  8
0
100
AcDbVertex
100
AcDb2dVertex
 10
9.929182202299999
 20
4.180242922799999
 30
0.0
  0
VERTEX
  5
1AF
330
1A4
100
AcDbEntity
  8
0
100
AcDbVertex
100
AcDb2dVertex
 10
9.903704648999999
 20
4.1974636359
 30
0.0
  0
SEQEND
  5
1B0
330
1A4
100
AcDbEntity
  8
0
  0
POLYLINE
  5
1B1
330
A
100
AcDbEntity
  8
0
  6
Continuous
 62
     7
100
AcDb2dPolyline
 66
     1
 10
0.0
 20
0.0
 30
0.0
 70
   128
 40
0.0011811024
 41
0.0011811024
  0
VERTEX
  5
1B2
330
1B1
100
AcDbEntity
  8
0
100
AcDbVertex
100
AcDb2dVertex
 10
6.5117134197
 20
3.872125003299999
 30
0.0
  0
VERTEX
  5
1B3
330
1B1
100
AcDbEntity
  8
0
100
AcDbVertex
100
AcDb2dVertex
 10
6.564700815499999
 20
3.843997001199999
 30
0.0
  0
VERTEX
  5
1B4
330
1B1
100
AcDbEntity
  8
0
100
AcDbVertex
100
AcDb2dVertex
 10
6.621579530499999
 20
3.8185272672
 30
0.0
  0
VERTEX
  5
1B5
330
1B1
100
AcDbEntity
  8
0
100
AcDbVertex
100
AcDb2dVertex
 10
6.681950601299999
 20
3.795894453199999
 30
0.0
  0
VERTEX
  5
1B6
330
1B1
100
AcDbEntity
  8
0
100
AcDbVertex
100
AcDb2dVertex
 10
6.7453905682
 20
3.776257312099999
 30
0.0
  0
VERTEX
  5
1B7
330
1B1
100
AcDbEntity
  8
0
100
AcDbVertex
100
AcDb2dVertex
 10
6.811454445499999
 20
3.7597535843
 30
0.0
  0
VERTEX
  5
1B8
330
1B1
100
AcDbEntity
  8
0
100
AcDbVertex
100
AcDb2dVertex
 10
6.879678842499999
 20
3.746499031799999
 30
0.0
  0
VERTEX
  5
1B9
330
1B1
100
AcDbEntity
  8
0
100
AcDbVertex
100
AcDb2dVertex
 10
6.949585214099999
 20
3.7365866255
 30
0.0
  0
VERTEX
  5
1BA
330
1B1
100
AcDbEntity
  8
0
100
AcDbVertex
100
AcDb2dVertex
 10
7.0206832173
 20
3.730085893999999
 30
0.0
  0
VERTEX
  5
1BB
330
1B1
100
AcDbEntity
  8
0
100
AcDbVertex
100
AcDb2dVertex
 10
7.0924741507
 20
3.727042435099999
 30
0.0
  0
VERTEX
  5
1BC
330
1B1
100
AcDbEntity
  8
0
100
AcDbVertex
100
AcDb2dVertex
 10
7.1644544525
 20
3.7274775966
 30
0.0
  0
VERTEX
  5
1BD
330
1B1
100
AcDbEntity
  8
0
100
AcDbVertex
100
AcDb2dVertex
 10
7.2361192326
 20
3.7313883261
 30
0.0
  0
VERTEX
  5
1BE
330
1B1
100
AcDbEntity
  8
0
100
AcDbVertex
100
AcDb2dVertex
 10
7.306965814099999
 20
3.738747192699999
 30
0.0
  0
VERTEX
  5
1BF
330
1B1
100
AcDbEntity
  8
0
100
AcDbVertex
100
AcDb2dVertex
 10
7.376497259099999
 20
3.7495025792
 30
0.0
  0
VERTEX
  5
1C0
330
1B1
100
AcDbEntity
  8
0
100
AcDbVertex
100
AcDb2dVertex
 10
7.4442258544
 20
3.7635790442
 30
0.0
  0
VERTEX
  5
1C1
330
1B1
100
AcDbEntity
  8
0
100
AcDbVertex
100
AcDb2dVertex
 10
7.5096765326
 20
3.7808778516
 30
0.0
  0
VERTEX
  5
1C2
330
1B1
100
AcDbEntity
  8
0
100
AcDbVertex
100
AcDb2dVertex
 10
7.572390204299999
 20
3.8012776626
 30
0.0
  0
VERTEX
  5
1C3
330
1B1
100
AcDbEntity
  8
0
100
AcDbVertex
100
AcDb2dVertex
 10
7.631926978099999
 20
3.824635387099999
 30
0.0
  0
VERTEX
  5
1C4
330
1B1
100
AcDbEntity
  8
0
100
AcDbVertex
100
AcDb2dVertex
 10
7.6878692464
 20
3.850787187599999
 30
0.0
  0
VERTEX
  5
1C5
330
1B1
100
AcDbEntity
  8
0
100
AcDbVertex
100
AcDb2dVertex
 10
7.739824614199999
 20
3.8795496279
 30
0.0
  0
VERTEX
  5
1C6
330
1B1
100
AcDbEntity
  8
0
100
AcDbVertex
100
AcDb2dVertex
 10
7.787428652
 20
3.910720960099999
 30
0.0
  0
VERTEX
  5
1C7
330
1B1
100
AcDbEntity
  8
0
100
AcDbVertex
100
AcDb2dVertex
 10
7.830347451699999
 20
3.9440825399
 30
0.0
  0
VERTEX
  5
1C8
330
1B1
100
AcDbEntity
  8
0
100
AcDbVertex
100
AcDb2dVertex
 10
7.868279968799999
 20
3.979400359599999
 30
0.0
  0
VERTEX
  5
1C9
330
1B1
100
AcDbEntity
  8
0
100
AcDbVertex
100
AcDb2dVertex
 10
7.900960133799999
 20
4.016426690199999
 30
0.0
  0
VERTEX
  5
1CA
330
1B1
100
AcDbEntity
  8
0
100
AcDbVertex
100
AcDb2dVertex
 10
7.928158718999999
 20
4.0549018185
 30
0.0
  0
VERTEX
  5
1CB
330
1B1
100
AcDbEntity
  8
0
100
AcDbVertex
100
AcDb2dVertex
 10
7.9496849458
 20
4.0945558691
 30
0.0
  0
VERTEX
  5
1CC
330
1B1
100
AcDbEntity
  8
0
100
AcDbVertex
100
AcDb2dVertex
 10
7.9653878232
 20
4.1351106974
 30
0.0
  0
VERTEX
  5
1CD
330
1B1
100
AcDbEntity
  8
0
100
AcDbVertex
100
AcDb2dVertex
 10
7.975157206699999
 20
4.176281840499999
 30
0.0
  0
VERTEX
  5
1CE
330
1B1
100
AcDbEntity
  8
0
100
AcDbVertex
100
AcDb2dVertex
 10
7.9789245712
 20
4.2177805122
 30
0.0
  0
VERTEX
  5
1CF
330
1B1
100
AcDbEntity
  8
0
100
AcDbVertex
100
AcDb2dVertex
 10
7.9766634913
 20
4.259315629299999
 30
0.0
  0
VERTEX
  5
1D0
330
1B1
100
AcDbEntity
  8
0
100
AcDbVertex
100
AcDb2dVertex
 10
7.9683898269
 20
4.300595852699999
 30
0.0
  0
VERTEX
  5
1D1
330
1B1
100
AcDbEntity
  8
0
100
AcDbVertex
100
AcDb2dVertex
 10
7.954161611699999
 20
4.3413316314
 30
0.0
  0
VERTEX
  5
1D2
330
1B1
100
AcDbEntity
  8
0
100
AcDbVertex
100
AcDb2dVertex
 10
7.934078646499999
 20
4.381237233
 30
0.0
  0
VERTEX
  5
1D3
330
1B1
100
AcDbEntity
  8
0
100
AcDbVertex
100
AcDb2dVertex
 10
7.9082817989
 20
4.420032748599999
 30
0.0
  0
VERTEX
  5
1D4
330
1B1
100
AcDbEntity
  8
0
100
AcDbVertex
100
AcDb2dVertex
 10
7.876952015199999
 20
4.4574460554
 30
0.0
  0
VERTEX
  5
1D5
330
1B1
100
AcDbEntity
  8
0
100
AcDbVertex
100
AcDb2dVertex
 10
7.8403090513
 20
4.493214725899999
 30
0.0
  0
VERTEX
  5
1D6
330
1B1
100
AcDbEntity
  8
0
100
AcDbVertex
100
AcDb2dVertex
 10
7.798609931299999
 20
4.527087868699999
 30
0.0
  0
VERTEX
  5
1D7
330
1B1
100
AcDbEntity
  8
0
100
AcDbVertex
100
AcDb2dVertex
 10
7.7521471445
 20
4.558827887999999
 30
0.0
  0
VERTEX
  5
1D8
330
1B1
100
AcDbEntity
  8
0
100
AcDbVertex
100
AcDb2dVertex
 10
7.701246594099999
 20
4.588212150299999
 30
0.0
  0
VERTEX
  5
1D9
330
1B1
100
AcDbEntity
  8
0
100
AcDbVertex
100
AcDb2dVertex
 10
7.6462653107
 20
4.6150345462
 30
0.0
  0
VERTEX
  5
1DA
330
1B1
100
AcDbEntity
  8
0
100
AcDbVertex
100
AcDb2dVertex
 10
7.587588948699999
 20
4.6391069357
 30
0.0
  0
VERTEX
  5
1DB
330
1B1
100
AcDbEntity
  8
0
100
AcDbVertex
100
AcDb2dVertex
 10
7.525629080499999
 20
4.6602604685
 30
0.0
  0
VERTEX
  5
1DC
330
1B1
100
AcDbEntity
  8
0
100
AcDbVertex
100
AcDb2dVertex
 10
7.460820310099999
 20
4.678346767699999
 30
0.0
  0
VERTEX
  5
1DD
330
1B1
100
AcDbEntity
  8
0
100
AcDbVertex
100
AcDb2dVertex
 10
7.3936172245
 20
4.693238970899999
 30
0.0
  0
VERTEX
  5
1DE
330
1B1
100
AcDbEntity
  8
0
100
AcDbVertex
100
AcDb2dVertex
 10
7.3244912049
 20
4.7048326199
 30
0.0
  0
VERTEX
  5
1DF
330
1B1
100
AcDbEntity
  8
0
100
AcDbVertex
100
AcDb2dVertex
 10
7.2539271208
 20
4.7130463937
 30
0.0
  0
VERTEX
  5
1E0
330
1B1
100
AcDbEntity
  8
0
100
AcDbVertex
100
AcDb2dVertex
 10
7.182419928499999
 20
4.7178226785
 30
0.0
  0
VERTEX
  5
1E1
330
1B1
100
AcDbEntity
  8
0
100
AcDbVertex
100
AcDb2dVertex
 10
7.1104711997
 20
4.719127972099999
 30
0.0
  0
VERTEX
  5
1E2
330
1B1
100
AcDbEntity
  8
0
100
AcDbVertex
100
AcDb2dVertex
 10
7.038585602799999
 20
4.7169531189
 30
0.0
  0
VERTEX
  5
1E3
330
1B1
100
AcDbEntity
  8
0
100
AcDbVertex
100
AcDb2dVertex
 10
6.967267363799999
 20
4.7113133738
 30
0.0
  0
VERTEX
  5
1E4
330
1B1
100
AcDbEntity
  8
0
100
AcDbVertex
100
AcDb2dVertex
 10
6.897016728799999
 20
4.702248295699999
 30
0.0
  0
VERTEX
  5
1E5
330
1B1
100
AcDbEntity
  8
0
100
AcDbVertex
100
AcDb2dVertex
 10
6.8283264557
 20
4.6898214695
 30
0.0
  0
VERTEX
  5
1E6
330
1B1
100
AcDbEntity
  8
0
100
AcDbVertex
100
AcDb2dVertex
 10
6.7616783572
 20
4.674120060399999
 30
0.0
  0
VERTEX
  5
1E7
330
1B1
100
AcDbEntity
  8
0
100
AcDbVertex
100
AcDb2dVertex
 10
6.6975399219
 20
4.6552542027
 30
0.0
  0
VERTEX
  5
1E8
330
1B1
100
AcDbEntity
  8
0
100
AcDbVertex
100
AcDb2dVertex
 10
6.6363610348
 20
4.6333562267
 30
0.0
  0
VERTEX
  5
1E9
330
1B1
100
AcDbEntity
  8
0
100
AcDbVertex
100
AcDb2dVertex
 10
6.578570822
 20
4.608579730999999
 30
0.0
  0
VERTEX
  5
1EA
330
1B1
100
AcDbEntity
  8
0
100
AcDbVertex
100
AcDb2dVertex
 10
6.524574640199999
 20
4.581098504999999
 30
0.0
  0
VERTEX
  5
1EB
330
1B1
100
AcDbEntity
  8
0
100
AcDbVertex
100
AcDb2dVertex
 10
6.4747512338
 20
4.551105309499999
 30
0.0
  0
VERTEX
  5
1EC
330
1B1
100
AcDbEntity
  8
0
100
AcDbVertex
100
AcDb2dVertex
 10
6.4294500782
 20
4.5188105255
 30
0.0
  0
VERTEX
  5
1ED
330
1B1
100
AcDbEntity
  8
0
100
AcDbVertex
100
AcDb2dVertex
 10
6.388988928499999
 20
4.4844406776
 30
0.0
  0
VERTEX
  5
1EE
330
1B1
100
AcDbEntity
  8
0
100
AcDbVertex
100
AcDb2dVertex
 10
6.353651590599999
 20
4.4482368455
 30
0.0
  0
VERTEX
  5
1EF
330
1B1
100
AcDbEntity
  8
0
100
AcDbVertex
100
AcDb2dVertex
 10
6.323685930499999
 20
4.410452973199999
 30
0.0
  0
VERTEX
  5
1F0
330
1B1
100
AcDbEntity
  8
0
100
AcDbVertex
100
AcDb2dVertex
 10
6.2993021358
 20
4.3713540874
 30
0.0
  0
VERTEX
  5
1F1
330
1B1
100
AcDbEntity
  8
0
100
AcDbVertex
100
AcDb2dVertex
 10
6.2806712412
 20
4.331214438599999
 30
0.0
  0
VERTEX
  5
1F2
330
1B1
100
AcDbEntity
  8
0
100
AcDbVertex
100
AcDb2dVertex
 10
6.267923929199999
 20
4.290315577699999
 30
0.0
  0
VERTEX
  5
1F3
330
1B1
100
AcDbEntity
  8
0
100
AcDbVertex
100
AcDb2dVertex
 10
6.261149612999999
 20
4.2489443807
 30
0.0
  0
VERTEX
  5
1F4
330
1B1
100
AcDbEntity
  8
0
100
AcDbVertex
100
AcDb2dVertex
 10
6.2603958095
 20
4.207391036999999
 30
0.0
  0
VERTEX
  5
1F5
330
1B1
100
AcDbEntity
  8
0
100
AcDbVertex
100
AcDb2dVertex
 10
6.265667806099999
 20
4.165947013299999
 30
0.0
  0
VERTEX
  5
1F6
330
1B1
100
AcDbEntity
  8
0
100
AcDbVertex
100
AcDb2dVertex
 10
6.276928623499999
 20
4.1249030097
 30
0.0
  0
VERTEX
  5
1F7
330
1B1
100
AcDbEntity
  8
0
100
AcDbVertex
100
AcDb2dVertex
 10
6.294099275299999
 20
4.0845469204
 30
0.0
  0
VERTEX
  5
1F8
330
1B1
100
AcDbEntity
  8
0
100
AcDbVertex
100
AcDb2dVertex
 10
6.317059321499999
 20
4.0451618143
 30
0.0
  0
VERTEX
  5
1F9
330
1B1
100
AcDbEntity
  8
0
100
AcDbVertex
100
AcDb2dVertex
 10
6.3456477141
 20
4.0070239497
 30
0.0
  0
VERTEX
  5
1FA
330
1B1
100
AcDbEntity
  8
0
100
AcDbVertex
100
AcDb2dVertex
 10
6.3796639259
 20
3.970400836399999
 30
0.0
  0
VERTEX
  5
1FB
330
1B1
100
AcDbEntity
  8
0
100
AcDbVertex
100
AcDb2dVertex
 10
6.4188693577
 20
3.935549358999999
 30
0.0
  0
VERTEX
  5
1FC
330
1B1
100
AcDbEntity
  8
0
100
AcDbVertex
100
AcDb2dVertex
 10
6.462989011499999
 20
3.902713975799999
 30
0.0
  0
VERTEX
  5
1FD
330
1B1
100
AcDbEntity
  8
0
100
AcDbVertex
100
AcDb2dVertex
 10
6.5117134197
 20
3.872125003299999
 30
0.0
  0
SEQEND
  5
1FE
330
1B1
100
AcDbEntity
  8
0
  0
POLYLINE
  5
1FF
330
A
100
AcDbEntity
  8
0
  6
Continuous
 62
     7
100
AcDb2dPolyline
 66
     1
 10
0.0
 20
0.0
 30
0.0
 70
   128
 40
0.0011811024
 41
0.0011811024
  0
VERTEX
  5
200
330
1FF
100
AcDbEntity
  8
0
100
AcDbVertex
100
AcDb2dVertex
 10
6.252205231
 20
3.7223141148
 30
0.0
  0
VERTEX
  5
201
330
1FF
100
AcDbEntity
  8
0
100
AcDbVertex
100
AcDb2dVertex
 10
6.274578759299999
 20
3.711931973399999
 30
0.0
  0
VERTEX
  5
202
330
1FF
100
AcDbEntity
  8
0
100
AcDbVertex
100
AcDb2dVertex
 10
6.3002953095
 20
3.704569110899999
 30
0.0
  0
VERTEX
  5
203
330
1FF
100
AcDbEntity
  8
0
100
AcDbVertex
100
AcDb2dVertex
 10
6.3281524044
 20
3.7005698066
 30
0.0
  0
VERTEX
  5
204
330
1FF
100
AcDbEntity
  8
0
100
AcDbVertex
100
AcDb2dVertex
 10
6.356847477
 20
3.7001210636
 30
0.0
  0
VERTEX
  5
205
330
1FF
100
AcDbEntity
  8
0
100
AcDbVertex
100
AcDb2dVertex
 10
6.385038777799999
 20
3.7032438645
 30
0.0
  0
VERTEX
  5
206
330
1FF
100
AcDbEntity
  8
0
100
AcDbVertex
100
AcDb2dVertex
 10
6.411408112799999
 20
3.709792190699999
 30
0.0
  0
VERTEX
  5
207
330
1FF
100
AcDbEntity
  8
0
100
AcDbVertex
100
AcDb2dVertex
 10
6.434722481199999
 20
3.719459849599999
 30
0.0
  0
VERTEX
  5
208
330
1FF
100
AcDbEntity
  8
0
100
AcDbVertex
100
AcDb2dVertex
 10
6.453891729099999
 20
3.7317947924
 30
0.0
  0
VERTEX
  5
209
330
1FF
100
AcDbEntity
  8
0
100
AcDbVertex
100
AcDb2dVertex
 10
6.468019523699999
 20
3.746220250799999
 30
0.0
  0
VERTEX
  5
20A
330
1FF
100
AcDbEntity
  8
0
100
AcDbVertex
100
AcDb2dVertex
 10
6.476445265099999
 20
3.762061706399999
 30
0.0
  0
VERTEX
  5
20B
330
1FF
100
AcDbEntity
  8
0
100
AcDbVertex
100
AcDb2dVertex
 10
6.4787749749
 20
3.778578430299999
 30
0.0
  0
VERTEX
  5
20C
330
1FF
100
AcDbEntity
  8
0
100
AcDbVertex
100
AcDb2dVertex
 10
6.4748997186
 20
3.794998118899999
 30
0.0
  0
VERTEX
  5
20D
330
1FF
100
AcDbEntity
  8
0
100
AcDbVertex
100
AcDb2dVertex
 10
6.465000698799999
 20
3.810553005799999
 30
0.0
  0
VERTEX
  5
20E
330
1FF
100
AcDbEntity
  8
0
100
AcDbVertex
100
AcDb2dVertex
 10
6.449540782699999
 20
3.824515761799999
 30
0.0
  0
VERTEX
  5
20F
330
1FF
100
AcDbEntity
  8
0
100
AcDbVertex
100
AcDb2dVertex
 10
6.4292428587
 20
3.836233503899999
 30
0.0
  0
VERTEX
  5
210
330
1FF
100
AcDbEntity
  8
0
100
AcDbVertex
100
AcDb2dVertex
 10
6.405056035199999
 20
3.8451583235
 30
0.0
  0
VERTEX
  5
211
330
1FF
100
AcDbEntity
  8
0
100
AcDbVertex
100
AcDb2dVertex
 10
6.378111261299999
 20
3.850872906
 30
0.0
  0
VERTEX
  5
212
330
1FF
100
AcDbEntity
  8
0
100
AcDbVertex
100
AcDb2dVertex
 10
6.3496684445
 20
3.853110043899999
 30
0.0
  0
VERTEX
  5
213
330
1FF
100
AcDbEntity
  8
0
100
AcDbVertex
100
AcDb2dVertex
 10
6.3210575394
 20
3.851765131
 30
0.0
  0
VERTEX
  5
214
330
1FF
100
AcDbEntity
  8
0
100
AcDbVertex
100
AcDb2dVertex
 10
6.293616360199999
 20
3.8469010541
 30
0.0
  0
VERTEX
  5
215
330
1FF
100
AcDbEntity
  8
0
100
AcDbVertex
100
AcDb2dVertex
 10
6.2686280258
 20
3.8387452518
 30
0.0
  0
VERTEX
  5
216
330
1FF
100
AcDbEntity
  8
0
100
AcDbVertex
100
AcDb2dVertex
 10
6.247260962999999
 20
3.827679080599999
 30
0.0
  0
VERTEX
  5
217
330
1FF
100
AcDbEntity
  8
0
100
AcDbVertex
100
AcDb2dVertex
 10
6.230514272
 20
3.8142199822
 30
0.0
  0
VERTEX
  5
218
330
1FF
100
AcDbEntity
  8
0
100
AcDbVertex
100
AcDb2dVertex
 10
6.219171009299999
 20
3.7989972891
 30
0.0
  0
VERTEX
  5
219
330
1FF
100
AcDbEntity
  8
0
100
AcDbVertex
100
AcDb2dVertex
 10
6.2137615733
 20
3.782722797599999
 30
0.0
  0
VERTEX
  5
21A
330
1FF
100
AcDbEntity
  8
0
100
AcDbVertex
100
AcDb2dVertex
 10
6.2145389032
 20
3.7661574847
 30
0.0
  0
VERTEX
  5
21B
330
1FF
100
AcDbEntity
  8
0
100
AcDbVertex
100
AcDb2dVertex
 10
6.2214666521
 20
3.7500759262
 30
0.0
  0
VERTEX
  5
21C
330
1FF
100
AcDbEntity
  8
0
100
AcDbVertex
100
AcDb2dVertex
 10
6.2342208859
 20
3.735230077799999
 30
0.0
  0
VERTEX
  5
21D
330
1FF
100
AcDbEntity
  8
0
100
AcDbVertex
100
AcDb2dVertex
 10
6.252205231
 20
3.7223141148
 30
0.0
  0
SEQEND
  5
21E
330
1FF
100
AcDbEntity
  8
0
  0
POLYLINE
  5
21F
330
A
100
AcDbEntity
  8
0
  6
Continuous
 62
     7
100
AcDb2dPolyline
 66
     1
 10
0.0
 20
0.0
 30
0.0
 70
   128
 40
0.0011811024
 41
0.0011811024
  0
VERTEX
  5
220
330
21F
100
AcDbEntity
  8
0
100
AcDbVertex
100
AcDb2dVertex
 10
5.969121900399999
 20
4.3322078292
 30
0.0
  0
VERTEX
  5
221
330
21F
100
AcDbEntity
  8
0
100
AcDbVertex
100
AcDb2dVertex
 10
5.9914954287
 20
4.321825687799999
 30
0.0
  0
VERTEX
  5
222
330
21F
100
AcDbEntity
  8
0
100
AcDbVertex
100
AcDb2dVertex
 10
6.017211978899999
 20
4.314462825299999
 30
0.0
  0
VERTEX
  5
223
330
21F
100
AcDbEntity
  8
0
100
AcDbVertex
100
AcDb2dVertex
 10
6.045069073799999
 20
4.310463520999999
 30
0.0
  0
VERTEX
  5
224
330
21F
100
AcDbEntity
  8
0
100
AcDbVertex
100
AcDb2dVertex
 10
6.0737641464
 20
4.310014778
 30
0.0
  0
VERTEX
  5
225
330
21F
100
AcDbEntity
  8
0
100
AcDbVertex
100
AcDb2dVertex
 10
6.101955447199999
 20
4.3131375789
 30
0.0
  0
VERTEX
  5
226
330
21F
100
AcDbEntity
  8
0
100
AcDbVertex
100
AcDb2dVertex
 10
6.128324782199999
 20
4.3196859051
 30
0.0
  0
VERTEX
  5
227
330
21F
100
AcDbEntity
  8
0
100
AcDbVertex
100
AcDb2dVertex
 10
6.151639150599999
 20
4.329353563999999
 30
0.0
  0
VERTEX
  5
228
330
21F
100
AcDbEntity
  8
0
100
AcDbVertex
100
AcDb2dVertex
 10
6.1708083985
 20
4.341688506799999
 30
0.0
  0
VERTEX
  5
229
330
21F
100
AcDbEntity
  8
0
100
AcDbVertex
100
AcDb2dVertex
 10
6.184936193099999
 20
4.356113965199999
 30
0.0
  0
VERTEX
  5
22A
330
21F
100
AcDbEntity
  8
0
100
AcDbVertex
100
AcDb2dVertex
 10
6.1933619345
 20
4.371955420799999
 30
0.0
  0
VERTEX
  5
22B
330
21F
100
AcDbEntity
  8
0
100
AcDbVertex
100
AcDb2dVertex
 10
6.1956916444
 20
4.3884721447
 30
0.0
  0
VERTEX
  5
22C
330
21F
100
AcDbEntity
  8
0
100
AcDbVertex
100
AcDb2dVertex
 10
6.191816387999999
 20
4.404891833299999
 30
0.0
  0
VERTEX
  5
22D
330
21F
100
AcDbEntity
  8
0
100
AcDbVertex
100
AcDb2dVertex
 10
6.1819173682
 20
4.4204467202
 30
0.0
  0
VERTEX
  5
22E
330
21F
100
AcDbEntity
  8
0
100
AcDbVertex
100
AcDb2dVertex
 10
6.1664574521
 20
4.434409476199999
 30
0.0
  0
VERTEX
  5
22F
330
21F
100
AcDbEntity
  8
0
100
AcDbVertex
100
AcDb2dVertex
 10
6.146159528099999
 20
4.4461272183
 30
0.0
  0
VERTEX
  5
230
330
21F
100
AcDbEntity
  8
0
100
AcDbVertex
100
AcDb2dVertex
 10
6.1219727046
 20
4.455052037899999
 30
0.0
  0
VERTEX
  5
231
330
21F
100
AcDbEntity
  8
0
100
AcDbVertex
100
AcDb2dVertex
 10
6.0950279307
 20
4.4607666204
 30
0.0
  0
VERTEX
  5
232
330
21F
100
AcDbEntity
  8
0
100
AcDbVertex
100
AcDb2dVertex
 10
6.066585113899999
 20
4.4630037583
 30
0.0
  0
VERTEX
  5
233
330
21F
100
AcDbEntity
  8
0
100
AcDbVertex
100
AcDb2dVertex
 10
6.037974208899999
 20
4.4616588454
 30
0.0
  0
VERTEX
  5
234
330
21F
100
AcDbEntity
  8
0
100
AcDbVertex
100
AcDb2dVertex
 10
6.0105330296
 20
4.456794768399999
 30
0.0
  0
VERTEX
  5
235
330
21F
100
AcDbEntity
  8
0
100
AcDbVertex
100
AcDb2dVertex
 10
5.985544695199999
 20
4.448638966199999
 30
0.0
  0
VERTEX
  5
236
330
21F
100
AcDbEntity
  8
0
100
AcDbVertex
100
AcDb2dVertex
 10
5.9641776324
 20
4.437572795
 30
0.0
  0
VERTEX
  5
237
330
21F
100
AcDbEntity
  8
0
100
AcDbVertex
100
AcDb2dVertex
 10
5.947430941399999
 20
4.4241136966
 30
0.0
  0
VERTEX
  5
238
330
21F
100
AcDbEntity
  8
0
100
AcDbVertex
100
AcDb2dVertex
 10
5.936087678699999
 20
4.408891003499999
 30
0.0
  0
VERTEX
  5
239
330
21F
100
AcDbEntity
  8
0
100
AcDbVertex
100
AcDb2dVertex
 10
5.930678242699999
 20
4.392616512
 30
0.0
  0
VERTEX
  5
23A
330
21F
100
AcDbEntity
  8
0
100
AcDbVertex
100
AcDb2dVertex
 10
5.9314555727
 20
4.376051199099999
 30
0.0
  0
VERTEX
  5
23B
330
21F
100
AcDbEntity
  8
0
100
AcDbVertex
100
AcDb2dVertex
 10
5.938383321499999
 20
4.3599696406
 30
0.0
  0
VERTEX
  5
23C
330
21F
100
AcDbEntity
  8
0
100
AcDbVertex
100
AcDb2dVertex
 10
5.951137555299999
 20
4.345123792099999
 30
0.0
  0
VERTEX
  5
23D
330
21F
100
AcDbEntity
  8
0
100
AcDbVertex
100
AcDb2dVertex
 10
5.969121900399999
 20
4.3322078292
 30
0.0
  0
SEQEND
  5
23E
330
21F
100
AcDbEntity
  8
0
  0
POLYLINE
  5
23F
330
A
100
AcDbEntity
  8
0
  6
Continuous
 62
     7
100
AcDb2dPolyline
 66
     1
 10
0.0
 20
0.0
 30
0.0
 70
   128
 40
0.0011811024
 41
0.0011811024
  0
VERTEX
  5
240
330
23F
100
AcDbEntity
  8
0
100
AcDbVertex
100
AcDb2dVertex
 10
6.7425199423
 20
4.7786810153
 30
0.0
  0
VERTEX
  5
241
330
23F
100
AcDbEntity
  8
0
100
AcDbVertex
100
AcDb2dVertex
 10
6.764893470599999
 20
4.7682988739
 30
0.0
  0
VERTEX
  5
242
330
23F
100
AcDbEntity
  8
0
100
AcDbVertex
100
AcDb2dVertex
 10
6.790610020899999
 20
4.7609360114
 30
0.0
  0
VERTEX
  5
243
330
23F
100
AcDbEntity
  8
0
100
AcDbVertex
100
AcDb2dVertex
 10
6.8184671157
 20
4.7569367072
 30
0.0
  0
VERTEX
  5
244
330
23F
100
AcDbEntity
  8
0
100
AcDbVertex
100
AcDb2dVertex
 10
6.8471621883
 20
4.7564879641
 30
0.0
  0
VERTEX
  5
245
330
23F
100
AcDbEntity
  8
0
100
AcDbVertex
100
AcDb2dVertex
 10
6.8753534891
 20
4.759610764999999
 30
0.0
  0
VERTEX
  5
246
330
23F
100
AcDbEntity
  8
0
100
AcDbVertex
100
AcDb2dVertex
 10
6.901722824099999
 20
4.7661590912
 30
0.0
  0
VERTEX
  5
247
330
23F
100
AcDbEntity
  8
0
100
AcDbVertex
100
AcDb2dVertex
 10
6.925037192499999
 20
4.7758267502
 30
0.0
  0
VERTEX
  5
248
330
23F
100
AcDbEntity
  8
0
100
AcDbVertex
100
AcDb2dVertex
 10
6.944206440399999
 20
4.788161693
 30
0.0
  0
VERTEX
  5
249
330
23F
100
AcDbEntity
  8
0
100
AcDbVertex
100
AcDb2dVertex
 10
6.958334234999999
 20
4.8025871514
 30
0.0
  0
VERTEX
  5
24A
330
23F
100
AcDbEntity
  8
0
100
AcDbVertex
100
AcDb2dVertex
 10
6.966759976399999
 20
4.818428606999999
 30
0.0
  0
VERTEX
  5
24B
330
23F
100
AcDbEntity
  8
0
100
AcDbVertex
100
AcDb2dVertex
 10
6.9690896863
 20
4.8349453309
 30
0.0
  0
VERTEX
  5
24C
330
23F
100
AcDbEntity
  8
0
100
AcDbVertex
100
AcDb2dVertex
 10
6.965214429999999
 20
4.8513650195
 30
0.0
  0
VERTEX
  5
24D
330
23F
100
AcDbEntity
  8
0
100
AcDbVertex
100
AcDb2dVertex
 10
6.955315410099999
 20
4.866919906399999
 30
0.0
  0
VERTEX
  5
24E
330
23F
100
AcDbEntity
  8
0
100
AcDbVertex
100
AcDb2dVertex
 10
6.939855493999999
 20
4.8808826624
 30
0.0
  0
VERTEX
  5
24F
330
23F
100
AcDbEntity
  8
0
100
AcDbVertex
100
AcDb2dVertex
 10
6.91955757
 20
4.892600404499999
 30
0.0
  0
VERTEX
  5
250
330
23F
100
AcDbEntity
  8
0
100
AcDbVertex
100
AcDb2dVertex
 10
6.895370746599999
 20
4.9015252241
 30
0.0
  0
VERTEX
  5
251
330
23F
100
AcDbEntity
  8
0
100
AcDbVertex
100
AcDb2dVertex
 10
6.868425972599999
 20
4.9072398066
 30
0.0
  0
VERTEX
  5
252
330
23F
100
AcDbEntity
  8
0
100
AcDbVertex
100
AcDb2dVertex
 10
6.8399831558
 20
4.909476944399999
 30
0.0
  0
VERTEX
  5
253
330
23F
100
AcDbEntity
  8
0
100
AcDbVertex
100
AcDb2dVertex
 10
6.8113722508
 20
4.9081320316
 30
0.0
  0
VERTEX
  5
254
330
23F
100
AcDbEntity
  8
0
100
AcDbVertex
100
AcDb2dVertex
 10
6.783931071499999
 20
4.903267954599999
 30
0.0
  0
VERTEX
  5
255
330
23F
100
AcDbEntity
  8
0
100
AcDbVertex
100
AcDb2dVertex
 10
6.758942737199999
 20
4.8951121524
 30
0.0
  0
VERTEX
  5
256
330
23F
100
AcDbEntity
  8
0
100
AcDbVertex
100
AcDb2dVertex
 10
6.7375756744
 20
4.884045981099999
 30
0.0
  0
VERTEX
  5
257
330
23F
100
AcDbEntity
  8
0
100
AcDbVertex
100
AcDb2dVertex
 10
6.7208289833
 20
4.870586882699999
 30
0.0
  0
VERTEX
  5
258
330
23F
100
AcDbEntity
  8
0
100
AcDbVertex
100
AcDb2dVertex
 10
6.709485720599999
 20
4.855364189599999
 30
0.0
  0
VERTEX
  5
259
330
23F
100
AcDbEntity
  8
0
100
AcDbVertex
100
AcDb2dVertex
 10
6.7040762846
 20
4.8390896981
 30
0.0
  0
VERTEX
  5
25A
330
23F
100
AcDbEntity
  8
0
100
AcDbVertex
100
AcDb2dVertex
 10
6.7048536146
 20
4.822524385299999
 30
0.0
  0
VERTEX
  5
25B
330
23F
100
AcDbEntity
  8
0
100
AcDbVertex
100
AcDb2dVertex
 10
6.7117813634
 20
4.8064428267
 30
0.0
  0
VERTEX
  5
25C
330
23F
100
AcDbEntity
  8
0
100
AcDbVertex
100
AcDb2dVertex
 10
6.7245355973
 20
4.791596978299999
 30
0.0
  0
VERTEX
  5
25D
330
23F
100
AcDbEntity
  8
0
100
AcDbVertex
100
AcDb2dVertex
 10
6.7425199423
 20
4.7786810153
 30
0.0
  0
SEQEND
  5
25E
330
23F
100
AcDbEntity
  8
0
  0
POLYLINE
  5
25F
330
A
100
AcDbEntity
  8
0
  6
Continuous
 62
     7
100
AcDb2dPolyline
 66
     1
 10
0.0
 20
0.0
 30
0.0
 70
   128
 40
0.0011811024
 41
0.0011811024
  0
VERTEX
  5
260
330
25F
100
AcDbEntity
  8
0
100
AcDbVertex
100
AcDb2dVertex
 10
7.799001314799999
 20
4.615260487099999
 30
0.0
  0
VERTEX
  5
261
330
25F
100
AcDbEntity
  8
0
100
AcDbVertex
100
AcDb2dVertex
 10
7.821374843099999
 20
4.604878345699999
 30
0.0
  0
VERTEX
  5
262
330
25F
100
AcDbEntity
  8
0
100
AcDbVertex
100
AcDb2dVertex
 10
7.8470913934
 20
4.597515483199999
 30
0.0
  0
VERTEX
  5
263
330
25F
100
AcDbEntity
  8
0
100
AcDbVertex
100
AcDb2dVertex
 10
7.8749484882
 20
4.593516178899999
 30
0.0
  0
VERTEX
  5
264
330
25F
100
AcDbEntity
  8
0
100
AcDbVertex
100
AcDb2dVertex
 10
7.9036435608
 20
4.5930674359
 30
0.0
  0
VERTEX
  5
265
330
25F
100
AcDbEntity
  8
0
100
AcDbVertex
100
AcDb2dVertex
 10
7.931834861599999
 20
4.5961902368
 30
0.0
  0
VERTEX
  5
266
330
25F
100
AcDbEntity
  8
0
100
AcDbVertex
100
AcDb2dVertex
 10
7.958204196599999
 20
4.602738562999999
 30
0.0
  0
VERTEX
  5
267
330
25F
100
AcDbEntity
  8
0
100
AcDbVertex
100
AcDb2dVertex
 10
7.981518565
 20
4.612406221999999
 30
0.0
  0
VERTEX
  5
268
330
25F
100
AcDbEntity
  8
0
100
AcDbVertex
100
AcDb2dVertex
 10
8.000687812899998
 20
4.6247411647
 30
0.0
  0
VERTEX
  5
269
330
25F
100
AcDbEntity
  8
0
100
AcDbVertex
100
AcDb2dVertex
 10
8.014815607499999
 20
4.6391666231
 30
0.0
  0
VERTEX
  5
26A
330
25F
100
AcDbEntity
  8
0
100
AcDbVertex
100
AcDb2dVertex
 10
8.023241348899999
 20
4.655008078699999
 30
0.0
  0
VERTEX
  5
26B
330
25F
100
AcDbEntity
  8
0
100
AcDbVertex
100
AcDb2dVertex
 10
8.0255710588
 20
4.671524802599999
 30
0.0
  0
VERTEX
  5
26C
330
25F
100
AcDbEntity
  8
0
100
AcDbVertex
100
AcDb2dVertex
 10
8.0216958025
 20
4.687944491199999
 30
0.0
  0
VERTEX
  5
26D
330
25F
100
AcDbEntity
  8
0
100
AcDbVertex
100
AcDb2dVertex
 10
8.011796782699999
 20
4.7034993782
 30
0.0
  0
VERTEX
  5
26E
330
25F
100
AcDbEntity
  8
0
100
AcDbVertex
100
AcDb2dVertex
 10
7.9963368665
 20
4.7174621341
 30
0.0
  0
VERTEX
  5
26F
330
25F
100
AcDbEntity
  8
0
100
AcDbVertex
100
AcDb2dVertex
 10
7.976038942499999
 20
4.729179876199999
 30
0.0
  0
VERTEX
  5
270
330
25F
100
AcDbEntity
  8
0
100
AcDbVertex
100
AcDb2dVertex
 10
7.951852119099999
 20
4.738104695899999
 30
0.0
  0
VERTEX
  5
271
330
25F
100
AcDbEntity
  8
0
100
AcDbVertex
100
AcDb2dVertex
 10
7.9249073451
 20
4.7438192784
 30
0.0
  0
VERTEX
  5
272
330
25F
100
AcDbEntity
  8
0
100
AcDbVertex
100
AcDb2dVertex
 10
7.8964645284
 20
4.7460564162
 30
0.0
  0
VERTEX
  5
273
330
25F
100
AcDbEntity
  8
0
100
AcDbVertex
100
AcDb2dVertex
 10
7.8678536233
 20
4.744711503299999
 30
0.0
  0
VERTEX
  5
274
330
25F
100
AcDbEntity
  8
0
100
AcDbVertex
100
AcDb2dVertex
 10
7.840412444
 20
4.739847426399999
 30
0.0
  0
VERTEX
  5
275
330
25F
100
AcDbEntity
  8
0
100
AcDbVertex
100
AcDb2dVertex
 10
7.8154241097
 20
4.7316916241
 30
0.0
  0
VERTEX
  5
276
330
25F
100
AcDbEntity
  8
0
100
AcDbVertex
100
AcDb2dVertex
 10
7.7940570469
 20
4.7206254529
 30
0.0
  0
VERTEX
  5
277
330
25F
100
AcDbEntity
  8
0
100
AcDbVertex
100
AcDb2dVertex
 10
7.7773103558
 20
4.707166354499999
 30
0.0
  0
VERTEX
  5
278
330
25F
100
AcDbEntity
  8
0
100
AcDbVertex
100
AcDb2dVertex
 10
7.765967093099999
 20
4.691943661399999
 30
0.0
  0
VERTEX
  5
279
330
25F
100
AcDbEntity
  8
0
100
AcDbVertex
100
AcDb2dVertex
 10
7.7605576571
 20
4.675669169899999
 30
0.0
  0
VERTEX
  5
27A
330
25F
100
AcDbEntity
  8
0
100
AcDbVertex
100
AcDb2dVertex
 10
7.7613349871
 20
4.659103856999999
 30
0.0
  0
VERTEX
  5
27B
330
25F
100
AcDbEntity
  8
0
100
AcDbVertex
100
AcDb2dVertex
 10
7.7682627359
 20
4.6430222985
 30
0.0
  0
VERTEX
  5
27C
330
25F
100
AcDbEntity
  8
0
100
AcDbVertex
100
AcDb2dVertex
 10
7.7810169698
 20
4.628176450099999
 30
0.0
  0
VERTEX
  5
27D
330
25F
100
AcDbEntity
  8
0
100
AcDbVertex
100
AcDb2dVertex
 10
7.799001314799999
 20
4.615260487099999
 30
0.0
  0
SEQEND
  5
27E
330
25F
100
AcDbEntity
  8
0
  0
POLYLINE
  5
27F
330
A
100
AcDbEntity
  8
0
  6
Continuous
 62
     7
100
AcDb2dPolyline
 66
     1
 10
0.0
 20
0.0
 30
0.0
 70
   128
 40
0.0011811024
 41
0.0011811024
  0
VERTEX
  5
280
330
27F
100
AcDbEntity
  8
0
100
AcDbVertex
100
AcDb2dVertex
 10
8.0820846454
 20
4.005366772699999
 30
0.0
  0
VERTEX
  5
281
330
27F
100
AcDbEntity
  8
0
100
AcDbVertex
100
AcDb2dVertex
 10
8.104458173699999
 20
3.994984631299999
 30
0.0
  0
VERTEX
  5
282
330
27F
100
AcDbEntity
  8
0
100
AcDbVertex
100
AcDb2dVertex
 10
8.130174723899999
 20
3.9876217688
 30
0.0
  0
VERTEX
  5
283
330
27F
100
AcDbEntity
  8
0
100
AcDbVertex
100
AcDb2dVertex
 10
8.158031818799999
 20
3.983622464499999
 30
0.0
  0
VERTEX
  5
284
330
27F
100
AcDbEntity
  8
0
100
AcDbVertex
100
AcDb2dVertex
 10
8.186726891399999
 20
3.983173721499999
 30
0.0
  0
VERTEX
  5
285
330
27F
100
AcDbEntity
  8
0
100
AcDbVertex
100
AcDb2dVertex
 10
8.2149181922
 20
3.986296522399999
 30
0.0
  0
VERTEX
  5
286
330
27F
100
AcDbEntity
  8
0
100
AcDbVertex
100
AcDb2dVertex
 10
8.2412875272
 20
3.9928448486
 30
0.0
  0
VERTEX
  5
287
330
27F
100
AcDbEntity
  8
0
100
AcDbVertex
100
AcDb2dVertex
 10
8.2646018956
 20
4.002512507599999
 30
0.0
  0
VERTEX
  5
288
330
27F
100
AcDbEntity
  8
0
100
AcDbVertex
100
AcDb2dVertex
 10
8.2837711435
 20
4.0148474504
 30
0.0
  0
VERTEX
  5
289
330
27F
100
AcDbEntity
  8
0
100
AcDbVertex
100
AcDb2dVertex
 10
8.297898938099999
 20
4.0292729087
 30
0.0
  0
VERTEX
  5
28A
330
27F
100
AcDbEntity
  8
0
100
AcDbVertex
100
AcDb2dVertex
 10
8.306324679500001
 20
4.045114364299999
 30
0.0
  0
VERTEX
  5
28B
330
27F
100
AcDbEntity
  8
0
100
AcDbVertex
100
AcDb2dVertex
 10
8.3086543894
 20
4.061631088199999
 30
0.0
  0
VERTEX
  5
28C
330
27F
100
AcDbEntity
  8
0
100
AcDbVertex
100
AcDb2dVertex
 10
8.304779133
 20
4.078050776899999
 30
0.0
  0
VERTEX
  5
28D
330
27F
100
AcDbEntity
  8
0
100
AcDbVertex
100
AcDb2dVertex
 10
8.294880113200001
 20
4.0936056638
 30
0.0
  0
VERTEX
  5
28E
330
27F
100
AcDbEntity
  8
0
100
AcDbVertex
100
AcDb2dVertex
 10
8.2794201971
 20
4.1075684197
 30
0.0
  0
VERTEX
  5
28F
330
27F
100
AcDbEntity
  8
0
100
AcDbVertex
100
AcDb2dVertex
 10
8.259122273099999
 20
4.119286161799999
 30
0.0
  0
VERTEX
  5
290
330
27F
100
AcDbEntity
  8
0
100
AcDbVertex
100
AcDb2dVertex
 10
8.2349354496
 20
4.128210981499999
 30
0.0
  0
VERTEX
  5
291
330
27F
100
AcDbEntity
  8
0
100
AcDbVertex
100
AcDb2dVertex
 10
8.207990675700001
 20
4.133925564
 30
0.0
  0
VERTEX
  5
292
330
27F
100
AcDbEntity
  8
0
100
AcDbVertex
100
AcDb2dVertex
 10
8.179547858899999
 20
4.1361627018
 30
0.0
  0
VERTEX
  5
293
330
27F
100
AcDbEntity
  8
0
100
AcDbVertex
100
AcDb2dVertex
 10
8.1509369539
 20
4.134817788899999
 30
0.0
  0
VERTEX
  5
294
330
27F
100
AcDbEntity
  8
0
100
AcDbVertex
100
AcDb2dVertex
 10
8.1234957746
 20
4.129953711999999
 30
0.0
  0
VERTEX
  5
295
330
27F
100
AcDbEntity
  8
0
100
AcDbVertex
100
AcDb2dVertex
 10
8.0985074402
 20
4.1217979097
 30
0.0
  0
VERTEX
  5
296
330
27F
100
AcDbEntity
  8
0
100
AcDbVertex
100
AcDb2dVertex
 10
8.077140377499999
 20
4.1107317385
 30
0.0
  0
VERTEX
  5
297
330
27F
100
AcDbEntity
  8
0
100
AcDbVertex
100
AcDb2dVertex
 10
8.060393686399999
 20
4.097272640099999
 30
0.0
  0
VERTEX
  5
298
330
27F
100
AcDbEntity
  8
0
100
AcDbVertex
100
AcDb2dVertex
 10
8.0490504237
 20
4.082049946999999
 30
0.0
  0
VERTEX
  5
299
330
27F
100
AcDbEntity
  8
0
100
AcDbVertex
100
AcDb2dVertex
 10
8.043640987699999
 20
4.065775455499999
 30
0.0
  0
VERTEX
  5
29A
330
27F
100
AcDbEntity
  8
0
100
AcDbVertex
100
AcDb2dVertex
 10
8.044418317699999
 20
4.049210142699999
 30
0.0
  0
VERTEX
  5
29B
330
27F
100
AcDbEntity
  8
0
100
AcDbVertex
100
AcDb2dVertex
 10
8.051346066499998
 20
4.033128584099999
 30
0.0
  0
VERTEX
  5
29C
330
27F
100
AcDbEntity
  8
0
100
AcDbVertex
100
AcDb2dVertex
 10
8.064100300299999
 20
4.018282735699999
 30
0.0
  0
VERTEX
  5
29D
330
27F
100
AcDbEntity
  8
0
100
AcDbVertex
100
AcDb2dVertex
 10
8.0820846454
 20
4.005366772699999
 30
0.0
  0
SEQEND
  5
29E
330
27F
100
AcDbEntity
  8
0
  0
POLYLINE
  5
29F
330
A
100
AcDbEntity
  8
0
  6
Continuous
 62
     7
100
AcDb2dPolyline
 66
     1
 10
0.0
 20
0.0
 30
0.0
 70
   128
 40
0.0011811024
 41
0.0011811024
  0
VERTEX
  5
2A0
330
29F
100
AcDbEntity
  8
0
100
AcDbVertex
100
AcDb2dVertex
 10
7.308686603499999
 20
3.558893586499999
 30
0.0
  0
VERTEX
  5
2A1
330
29F
100
AcDbEntity
  8
0
100
AcDbVertex
100
AcDb2dVertex
 10
7.331060131799999
 20
3.548511445099999
 30
0.0
  0
VERTEX
  5
2A2
330
29F
100
AcDbEntity
  8
0
100
AcDbVertex
100
AcDb2dVertex
 10
7.356776682
 20
3.541148582699999
 30
0.0
  0
VERTEX
  5
2A3
330
29F
100
AcDbEntity
  8
0
100
AcDbVertex
100
AcDb2dVertex
 10
7.3846337769
 20
3.537149278399999
 30
0.0
  0
VERTEX
  5
2A4
330
29F
100
AcDbEntity
  8
0
100
AcDbVertex
100
AcDb2dVertex
 10
7.4133288495
 20
3.536700535299999
 30
0.0
  0
VERTEX
  5
2A5
330
29F
100
AcDbEntity
  8
0
100
AcDbVertex
100
AcDb2dVertex
 10
7.441520150299999
 20
3.5398233363
 30
0.0
  0
VERTEX
  5
2A6
330
29F
100
AcDbEntity
  8
0
100
AcDbVertex
100
AcDb2dVertex
 10
7.467889485299999
 20
3.546371662399999
 30
0.0
  0
VERTEX
  5
2A7
330
29F
100
AcDbEntity
  8
0
100
AcDbVertex
100
AcDb2dVertex
 10
7.4912038537
 20
3.556039321399999
 30
0.0
  0
VERTEX
  5
2A8
330
29F
100
AcDbEntity
  8
0
100
AcDbVertex
100
AcDb2dVertex
 10
7.510373101599999
 20
3.5683742642
 30
0.0
  0
VERTEX
  5
2A9
330
29F
100
AcDbEntity
  8
0
100
AcDbVertex
100
AcDb2dVertex
 10
7.5245008962
 20
3.582799722599999
 30
0.0
  0
VERTEX
  5
2AA
330
29F
100
AcDbEntity
  8
0
100
AcDbVertex
100
AcDb2dVertex
 10
7.5329266376
 20
3.598641178199999
 30
0.0
  0
VERTEX
  5
2AB
330
29F
100
AcDbEntity
  8
0
100
AcDbVertex
100
AcDb2dVertex
 10
7.535256347399999
 20
3.615157902099999
 30
0.0
  0
VERTEX
  5
2AC
330
29F
100
AcDbEntity
  8
0
100
AcDbVertex
100
AcDb2dVertex
 10
7.5313810911
 20
3.6315775907
 30
0.0
  0
VERTEX
  5
2AD
330
29F
100
AcDbEntity
  8
0
100
AcDbVertex
100
AcDb2dVertex
 10
7.5214820713
 20
3.6471324776
 30
0.0
  0
VERTEX
  5
2AE
330
29F
100
AcDbEntity
  8
0
100
AcDbVertex
100
AcDb2dVertex
 10
7.5060221552
 20
3.6610952336
 30
0.0
  0
VERTEX
  5
2AF
330
29F
100
AcDbEntity
  8
0
100
AcDbVertex
100
AcDb2dVertex
 10
7.485724231199999
 20
3.672812975699999
 30
0.0
  0
VERTEX
  5
2B0
330
29F
100
AcDbEntity
  8
0
100
AcDbVertex
100
AcDb2dVertex
 10
7.461537407699999
 20
3.681737795299999
 30
0.0
  0
VERTEX
  5
2B1
330
29F
100
AcDbEntity
  8
0
100
AcDbVertex
100
AcDb2dVertex
 10
7.4345926338
 20
3.687452377799999
 30
0.0
  0
VERTEX
  5
2B2
330
29F
100
AcDbEntity
  8
0
100
AcDbVertex
100
AcDb2dVertex
 10
7.406149817
 20
3.6896895157
 30
0.0
  0
VERTEX
  5
2B3
330
29F
100
AcDbEntity
  8
0
100
AcDbVertex
100
AcDb2dVertex
 10
7.3775389119
 20
3.688344602799999
 30
0.0
  0
VERTEX
  5
2B4
330
29F
100
AcDbEntity
  8
0
100
AcDbVertex
100
AcDb2dVertex
 10
7.3500977327
 20
3.683480525799999
 30
0.0
  0
VERTEX
  5
2B5
330
29F
100
AcDbEntity
  8
0
100
AcDbVertex
100
AcDb2dVertex
 10
7.3251093983
 20
3.6753247236
 30
0.0
  0
VERTEX
  5
2B6
330
29F
100
AcDbEntity
  8
0
100
AcDbVertex
100
AcDb2dVertex
 10
7.303742335499999
 20
3.6642585523
 30
0.0
  0
VERTEX
  5
2B7
330
29F
100
AcDbEntity
  8
0
100
AcDbVertex
100
AcDb2dVertex
 10
7.2869956445
 20
3.650799453899999
 30
0.0
  0
VERTEX
  5
2B8
330
29F
100
AcDbEntity
  8
0
100
AcDbVertex
100
AcDb2dVertex
 10
7.275652381799999
 20
3.635576760899999
 30
0.0
  0
VERTEX
  5
2B9
330
29F
100
AcDbEntity
  8
0
100
AcDbVertex
100
AcDb2dVertex
 10
7.2702429458
 20
3.619302269299999
 30
0.0
  0
VERTEX
  5
2BA
330
29F
100
AcDbEntity
  8
0
100
AcDbVertex
100
AcDb2dVertex
 10
7.2710202757
 20
3.602736956499999
 30
0.0
  0
VERTEX
  5
2BB
330
29F
100
AcDbEntity
  8
0
100
AcDbVertex
100
AcDb2dVertex
 10
7.2779480246
 20
3.586655397999999
 30
0.0
  0
VERTEX
  5
2BC
330
29F
100
AcDbEntity
  8
0
100
AcDbVertex
100
AcDb2dVertex
 10
7.2907022584
 20
3.571809549499999
 30
0.0
  0
VERTEX
  5
2BD
330
29F
100
AcDbEntity
  8
0
100
AcDbVertex
100
AcDb2dVertex
 10
7.308686603499999
 20
3.558893586499999
 30
0.0
  0
SEQEND
  5
2BE
330
29F
100
AcDbEntity
  8
0
  0
LINE
  5
2BF
330
A
100
AcDbEntity
  8
0
  6
Continuous
 62
     7
370
    15
100
AcDbLine
 10
7.5172192625
 20
2.0285800755
 30
0.0
 11
7.5172192625
 21
2.615672919199999
 31
0.0
  0
POLYLINE
  5
2C0
330
A
100
AcDbEntity
  8
0
  6
Continuous
 62
     7
100
AcDb2dPolyline
 66
     1
 10
0.0
 20
0.0
 30
0.0
 70
   128
 40
0.0011811024
 41
0.0011811024
  0
VERTEX
  5
2C1
330
2C0
100
AcDbEntity
  8
0
100
AcDbVertex
100
AcDb2dVertex
 10
7.1636658719
 20
2.0285800755
 30
0.0
  0
VERTEX
  5
2C2
330
2C0
100
AcDbEntity
  8
0
100
AcDbVertex
100
AcDb2dVertex
 10
7.193496254199999
 20
2.013872196999999
 30
0.0
  0
VERTEX
  5
2C3
330
2C0
100
AcDbEntity
  8
0
100
AcDbVertex
100
AcDb2dVertex
 10
7.2269449423
 20
2.002039309999999
 30
0.0
  0
VERTEX
  5
2C4
330
2C0
100
AcDbEntity
  8
0
100
AcDbVertex
100
AcDb2dVertex
 10
7.2631883186
 20
1.993372779399999
 30
0.0
  0
VERTEX
  5
2C5
330
2C0
100
AcDbEntity
  8
0
100
AcDbVertex
100
AcDb2dVertex
 10
7.301333951
 20
1.988086003799999
 30
0.0
  0
VERTEX
  5
2C6
330
2C0
100
AcDbEntity
  8
0
100
AcDbVertex
100
AcDb2dVertex
 10
7.3404425672
 20
1.986309161399999
 30
0.0
  0
VERTEX
  5
2C7
330
2C0
100
AcDbEntity
  8
0
100
AcDbVertex
100
AcDb2dVertex
 10
7.3795511835
 20
1.988086003799999
 30
0.0
  0
VERTEX
  5
2C8
330
2C0
100
AcDbEntity
  8
0
100
AcDbVertex
100
AcDb2dVertex
 10
7.4176968158
 20
1.993372779399999
 30
0.0
  0
VERTEX
  5
2C9
330
2C0
100
AcDbEntity
  8
0
100
AcDbVertex
100
AcDb2dVertex
 10
7.4539401922
 20
2.002039309999999
 30
0.0
  0
VERTEX
  5
2CA
330
2C0
100
AcDbEntity
  8
0
100
AcDbVertex
100
AcDb2dVertex
 10
7.487388880299999
 20
2.013872196999999
 30
0.0
  0
VERTEX
  5
2CB
330
2C0
100
AcDbEntity
  8
0
100
AcDbVertex
100
AcDb2dVertex
 10
7.5172192625
 20
2.0285800755
 30
0.0
  0
SEQEND
  5
2CC
330
2C0
100
AcDbEntity
  8
0
  0
LINE
  5
2CD
330
A
100
AcDbEntity
  8
0
  6
Continuous
 62
     7
370
    15
100
AcDbLine
 10
7.1636658719
 20
2.0285800755
 30
0.0
 11
7.1636658719
 21
2.615672919199999
 31
0.0
  0
LINE
  5
2CE
330
A
100
AcDbEntity
  8
0
  6
Continuous
 62
     7
370
    15
100
AcDbLine
 10
9.903704648999999
 20
3.4062687642
 30
0.0
 11
9.903704648999999
 21
3.9933616079
 31
0.0
  0
LINE
  5
2CF
330
A
100
AcDbEntity
  8
0
  6
Continuous
 62
     7
370
    15
100
AcDbLine
 10
7.5172192625
 20
2.0285800755
 30
0.0
 11
9.903704648999999
 21
3.4062687642
 31
0.0
  0
LINE
  5
2D0
330
A
100
AcDbEntity
  8
0
  6
Continuous
 62
     7
370
    15
100
AcDbLine
 10
4.3352387472
 20
3.6613962991
 30
0.0
 11
7.1636658719
 21
2.0285800755
 31
0.0
  0
LINE
  5
2D1
330
A
100
AcDbEntity
  8
0
  6
Continuous
 62
     7
370
    15
100
AcDbLine
 10
4.3352387472
 20
3.6613962991
 30
0.0
 11
4.3352387472
 21
4.2484891429
 31
0.0
  0
POLYLINE
  5
2D2
330
A
100
AcDbEntity
  8
0
  6
Continuous
 62
     7
100
AcDb2dPolyline
 66
     1
 10
0.0
 20
0.0
 30
0.0
 70
   128
 40
0.0011811024
 41
0.0011811024
  0
VERTEX
  5
2D3
330
2D2
100
AcDbEntity
  8
0
100
AcDbVertex
100
AcDb2dVertex
 10
7.493615757799999
 20
3.5573198311
 30
0.0
  0
VERTEX
  5
2D4
330
2D2
100
AcDbEntity
  8
0
100
AcDbVertex
100
AcDb2dVertex
 10
7.508395553599999
 20
3.568362536199999
 30
0.0
  0
VERTEX
  5
2D5
330
2D2
100
AcDbEntity
  8
0
100
AcDbVertex
100
AcDb2dVertex
 10
7.520540444999999
 20
3.5829212282
 30
0.0
  0
VERTEX
  5
2D6
330
2D2
100
AcDbEntity
  8
0
100
AcDbVertex
100
AcDb2dVertex
 10
7.526769054899999
 20
3.5986750191
 30
0.0
  0
VERTEX
  5
2D7
330
2D2
100
AcDbEntity
  8
0
100
AcDbVertex
100
AcDb2dVertex
 10
7.526769054899999
 20
3.614833948199999
 30
0.0
  0
VERTEX
  5
2D8
330
2D2
100
AcDbEntity
  8
0
100
AcDbVertex
100
AcDb2dVertex
 10
7.520540444999999
 20
3.6305877392
 30
0.0
  0
VERTEX
  5
2D9
330
2D2
100
AcDbEntity
  8
0
100
AcDbVertex
100
AcDb2dVertex
 10
7.508395553599999
 20
3.6451464312
 30
0.0
  0
VERTEX
  5
2DA
330
2D2
100
AcDbEntity
  8
0
100
AcDbVertex
100
AcDb2dVertex
 10
7.490943376299999
 20
3.657779990699999
 30
0.0
  0
VERTEX
  5
2DB
330
2D2
100
AcDbEntity
  8
0
100
AcDbVertex
100
AcDb2dVertex
 10
7.4690590383
 20
3.6678549181
 30
0.0
  0
VERTEX
  5
2DC
330
2D2
100
AcDbEntity
  8
0
100
AcDbVertex
100
AcDb2dVertex
 10
7.443839911399999
 20
3.6748660147
 30
0.0
  0
VERTEX
  5
2DD
330
2D2
100
AcDbEntity
  8
0
100
AcDbVertex
100
AcDb2dVertex
 10
7.4165505882
 20
3.6784617147
 30
0.0
  0
VERTEX
  5
2DE
330
2D2
100
AcDbEntity
  8
0
100
AcDbVertex
100
AcDb2dVertex
 10
7.388559469199999
 20
3.6784617147
 30
0.0
  0
VERTEX
  5
2DF
330
2D2
100
AcDbEntity
  8
0
100
AcDbVertex
100
AcDb2dVertex
 10
7.3612701459
 20
3.6748660147
 30
0.0
  0
VERTEX
  5
2E0
330
2D2
100
AcDbEntity
  8
0
100
AcDbVertex
100
AcDb2dVertex
 10
7.336051019099999
 20
3.6678549181
 30
0.0
  0
VERTEX
  5
2E1
330
2D2
100
AcDbEntity
  8
0
100
AcDbVertex
100
AcDb2dVertex
 10
7.314166681
 20
3.657779990699999
 30
0.0
  0
VERTEX
  5
2E2
330
2D2
100
AcDbEntity
  8
0
100
AcDbVertex
100
AcDb2dVertex
 10
7.296714503799999
 20
3.6451464312
 30
0.0
  0
VERTEX
  5
2E3
330
2D2
100
AcDbEntity
  8
0
100
AcDbVertex
100
AcDb2dVertex
 10
7.2845696124
 20
3.6305877392
 30
0.0
  0
VERTEX
  5
2E4
330
2D2
100
AcDbEntity
  8
0
100
AcDbVertex
100
AcDb2dVertex
 10
7.2783410025
 20
3.614833948199999
 30
0.0
  0
VERTEX
  5
2E5
330
2D2
100
AcDbEntity
  8
0
100
AcDbVertex
100
AcDb2dVertex
 10
7.2783410025
 20
3.5986750191
 30
0.0
  0
VERTEX
  5
2E6
330
2D2
100
AcDbEntity
  8
0
100
AcDbVertex
100
AcDb2dVertex
 10
7.2845696124
 20
3.5829212282
 30
0.0
  0
VERTEX
  5
2E7
330
2D2
100
AcDbEntity
  8
0
100
AcDbVertex
100
AcDb2dVertex
 10
7.296714503799999
 20
3.568362536199999
 30
0.0
  0
VERTEX
  5
2E8
330
2D2
100
AcDbEntity
  8
0
100
AcDbVertex
100
AcDb2dVertex
 10
7.3114942996
 20
3.5573198311
 30
0.0
  0
SEQEND
  5
2E9
330
2D2
100
AcDbEntity
  8
0
  0
POLYLINE
  5
2EA
330
A
100
AcDbEntity
  8
0
  6
Continuous
 62
     7
100
AcDb2dPolyline
 66
     1
 10
0.0
 20
0.0
 30
0.0
 70
   128
 40
0.0011811024
 41
0.0011811024
  0
VERTEX
  5
2EB
330
2EA
100
AcDbEntity
  8
0
100
AcDbVertex
100
AcDb2dVertex
 10
7.812418821399999
 20
3.929429967499999
 30
0.0
  0
VERTEX
  5
2EC
330
2EA
100
AcDbEntity
  8
0
100
AcDbVertex
100
AcDb2dVertex
 10
7.798609931299999
 20
3.939995024999999
 30
0.0
  0
VERTEX
  5
2ED
330
2EA
100
AcDbEntity
  8
0
100
AcDbVertex
100
AcDb2dVertex
 10
7.7521471445
 20
3.9717350442
 30
0.0
  0
VERTEX
  5
2EE
330
2EA
100
AcDbEntity
  8
0
100
AcDbVertex
100
AcDb2dVertex
 10
7.701246594099999
 20
4.0011193066
 30
0.0
  0
VERTEX
  5
2EF
330
2EA
100
AcDbEntity
  8
0
100
AcDbVertex
100
AcDb2dVertex
 10
7.6462653107
 20
4.027941702399999
 30
0.0
  0
VERTEX
  5
2F0
330
2EA
100
AcDbEntity
  8
0
100
AcDbVertex
100
AcDb2dVertex
 10
7.587588948699999
 20
4.052014092
 30
0.0
  0
VERTEX
  5
2F1
330
2EA
100
AcDbEntity
  8
0
100
AcDbVertex
100
AcDb2dVertex
 10
7.525629080499999
 20
4.073167624799999
 30
0.0
  0
VERTEX
  5
2F2
330
2EA
100
AcDbEntity
  8
0
100
AcDbVertex
100
AcDb2dVertex
 10
7.460820310099999
 20
4.091253924
 30
0.0
  0
VERTEX
  5
2F3
330
2EA
100
AcDbEntity
  8
0
100
AcDbVertex
100
AcDb2dVertex
 10
7.3936172245
 20
4.106146127099999
 30
0.0
  0
VERTEX
  5
2F4
330
2EA
100
AcDbEntity
  8
0
100
AcDbVertex
100
AcDb2dVertex
 10
7.3244912049
 20
4.1177397761
 30
0.0
  0
VERTEX
  5
2F5
330
2EA
100
AcDbEntity
  8
0
100
AcDbVertex
100
AcDb2dVertex
 10
7.2539271208
 20
4.1259535499
 30
0.0
  0
VERTEX
  5
2F6
330
2EA
100
AcDbEntity
  8
0
100
AcDbVertex
100
AcDb2dVertex
 10
7.182419928499999
 20
4.1307298347
 30
0.0
  0
VERTEX
  5
2F7
330
2EA
100
AcDbEntity
  8
0
100
AcDbVertex
100
AcDb2dVertex
 10
7.1104711997
 20
4.1320351284
 30
0.0
  0
VERTEX
  5
2F8
330
2EA
100
AcDbEntity
  8
0
100
AcDbVertex
100
AcDb2dVertex
 10
7.038585602799999
 20
4.129860275099999
 30
0.0
  0
VERTEX
  5
2F9
330
2EA
100
AcDbEntity
  8
0
100
AcDbVertex
100
AcDb2dVertex
 10
6.967267363799999
 20
4.124220530099999
 30
0.0
  0
VERTEX
  5
2FA
330
2EA
100
AcDbEntity
  8
0
100
AcDbVertex
100
AcDb2dVertex
 10
6.897016728799999
 20
4.115155451899999
 30
0.0
  0
VERTEX
  5
2FB
330
2EA
100
AcDbEntity
  8
0
100
AcDbVertex
100
AcDb2dVertex
 10
6.8283264557
 20
4.1027286257
 30
0.0
  0
VERTEX
  5
2FC
330
2EA
100
AcDbEntity
  8
0
100
AcDbVertex
100
AcDb2dVertex
 10
6.7616783572
 20
4.0870272167
 30
0.0
  0
VERTEX
  5
2FD
330
2EA
100
AcDbEntity
  8
0
100
AcDbVertex
100
AcDb2dVertex
 10
6.6975399219
 20
4.068161358999999
 30
0.0
  0
VERTEX
  5
2FE
330
2EA
100
AcDbEntity
  8
0
100
AcDbVertex
100
AcDb2dVertex
 10
6.6363610348
 20
4.046263383
 30
0.0
  0
VERTEX
  5
2FF
330
2EA
100
AcDbEntity
  8
0
100
AcDbVertex
100
AcDb2dVertex
 10
6.578570822
 20
4.0214868873
 30
0.0
  0
VERTEX
  5
300
330
2EA
100
AcDbEntity
  8
0
100
AcDbVertex
100
AcDb2dVertex
 10
6.524574640199999
 20
3.9940056612
 30
0.0
  0
VERTEX
  5
301
330
2EA
100
AcDbEntity
  8
0
100
AcDbVertex
100
AcDb2dVertex
 10
6.4747512338
 20
3.964012465799999
 30
0.0
  0
VERTEX
  5
302
330
2EA
100
AcDbEntity
  8
0
100
AcDbVertex
100
AcDb2dVertex
 10
6.4294500782
 20
3.9317176818
 30
0.0
  0
VERTEX
  5
303
330
2EA
100
AcDbEntity
  8
0
100
AcDbVertex
100
AcDb2dVertex
 10
6.4265245748
 20
3.929429967499999
 30
0.0
  0
SEQEND
  5
304
330
2EA
100
AcDbEntity
  8
0
  0
POLYLINE
  5
305
330
A
100
AcDbEntity
  8
0
  6
Continuous
 62
     7
100
AcDb2dPolyline
 66
     1
 10
0.0
 20
0.0
 30
0.0
 70
   128
 40
0.0011811024
 41
0.0011811024
  0
VERTEX
  5
306
330
305
100
AcDbEntity
  8
0
100
AcDbVertex
100
AcDb2dVertex
 10
6.437134385299999
 20
3.7207403593
 30
0.0
  0
VERTEX
  5
307
330
305
100
AcDbEntity
  8
0
100
AcDbVertex
100
AcDb2dVertex
 10
6.4519141811
 20
3.7317830644
 30
0.0
  0
VERTEX
  5
308
330
305
100
AcDbEntity
  8
0
100
AcDbVertex
100
AcDb2dVertex
 10
6.464059072499999
 20
3.746341756399999
 30
0.0
  0
VERTEX
  5
309
330
305
100
AcDbEntity
  8
0
100
AcDbVertex
100
AcDb2dVertex
 10
6.4702876824
 20
3.762095547399999
 30
0.0
  0
VERTEX
  5
30A
330
305
100
AcDbEntity
  8
0
100
AcDbVertex
100
AcDb2dVertex
 10
6.4702876824
 20
3.778254476399999
 30
0.0
  0
VERTEX
  5
30B
330
305
100
AcDbEntity
  8
0
100
AcDbVertex
100
AcDb2dVertex
 10
6.464059072499999
 20
3.7940082674
 30
0.0
  0
VERTEX
  5
30C
330
305
100
AcDbEntity
  8
0
100
AcDbVertex
100
AcDb2dVertex
 10
6.4519141811
 20
3.808566959399999
 30
0.0
  0
VERTEX
  5
30D
330
305
100
AcDbEntity
  8
0
100
AcDbVertex
100
AcDb2dVertex
 10
6.4344620038
 20
3.821200518899999
 30
0.0
  0
VERTEX
  5
30E
330
305
100
AcDbEntity
  8
0
100
AcDbVertex
100
AcDb2dVertex
 10
6.4125776658
 20
3.831275446399999
 30
0.0
  0
VERTEX
  5
30F
330
305
100
AcDbEntity
  8
0
100
AcDbVertex
100
AcDb2dVertex
 10
6.3873585389
 20
3.8382865429
 30
0.0
  0
VERTEX
  5
310
330
305
100
AcDbEntity
  8
0
100
AcDbVertex
100
AcDb2dVertex
 10
6.3600692157
 20
3.8418822429
 30
0.0
  0
VERTEX
  5
311
330
305
100
AcDbEntity
  8
0
100
AcDbVertex
100
AcDb2dVertex
 10
6.332078096699999
 20
3.8418822429
 30
0.0
  0
VERTEX
  5
312
330
305
100
AcDbEntity
  8
0
100
AcDbVertex
100
AcDb2dVertex
 10
6.3047887734
 20
3.8382865429
 30
0.0
  0
VERTEX
  5
313
330
305
100
AcDbEntity
  8
0
100
AcDbVertex
100
AcDb2dVertex
 10
6.279569646599999
 20
3.831275446399999
 30
0.0
  0
VERTEX
  5
314
330
305
100
AcDbEntity
  8
0
100
AcDbVertex
100
AcDb2dVertex
 10
6.2576853085
 20
3.821200518899999
 30
0.0
  0
VERTEX
  5
315
330
305
100
AcDbEntity
  8
0
100
AcDbVertex
100
AcDb2dVertex
 10
6.2402331313
 20
3.808566959399999
 30
0.0
  0
VERTEX
  5
316
330
305
100
AcDbEntity
  8
0
100
AcDbVertex
100
AcDb2dVertex
 10
6.228088239899999
 20
3.7940082674
 30
0.0
  0
VERTEX
  5
317
330
305
100
AcDbEntity
  8
0
100
AcDbVertex
100
AcDb2dVertex
 10
6.221859629999999
 20
3.778254476399999
 30
0.0
  0
VERTEX
  5
318
330
305
100
AcDbEntity
  8
0
100
AcDbVertex
100
AcDb2dVertex
 10
6.221859629999999
 20
3.762095547399999
 30
0.0
  0
VERTEX
  5
319
330
305
100
AcDbEntity
  8
0
100
AcDbVertex
100
AcDb2dVertex
 10
6.228088239899999
 20
3.746341756399999
 30
0.0
  0
VERTEX
  5
31A
330
305
100
AcDbEntity
  8
0
100
AcDbVertex
100
AcDb2dVertex
 10
6.2402331313
 20
3.7317830644
 30
0.0
  0
VERTEX
  5
31B
330
305
100
AcDbEntity
  8
0
100
AcDbVertex
100
AcDb2dVertex
 10
6.2550129271
 20
3.7207403593
 30
0.0
  0
SEQEND
  5
31C
330
305
100
AcDbEntity
  8
0
  0
POLYLINE
  5
31D
330
A
100
AcDbEntity
  8
0
  6
Continuous
 62
     7
100
AcDb2dPolyline
 66
     1
 10
0.0
 20
0.0
 30
0.0
 70
   128
 40
0.0011811024
 41
0.0011811024
  0
VERTEX
  5
31E
330
31D
100
AcDbEntity
  8
0
100
AcDbVertex
100
AcDb2dVertex
 10
8.2670137999
 20
4.0037930174
 30
0.0
  0
VERTEX
  5
31F
330
31D
100
AcDbEntity
  8
0
100
AcDbVertex
100
AcDb2dVertex
 10
8.281793595499999
 20
4.014835722299999
 30
0.0
  0
VERTEX
  5
320
330
31D
100
AcDbEntity
  8
0
100
AcDbVertex
100
AcDb2dVertex
 10
8.2939384869
 20
4.0293944143
 30
0.0
  0
VERTEX
  5
321
330
31D
100
AcDbEntity
  8
0
100
AcDbVertex
100
AcDb2dVertex
 10
8.3001670969
 20
4.045148205299999
 30
0.0
  0
VERTEX
  5
322
330
31D
100
AcDbEntity
  8
0
100
AcDbVertex
100
AcDb2dVertex
 10
8.3001670969
 20
4.061307134399999
 30
0.0
  0
VERTEX
  5
323
330
31D
100
AcDbEntity
  8
0
100
AcDbVertex
100
AcDb2dVertex
 10
8.2939384869
 20
4.077060925299999
 30
0.0
  0
VERTEX
  5
324
330
31D
100
AcDbEntity
  8
0
100
AcDbVertex
100
AcDb2dVertex
 10
8.281793595499999
 20
4.0916196174
 30
0.0
  0
VERTEX
  5
325
330
31D
100
AcDbEntity
  8
0
100
AcDbVertex
100
AcDb2dVertex
 10
8.2643414183
 20
4.1042531768
 30
0.0
  0
VERTEX
  5
326
330
31D
100
AcDbEntity
  8
0
100
AcDbVertex
100
AcDb2dVertex
 10
8.242457080199999
 20
4.1143281043
 30
0.0
  0
VERTEX
  5
327
330
31D
100
AcDbEntity
  8
0
100
AcDbVertex
100
AcDb2dVertex
 10
8.217237953399999
 20
4.121339200899999
 30
0.0
  0
VERTEX
  5
328
330
31D
100
AcDbEntity
  8
0
100
AcDbVertex
100
AcDb2dVertex
 10
8.189948630099999
 20
4.124934900799999
 30
0.0
  0
VERTEX
  5
329
330
31D
100
AcDbEntity
  8
0
100
AcDbVertex
100
AcDb2dVertex
 10
8.1619575111
 20
4.124934900799999
 30
0.0
  0
VERTEX
  5
32A
330
31D
100
AcDbEntity
  8
0
100
AcDbVertex
100
AcDb2dVertex
 10
8.134668187899999
 20
4.121339200899999
 30
0.0
  0
VERTEX
  5
32B
330
31D
100
AcDbEntity
  8
0
100
AcDbVertex
100
AcDb2dVertex
 10
8.109449061099999
 20
4.1143281043
 30
0.0
  0
VERTEX
  5
32C
330
31D
100
AcDbEntity
  8
0
100
AcDbVertex
100
AcDb2dVertex
 10
8.087564722999999
 20
4.1042531768
 30
0.0
  0
VERTEX
  5
32D
330
31D
100
AcDbEntity
  8
0
100
AcDbVertex
100
AcDb2dVertex
 10
8.0701125457
 20
4.0916196174
 30
0.0
  0
VERTEX
  5
32E
330
31D
100
AcDbEntity
  8
0
100
AcDbVertex
100
AcDb2dVertex
 10
8.057967654299998
 20
4.077060925299999
 30
0.0
  0
VERTEX
  5
32F
330
31D
100
AcDbEntity
  8
0
100
AcDbVertex
100
AcDb2dVertex
 10
8.051739044400001
 20
4.061307134399999
 30
0.0
  0
VERTEX
  5
330
330
31D
100
AcDbEntity
  8
0
100
AcDbVertex
100
AcDb2dVertex
 10
8.051739044400001
 20
4.045148205299999
 30
0.0
  0
VERTEX
  5
331
330
31D
100
AcDbEntity
  8
0
100
AcDbVertex
100
AcDb2dVertex
 10
8.057967654299998
 20
4.0293944143
 30
0.0
  0
VERTEX
  5
332
330
31D
100
AcDbEntity
  8
0
100
AcDbVertex
100
AcDb2dVertex
 10
8.0701125457
 20
4.014835722299999
 30
0.0
  0
VERTEX
  5
333
330
31D
100
AcDbEntity
  8
0
100
AcDbVertex
100
AcDb2dVertex
 10
8.084892341399999
 20
4.0037930173
 30
0.0
  0
SEQEND
  5
334
330
31D
100
AcDbEntity
  8
0
  0
POLYLINE
  5
335
330
A
100
AcDbEntity
  8
0
  6
Continuous
 62
     7
100
AcDb2dPolyline
 66
     1
 10
0.0
 20
0.0
 30
0.0
 70
   128
 40
0.0011811024
 41
0.0011811024
  0
VERTEX
  5
336
330
335
100
AcDbEntity
  8
0
100
AcDbVertex
100
AcDb2dVertex
 10
9.903704648999999
 20
3.4062687642
 30
0.0
  0
VERTEX
  5
337
330
335
100
AcDbEntity
  8
0
100
AcDbVertex
100
AcDb2dVertex
 10
9.929182202299999
 20
3.423489477299999
 30
0.0
  0
VERTEX
  5
338
330
335
100
AcDbEntity
  8
0
100
AcDbVertex
100
AcDb2dVertex
 10
9.9496795848
 20
3.442798993899999
 30
0.0
  0
VERTEX
  5
339
330
335
100
AcDbEntity
  8
0
100
AcDbVertex
100
AcDb2dVertex
 10
9.964692082799999
 20
3.4637218497
 30
0.0
  0
VERTEX
  5
33A
330
335
100
AcDbEntity
  8
0
100
AcDbVertex
100
AcDb2dVertex
 10
9.9738500389
 20
3.485742854499999
 30
0.0
  0
VERTEX
  5
33B
330
335
100
AcDbEntity
  8
0
100
AcDbVertex
100
AcDb2dVertex
 10
9.9769279537
 20
3.5083197781
 30
0.0
  0
SEQEND
  5
33C
330
335
100
AcDbEntity
  8
0
  0
POLYLINE
  5
33D
330
A
100
AcDbEntity
  8
0
  6
Continuous
 62
     7
100
AcDb2dPolyline
 66
     1
 10
0.0
 20
0.0
 30
0.0
 70
   128
 40
0.0011811024
 41
0.0011811024
  0
VERTEX
  5
33E
330
33D
100
AcDbEntity
  8
0
100
AcDbVertex
100
AcDb2dVertex
 10
4.2620154425
 20
3.763447313099999
 30
0.0
  0
VERTEX
  5
33F
330
33D
100
AcDbEntity
  8
0
100
AcDbVertex
100
AcDb2dVertex
 10
4.2650933573
 20
3.740870389499999
 30
0.0
  0
VERTEX
  5
340
330
33D
100
AcDbEntity
  8
0
100
AcDbVertex
100
AcDb2dVertex
 10
4.274251313399999
 20
3.7188493847
 30
0.0
  0
VERTEX
  5
341
330
33D
100
AcDbEntity
  8
0
100
AcDbVertex
100
AcDb2dVertex
 10
4.289263811399999
 20
3.6979265289
 30
0.0
  0
VERTEX
  5
342
330
33D
100
AcDbEntity
  8
0
100
AcDbVertex
100
AcDb2dVertex
 10
4.3097611939
 20
3.6786170122
 30
0.0
  0
VERTEX
  5
343
330
33D
100
AcDbEntity
  8
0
100
AcDbVertex
100
AcDb2dVertex
 10
4.3352387472
 20
3.6613962991
 30
0.0
  0
SEQEND
  5
344
330
33D
100
AcDbEntity
  8
0
  0
POLYLINE
  5
345
330
A
100
AcDbEntity
  8
0
  6
Continuous
 62
     7
100
AcDb2dPolyline
 66
     1
 10
0.0
 20
0.0
 30
0.0
 70
   128
 40
0.0011811024
 41
0.0011811024
  0
VERTEX
  5
346
330
345
100
AcDbEntity
  8
0
100
AcDbVertex
100
AcDb2dVertex
 10
6.1540510546
 20
4.330634073699999
 30
0.0
  0
VERTEX
  5
347
330
345
100
AcDbEntity
  8
0
100
AcDbVertex
100
AcDb2dVertex
 10
6.168830850499999
 20
4.3416767788
 30
0.0
  0
VERTEX
  5
348
330
345
100
AcDbEntity
  8
0
100
AcDbVertex
100
AcDb2dVertex
 10
6.1809757419
 20
4.356235470799999
 30
0.0
  0
VERTEX
  5
349
330
345
100
AcDbEntity
  8
0
100
AcDbVertex
100
AcDb2dVertex
 10
6.187204351799999
 20
4.3719892618
 30
0.0
  0
VERTEX
  5
34A
330
345
100
AcDbEntity
  8
0
100
AcDbVertex
100
AcDb2dVertex
 10
6.187204351799999
 20
4.388148190799999
 30
0.0
  0
VERTEX
  5
34B
330
345
100
AcDbEntity
  8
0
100
AcDbVertex
100
AcDb2dVertex
 10
6.1809757419
 20
4.403901981799999
 30
0.0
  0
VERTEX
  5
34C
330
345
100
AcDbEntity
  8
0
100
AcDbVertex
100
AcDb2dVertex
 10
6.168830850499999
 20
4.4184606738
 30
0.0
  0
VERTEX
  5
34D
330
345
100
AcDbEntity
  8
0
100
AcDbVertex
100
AcDb2dVertex
 10
6.151378673299999
 20
4.431094233299999
 30
0.0
  0
VERTEX
  5
34E
330
345
100
AcDbEntity
  8
0
100
AcDbVertex
100
AcDb2dVertex
 10
6.129494335199999
 20
4.441169160799999
 30
0.0
  0
VERTEX
  5
34F
330
345
100
AcDbEntity
  8
0
100
AcDbVertex
100
AcDb2dVertex
 10
6.1042752084
 20
4.448180257299999
 30
0.0
  0
VERTEX
  5
350
330
345
100
AcDbEntity
  8
0
100
AcDbVertex
100
AcDb2dVertex
 10
6.0769858851
 20
4.451775957299999
 30
0.0
  0
VERTEX
  5
351
330
345
100
AcDbEntity
  8
0
100
AcDbVertex
100
AcDb2dVertex
 10
6.048994766099999
 20
4.451775957299999
 30
0.0
  0
VERTEX
  5
352
330
345
100
AcDbEntity
  8
0
100
AcDbVertex
100
AcDb2dVertex
 10
6.021705442899999
 20
4.448180257299999
 30
0.0
  0
VERTEX
  5
353
330
345
100
AcDbEntity
  8
0
100
AcDbVertex
100
AcDb2dVertex
 10
5.996486316
 20
4.441169160799999
 30
0.0
  0
VERTEX
  5
354
330
345
100
AcDbEntity
  8
0
100
AcDbVertex
100
AcDb2dVertex
 10
5.974601977999999
 20
4.431094233299999
 30
0.0
  0
VERTEX
  5
355
330
345
100
AcDbEntity
  8
0
100
AcDbVertex
100
AcDb2dVertex
 10
5.9571498007
 20
4.4184606738
 30
0.0
  0
VERTEX
  5
356
330
345
100
AcDbEntity
  8
0
100
AcDbVertex
100
AcDb2dVertex
 10
5.945004909299999
 20
4.403901981799999
 30
0.0
  0
VERTEX
  5
357
330
345
100
AcDbEntity
  8
0
100
AcDbVertex
100
AcDb2dVertex
 10
5.9387762994
 20
4.388148190799999
 30
0.0
  0
VERTEX
  5
358
330
345
100
AcDbEntity
  8
0
100
AcDbVertex
100
AcDb2dVertex
 10
5.9387762994
 20
4.3719892618
 30
0.0
  0
VERTEX
  5
359
330
345
100
AcDbEntity
  8
0
100
AcDbVertex
100
AcDb2dVertex
 10
5.945004909299999
 20
4.356235470799999
 30
0.0
  0
VERTEX
  5
35A
330
345
100
AcDbEntity
  8
0
100
AcDbVertex
100
AcDb2dVertex
 10
5.9571498007
 20
4.3416767788
 30
0.0
  0
VERTEX
  5
35B
330
345
100
AcDbEntity
  8
0
100
AcDbVertex
100
AcDb2dVertex
 10
5.971929596599999
 20
4.330634073699999
 30
0.0
  0
SEQEND
  5
35C
330
345
100
AcDbEntity
  8
0
  0
POLYLINE
  5
35D
330
A
100
AcDbEntity
  8
0
  6
Continuous
 62
     7
100
AcDb2dPolyline
 66
     1
 10
0.0
 20
0.0
 30
0.0
 70
   128
 40
0.0011811024
 41
0.0011811024
  0
VERTEX
  5
35E
330
35D
100
AcDbEntity
  8
0
100
AcDbVertex
100
AcDb2dVertex
 10
7.983930469099999
 20
4.6136867316
 30
0.0
  0
VERTEX
  5
35F
330
35D
100
AcDbEntity
  8
0
100
AcDbVertex
100
AcDb2dVertex
 10
7.998710264899999
 20
4.6247294367
 30
0.0
  0
VERTEX
  5
360
330
35D
100
AcDbEntity
  8
0
100
AcDbVertex
100
AcDb2dVertex
 10
8.010855156299999
 20
4.639288128699999
 30
0.0
  0
VERTEX
  5
361
330
35D
100
AcDbEntity
  8
0
100
AcDbVertex
100
AcDb2dVertex
 10
8.0170837663
 20
4.6550419197
 30
0.0
  0
VERTEX
  5
362
330
35D
100
AcDbEntity
  8
0
100
AcDbVertex
100
AcDb2dVertex
 10
8.0170837663
 20
4.671200848799999
 30
0.0
  0
VERTEX
  5
363
330
35D
100
AcDbEntity
  8
0
100
AcDbVertex
100
AcDb2dVertex
 10
8.010855156299999
 20
4.6869546397
 30
0.0
  0
VERTEX
  5
364
330
35D
100
AcDbEntity
  8
0
100
AcDbVertex
100
AcDb2dVertex
 10
7.998710264899999
 20
4.7015133317
 30
0.0
  0
VERTEX
  5
365
330
35D
100
AcDbEntity
  8
0
100
AcDbVertex
100
AcDb2dVertex
 10
7.981258087699999
 20
4.7141468912
 30
0.0
  0
VERTEX
  5
366
330
35D
100
AcDbEntity
  8
0
100
AcDbVertex
100
AcDb2dVertex
 10
7.9593737496
 20
4.7242218187
 30
0.0
  0
VERTEX
  5
367
330
35D
100
AcDbEntity
  8
0
100
AcDbVertex
100
AcDb2dVertex
 10
7.934154622799999
 20
4.731232915299999
 30
0.0
  0
VERTEX
  5
368
330
35D
100
AcDbEntity
  8
0
100
AcDbVertex
100
AcDb2dVertex
 10
7.9068652995
 20
4.734828615199999
 30
0.0
  0
VERTEX
  5
369
330
35D
100
AcDbEntity
  8
0
100
AcDbVertex
100
AcDb2dVertex
 10
7.878874180499999
 20
4.734828615199999
 30
0.0
  0
VERTEX
  5
36A
330
35D
100
AcDbEntity
  8
0
100
AcDbVertex
100
AcDb2dVertex
 10
7.851584857299999
 20
4.731232915299999
 30
0.0
  0
VERTEX
  5
36B
330
35D
100
AcDbEntity
  8
0
100
AcDbVertex
100
AcDb2dVertex
 10
7.826365730499999
 20
4.7242218187
 30
0.0
  0
VERTEX
  5
36C
330
35D
100
AcDbEntity
  8
0
100
AcDbVertex
100
AcDb2dVertex
 10
7.8044813924
 20
4.7141468912
 30
0.0
  0
VERTEX
  5
36D
330
35D
100
AcDbEntity
  8
0
100
AcDbVertex
100
AcDb2dVertex
 10
7.787029215099999
 20
4.7015133317
 30
0.0
  0
VERTEX
  5
36E
330
35D
100
AcDbEntity
  8
0
100
AcDbVertex
100
AcDb2dVertex
 10
7.7748843237
 20
4.6869546397
 30
0.0
  0
VERTEX
  5
36F
330
35D
100
AcDbEntity
  8
0
100
AcDbVertex
100
AcDb2dVertex
 10
7.7686557138
 20
4.671200848799999
 30
0.0
  0
VERTEX
  5
370
330
35D
100
AcDbEntity
  8
0
100
AcDbVertex
100
AcDb2dVertex
 10
7.7686557138
 20
4.6550419197
 30
0.0
  0
VERTEX
  5
371
330
35D
100
AcDbEntity
  8
0
100
AcDbVertex
100
AcDb2dVertex
 10
7.7748843237
 20
4.639288128699999
 30
0.0
  0
VERTEX
  5
372
330
35D
100
AcDbEntity
  8
0
100
AcDbVertex
100
AcDb2dVertex
 10
7.787029215099999
 20
4.6247294367
 30
0.0
  0
VERTEX
  5
373
330
35D
100
AcDbEntity
  8
0
100
AcDbVertex
100
AcDb2dVertex
 10
7.801809011
 20
4.6136867316
 30
0.0
  0
SEQEND
  5
374
330
35D
100
AcDbEntity
  8
0
  0
POLYLINE
  5
375
330
A
100
AcDbEntity
  8
0
  6
Continuous
 62
     7
100
AcDb2dPolyline
 66
     1
 10
0.0
 20
0.0
 30
0.0
 70
   128
 40
0.0011811024
 41
0.0011811024
  0
VERTEX
  5
376
330
375
100
AcDbEntity
  8
0
100
AcDbVertex
100
AcDb2dVertex
 10
6.927449096599999
 20
4.7771072599
 30
0.0
  0
VERTEX
  5
377
330
375
100
AcDbEntity
  8
0
100
AcDbVertex
100
AcDb2dVertex
 10
6.9422288924
 20
4.788149964899999
 30
0.0
  0
VERTEX
  5
378
330
375
100
AcDbEntity
  8
0
100
AcDbVertex
100
AcDb2dVertex
 10
6.9543737838
 20
4.802708657
 30
0.0
  0
VERTEX
  5
379
330
375
100
AcDbEntity
  8
0
100
AcDbVertex
100
AcDb2dVertex
 10
6.9606023938
 20
4.8184624479
 30
0.0
  0
VERTEX
  5
37A
330
375
100
AcDbEntity
  8
0
100
AcDbVertex
100
AcDb2dVertex
 10
6.9606023938
 20
4.834621376999999
 30
0.0
  0
VERTEX
  5
37B
330
375
100
AcDbEntity
  8
0
100
AcDbVertex
100
AcDb2dVertex
 10
6.9543737838
 20
4.850375168
 30
0.0
  0
VERTEX
  5
37C
330
375
100
AcDbEntity
  8
0
100
AcDbVertex
100
AcDb2dVertex
 10
6.9422288924
 20
4.864933859999999
 30
0.0
  0
VERTEX
  5
37D
330
375
100
AcDbEntity
  8
0
100
AcDbVertex
100
AcDb2dVertex
 10
6.9247767152
 20
4.8775674195
 30
0.0
  0
VERTEX
  5
37E
330
375
100
AcDbEntity
  8
0
100
AcDbVertex
100
AcDb2dVertex
 10
6.9028923771
 20
4.887642346899999
 30
0.0
  0
VERTEX
  5
37F
330
375
100
AcDbEntity
  8
0
100
AcDbVertex
100
AcDb2dVertex
 10
6.877673250299999
 20
4.8946534435
 30
0.0
  0
VERTEX
  5
380
330
375
100
AcDbEntity
  8
0
100
AcDbVertex
100
AcDb2dVertex
 10
6.850383927
 20
4.8982491435
 30
0.0
  0
VERTEX
  5
381
330
375
100
AcDbEntity
  8
0
100
AcDbVertex
100
AcDb2dVertex
 10
6.822392807999999
 20
4.8982491435
 30
0.0
  0
VERTEX
  5
382
330
375
100
AcDbEntity
  8
0
100
AcDbVertex
100
AcDb2dVertex
 10
6.7951034848
 20
4.8946534435
 30
0.0
  0
VERTEX
  5
383
330
375
100
AcDbEntity
  8
0
100
AcDbVertex
100
AcDb2dVertex
 10
6.769884357999999
 20
4.887642346899999
 30
0.0
  0
VERTEX
  5
384
330
375
100
AcDbEntity
  8
0
100
AcDbVertex
100
AcDb2dVertex
 10
6.7480000199
 20
4.8775674195
 30
0.0
  0
VERTEX
  5
385
330
375
100
AcDbEntity
  8
0
100
AcDbVertex
100
AcDb2dVertex
 10
6.7305478426
 20
4.864933859999999
 30
0.0
  0
VERTEX
  5
386
330
375
100
AcDbEntity
  8
0
100
AcDbVertex
100
AcDb2dVertex
 10
6.718402951199999
 20
4.850375168
 30
0.0
  0
VERTEX
  5
387
330
375
100
AcDbEntity
  8
0
100
AcDbVertex
100
AcDb2dVertex
 10
6.712174341299999
 20
4.834621376999999
 30
0.0
  0
VERTEX
  5
388
330
375
100
AcDbEntity
  8
0
100
AcDbVertex
100
AcDb2dVertex
 10
6.712174341299999
 20
4.8184624479
 30
0.0
  0
VERTEX
  5
389
330
375
100
AcDbEntity
  8
0
100
AcDbVertex
100
AcDb2dVertex
 10
6.718402951199999
 20
4.802708657
 30
0.0
  0
VERTEX
  5
38A
330
375
100
AcDbEntity
  8
0
100
AcDbVertex
100
AcDb2dVertex
 10
6.7305478426
 20
4.788149964899999
 30
0.0
  0
VERTEX
  5
38B
330
375
100
AcDbEntity
  8
0
100
AcDbVertex
100
AcDb2dVertex
 10
6.7453276385
 20
4.7771072599
 30
0.0
  0
SEQEND
  5
38C
330
375
100
AcDbEntity
  8
0
  0
LEADER
  5
38D
330
A
100
AcDbEntity
  8
0
 62
     1
100
AcDbLeader
  3
SLDDIMSTYLE4
 73
     0
 76
     3
 10
9.742808733
 20
4.2903468711
 30
0.0
 10
11.31981067599999
 20
4.796966226399999
 30
0.0
 10
11.81981067599999
 20
4.796966226399999
 30
0.0
340
38E
213
0.0
223
-0.1499731515962228
233
0.0
  0
MTEXT
  5
38E
102
{ACAD_REACTORS
330
38D
102
}
330
A
100
AcDbEntity
  8
0
 62
     1
100
AcDbMText
 10
11.85934254189999
 20
4.946939377999999
 30
0.0
 40
0.2
 41
0.0
 71
     1
 72
     1
  1
RADIUS EXPOSED EDGES 1/32 TO 1/16\PBOTH SIDES EXCEPT EDGES FLUSH WITH BOTTOM PLATE
  7
SLDTEXTSTYLE0
 73
     1
 44
1.0
  0
ENDSEC
  0
SECTION
  2
OBJECTS
  0
DICTIONARY
  5
19
330
0
100
AcDbDictionary
281
     1
  3
ACAD_GROUP
350
1A
  3
ACAD_LAYOUT
350
1E
  3
ACAD_MLINESTYLE
350
1B
  3
ACAD_PLOTSETTINGS
350
22
  3
ACAD_PLOTSTYLENAME
350
1F
  3
ACAD_WIPEOUT_VARS
350
23
  0
DICTIONARY
  5
1A
102
{ACAD_REACTORS
330
19
102
}
330
19
100
AcDbDictionary
281
     1
  0
DICTIONARY
  5
1E
102
{ACAD_REACTORS
330
19
102
}
330
19
100
AcDbDictionary
281
     1
  3
Layout1
350
21
  3
Model
350
20
  0
DICTIONARY
  5
1B
102
{ACAD_REACTORS
330
19
102
}
330
19
100
AcDbDictionary
281
     1
  3
Standard
350
1C
  0
DICTIONARY
  5
22
102
{ACAD_REACTORS
330
19
102
}
330
19
100
AcDbDictionary
281
     1
  0
ACDBDICTIONARYWDFLT
  5
1F
102
{ACAD_REACTORS
330
19
102
}
330
19
100
AcDbDictionary
281
     1
  3
Normal
350
1D
100
AcDbDictionaryWithDefault
340
1D
  0
WIPEOUTVARIABLES
  5
23
330
19
100
AcDbWipeoutVariables
 70
     1
  0
LAYOUT
  5
21
102
{ACAD_REACTORS
330
1E
102
}
330
1E
100
AcDbPlotSettings
  1

  2

  4

  6

 40
0.0
 41
0.0
 42
0.0
 43
0.0
 44
0.0
 45
0.0
 46
0.0
 47
0.0
 48
0.0
 49
0.0
140
0.0
141
0.0
142
1.0
143
1.0
 70
     0
 72
     0
 73
     0
 74
     0
  7

 75
     0
147
1.0
148
0.0
149
0.0
100
AcDbLayout
  1
Layout1
 70
     1
 71
     1
 10
0.0
 20
0.0
 11
12.0
 21
9.0
 12
0.0
 22
0.0
 32
0.0
 14
1.000000000000000E+20
 24
1.000000000000000E+20
 34
1.000000000000000E+20
 15
-1.000000000000000E+20
 25
-1.000000000000000E+20
 35
-1.000000000000000E+20
146
0.0
 13
0.0
 23
0.0
 33
0.0
 16
1.0
 26
0.0
 36
0.0
 17
0.0
 27
1.0
 37
0.0
 76
     0
330
B
  0
LAYOUT
  5
20
102
{ACAD_REACTORS
330
1E
102
}
330
1E
100
AcDbPlotSettings
  1

  2

  4

  6

 40
0.0
 41
0.0
 42
0.0
 43
0.0
 44
0.0
 45
0.0
 46
0.0
 47
0.0
 48
0.0
 49
0.0
140
0.0
141
0.0
142
1.0
143
1.0
 70
  1024
 72
     0
 73
     0
 74
     0
  7

 75
     0
147
1.0
148
0.0
149
0.0
100
AcDbLayout
  1
Model
 70
     0
 71
     0
 10
0.0
 20
0.0
 11
0.0
 21
0.0
 12
0.0
 22
0.0
 32
0.0
 14
0.0
 24
0.0
 34
0.0
 15
0.0
 25
0.0
 35
0.0
146
0.0
 13
0.0
 23
0.0
 33
0.0
 16
0.0
 26
0.0
 36
0.0
 17
0.0
 27
0.0
 37
0.0
 76
     0
330
A
  0
MLINESTYLE
  5
1C
102
{ACAD_REACTORS
330
1B
102
}
330
1B
100
AcDbMlineStyle
  2
STANDARD
 70
     0
  3

 62
     0
 51
90.0
 52
90.0
 71
     2
 49
0.5
 62
   256
  6
BYLAYER
 49
-0.5
 62
   256
  6
BYLAYER
  0
ACDBPLACEHOLDER
  5
1D
102
{ACAD_REACTORS
330
1F
102
}
330
1F
  0
ENDSEC
  0
EOF
