  0
SECTION
  2
HEADER
  9
$ACADVER
  1
AC1015
  9
$ACADMAINTVER
 70
    10
  9
$DWGCODEPAGE
  3
ANSI_1252
  9
$INSBASE
 10
0.0
 20
0.0
 30
0.0
  9
$EXTMIN
 10
3.0
 20
0.3254275703999999
 30
0.0
  9
$EXTMAX
 10
67.0410803182
 20
43.2347584853
 30
0.0
  9
$LIMMIN
 10
0.0
 20
0.0
  9
$LIMMAX
 10
0.0
 20
0.0
  9
$ORTHOMODE
 70
     0
  9
$REGENMODE
 70
     1
  9
$FILLMODE
 70
     1
  9
$QTEXTMODE
 70
     0
  9
$MIRRTEXT
 70
     1
  9
$LTSCALE
 40
1.0
  9
$ATTMODE
 70
     1
  9
$TEXTSIZE
 40
0.0
  9
$TRACEWID
 40
0.05
  9
$TEXTSTYLE
  7
Standard
  9
$CLAYER
  8
0
  9
$CELTYPE
  6
Continuous
  9
$CECOLOR
 62
   256
  9
$CELTSCALE
 40
1.0
  9
$DISPSILH
 70
     0
  9
$DIMSCALE
 40
1.0
  9
$DIMASZ
 40
0.0
  9
$DIMEXO
 40
0.0
  9
$DIMDLI
 40
0.38
  9
$DIMRND
 40
0.0
  9
$DIMDLE
 40
0.0
  9
$DIMEXE
 40
0.18
  9
$DIMTP
 40
0.0
  9
$DIMTM
 40
0.0
  9
$DIMTXT
 40
0.4
  9
$DIMCEN
 40
0.09
  9
$DIMTSZ
 40
0.0
  9
$DIMTOL
 70
     0
  9
$DIMLIM
 70
     0
  9
$DIMTIH
 70
     1
  9
$DIMTOH
 70
     1
  9
$DIMSE1
 70
     0
  9
$DIMSE2
 70
     0
  9
$DIMTAD
 70
     0
  9
$DIMZIN
 70
     0
  9
$DIMBLK
  1

  9
$DIMASO
 70
     1
  9
$DIMSHO
 70
     1
  9
$DIMPOST
  1

  9
$DIMAPOST
  1

  9
$DIMALT
 70
     0
  9
$DIMALTD
 70
     2
  9
$DIMALTF
 40
25.4
  9
$DIMLFAC
 40
1.0
  9
$DIMTOFL
 70
     0
  9
$DIMTVP
 40
0.0
  9
$DIMTIX
 70
     0
  9
$DIMSOXD
 70
     0
  9
$DIMSAH
 70
     0
  9
$DIMBLK1
  1

  9
$DIMBLK2
  1

  9
$DIMSTYLE
  2
Standard
  9
$DIMCLRD
 70
     0
  9
$DIMCLRE
 70
     0
  9
$DIMCLRT
 70
     0
  9
$DIMTFAC
 40
1.0
  9
$DIMGAP
 40
0.0
  9
$DIMJUST
 70
     0
  9
$DIMSD1
 70
     0
  9
$DIMSD2
 70
     0
  9
$DIMTOLJ
 70
     1
  9
$DIMTZIN
 70
     0
  9
$DIMALTZ
 70
     0
  9
$DIMALTTZ
 70
     0
  9
$DIMUPT
 70
     0
  9
$DIMDEC
 70
     4
  9
$DIMTDEC
 70
     4
  9
$DIMALTU
 70
     2
  9
$DIMALTTD
 70
     2
  9
$DIMTXSTY
  7
Standard
  9
$DIMAUNIT
 70
     0
  9
$DIMADEC
 70
     0
  9
$DIMALTRND
 40
0.0
  9
$DIMAZIN
 70
     0
  9
$DIMDSEP
 70
     0
  9
$DIMATFIT
 70
     3
  9
$DIMFRAC
 70
     0
  9
$DIMLDRBLK
  1

  9
$DIMLUNIT
 70
     2
  9
$DIMLWD
 70
     0
  9
$DIMLWE
 70
     0
  9
$DIMTMOVE
 70
     0
  9
$LUNITS
 70
     2
  9
$LUPREC
 70
     3
  9
$SKETCHINC
 40
0.1
  9
$FILLETRAD
 40
0.0
  9
$AUNITS
 70
     0
  9
$AUPREC
 70
     2
  9
$MENU
  1
acad
  9
$ELEVATION
 40
0.0
  9
$PELEVATION
 40
0.0
  9
$THICKNESS
 40
0.0
  9
$LIMCHECK
 70
     0
  9
$CHAMFERA
 40
0.0
  9
$CHAMFERB
 40
0.0
  9
$CHAMFERC
 40
0.0
  9
$CHAMFERD
 40
0.0
  9
$SKPOLY
 70
     0
  9
$TDCREATE
 40
2453398.553312349
  9
$TDUCREATE
 40
2453398.886645683
  9
$TDUPDATE
 40
2453398.555207245
  9
$TDUUPDATE
 40
2453398.888540578
  9
$TDINDWG
 40
0.0019008565
  9
$TDUSRTIMER
 40
0.0019008565
  9
$USRTIMER
 70
     1
  9
$ANGBASE
 50
0.0
  9
$ANGDIR
 70
     0
  9
$PDMODE
 70
     0
  9
$PDSIZE
 40
-1.0
  9
$PLINEWID
 40
0.0
  9
$SPLFRAME
 70
     0
  9
$SPLINETYPE
 70
     6
  9
$SPLINESEGS
 70
     8
  9
$HANDSEED
  5
44F
  9
$SURFTAB1
 70
     6
  9
$SURFTAB2
 70
     6
  9
$SURFTYPE
 70
     6
  9
$SURFU
 70
     6
  9
$SURFV
 70
     6
  9
$UCSBASE
  2

  9
$UCSNAME
  2

  9
$UCSORG
 10
0.0
 20
0.0
 30
0.0
  9
$UCSXDIR
 10
1.0
 20
0.0
 30
0.0
  9
$UCSYDIR
 10
0.0
 20
1.0
 30
0.0
  9
$UCSORTHOREF
  2

  9
$UCSORTHOVIEW
 70
     0
  9
$UCSORGTOP
 10
0.0
 20
0.0
 30
0.0
  9
$UCSORGBOTTOM
 10
0.0
 20
0.0
 30
0.0
  9
$UCSORGLEFT
 10
0.0
 20
0.0
 30
0.0
  9
$UCSORGRIGHT
 10
0.0
 20
0.0
 30
0.0
  9
$UCSORGFRONT
 10
0.0
 20
0.0
 30
0.0
  9
$UCSORGBACK
 10
0.0
 20
0.0
 30
0.0
  9
$PUCSBASE
  2

  9
$PUCSNAME
  2

  9
$PUCSORG
 10
0.0
 20
0.0
 30
0.0
  9
$PUCSXDIR
 10
1.0
 20
0.0
 30
0.0
  9
$PUCSYDIR
 10
0.0
 20
1.0
 30
0.0
  9
$PUCSORTHOREF
  2

  9
$PUCSORTHOVIEW
 70
     0
  9
$PUCSORGTOP
 10
0.0
 20
0.0
 30
0.0
  9
$PUCSORGBOTTOM
 10
0.0
 20
0.0
 30
0.0
  9
$PUCSORGLEFT
 10
0.0
 20
0.0
 30
0.0
  9
$PUCSORGRIGHT
 10
0.0
 20
0.0
 30
0.0
  9
$PUCSORGFRONT
 10
0.0
 20
0.0
 30
0.0
  9
$PUCSORGBACK
 10
0.0
 20
0.0
 30
0.0
  9
$USERI1
 70
     0
  9
$USERI2
 70
     0
  9
$USERI3
 70
     0
  9
$USERI4
 70
     0
  9
$USERI5
 70
     0
  9
$USERR1
 40
0.0
  9
$USERR2
 40
0.0
  9
$USERR3
 40
0.0
  9
$USERR4
 40
0.0
  9
$USERR5
 40
0.0
  9
$WORLDVIEW
 70
     1
  9
$SHADEDGE
 70
     3
  9
$SHADEDIF
 70
    70
  9
$TILEMODE
 70
     1
  9
$MAXACTVP
 70
    16
  9
$PINSBASE
 10
0.0
 20
0.0
 30
0.0
  9
$PLIMCHECK
 70
     0
  9
$PEXTMIN
 10
1.000000000000000E+20
 20
1.000000000000000E+20
 30
1.000000000000000E+20
  9
$PEXTMAX
 10
-1.000000000000000E+20
 20
-1.000000000000000E+20
 30
-1.000000000000000E+20
  9
$PLIMMIN
 10
0.0
 20
0.0
  9
$PLIMMAX
 10
12.0
 20
9.0
  9
$UNITMODE
 70
     0
  9
$VISRETAIN
 70
     0
  9
$PLINEGEN
 70
     1
  9
$PSLTSCALE
 70
     1
  9
$TREEDEPTH
 70
  3020
  9
$CMLSTYLE
  2
Standard
  9
$CMLJUST
 70
     0
  9
$CMLSCALE
 40
1.0
  9
$PROXYGRAPHICS
 70
     0
  9
$MEASUREMENT
 70
     0
  9
$CELWEIGHT
370
     0
  9
$ENDCAPS
280
     0
  9
$JOINSTYLE
280
     0
  9
$LWDISPLAY
290
     1
  9
$INSUNITS
 70
     0
  9
$HYPERLINKBASE
  1

  9
$STYLESHEET
  1

  9
$XEDIT
290
     1
  9
$CEPSNTYPE
380
     0
  9
$PSTYLEMODE
290
     1
  9
$FINGERPRINTGUID
  2

  9
$VERSIONGUID
  2
{3927ECEC-9656-462C-9CED-4A943549A7BF}
  9
$EXTNAMES
290
     1
  9
$PSVPSCALE
 40
0.0
  9
$OLESTARTUP
290
     0
  0
ENDSEC
  0
SECTION
  2
CLASSES
  0
CLASS
  1
LWPOLYLINE
  2
AcDbPolyline
  3
AutoCAD 2000
 90
    32768
280
     0
281
     1
  0
CLASS
  1
IMAGE
  2
AcDbRasterImage
  3
ISM
 90
    32895
280
     0
281
     1
  0
CLASS
  1
OLE2FRAME
  2
AcDbOle2Frame
  3
AutoCAD 2000
 90
    32768
280
     0
281
     1
  0
CLASS
  1
HATCH
  2
AcDbHatch
  3
AutoCAD 2000
 90
    32768
280
     0
281
     1
  0
CLASS
  1
DICTIONARYVAR
  2
AcDbDictionaryVar
  3
AutoCAD 2000
 90
    32768
280
     0
281
     0
  0
CLASS
  1
RASTERVARIABLES
  2
AcDbRasterVariables
  3
ISM
 90
    32768
280
     0
281
     0
  0
CLASS
  1
IMAGEDEF
  2
AcDbRasterImageDef
  3
ISM
 90
    32768
280
     0
281
     0
  0
CLASS
  1
IMAGEDEF_REACTOR
  2
AcDbRasterImageDefReactor
  3
ISM
 90
    32769
280
     0
281
     0
  0
CLASS
  1
IDBUFFER
  2
AcDbIdBuffer
  3
AutoCAD 2000
 90
    32768
280
     0
281
     0
  0
CLASS
  1
SPATIAL_FILTER
  2
AcDbSpatialFilter
  3
AutoCAD 2000
 90
    32768
280
     0
281
     0
  0
CLASS
  1
XRECORD
  2
AcDbXrecord
  3
AutoCAD 2000
 90
    32768
280
     0
281
     0
  0
CLASS
  1
SORTENTSTABLE
  2
AcDbSortentsTable
  3
AutoCAD 2000
 90
    32768
280
     0
281
     0
  0
CLASS
  1
LAYER_INDEX
  2
AcDbLayerIndex
  3
AutoCAD 2000
 90
    32768
280
     0
281
     0
  0
CLASS
  1
SPATIAL_INDEX
  2
AcDbSpatialIndex
  3
AutoCAD 2000
 90
    32768
280
     0
281
     0
  0
CLASS
  1
OBJECT_PTR
  2
CAseDLPNTableRecord
  3
"ASE-LPNTableRecord"
 90
    32769
280
     0
281
     0
  0
CLASS
  1
LAYOUT
  2
AcDbLayout
  3
AutoCAD 2000
 90
        0
280
     0
281
     0
  0
CLASS
  1
PLOTSETTINGS
  2
AcDbPlotSettings
  3
AutoCAD 2000
 90
    32768
280
     0
281
     0
  0
CLASS
  1
ACDBDICTIONARYWDFLT
  2
AcDbDictionaryWithDefault
  3
AutoCAD 2000
 90
        0
280
     0
281
     0
  0
CLASS
  1
ACDBPLACEHOLDER
  2
AcDbPlaceHolder
  3
AutoCAD 2000
 90
        0
280
     0
281
     0
  0
CLASS
  1
VBA_PROJECT
  2
AcDbVbaProject
  3
acadvba
 90
    32768
280
     0
281
     0
  0
CLASS
  1
WIPEOUT
  2
AcDbWipeout
  3
WipeOut|AutoCAD Express Tool|expresstools@autodesk.com
 90
    32895
280
     0
281
     1
  0
CLASS
  1
WIPEOUTVARIABLES
  2
AcDbWipeoutVariables
  3
WipeOut|AutoCAD Express Tool|expresstools@autodesk.com
 90
        0
280
     0
281
     0
  0
CLASS
  1
RTEXT
  2
RText
  3
RText|AutoCAD Express Tool|expresstools@autodesk.com
 90
    32768
280
     0
281
     1
  0
CLASS
  1
ARCALIGNEDTEXT
  2
AcDbArcAlignedText
  3
ATEXT|AutoCAD Express Tool|expresstools@autodesk.com
 90
    32768
280
     0
281
     1
  0
ENDSEC
  0
SECTION
  2
TABLES
  0
TABLE
  2
VPORT
  5
7
330
0
100
AcDbSymbolTable
 70
     5
  0
VPORT
  5
44E
330
7
100
AcDbSymbolTableRecord
100
AcDbViewportTableRecord
  2
*Active
 70
     0
 10
0.0
 20
0.0
 11
1.0
 21
1.0
 12
35.60470894045815
 22
21.99999999999999
 13
0.0
 23
0.0
 14
1.0
 24
1.0
 15
0.0
 25
0.0
 16
0.0
 26
0.0
 36
1.0
 17
0.0
 27
0.0
 37
0.0
 40
43.99999998751272
 41
1.5
 42
50.0
 43
0.0
 44
0.0
 50
0.0
 51
0.0
 71
     0
 72
  2000
 73
     1
 74
     1
 75
     0
 76
     0
 77
     0
 78
     0
281
     0
 65
     0
110
0.0
120
0.0
130
0.0
111
1.0
121
0.0
131
0.0
112
0.0
122
1.0
132
0.0
 79
     0
146
0.0
  0
ENDTAB
  0
TABLE
  2
LTYPE
  5
4
330
0
100
AcDbSymbolTable
 70
     6
  0
LTYPE
  5
11
330
4
100
AcDbSymbolTableRecord
100
AcDbLinetypeTableRecord
  2
ByBlock
 70
     0
  3

 72
    65
 73
     0
 40
0.0
  0
LTYPE
  5
12
330
4
100
AcDbSymbolTableRecord
100
AcDbLinetypeTableRecord
  2
ByLayer
 70
     0
  3

 72
    65
 73
     0
 40
0.0
  0
LTYPE
  5
13
330
4
100
AcDbSymbolTableRecord
100
AcDbLinetypeTableRecord
  2
Continuous
 70
     0
  3
Solid line
 72
    65
 73
     0
 40
0.0
  0
LTYPE
  5
24
330
4
100
AcDbSymbolTableRecord
100
AcDbLinetypeTableRecord
  2
HIDDEN
 70
     0
  3
Hidden __ __ __ __ __ __ __ __ __ __ __ __ __ __
 72
    65
 73
     2
 40
0.075
 49
0.05
 74
     0
 49
-0.025
 74
     0
  0
LTYPE
  5
25
330
4
100
AcDbSymbolTableRecord
100
AcDbLinetypeTableRecord
  2
PHANTOM
 70
     0
  3
Phantom ______  __  __  ______  __  __  ______
 72
    65
 73
     6
 40
0.5
 49
0.25
 74
     0
 49
-0.05
 74
     0
 49
0.05
 74
     0
 49
-0.05
 74
     0
 49
0.05
 74
     0
 49
-0.05
 74
     0
  0
LTYPE
  5
26
330
4
100
AcDbSymbolTableRecord
100
AcDbLinetypeTableRecord
  2
CENTER
 70
     0
  3
Center ____ _ ____ _ ____ _ ____ _ ____ _ ____
 72
    65
 73
     4
 40
0.4
 49
0.25
 74
     0
 49
-0.05
 74
     0
 49
0.05
 74
     0
 49
-0.05
 74
     0
  0
LTYPE
  5
27
330
4
100
AcDbSymbolTableRecord
100
AcDbLinetypeTableRecord
  2
CENTERX2
 70
     0
  3
Center (2x) ________  __  ________  __  _____
 72
    65
 73
     4
 40
0.8
 49
0.5
 74
     0
 49
-0.1
 74
     0
 49
0.1
 74
     0
 49
-0.1
 74
     0
  0
LTYPE
  5
28
330
4
100
AcDbSymbolTableRecord
100
AcDbLinetypeTableRecord
  2
DOT2
 70
     0
  3
Dot (.5x) ........................................
 72
    65
 73
     2
 40
0.025
 49
0.0
 74
     0
 49
-0.025
 74
     0
  0
ENDTAB
  0
TABLE
  2
LAYER
  5
2
330
0
100
AcDbSymbolTable
 70
     1
  0
LAYER
  5
14
330
2
100
AcDbSymbolTableRecord
100
AcDbLayerTableRecord
  2
0
 70
     0
 62
     7
  6
Continuous
370
    -3
390
1D
  0
ENDTAB
  0
TABLE
  2
STYLE
  5
3
330
0
100
AcDbSymbolTable
 70
     2
  0
STYLE
  5
17
330
3
100
AcDbSymbolTableRecord
100
AcDbTextStyleTableRecord
  2
Standard
 70
     0
 40
0.0
 41
1.0
 50
0.0
 71
     0
 42
0.0
  3
txt
  4

  0
STYLE
  5
75
330
3
100
AcDbSymbolTableRecord
100
AcDbTextStyleTableRecord
  2
SLDTEXTSTYLE0
 70
     0
 40
0.0
 41
0.75
 50
0.0
 71
     0
 42
0.0
  3
txt
  4

  0
ENDTAB
  0
TABLE
  2
VIEW
  5
5
330
0
100
AcDbSymbolTable
 70
     0
  0
ENDTAB
  0
TABLE
  2
UCS
  5
6
330
0
100
AcDbSymbolTable
 70
     0
  0
ENDTAB
  0
TABLE
  2
APPID
  5
8
330
0
100
AcDbSymbolTable
 70
     1
  0
APPID
  5
16
330
8
100
AcDbSymbolTableRecord
100
AcDbRegAppTableRecord
  2
ACAD
 70
     0
  0
ENDTAB
  0
TABLE
  2
DIMSTYLE
  5
9
330
0
100
AcDbSymbolTable
 70
     9
100
AcDbDimStyleTable
 71
     1
340
18
  0
DIMSTYLE
105
18
330
9
100
AcDbSymbolTableRecord
100
AcDbDimStyleTableRecord
  2
Standard
 70
     0
340
17
  0
DIMSTYLE
105
DE
102
{ACAD_REACTORS
330
E2
330
10C
330
119
330
126
330
133
330
142
330
1A2
102
}
330
9
100
AcDbSymbolTableRecord
100
AcDbDimStyleTableRecord
  2
SLDDIMSTYLE0
 70
     0
 41
0.75
 44
0.48
 78
    12
140
0.4
147
0.1
173
     1
176
     1
177
     1
178
     1
271
     3
284
    12
340
17
  0
DIMSTYLE
105
EA
102
{ACAD_REACTORS
330
F0
330
FD
102
}
330
9
100
AcDbSymbolTableRecord
100
AcDbDimStyleTableRecord
  2
SLDDIMSTYLE1
 70
     0
 41
0.75
 44
0.48
 78
    12
140
0.4
147
0.1
173
     1
176
     1
177
     1
178
     1
271
     0
284
    12
340
17
  0
DIMSTYLE
105
150
102
{ACAD_REACTORS
330
154
330
16F
102
}
330
9
100
AcDbSymbolTableRecord
100
AcDbDimStyleTableRecord
  2
SLDDIMSTYLE2
 70
     0
 41
0.75
 44
0.48
 78
    12
140
0.4
147
0.1
172
     1
173
     1
176
     1
177
     1
178
     1
271
     3
284
    12
340
17
  0
DIMSTYLE
105
15E
102
{ACAD_REACTORS
330
162
102
}
330
9
100
AcDbSymbolTableRecord
100
AcDbDimStyleTableRecord
  2
SLDDIMSTYLE3
 70
     0
 41
0.75
 44
0.48
 78
     4
140
0.4
147
0.1
173
     1
176
     1
177
     1
178
     1
271
     3
284
    12
340
17
  0
DIMSTYLE
105
179
102
{ACAD_REACTORS
330
17D
102
}
330
9
100
AcDbSymbolTableRecord
100
AcDbDimStyleTableRecord
  2
SLDDIMSTYLE4
 70
     0
 41
0.75
 44
0.48
 47
0.04
 48
0.04
 71
     1
 78
     4
140
0.4
147
0.1
172
     1
173
     1
176
     1
177
     1
178
     1
271
     3
272
     3
340
17
  0
DIMSTYLE
105
185
102
{ACAD_REACTORS
330
189
330
195
102
}
330
9
100
AcDbSymbolTableRecord
100
AcDbDimStyleTableRecord
  2
SLDDIMSTYLE5
 70
     0
 41
0.75
 44
0.48
 78
    12
140
0.4
147
0.1
173
     1
176
     1
177
     1
178
     1
271
     3
284
    12
340
17
  0
DIMSTYLE
105
1C0
102
{ACAD_REACTORS
330
1C4
102
}
330
9
100
AcDbSymbolTableRecord
100
AcDbDimStyleTableRecord
  2
SLDDIMSTYLE6
 70
     0
 41
0.75
 44
0.48
 47
0.04
 48
0.04
 71
     1
 78
    12
140
0.4
147
0.1
173
     1
176
     1
177
     1
178
     1
271
     3
272
     3
340
17
  0
DIMSTYLE
105
3F8
330
9
100
AcDbSymbolTableRecord
100
AcDbDimStyleTableRecord
  2
SLDDIMSTYLE7
 70
     0
 41
0.75
 44
0.0
140
0.75
147
0.1875
173
     1
271
     0
272
     0
340
17
  0
ENDTAB
  0
TABLE
  2
BLOCK_RECORD
  5
1
330
0
100
AcDbSymbolTable
 70
    18
  0
BLOCK_RECORD
  5
A
330
1
100
AcDbSymbolTableRecord
100
AcDbBlockTableRecord
  2
*MODEL_SPACE
340
20
  0
BLOCK_RECORD
  5
B
330
1
100
AcDbSymbolTableRecord
100
AcDbBlockTableRecord
  2
*PAPER_SPACE
340
21
  0
BLOCK_RECORD
  5
A8
330
1
100
AcDbSymbolTableRecord
100
AcDbBlockTableRecord
  2
NOTE50
340
0
102
{BLKREFS
331
AE
102
}
  0
BLOCK_RECORD
  5
D3
330
1
100
AcDbSymbolTableRecord
100
AcDbBlockTableRecord
  2
*D1
340
0
  0
BLOCK_RECORD
  5
E3
330
1
100
AcDbSymbolTableRecord
100
AcDbBlockTableRecord
  2
*D2
340
0
  0
BLOCK_RECORD
  5
F1
330
1
100
AcDbSymbolTableRecord
100
AcDbBlockTableRecord
  2
*D3
340
0
  0
BLOCK_RECORD
  5
FE
330
1
100
AcDbSymbolTableRecord
100
AcDbBlockTableRecord
  2
*D4
340
0
  0
BLOCK_RECORD
  5
10D
330
1
100
AcDbSymbolTableRecord
100
AcDbBlockTableRecord
  2
*D5
340
0
  0
BLOCK_RECORD
  5
11A
330
1
100
AcDbSymbolTableRecord
100
AcDbBlockTableRecord
  2
*D6
340
0
  0
BLOCK_RECORD
  5
127
330
1
100
AcDbSymbolTableRecord
100
AcDbBlockTableRecord
  2
*D7
340
0
  0
BLOCK_RECORD
  5
134
330
1
100
AcDbSymbolTableRecord
100
AcDbBlockTableRecord
  2
*D8
340
0
  0
BLOCK_RECORD
  5
143
330
1
100
AcDbSymbolTableRecord
100
AcDbBlockTableRecord
  2
*D9
340
0
  0
BLOCK_RECORD
  5
155
330
1
100
AcDbSymbolTableRecord
100
AcDbBlockTableRecord
  2
*D10
340
0
  0
BLOCK_RECORD
  5
163
330
1
100
AcDbSymbolTableRecord
100
AcDbBlockTableRecord
  2
*D11
340
0
  0
BLOCK_RECORD
  5
170
330
1
100
AcDbSymbolTableRecord
100
AcDbBlockTableRecord
  2
*D12
340
0
  0
BLOCK_RECORD
  5
17E
330
1
100
AcDbSymbolTableRecord
100
AcDbBlockTableRecord
  2
*D13
340
0
  0
BLOCK_RECORD
  5
18A
330
1
100
AcDbSymbolTableRecord
100
AcDbBlockTableRecord
  2
*D14
340
0
  0
BLOCK_RECORD
  5
196
330
1
100
AcDbSymbolTableRecord
100
AcDbBlockTableRecord
  2
*D15
340
0
  0
BLOCK_RECORD
  5
1B2
330
1
100
AcDbSymbolTableRecord
100
AcDbBlockTableRecord
  2
*D16
340
0
  0
BLOCK_RECORD
  5
3F2
330
1
100
AcDbSymbolTableRecord
100
AcDbBlockTableRecord
  2
NOTE67
340
0
102
{BLKREFS
331
3F6
102
}
  0
ENDTAB
  0
ENDSEC
  0
SECTION
  2
BLOCKS
  0
BLOCK
  5
D
330
A
100
AcDbEntity
  8
0
100
AcDbBlockBegin
  2
*MODEL_SPACE
 70
     0
 10
0.0
 20
0.0
 30
0.0
  3
*MODEL_SPACE
  1

  0
ENDBLK
  5
E
330
A
100
AcDbEntity
  8
0
100
AcDbBlockEnd
  0
BLOCK
  5
F
330
B
100
AcDbEntity
 67
     1
  8
0
100
AcDbBlockBegin
  2
*PAPER_SPACE
 70
     0
 10
0.0
 20
0.0
 30
0.0
  3
*PAPER_SPACE
  1

  0
ENDBLK
  5
10
330
B
100
AcDbEntity
 67
     1
  8
0
100
AcDbBlockEnd
  0
BLOCK
  5
A9
330
A8
100
AcDbEntity
  8
0
 62
     0
100
AcDbBlockBegin
  2
NOTE50
 70
     0
 10
0.0
 20
0.0
 30
0.0
  3
NOTE50
  1

  0
MTEXT
  5
AA
330
A8
100
AcDbEntity
  8
0
 62
     7
100
AcDbMText
 10
0.0
 20
0.0
 30
0.0
 40
0.36
 41
0.0
 71
     1
 72
     1
  1
BREAK SHARP EDGES 0.010 RAD %%p 0.003
  7
SLDTEXTSTYLE0
 73
     1
 44
1.0
  0
MTEXT
  5
AB
330
A8
100
AcDbEntity
  8
0
 62
     7
100
AcDbMText
 10
0.0
 20
-0.5400000000000001
 30
0.0
 40
0.36
 41
0.0
 71
     1
 72
     1
  1
MACHINED SURF FINISH  
  7
SLDTEXTSTYLE0
 73
     1
 44
1.0
  0
MTEXT
  5
AC
330
A8
100
AcDbEntity
  8
0
 62
     7
100
AcDbMText
 10
5.543999999999999
 20
-0.5400000000000001
 30
0.0
 40
0.36
 41
0.0
 71
     1
 72
     1
  1
< 125 MICROINCH
  7
SLDTEXTSTYLE0
 73
     1
 44
1.0
  0
ENDBLK
  5
AD
330
A8
100
AcDbEntity
  8
0
100
AcDbBlockEnd
  0
BLOCK
  5
D4
330
D3
100
AcDbEntity
  8
0
 62
     1
100
AcDbBlockBegin
  2
*D1
 70
     1
 10
0.0
 20
0.0
 30
0.0
  3
*D1
  1

  0
MTEXT
  5
D5
330
D3
100
AcDbEntity
  8
0
100
AcDbMText
 10
17.24645528559999
 20
25.2398114986
 30
0.0
 40
0.4
 41
0.0
 71
     7
 72
     1
  1
14 11/32"
  7
SLDTEXTSTYLE0
 73
     1
 44
1.0
  0
MTEXT
  5
D6
330
D3
100
AcDbEntity
  8
0
100
AcDbMText
 10
19.48756849309999
 20
25.2398114986
 30
0.0
 40
0.4
 41
0.0
 71
     7
 72
     1
  1
 TO 
  7
SLDTEXTSTYLE0
 73
     1
 44
1.0
  0
MTEXT
  5
D7
330
D3
100
AcDbEntity
  8
0
100
AcDbMText
 10
16.9696801913
 20
24.4801231967
 30
0.0
 40
0.4
 41
0.0
 71
     7
 72
     1
  1
SHARP CORNERS
  7
SLDTEXTSTYLE0
 73
     1
 44
1.0
  0
LINE
  5
D8
330
D3
100
AcDbEntity
  8
0
100
AcDbLine
 10
25.6434825636
 20
32.2107492851
 30
0.0
 11
18.4471266064
 21
32.2107492851
 31
0.0
  0
LINE
  5
D9
330
D3
100
AcDbEntity
  8
0
100
AcDbLine
 10
25.6434825636
 20
17.8688737121
 30
0.0
 11
18.4471266064
 21
17.8688737121
 31
0.0
  0
LINE
  5
DA
330
D3
100
AcDbEntity
  8
0
100
AcDbLine
 10
18.9271266064
 20
32.2107492851
 30
0.0
 11
18.9271266064
 21
25.7994998005
 31
0.0
  0
LINE
  5
DB
330
D3
100
AcDbEntity
  8
0
100
AcDbLine
 10
18.9271266064
 20
17.8688737121
 30
0.0
 11
18.9271266064
 21
24.2801231967
 31
0.0
  0
SOLID
  5
DC
330
D3
100
AcDbEntity
  8
0
100
AcDbTrace
 10
18.9271266064
 20
32.2107492851
 30
0.0
 11
18.8021266064
 21
31.4607492851
 31
0.0
 12
19.0521266064
 22
31.4607492851
 32
0.0
 13
19.0521266064
 23
31.4607492851
 33
0.0
  0
SOLID
  5
DD
330
D3
100
AcDbEntity
  8
0
100
AcDbTrace
 10
18.9271266064
 20
17.8688737121
 30
0.0
 11
19.0521266064
 21
18.6188737121
 31
0.0
 12
18.8021266064
 22
18.6188737121
 32
0.0
 13
18.8021266064
 23
18.6188737121
 33
0.0
  0
POINT
  5
DF
330
D3
100
AcDbEntity
  8
0
100
AcDbPoint
 10
25.8034825636
 20
32.2107492851
 30
0.0
  0
POINT
  5
E0
330
D3
100
AcDbEntity
  8
0
100
AcDbPoint
 10
25.8034825636
 20
17.8688737121
 30
0.0
  0
ENDBLK
  5
E1
330
D3
100
AcDbEntity
  8
0
 62
     1
100
AcDbBlockEnd
  0
BLOCK
  5
E4
330
E3
100
AcDbEntity
  8
0
 62
     1
100
AcDbBlockBegin
  2
*D2
 70
     1
 10
0.0
 20
0.0
 30
0.0
  3
*D2
  1

  0
MTEXT
  5
E5
330
E3
100
AcDbEntity
  8
0
 62
     7
100
AcDbMText
 10
27.2451198262
 20
28.2603505518
 30
0.0
 40
0.4
 41
0.0
 71
     7
 72
     1
  1
10%%d
  7
SLDTEXTSTYLE0
 73
     1
 44
1.0
  0
ARC
  5
E6
330
E3
100
AcDbEntity
  8
0
 62
     7
100
AcDbCircle
 10
66.4718916617
 20
25.0398114986
 30
0.0
 40
39.01502181019999
100
AcDbArc
 50
170.0
 51
174.439797934
  0
ARC
  5
E7
330
E3
100
AcDbEntity
  8
0
 62
     7
100
AcDbCircle
 10
66.4718916617
 20
25.0398114986
 30
0.0
 40
39.01502181019999
100
AcDbArc
 50
175.5597232543999
 51
180.0
  0
SOLID
  5
E8
330
E3
100
AcDbEntity
  8
0
 62
     7
100
AcDbTrace
 10
28.0495956991
 20
31.8146989376
 30
0.0
 11
27.80315995449999
 21
31.0953975934
 31
0.0
 12
28.049767728
 22
31.0543536407
 32
0.0
 13
28.049767728
 23
31.0543536407
 33
0.0
  0
SOLID
  5
E9
330
E3
100
AcDbEntity
  8
0
 62
     7
100
AcDbTrace
 10
27.45686985159999
 20
25.0398114986
 30
0.0
 11
27.5890718421
 21
25.7885755694
 31
0.0
 12
27.3390833872
 22
25.79097815709999
 32
0.0
 13
27.3390833872
 23
25.79097815709999
 33
0.0
  0
POINT
  5
EB
330
E3
100
AcDbEntity
  8
0
 62
     7
100
AcDbPoint
 10
22.79263655469999
 20
25.0398114986
 30
0.0
  0
POINT
  5
EC
330
E3
100
AcDbEntity
  8
0
 62
     7
100
AcDbPoint
 10
49.482463323
 20
25.0398114986
 30
0.0
  0
POINT
  5
ED
330
E3
100
AcDbEntity
  8
0
 62
     7
100
AcDbPoint
 10
38.1154825636
 20
30.0398114986
 30
0.0
  0
POINT
  5
EE
330
E3
100
AcDbEntity
  8
0
 62
     7
100
AcDbPoint
 10
26.3903066525
 20
32.1072763653
 30
0.0
  0
ENDBLK
  5
EF
330
E3
100
AcDbEntity
  8
0
100
AcDbBlockEnd
  0
BLOCK
  5
F2
330
F1
100
AcDbEntity
  8
0
 62
     1
100
AcDbBlockBegin
  2
*D3
 70
     1
 10
0.0
 20
0.0
 30
0.0
  3
*D3
  1

  0
MTEXT
  5
F3
330
F1
100
AcDbEntity
  8
0
 62
     7
100
AcDbMText
 10
27.2240705713
 20
21.45774257229999
 30
0.0
 40
0.4
 41
0.0
 71
     7
 72
     1
  1
10%%d
  7
SLDTEXTSTYLE0
 73
     1
 44
1.0
  0
ARC
  5
F4
330
F1
100
AcDbEntity
  8
0
 62
     7
100
AcDbCircle
 10
66.4718916617
 20
25.0398114986
 30
0.0
 40
39.0361514698
100
AcDbArc
 50
180.0
 51
184.4405795954
  0
ARC
  5
F5
330
F1
100
AcDbEntity
  8
0
 62
     7
100
AcDbCircle
 10
66.4718916617
 20
25.0398114986
 30
0.0
 40
39.0361514698
100
AcDbArc
 50
185.5598986979
 51
190.0
  0
SOLID
  5
F6
330
F1
100
AcDbEntity
  8
0
 62
     7
100
AcDbTrace
 10
27.43574019189999
 20
25.0398114986
 30
0.0
 11
27.3179498209
 21
24.2886454527
 31
0.0
 12
27.5679382883
 22
24.2910467403
 32
0.0
 13
27.5679382883
 23
24.2910467403
 33
0.0
  0
SOLID
  5
F7
330
F1
100
AcDbEntity
  8
0
 62
     7
100
AcDbTrace
 10
28.0287870465
 20
18.26125493269999
 30
0.0
 11
28.028955121
 21
19.0216002304
 31
0.0
 12
27.7823475609
 22
18.9805549953
 32
0.0
 13
27.7823475609
 23
18.9805549953
 33
0.0
  0
POINT
  5
F8
330
F1
100
AcDbEntity
  8
0
 62
     7
100
AcDbPoint
 10
22.79263655469999
 20
25.0398114986
 30
0.0
  0
POINT
  5
F9
330
F1
100
AcDbEntity
  8
0
 62
     7
100
AcDbPoint
 10
49.482463323
 20
25.0398114986
 30
0.0
  0
POINT
  5
FA
330
F1
100
AcDbEntity
  8
0
 62
     7
100
AcDbPoint
 10
26.3903066525
 20
17.9723466319
 30
0.0
  0
POINT
  5
FB
330
F1
100
AcDbEntity
  8
0
 62
     7
100
AcDbPoint
 10
38.1154825636
 20
20.03981149859999
 30
0.0
  0
ENDBLK
  5
FC
330
F1
100
AcDbEntity
  8
0
100
AcDbBlockEnd
  0
BLOCK
  5
FF
330
FE
100
AcDbEntity
  8
0
 62
     1
100
AcDbBlockBegin
  2
*D4
 70
     1
 10
0.0
 20
0.0
 30
0.0
  3
*D4
  1

  0
MTEXT
  5
100
330
FE
100
AcDbEntity
  8
0
100
AcDbMText
 10
36.4033538844
 20
38.0864605318
 30
0.0
 40
0.4
 41
0.0
 71
     7
 72
     1
  1
22"
  7
SLDTEXTSTYLE0
 73
     1
 44
1.0
  0
LINE
  5
101
330
FE
100
AcDbEntity
  8
0
100
AcDbLine
 10
25.8034825636
 20
31.7748724888
 30
0.0
 11
25.8034825636
 21
38.7463046827
 31
0.0
  0
LINE
  5
102
330
FE
100
AcDbEntity
  8
0
100
AcDbLine
 10
47.80348256359999
 20
25.1998114986
 30
0.0
 11
47.80348256359999
 21
38.7463046827
 31
0.0
  0
LINE
  5
103
330
FE
100
AcDbEntity
  8
0
100
AcDbLine
 10
25.8034825636
 20
38.2663046827
 30
0.0
 11
35.90335388439999
 21
38.2663046827
 31
0.0
  0
LINE
  5
104
330
FE
100
AcDbEntity
  8
0
100
AcDbLine
 10
47.80348256359999
 20
38.2663046827
 30
0.0
 11
37.7036112429
 21
38.2663046827
 31
0.0
  0
ARC
  5
105
330
FE
100
AcDbEntity
  8
0
100
AcDbCircle
 10
36.9130421863
 20
38.2663046827
 30
0.0
 40
0.8493573423999999
100
AcDbArc
 50
153.4349488229
 51
206.5650511771
  0
ARC
  5
106
330
FE
100
AcDbEntity
  8
0
100
AcDbCircle
 10
36.69392294099999
 20
38.2663046827
 30
0.0
 40
0.8493573423999999
100
AcDbArc
 50
333.4349488229
 51
26.5650511771
  0
SOLID
  5
107
330
FE
100
AcDbEntity
  8
0
100
AcDbTrace
 10
25.8034825636
 20
38.2663046827
 30
0.0
 11
26.5534825636
 21
38.1413046827
 31
0.0
 12
26.5534825636
 22
38.3913046827
 32
0.0
 13
26.5534825636
 23
38.3913046827
 33
0.0
  0
SOLID
  5
108
330
FE
100
AcDbEntity
  8
0
100
AcDbTrace
 10
47.80348256359999
 20
38.2663046827
 30
0.0
 11
47.05348256359999
 21
38.3913046827
 31
0.0
 12
47.05348256359999
 22
38.1413046827
 32
0.0
 13
47.05348256359999
 23
38.1413046827
 33
0.0
  0
POINT
  5
109
330
FE
100
AcDbEntity
  8
0
100
AcDbPoint
 10
25.8034825636
 20
31.6148724888
 30
0.0
  0
POINT
  5
10A
330
FE
100
AcDbEntity
  8
0
100
AcDbPoint
 10
47.80348256359999
 20
25.0398114986
 30
0.0
  0
ENDBLK
  5
10B
330
FE
100
AcDbEntity
  8
0
 62
     1
100
AcDbBlockEnd
  0
BLOCK
  5
10E
330
10D
100
AcDbEntity
  8
0
 62
     1
100
AcDbBlockBegin
  2
*D5
 70
     1
 10
0.0
 20
0.0
 30
0.0
  3
*D5
  1

  0
MTEXT
  5
10F
330
10D
100
AcDbEntity
  8
0
100
AcDbMText
 10
54.3954882055
 20
24.8599673476
 30
0.0
 40
0.4
 41
0.0
 71
     7
 72
     1
  1
10"
  7
SLDTEXTSTYLE0
 73
     1
 44
1.0
  0
LINE
  5
110
330
10D
100
AcDbEntity
  8
0
100
AcDbLine
 10
42.96348256359999
 20
30.0398114986
 30
0.0
 11
55.2357021678
 21
30.0398114986
 31
0.0
  0
LINE
  5
111
330
10D
100
AcDbEntity
  8
0
100
AcDbLine
 10
42.96348256359999
 20
20.03981149859999
 30
0.0
 11
55.2357021678
 21
20.03981149859999
 31
0.0
  0
LINE
  5
112
330
10D
100
AcDbEntity
  8
0
100
AcDbLine
 10
54.75570216779999
 20
30.0398114986
 30
0.0
 11
54.75570216779999
 21
25.41965564949999
 31
0.0
  0
LINE
  5
113
330
10D
100
AcDbEntity
  8
0
100
AcDbLine
 10
54.75570216779999
 20
20.03981149859999
 30
0.0
 11
54.75570216779999
 21
24.6599673476
 31
0.0
  0
SOLID
  5
114
330
10D
100
AcDbEntity
  8
0
100
AcDbTrace
 10
54.75570216779999
 20
30.0398114986
 30
0.0
 11
54.6307021678
 21
29.2898114986
 31
0.0
 12
54.88070216779999
 22
29.2898114986
 32
0.0
 13
54.88070216779999
 23
29.2898114986
 33
0.0
  0
SOLID
  5
115
330
10D
100
AcDbEntity
  8
0
100
AcDbTrace
 10
54.75570216779999
 20
20.03981149859999
 30
0.0
 11
54.88070216779999
 21
20.7898114986
 31
0.0
 12
54.6307021678
 22
20.7898114986
 32
0.0
 13
54.6307021678
 23
20.7898114986
 33
0.0
  0
POINT
  5
116
330
10D
100
AcDbEntity
  8
0
100
AcDbPoint
 10
42.80348256359999
 20
30.0398114986
 30
0.0
  0
POINT
  5
117
330
10D
100
AcDbEntity
  8
0
100
AcDbPoint
 10
42.80348256359999
 20
20.03981149859999
 30
0.0
  0
ENDBLK
  5
118
330
10D
100
AcDbEntity
  8
0
 62
     1
100
AcDbBlockEnd
  0
BLOCK
  5
11B
330
11A
100
AcDbEntity
  8
0
 62
     1
100
AcDbBlockBegin
  2
*D6
 70
     1
 10
0.0
 20
0.0
 30
0.0
  3
*D6
  1

  0
MTEXT
  5
11C
330
11A
100
AcDbEntity
  8
0
100
AcDbMText
 10
33.9432686014
 20
35.9291749521
 30
0.0
 40
0.4
 41
0.0
 71
     7
 72
     1
  1
17"
  7
SLDTEXTSTYLE0
 73
     1
 44
1.0
  0
LINE
  5
11D
330
11A
100
AcDbEntity
  8
0
100
AcDbLine
 10
25.8034825636
 20
31.7748724888
 30
0.0
 11
25.8034825636
 21
36.5890191031
 31
0.0
  0
LINE
  5
11E
330
11A
100
AcDbEntity
  8
0
100
AcDbLine
 10
42.80348256359999
 20
25.1998114986
 30
0.0
 11
42.80348256359999
 21
36.5890191031
 31
0.0
  0
LINE
  5
11F
330
11A
100
AcDbEntity
  8
0
100
AcDbLine
 10
25.8034825636
 20
36.10901910309999
 30
0.0
 11
33.6932686014
 21
36.10901910309999
 31
0.0
  0
LINE
  5
120
330
11A
100
AcDbEntity
  8
0
100
AcDbLine
 10
42.80348256359999
 20
36.10901910309999
 30
0.0
 11
34.9136965259
 21
36.10901910309999
 31
0.0
  0
SOLID
  5
121
330
11A
100
AcDbEntity
  8
0
100
AcDbTrace
 10
25.8034825636
 20
36.10901910309999
 30
0.0
 11
26.5534825636
 21
35.98401910309999
 31
0.0
 12
26.5534825636
 22
36.23401910309999
 32
0.0
 13
26.5534825636
 23
36.23401910309999
 33
0.0
  0
SOLID
  5
122
330
11A
100
AcDbEntity
  8
0
100
AcDbTrace
 10
42.80348256359999
 20
36.10901910309999
 30
0.0
 11
42.05348256359999
 21
36.23401910309999
 31
0.0
 12
42.05348256359999
 22
35.98401910309999
 32
0.0
 13
42.05348256359999
 23
35.98401910309999
 33
0.0
  0
POINT
  5
123
330
11A
100
AcDbEntity
  8
0
100
AcDbPoint
 10
25.8034825636
 20
31.6148724888
 30
0.0
  0
POINT
  5
124
330
11A
100
AcDbEntity
  8
0
100
AcDbPoint
 10
42.80348256359999
 20
25.0398114986
 30
0.0
  0
ENDBLK
  5
125
330
11A
100
AcDbEntity
  8
0
 62
     1
100
AcDbBlockEnd
  0
BLOCK
  5
128
330
127
100
AcDbEntity
  8
0
 62
     1
100
AcDbBlockBegin
  2
*D7
 70
     1
 10
0.0
 20
0.0
 30
0.0
  3
*D7
  1

  0
MTEXT
  5
129
330
127
100
AcDbEntity
  8
0
100
AcDbMText
 10
35.8693833183
 20
14.9504904294
 30
0.0
 40
0.4
 41
0.0
 71
     7
 72
     1
  1
11 21/32"
  7
SLDTEXTSTYLE0
 73
     1
 44
1.0
  0
LINE
  5
12A
330
127
100
AcDbEntity
  8
0
100
AcDbLine
 10
42.80348256359999
 20
24.8798114986
 30
0.0
 11
42.80348256359999
 21
14.65033458029999
 31
0.0
  0
LINE
  5
12B
330
127
100
AcDbEntity
  8
0
100
AcDbLine
 10
31.1364825636
 20
24.8798114986
 30
0.0
 11
31.1364825636
 21
14.65033458029999
 31
0.0
  0
LINE
  5
12C
330
127
100
AcDbEntity
  8
0
100
AcDbLine
 10
42.80348256359999
 20
15.13033458029999
 30
0.0
 11
38.3205818089
 21
15.13033458029999
 31
0.0
  0
LINE
  5
12D
330
127
100
AcDbEntity
  8
0
100
AcDbLine
 10
31.1364825636
 20
15.13033458029999
 30
0.0
 11
35.6193833183
 21
15.13033458029999
 31
0.0
  0
SOLID
  5
12E
330
127
100
AcDbEntity
  8
0
100
AcDbTrace
 10
42.80348256359999
 20
15.13033458029999
 30
0.0
 11
42.05348256359999
 21
15.25533458029999
 31
0.0
 12
42.05348256359999
 22
15.0053345803
 32
0.0
 13
42.05348256359999
 23
15.0053345803
 33
0.0
  0
SOLID
  5
12F
330
127
100
AcDbEntity
  8
0
100
AcDbTrace
 10
31.1364825636
 20
15.13033458029999
 30
0.0
 11
31.8864825636
 21
15.0053345803
 31
0.0
 12
31.8864825636
 22
15.25533458029999
 32
0.0
 13
31.8864825636
 23
15.25533458029999
 33
0.0
  0
POINT
  5
130
330
127
100
AcDbEntity
  8
0
100
AcDbPoint
 10
42.80348256359999
 20
25.0398114986
 30
0.0
  0
POINT
  5
131
330
127
100
AcDbEntity
  8
0
100
AcDbPoint
 10
31.1364825636
 20
25.0398114986
 30
0.0
  0
ENDBLK
  5
132
330
127
100
AcDbEntity
  8
0
 62
     1
100
AcDbBlockEnd
  0
BLOCK
  5
135
330
134
100
AcDbEntity
  8
0
 62
     1
100
AcDbBlockBegin
  2
*D8
 70
     1
 10
0.0
 20
0.0
 30
0.0
  3
*D8
  1

  0
MTEXT
  5
136
330
134
100
AcDbEntity
  8
0
100
AcDbMText
 10
30.9589972806
 20
33.3796556307
 30
0.0
 40
0.4
 41
0.0
 71
     7
 72
     1
  1
12 5/16"
  7
SLDTEXTSTYLE0
 73
     1
 44
1.0
  0
LINE
  5
137
330
134
100
AcDbEntity
  8
0
100
AcDbLine
 10
25.8034825636
 20
31.7748724888
 30
0.0
 11
25.8034825636
 21
34.0394997817
 31
0.0
  0
LINE
  5
138
330
134
100
AcDbEntity
  8
0
100
AcDbLine
 10
38.1154825636
 20
30.1998114986
 30
0.0
 11
38.1154825636
 21
34.0394997817
 31
0.0
  0
LINE
  5
139
330
134
100
AcDbEntity
  8
0
100
AcDbLine
 10
25.8034825636
 20
33.55949978169999
 30
0.0
 11
30.4589972806
 21
33.55949978169999
 31
0.0
  0
LINE
  5
13A
330
134
100
AcDbEntity
  8
0
100
AcDbLine
 10
38.1154825636
 20
33.55949978169999
 30
0.0
 11
33.4599678466
 21
33.55949978169999
 31
0.0
  0
ARC
  5
13B
330
134
100
AcDbEntity
  8
0
100
AcDbCircle
 10
31.4686855825
 20
33.55949978169999
 30
0.0
 40
0.8493573423999999
100
AcDbArc
 50
153.4349488229
 51
206.5650511771
  0
ARC
  5
13C
330
134
100
AcDbEntity
  8
0
100
AcDbCircle
 10
32.45027954479999
 20
33.55949978169999
 30
0.0
 40
0.8493573423999999
100
AcDbArc
 50
333.4349488229
 51
26.5650511771
  0
SOLID
  5
13D
330
134
100
AcDbEntity
  8
0
100
AcDbTrace
 10
25.8034825636
 20
33.55949978169999
 30
0.0
 11
26.5534825636
 21
33.43449978169999
 31
0.0
 12
26.5534825636
 22
33.6844997817
 32
0.0
 13
26.5534825636
 23
33.6844997817
 33
0.0
  0
SOLID
  5
13E
330
134
100
AcDbEntity
  8
0
100
AcDbTrace
 10
38.1154825636
 20
33.55949978169999
 30
0.0
 11
37.3654825636
 21
33.6844997817
 31
0.0
 12
37.3654825636
 22
33.43449978169999
 32
0.0
 13
37.3654825636
 23
33.43449978169999
 33
0.0
  0
POINT
  5
13F
330
134
100
AcDbEntity
  8
0
100
AcDbPoint
 10
25.8034825636
 20
31.6148724888
 30
0.0
  0
POINT
  5
140
330
134
100
AcDbEntity
  8
0
100
AcDbPoint
 10
38.1154825636
 20
30.0398114986
 30
0.0
  0
ENDBLK
  5
141
330
134
100
AcDbEntity
  8
0
 62
     1
100
AcDbBlockEnd
  0
BLOCK
  5
144
330
143
100
AcDbEntity
  8
0
 62
     1
100
AcDbBlockBegin
  2
*D9
 70
     1
 10
0.0
 20
0.0
 30
0.0
  3
*D9
  1

  0
MTEXT
  5
145
330
143
100
AcDbEntity
  8
0
 62
     7
100
AcDbMText
 10
57.4998928849
 20
19.17259441059999
 30
0.0
 40
0.4
 41
0.0
 71
     7
 72
     1
  1
%%c
  7
SLDTEXTSTYLE0
 73
     1
 44
1.0
  0
MTEXT
  5
146
330
143
100
AcDbEntity
  8
0
 62
     7
100
AcDbMText
 10
58.1830234509
 20
19.17259441059999
 30
0.0
 40
0.4
 41
0.0
 71
     7
 72
     1
  1
27/64"
  7
SLDTEXTSTYLE0
 73
     1
 44
1.0
  0
MTEXT
  5
147
330
143
100
AcDbEntity
  8
0
 62
     7
100
AcDbMText
 10
59.86336760189999
 20
19.17259441059999
 30
0.0
 40
0.4
 41
0.0
 71
     7
 72
     1
  1
 DRILL THRU
  7
SLDTEXTSTYLE0
 73
     1
 44
1.0
  0
MTEXT
  5
148
330
143
100
AcDbEntity
  8
0
 62
     7
100
AcDbMText
 10
56.09078307359999
 20
18.41290610869999
 30
0.0
 40
0.4
 41
0.0
 71
     7
 72
     1
  1
%%c.532 X 45%%d C-SINK BOTH SIDES
  7
SLDTEXTSTYLE0
 73
     1
 44
1.0
  0
MTEXT
  5
149
330
143
100
AcDbEntity
  8
0
 62
     7
100
AcDbMText
 10
56.7536291113
 20
17.6532178068
 30
0.0
 40
0.4
 41
0.0
 71
     7
 72
     1
  1
TAP 1/2-13 THRU, 4 PLACES
  7
SLDTEXTSTYLE0
 73
     1
 44
1.0
  0
MTEXT
  5
14A
330
143
100
AcDbEntity
  8
0
 62
     7
100
AcDbMText
 10
57.0641132623
 20
16.8935295049
 30
0.0
 40
0.4
 41
0.0
 71
     7
 72
     1
  1
ON 5.000 DIA BOLT CIRCLE
  7
SLDTEXTSTYLE0
 73
     1
 44
1.0
  0
MTEXT
  5
14B
330
143
100
AcDbEntity
  8
0
 62
     7
100
AcDbMText
 10
56.48404118680001
 20
15.3741529012
 30
0.0
 40
0.4
 41
0.0
 71
     7
 72
     1
  1
STUDS TO BE INSERTED FROM 
  7
SLDTEXTSTYLE0
 73
     1
 44
1.0
  0
MTEXT
  5
14C
330
143
100
AcDbEntity
  8
0
 62
     7
100
AcDbMText
 10
58.66430080939999
 20
14.6144645993
 30
0.0
 40
0.4
 41
0.0
 71
     7
 72
     1
  1
BOTTOM SIDE
  7
SLDTEXTSTYLE0
 73
     1
 44
1.0
  0
LINE
  5
14D
330
143
100
AcDbEntity
  8
0
 62
     7
100
AcDbLine
 10
45.46494415709999
 20
24.904054155
 30
0.0
 11
54.77828307359999
 21
17.07337365589999
 31
0.0
  0
LINE
  5
14E
330
143
100
AcDbEntity
  8
0
 62
     7
100
AcDbLine
 10
54.77828307359999
 20
17.07337365589999
 30
0.0
 11
55.77828307359999
 21
17.07337365589999
 31
0.0
  0
SOLID
  5
14F
330
143
100
AcDbEntity
  8
0
 62
     7
100
AcDbTrace
 10
45.46494415709999
 20
24.904054155
 30
0.0
 11
45.95855177569999
 21
24.3257147055
 31
0.0
 12
46.11943983399999
 22
24.51706525469999
 32
0.0
 13
46.11943983399999
 23
24.51706525469999
 33
0.0
  0
POINT
  5
151
330
143
100
AcDbEntity
  8
0
 62
     7
100
AcDbPoint
 10
45.46494415709999
 20
24.904054155
 30
0.0
  0
POINT
  5
152
330
143
100
AcDbEntity
  8
0
 62
     7
100
AcDbPoint
 10
45.1420209702
 20
25.17556884219999
 30
0.0
  0
ENDBLK
  5
153
330
143
100
AcDbEntity
  8
0
100
AcDbBlockEnd
  0
BLOCK
  5
156
330
155
100
AcDbEntity
  8
0
 62
     1
100
AcDbBlockBegin
  2
*D10
 70
     1
 10
0.0
 20
0.0
 30
0.0
  3
*D10
  1

  0
MTEXT
  5
157
330
155
100
AcDbEntity
  8
0
100
AcDbMText
 10
51.28961675439999
 20
26.1099673476
 30
0.0
 40
0.4
 41
0.0
 71
     7
 72
     1
  1
2.500
  7
SLDTEXTSTYLE0
 73
     1
 44
1.0
  0
LINE
  5
158
330
155
100
AcDbEntity
  8
0
100
AcDbLine
 10
49.642463323
 20
25.0398114986
 30
0.0
 11
52.3896035469
 21
25.0398114986
 31
0.0
  0
LINE
  5
159
330
155
100
AcDbEntity
  8
0
100
AcDbLine
 10
42.96348256359999
 20
27.5398114986
 30
0.0
 11
52.3896035469
 21
27.5398114986
 31
0.0
  0
LINE
  5
15A
330
155
100
AcDbEntity
  8
0
100
AcDbLine
 10
51.90960354689999
 20
25.0398114986
 30
0.0
 11
51.90960354689999
 21
23.0398114986
 31
0.0
  0
LINE
  5
15B
330
155
100
AcDbEntity
  8
0
100
AcDbLine
 10
51.90960354689999
 20
27.5398114986
 30
0.0
 11
51.90960354689999
 21
29.5398114986
 31
0.0
  0
SOLID
  5
15C
330
155
100
AcDbEntity
  8
0
100
AcDbTrace
 10
51.90960354689999
 20
25.0398114986
 30
0.0
 11
51.78460354689999
 21
24.2898114986
 31
0.0
 12
52.03460354689999
 22
24.2898114986
 32
0.0
 13
52.03460354689999
 23
24.2898114986
 33
0.0
  0
SOLID
  5
15D
330
155
100
AcDbEntity
  8
0
100
AcDbTrace
 10
51.90960354689999
 20
27.5398114986
 30
0.0
 11
52.03460354689999
 21
28.2898114986
 31
0.0
 12
51.78460354689999
 22
28.2898114986
 32
0.0
 13
51.78460354689999
 23
28.2898114986
 33
0.0
  0
POINT
  5
15F
330
155
100
AcDbEntity
  8
0
100
AcDbPoint
 10
49.482463323
 20
25.0398114986
 30
0.0
  0
POINT
  5
160
330
155
100
AcDbEntity
  8
0
100
AcDbPoint
 10
42.80348256359999
 20
27.5398114986
 30
0.0
  0
ENDBLK
  5
161
330
155
100
AcDbEntity
  8
0
 62
     1
100
AcDbBlockEnd
  0
BLOCK
  5
164
330
163
100
AcDbEntity
  8
0
 62
     1
100
AcDbBlockBegin
  2
*D11
 70
     1
 10
0.0
 20
0.0
 30
0.0
  3
*D11
  1

  0
MTEXT
  5
165
330
163
100
AcDbEntity
  8
0
 62
     7
100
AcDbMText
 10
24.5860881174
 20
14.04178110119999
 30
0.0
 40
0.4
 41
0.0
 71
     7
 72
     1
  1
3"
  7
SLDTEXTSTYLE0
 73
     1
 44
1.0
  0
MTEXT
  5
166
330
163
100
AcDbEntity
  8
0
 62
     7
100
AcDbMText
 10
25.1062881174
 20
14.04178110119999
 30
0.0
 40
0.4
 41
0.0
 71
     7
 72
     1
  1
 DIA
  7
SLDTEXTSTYLE0
 73
     1
 44
1.0
  0
MTEXT
  5
167
330
163
100
AcDbEntity
  8
0
 62
     7
100
AcDbMText
 10
23.68867189099999
 20
13.2820927994
 30
0.0
 40
0.4
 41
0.0
 71
     7
 72
     1
  1
BURNED OKAY
  7
SLDTEXTSTYLE0
 73
     1
 44
1.0
  0
MTEXT
  5
168
330
163
100
AcDbEntity
  8
0
 62
     7
100
AcDbMText
 10
23.4485292495
 20
12.5224044975
 30
0.0
 40
0.4
 41
0.0
 71
     7
 72
     1
  1
PLEASE DEBURR
  7
SLDTEXTSTYLE0
 73
     1
 44
1.0
  0
LINE
  5
169
330
163
100
AcDbEntity
  8
0
 62
     7
100
AcDbLine
 10
30.8150037901
 20
23.57466597739999
 30
0.0
 11
28.5960926457
 21
13.4619369503
 31
0.0
  0
LINE
  5
16A
330
163
100
AcDbEntity
  8
0
 62
     7
100
AcDbLine
 10
28.5960926457
 20
13.4619369503
 30
0.0
 11
27.5960926457
 21
13.4619369503
 31
0.0
  0
SOLID
  5
16B
330
163
100
AcDbEntity
  8
0
 62
     7
100
AcDbTrace
 10
30.8150037901
 20
23.57466597739999
 30
0.0
 11
30.5321689432
 21
22.86888311469999
 31
0.0
 12
30.7763598634
 22
22.81530331909999
 32
0.0
 13
30.7763598634
 23
22.81530331909999
 33
0.0
  0
POINT
  5
16C
330
163
100
AcDbEntity
  8
0
 62
     7
100
AcDbPoint
 10
30.8150037901
 20
23.57466597739999
 30
0.0
  0
POINT
  5
16D
330
163
100
AcDbEntity
  8
0
 62
     7
100
AcDbPoint
 10
31.45796133719999
 20
26.50495701969999
 30
0.0
  0
ENDBLK
  5
16E
330
163
100
AcDbEntity
  8
0
100
AcDbBlockEnd
  0
BLOCK
  5
171
330
170
100
AcDbEntity
  8
0
 62
     1
100
AcDbBlockBegin
  2
*D12
 70
     1
 10
0.0
 20
0.0
 30
0.0
  3
*D12
  1

  0
MTEXT
  5
172
330
170
100
AcDbEntity
  8
0
 62
     7
100
AcDbMText
 10
47.94652109779999
 20
15.67525686269999
 30
0.0
 40
0.4
 41
0.0
 71
     7
 72
     1
  1
%%c
  7
SLDTEXTSTYLE0
 73
     1
 44
1.0
  0
MTEXT
  5
173
330
170
100
AcDbEntity
  8
0
 62
     7
100
AcDbMText
 10
48.62965166390001
 20
15.67525686269999
 30
0.0
 40
0.4
 41
0.0
 71
     7
 72
     1
  1
4.020
  7
SLDTEXTSTYLE0
 73
     1
 44
1.0
  0
MTEXT
  5
174
330
170
100
AcDbEntity
  8
0
 62
     7
100
AcDbMText
 10
49.9095399658
 20
15.67525686269999
 30
0.0
 40
0.4
 41
0.0
 71
     7
 72
     1
  1
%%p.010
  7
SLDTEXTSTYLE0
 73
     1
 44
1.0
  0
MTEXT
  5
175
330
170
100
AcDbEntity
  8
0
 62
     7
100
AcDbMText
 10
48.63064373939999
 20
14.91556856079999
 30
0.0
 40
0.4
 41
0.0
 71
     7
 72
     1
  1
DEBURR
  7
SLDTEXTSTYLE0
 73
     1
 44
1.0
  0
LINE
  5
176
330
170
100
AcDbEntity
  8
0
 62
     7
100
AcDbLine
 10
43.561242974
 20
23.17811894599999
 30
0.0
 11
46.69652109779999
 21
15.4752568627
 31
0.0
  0
LINE
  5
177
330
170
100
AcDbEntity
  8
0
 62
     7
100
AcDbLine
 10
46.69652109779999
 20
15.4752568627
 30
0.0
 11
47.69652109779999
 21
15.4752568627
 31
0.0
  0
SOLID
  5
178
330
170
100
AcDbEntity
  8
0
 62
     7
100
AcDbTrace
 10
43.561242974
 20
23.17811894599999
 30
0.0
 11
43.7282124958
 21
22.4363331421
 31
0.0
 12
43.9597662958
 22
22.5305819494
 32
0.0
 13
43.9597662958
 23
22.5305819494
 33
0.0
  0
POINT
  5
17A
330
170
100
AcDbEntity
  8
0
 62
     7
100
AcDbPoint
 10
43.561242974
 20
23.17811894599999
 30
0.0
  0
POINT
  5
17B
330
170
100
AcDbEntity
  8
0
 62
     7
100
AcDbPoint
 10
42.0457221532
 20
26.9015040512
 30
0.0
  0
ENDBLK
  5
17C
330
170
100
AcDbEntity
  8
0
100
AcDbBlockEnd
  0
BLOCK
  5
17F
330
17E
100
AcDbEntity
  8
0
 62
     1
100
AcDbBlockBegin
  2
*D13
 70
     1
 10
0.0
 20
0.0
 30
0.0
  3
*D13
  1

  0
MTEXT
  5
180
330
17E
100
AcDbEntity
  8
0
 62
     7
100
AcDbMText
 10
49.0322207229
 20
18.6974365479
 30
0.0
 40
0.4
 41
0.0
 71
     7
 72
     1
  1
5"
  7
SLDTEXTSTYLE0
 73
     1
 44
1.0
  0
MTEXT
  5
181
330
17E
100
AcDbEntity
  8
0
 62
     7
100
AcDbMText
 10
49.5524207229
 20
18.6974365479
 30
0.0
 40
0.4
 41
0.0
 71
     7
 72
     1
  1
 RAD
  7
SLDTEXTSTYLE0
 73
     1
 44
1.0
  0
LINE
  5
182
330
17E
100
AcDbEntity
  8
0
 62
     7
100
AcDbLine
 10
45.94566821189999
 20
21.15050958799999
 30
0.0
 11
47.7822207229
 21
18.8772806989
 31
0.0
  0
LINE
  5
183
330
17E
100
AcDbEntity
  8
0
 62
     7
100
AcDbLine
 10
47.7822207229
 20
18.8772806989
 30
0.0
 11
48.7822207229
 21
18.8772806989
 31
0.0
  0
SOLID
  5
184
330
17E
100
AcDbEntity
  8
0
 62
     7
100
AcDbTrace
 10
45.94566821189999
 20
21.15050958799999
 30
0.0
 11
46.3197635113
 21
20.4885596602
 31
0.0
 12
46.5142286069
 22
20.64566894259999
 32
0.0
 13
46.5142286069
 23
20.64566894259999
 33
0.0
  0
POINT
  5
186
330
17E
100
AcDbEntity
  8
0
 62
     7
100
AcDbPoint
 10
45.94566821189999
 20
21.15050958799999
 30
0.0
  0
POINT
  5
187
330
17E
100
AcDbEntity
  8
0
 62
     7
100
AcDbPoint
 10
42.80348256359999
 20
25.0398114986
 30
0.0
  0
ENDBLK
  5
188
330
17E
100
AcDbEntity
  8
0
100
AcDbBlockEnd
  0
BLOCK
  5
18B
330
18A
100
AcDbEntity
  8
0
 62
     1
100
AcDbBlockBegin
  2
*D14
 70
     1
 10
0.0
 20
0.0
 30
0.0
  3
*D14
  1

  0
MTEXT
  5
18C
330
18A
100
AcDbEntity
  8
0
 62
     7
100
AcDbMText
 10
20.16078542369999
 20
16.1405082139
 30
0.0
 40
0.4
 41
0.0
 71
     7
 72
     1
  1
1/2"
  7
SLDTEXTSTYLE0
 73
     1
 44
1.0
  0
MTEXT
  5
18D
330
18A
100
AcDbEntity
  8
0
 62
     7
100
AcDbMText
 10
21.1612707068
 20
16.1405082139
 30
0.0
 40
0.4
 41
0.0
 71
     7
 72
     1
  1
 RAD
  7
SLDTEXTSTYLE0
 73
     1
 44
1.0
  0
MTEXT
  5
18E
330
18A
100
AcDbEntity
  8
0
 62
     7
100
AcDbMText
 10
20.1634133483
 20
15.380819912
 30
0.0
 40
0.4
 41
0.0
 71
     7
 72
     1
  1
2 PLACES
  7
SLDTEXTSTYLE0
 73
     1
 44
1.0
  0
LINE
  5
18F
330
18A
100
AcDbEntity
  8
0
 62
     7
100
AcDbLine
 10
25.9452536182
 20
18.11593533859999
 30
0.0
 11
23.7111163671
 21
15.9405082139
 31
0.0
  0
LINE
  5
190
330
18A
100
AcDbEntity
  8
0
 62
     7
100
AcDbLine
 10
23.7111163671
 20
15.9405082139
 30
0.0
 11
22.7111163671
 21
15.9405082139
 31
0.0
  0
SOLID
  5
191
330
18A
100
AcDbEntity
  8
0
 62
     7
100
AcDbTrace
 10
25.9452536182
 20
18.11593533859999
 30
0.0
 11
25.3207064077
 21
17.68226982019999
 31
0.0
 12
25.4951139926
 22
17.5031553475
 32
0.0
 13
25.4951139926
 23
17.5031553475
 33
0.0
  0
POINT
  5
192
330
18A
100
AcDbEntity
  8
0
 62
     7
100
AcDbPoint
 10
25.9452536182
 20
18.11593533859999
 30
0.0
  0
POINT
  5
193
330
18A
100
AcDbEntity
  8
0
 62
     7
100
AcDbPoint
 10
26.3034825636
 20
18.46475050839999
 30
0.0
  0
ENDBLK
  5
194
330
18A
100
AcDbEntity
  8
0
100
AcDbBlockEnd
  0
BLOCK
  5
197
330
196
100
AcDbEntity
  8
0
 62
     7
100
AcDbBlockBegin
  2
*D15
 70
     1
 10
0.0
 20
0.0
 30
0.0
  3
*D15
  1

  0
MTEXT
  5
198
330
196
100
AcDbEntity
  8
0
 62
     7
100
AcDbMText
 10
39.47019788069999
 20
33.35473752029999
 30
0.0
 40
0.4
 41
0.0
 71
     7
 72
     1
  1
4 11/16"
  7
SLDTEXTSTYLE0
 73
     1
 44
1.0
  0
LINE
  5
199
330
196
100
AcDbEntity
  8
0
 62
     7
100
AcDbLine
 10
42.80348256359999
 20
25.1998114986
 30
0.0
 11
42.80348256359999
 21
34.0145816713
 31
0.0
  0
LINE
  5
19A
330
196
100
AcDbEntity
  8
0
 62
     7
100
AcDbLine
 10
38.1154825636
 20
30.1998114986
 30
0.0
 11
38.1154825636
 21
34.0145816713
 31
0.0
  0
LINE
  5
19B
330
196
100
AcDbEntity
  8
0
 62
     7
100
AcDbLine
 10
42.80348256359999
 20
33.5345816713
 30
0.0
 11
41.68125372979999
 21
33.5345816713
 31
0.0
  0
LINE
  5
19C
330
196
100
AcDbEntity
  8
0
 62
     7
100
AcDbLine
 10
38.1154825636
 20
33.5345816713
 30
0.0
 11
39.2201978807
 21
33.5345816713
 31
0.0
  0
SOLID
  5
19D
330
196
100
AcDbEntity
  8
0
 62
     7
100
AcDbTrace
 10
42.80348256359999
 20
33.5345816713
 30
0.0
 11
42.05348256359999
 21
33.6595816713
 31
0.0
 12
42.05348256359999
 22
33.4095816713
 32
0.0
 13
42.05348256359999
 23
33.4095816713
 33
0.0
  0
SOLID
  5
19E
330
196
100
AcDbEntity
  8
0
 62
     7
100
AcDbTrace
 10
38.1154825636
 20
33.5345816713
 30
0.0
 11
38.8654825636
 21
33.4095816713
 31
0.0
 12
38.8654825636
 22
33.6595816713
 32
0.0
 13
38.8654825636
 23
33.6595816713
 33
0.0
  0
POINT
  5
19F
330
196
100
AcDbEntity
  8
0
 62
     7
100
AcDbPoint
 10
42.80348256359999
 20
25.0398114986
 30
0.0
  0
POINT
  5
1A0
330
196
100
AcDbEntity
  8
0
 62
     7
100
AcDbPoint
 10
38.1154825636
 20
30.0398114986
 30
0.0
  0
ENDBLK
  5
1A1
330
196
100
AcDbEntity
  8
0
 62
     7
100
AcDbBlockEnd
  0
BLOCK
  5
1B3
330
1B2
100
AcDbEntity
  8
0
 62
     1
100
AcDbBlockBegin
  2
*D16
 70
     1
 10
0.0
 20
0.0
 30
0.0
  3
*D16
  1

  0
MTEXT
  5
1B4
330
1B2
100
AcDbEntity
  8
0
100
AcDbMText
 10
15.6667466808
 20
38.69548847859999
 30
0.0
 40
0.4
 41
0.0
 71
     7
 72
     1
  1
1.438
  7
SLDTEXTSTYLE0
 73
     1
 44
1.0
  0
MTEXT
  5
1B5
330
1B2
100
AcDbEntity
  8
0
100
AcDbMText
 10
16.8700772468
 20
38.69548847859999
 30
0.0
 40
0.4
 41
0.0
 71
     7
 72
     1
  1
%%p.010
  7
SLDTEXTSTYLE0
 73
     1
 44
1.0
  0
MTEXT
  5
1B6
330
1B2
100
AcDbEntity
  8
0
100
AcDbMText
 10
18.03349309589999
 20
38.69548847859999
 30
0.0
 40
0.4
 41
0.0
 71
     7
 72
     1
  1
 
  7
SLDTEXTSTYLE0
 73
     1
 44
1.0
  0
MTEXT
  5
1B7
330
1B2
100
AcDbEntity
  8
0
100
AcDbMText
 10
14.7683489449
 20
37.9358001767
 30
0.0
 40
0.4
 41
0.0
 71
     7
 72
     1
  1
BLANCHARD GRIND
  7
SLDTEXTSTYLE0
 73
     1
 44
1.0
  0
MTEXT
  5
1B8
330
1B2
100
AcDbEntity
  8
0
100
AcDbMText
 10
14.8282210204
 20
37.1761118748
 30
0.0
 40
0.4
 41
0.0
 71
     7
 72
     1
  1
BOTH SIDES FROM
  7
SLDTEXTSTYLE0
 73
     1
 44
1.0
  0
MTEXT
  5
1B9
330
1B2
100
AcDbEntity
  8
0
100
AcDbMText
 10
15.4086202657
 20
36.4164235729
 30
0.0
 40
0.4
 41
0.0
 71
     7
 72
     1
  1
1 1/2" STOCK
  7
SLDTEXTSTYLE0
 73
     1
 44
1.0
  0
LINE
  5
1BA
330
1B2
100
AcDbEntity
  8
0
100
AcDbLine
 10
11.2517243167
 20
31.7748724888
 30
0.0
 11
11.2517243167
 21
38.2158001767
 31
0.0
  0
LINE
  5
1BB
330
1B2
100
AcDbEntity
  8
0
100
AcDbLine
 10
12.6897243167
 20
31.7748724888
 30
0.0
 11
12.6897243167
 21
38.2158001767
 31
0.0
  0
LINE
  5
1BC
330
1B2
100
AcDbEntity
  8
0
100
AcDbLine
 10
11.2517243167
 20
37.7358001767
 30
0.0
 11
9.251724316699998
 21
37.7358001767
 31
0.0
  0
LINE
  5
1BD
330
1B2
100
AcDbEntity
  8
0
100
AcDbLine
 10
12.6897243167
 20
37.7358001767
 30
0.0
 11
14.4558489449
 21
37.7358001767
 31
0.0
  0
SOLID
  5
1BE
330
1B2
100
AcDbEntity
  8
0
100
AcDbTrace
 10
11.2517243167
 20
37.7358001767
 30
0.0
 11
10.50172431669999
 21
37.8608001767
 31
0.0
 12
10.50172431669999
 22
37.6108001767
 32
0.0
 13
10.50172431669999
 23
37.6108001767
 33
0.0
  0
SOLID
  5
1BF
330
1B2
100
AcDbEntity
  8
0
100
AcDbTrace
 10
12.6897243167
 20
37.7358001767
 30
0.0
 11
13.4397243167
 21
37.6108001767
 31
0.0
 12
13.4397243167
 22
37.8608001767
 32
0.0
 13
13.4397243167
 23
37.8608001767
 33
0.0
  0
POINT
  5
1C1
330
1B2
100
AcDbEntity
  8
0
100
AcDbPoint
 10
11.2517243167
 20
31.6148724888
 30
0.0
  0
POINT
  5
1C2
330
1B2
100
AcDbEntity
  8
0
100
AcDbPoint
 10
12.6897243167
 20
31.6148724888
 30
0.0
  0
ENDBLK
  5
1C3
330
1B2
100
AcDbEntity
  8
0
 62
     1
100
AcDbBlockEnd
  0
BLOCK
  5
3F3
330
3F2
100
AcDbEntity
  8
0
 62
     0
100
AcDbBlockBegin
  2
NOTE67
 70
     0
 10
0.0
 20
0.0
 30
0.0
  3
NOTE67
  1

  0
MTEXT
  5
3F4
330
3F2
100
AcDbEntity
  8
0
 62
     1
100
AcDbMText
 10
0.0
 20
0.0
 30
0.0
 40
0.75
 41
0.0
 71
     1
 72
     1
  1
{\Fgdt;q}
  7
SLDTEXTSTYLE0
 73
     1
 44
1.0
  0
ENDBLK
  5
3F5
330
3F2
100
AcDbEntity
  8
0
100
AcDbBlockEnd
  0
ENDSEC
  0
SECTION
  2
ENTITIES
  0
LINE
  5
2A
330
A
100
AcDbEntity
  8
0
  6
Continuous
 62
     7
370
     0
100
AcDbLine
 10
13.5
 20
42.5
 30
0.0
 11
6.0
 21
42.5
 31
0.0
  0
LINE
  5
2B
330
A
100
AcDbEntity
  8
0
  6
Continuous
 62
     7
370
     0
100
AcDbLine
 10
21.0
 20
42.5
 30
0.0
 11
13.5
 21
42.5
 31
0.0
  0
LINE
  5
2C
330
A
100
AcDbEntity
  8
0
  6
Continuous
 62
     7
370
     0
100
AcDbLine
 10
66.0
 20
1.5
 30
0.0
 11
58.5
 21
1.5
 31
0.0
  0
LINE
  5
2D
330
A
100
AcDbEntity
  8
0
  6
Continuous
 62
     7
370
     0
100
AcDbLine
 10
66.0
 20
1.5
 30
0.0
 11
66.0
 21
11.75
 31
0.0
  0
LINE
  5
2E
330
A
100
AcDbEntity
  8
0
  6
Continuous
 62
     7
370
     0
100
AcDbLine
 10
66.0
 20
32.25
 30
0.0
 11
66.5
 21
32.25
 31
0.0
  0
LINE
  5
2F
330
A
100
AcDbEntity
  8
0
  6
Continuous
 62
     7
370
     0
100
AcDbLine
 10
66.0
 20
22.0
 30
0.0
 11
66.5
 21
22.0
 31
0.0
  0
LINE
  5
30
330
A
100
AcDbEntity
  8
0
  6
Continuous
 62
     7
370
     0
100
AcDbLine
 10
28.5
 20
42.5
 30
0.0
 11
21.0
 21
42.5
 31
0.0
  0
LINE
  5
31
330
A
100
AcDbEntity
  8
0
  6
Continuous
 62
     7
370
     0
100
AcDbLine
 10
36.0
 20
42.5
 30
0.0
 11
28.5
 21
42.5
 31
0.0
  0
LINE
  5
32
330
A
100
AcDbEntity
  8
0
  6
Continuous
 62
     7
370
     0
100
AcDbLine
 10
43.5
 20
42.5
 30
0.0
 11
36.0
 21
42.5
 31
0.0
  0
LINE
  5
33
330
A
100
AcDbEntity
  8
0
  6
Continuous
 62
     7
370
     0
100
AcDbLine
 10
51.0
 20
42.5
 30
0.0
 11
43.5
 21
42.5
 31
0.0
  0
LINE
  5
34
330
A
100
AcDbEntity
  8
0
  6
Continuous
 62
     7
370
     0
100
AcDbLine
 10
58.5
 20
42.5
 30
0.0
 11
51.0
 21
42.5
 31
0.0
  0
LINE
  5
35
330
A
100
AcDbEntity
  8
0
  6
Continuous
 62
     7
370
     0
100
AcDbLine
 10
66.0
 20
11.75
 30
0.0
 11
66.5
 21
11.75
 31
0.0
  0
LINE
  5
36
330
A
100
AcDbEntity
  8
0
  6
Continuous
 62
     7
370
     0
100
AcDbLine
 10
66.0
 20
42.5
 30
0.0
 11
58.5
 21
42.5
 31
0.0
  0
LINE
  5
37
330
A
100
AcDbEntity
  8
0
  6
Continuous
 62
     7
370
     0
100
AcDbLine
 10
58.5
 20
42.5
 30
0.0
 11
58.5
 21
43.0
 31
0.0
  0
LINE
  5
38
330
A
100
AcDbEntity
  8
0
  6
Continuous
 62
     7
370
     0
100
AcDbLine
 10
51.0
 20
42.5
 30
0.0
 11
51.0
 21
43.0
 31
0.0
  0
LINE
  5
39
330
A
100
AcDbEntity
  8
0
  6
Continuous
 62
     7
370
     0
100
AcDbLine
 10
43.5
 20
42.5
 30
0.0
 11
43.5
 21
43.0
 31
0.0
  0
LINE
  5
3A
330
A
100
AcDbEntity
  8
0
  6
Continuous
 62
     7
370
     0
100
AcDbLine
 10
36.0
 20
42.5
 30
0.0
 11
36.0
 21
43.0
 31
0.0
  0
LINE
  5
3B
330
A
100
AcDbEntity
  8
0
  6
Continuous
 62
     7
370
     0
100
AcDbLine
 10
28.5
 20
42.5
 30
0.0
 11
28.5
 21
43.0
 31
0.0
  0
LINE
  5
3C
330
A
100
AcDbEntity
  8
0
  6
Continuous
 62
     7
370
     0
100
AcDbLine
 10
21.0
 20
42.5
 30
0.0
 11
21.0
 21
43.0
 31
0.0
  0
LINE
  5
3D
330
A
100
AcDbEntity
  8
0
  6
Continuous
 62
     7
370
     0
100
AcDbLine
 10
13.5
 20
42.5
 30
0.0
 11
13.5
 21
43.0
 31
0.0
  0
LINE
  5
3E
330
A
100
AcDbEntity
  8
0
  6
Continuous
 62
     7
370
     0
100
AcDbLine
 10
35.0
 20
6.759999999999999
 30
0.0
 11
35.0
 21
1.504
 31
0.0
  0
LINE
  5
3F
330
A
100
AcDbEntity
  8
0
  6
Continuous
 62
     7
370
     0
100
AcDbLine
 10
44.0
 20
9.5
 30
0.0
 11
66.0
 21
9.5
 31
0.0
  0
LINE
  5
40
330
A
100
AcDbEntity
  8
0
  6
Continuous
 62
     7
370
     0
100
AcDbLine
 10
44.0
 20
9.5
 30
0.0
 11
44.0
 21
1.5
 31
0.0
  0
LINE
  5
41
330
A
100
AcDbEntity
  8
0
  6
Continuous
 62
     7
370
     0
100
AcDbLine
 10
54.0
 20
9.5
 30
0.0
 11
54.0
 21
1.5
 31
0.0
  0
LINE
  5
42
330
A
100
AcDbEntity
  8
0
  6
Continuous
 62
     7
370
     0
100
AcDbLine
 10
54.0
 20
2.251999999999999
 30
0.0
 11
66.0
 21
2.251999999999999
 31
0.0
  0
LINE
  5
43
330
A
100
AcDbEntity
  8
0
  6
Continuous
 62
     7
370
     0
100
AcDbLine
 10
54.0
 20
3.751999999999999
 30
0.0
 11
66.0
 21
3.751999999999999
 31
0.0
  0
LINE
  5
44
330
A
100
AcDbEntity
  8
0
  6
Continuous
 62
     7
370
     0
100
AcDbLine
 10
54.0
 20
6.752
 30
0.0
 11
66.0
 21
6.752
 31
0.0
  0
LINE
  5
45
330
A
100
AcDbEntity
  8
0
  6
Continuous
 62
     7
370
     0
100
AcDbLine
 10
55.5
 20
3.751999999999999
 30
0.0
 11
55.5
 21
1.5
 31
0.0
  0
LINE
  5
46
330
A
100
AcDbEntity
  8
0
  6
Continuous
 62
     7
370
     0
100
AcDbLine
 10
35.0
 20
3.003999999999999
 30
0.0
 11
54.0
 21
3.003999999999999
 31
0.0
  0
LINE
  5
47
330
A
100
AcDbEntity
  8
0
  6
Continuous
 62
     7
370
     0
100
AcDbLine
 10
64.5
 20
3.751999999999999
 30
0.0
 11
64.5
 21
1.5
 31
0.0
  0
LINE
  5
48
330
A
100
AcDbEntity
  8
0
  6
Continuous
 62
     7
370
     0
100
AcDbLine
 10
54.0
 20
8.0
 30
0.0
 11
44.0
 21
8.0
 31
0.0
  0
LINE
  5
49
330
A
100
AcDbEntity
  8
0
  6
Continuous
 62
     7
370
     0
100
AcDbLine
 10
44.0
 20
4.748
 30
0.0
 11
54.0
 21
4.748
 31
0.0
  0
LINE
  5
4A
330
A
100
AcDbEntity
  8
0
  6
Continuous
 62
     7
370
     0
100
AcDbLine
 10
44.0
 20
2.251999999999999
 30
0.0
 11
54.0
 21
2.251999999999999
 31
0.0
  0
LINE
  5
4B
330
A
100
AcDbEntity
  8
0
  6
Continuous
 62
     7
370
     0
100
AcDbLine
 10
35.0
 20
5.256
 30
0.0
 11
44.0
 21
5.256
 31
0.0
  0
LINE
  5
4C
330
A
100
AcDbEntity
  8
0
  6
Continuous
 62
     7
370
     0
100
AcDbLine
 10
66.0
 20
11.75
 30
0.0
 11
66.0
 21
22.0
 31
0.0
  0
LINE
  5
4D
330
A
100
AcDbEntity
  8
0
  6
Continuous
 62
     7
370
     0
100
AcDbLine
 10
66.0
 20
22.0
 30
0.0
 11
66.0
 21
32.25
 31
0.0
  0
LINE
  5
4E
330
A
100
AcDbEntity
  8
0
  6
Continuous
 62
     7
370
     0
100
AcDbLine
 10
66.0
 20
32.25
 30
0.0
 11
66.0
 21
42.5
 31
0.0
  0
LINE
  5
4F
330
A
100
AcDbEntity
  8
0
  6
Continuous
 62
     7
370
     0
100
AcDbLine
 10
58.5
 20
1.5
 30
0.0
 11
51.0
 21
1.5
 31
0.0
  0
LINE
  5
50
330
A
100
AcDbEntity
  8
0
  6
Continuous
 62
     7
370
     0
100
AcDbLine
 10
51.0
 20
1.5
 30
0.0
 11
43.5
 21
1.5
 31
0.0
  0
LINE
  5
51
330
A
100
AcDbEntity
  8
0
  6
Continuous
 62
     7
370
     0
100
AcDbLine
 10
35.0
 20
6.007999999999999
 30
0.0
 11
44.0
 21
6.007999999999999
 31
0.0
  0
LINE
  5
52
330
A
100
AcDbEntity
  8
0
  6
Continuous
 62
     7
370
     0
100
AcDbLine
 10
35.0
 20
3.75
 30
0.0
 11
20.0
 21
3.75
 31
0.0
  0
LINE
  5
53
330
A
100
AcDbEntity
  8
0
  6
Continuous
 62
     7
370
     0
100
AcDbLine
 10
44.0
 20
6.759999999999999
 30
0.0
 11
35.0
 21
6.759999999999999
 31
0.0
  0
LINE
  5
54
330
A
100
AcDbEntity
  8
0
  6
Continuous
 62
     7
370
     0
100
AcDbLine
 10
41.0
 20
6.759999999999999
 30
0.0
 11
41.0
 21
4.503999999999999
 31
0.0
  0
LINE
  5
55
330
A
100
AcDbEntity
  8
0
  6
Continuous
 62
     7
370
     0
100
AcDbLine
 10
44.0
 20
7.247999999999999
 30
0.0
 11
54.0
 21
7.247999999999999
 31
0.0
  0
LINE
  5
56
330
A
100
AcDbEntity
  8
0
  6
Continuous
 62
     7
370
     0
100
AcDbLine
 10
35.0
 20
4.503999999999999
 30
0.0
 11
44.0
 21
4.503999999999999
 31
0.0
  0
LINE
  5
57
330
A
100
AcDbEntity
  8
0
  6
Continuous
 62
     7
370
     0
100
AcDbLine
 10
49.0
 20
8.0
 30
0.0
 11
49.0
 21
4.748
 31
0.0
  0
LINE
  5
58
330
A
100
AcDbEntity
  8
0
  6
Continuous
 62
     7
370
     0
100
AcDbLine
 10
43.5
 20
1.5
 30
0.0
 11
36.0
 21
1.5
 31
0.0
  0
LINE
  5
59
330
A
100
AcDbEntity
  8
0
  6
Continuous
 62
     7
370
     0
100
AcDbLine
 10
36.0
 20
1.5
 30
0.0
 11
28.5
 21
1.5
 31
0.0
  0
LINE
  5
5A
330
A
100
AcDbEntity
  8
0
  6
Continuous
 62
     7
370
     0
100
AcDbLine
 10
28.5
 20
1.5
 30
0.0
 11
21.0
 21
1.5
 31
0.0
  0
LINE
  5
5B
330
A
100
AcDbEntity
  8
0
  6
Continuous
 62
     7
370
     0
100
AcDbLine
 10
21.0
 20
1.5
 30
0.0
 11
13.5
 21
1.5
 31
0.0
  0
LINE
  5
5C
330
A
100
AcDbEntity
  8
0
  6
Continuous
 62
     7
370
     0
100
AcDbLine
 10
51.5
 20
8.0
 30
0.0
 11
51.5
 21
4.748
 31
0.0
  0
LINE
  5
5D
330
A
100
AcDbEntity
  8
0
  6
Continuous
 62
     7
370
     0
100
AcDbLine
 10
13.5
 20
1.5
 30
0.0
 11
6.0
 21
1.5
 31
0.0
  0
LINE
  5
5E
330
A
100
AcDbEntity
  8
0
  6
Continuous
 62
     7
370
     0
100
AcDbLine
 10
3.0
 20
42.5
 30
0.0
 11
3.0
 21
1.5
 31
0.0
  0
LINE
  5
5F
330
A
100
AcDbEntity
  8
0
  6
Continuous
 62
     7
370
     0
100
AcDbLine
 10
6.0
 20
11.75
 30
0.0
 11
6.0
 21
22.0
 31
0.0
  0
LINE
  5
60
330
A
100
AcDbEntity
  8
0
  6
Continuous
 62
     7
370
     0
100
AcDbLine
 10
6.0
 20
22.0
 30
0.0
 11
6.0
 21
32.25
 31
0.0
  0
LINE
  5
61
330
A
100
AcDbEntity
  8
0
  6
Continuous
 62
     7
370
     0
100
AcDbLine
 10
6.0
 20
32.25
 30
0.0
 11
6.0
 21
42.5
 31
0.0
  0
LINE
  5
62
330
A
100
AcDbEntity
  8
0
  6
Continuous
 62
     7
370
     0
100
AcDbLine
 10
6.0
 20
32.25
 30
0.0
 11
5.5
 21
32.25
 31
0.0
  0
LINE
  5
63
330
A
100
AcDbEntity
  8
0
  6
Continuous
 62
     7
370
     0
100
AcDbLine
 10
58.5
 20
1.5
 30
0.0
 11
58.5
 21
1.0
 31
0.0
  0
LINE
  5
64
330
A
100
AcDbEntity
  8
0
  6
Continuous
 62
     7
370
     0
100
AcDbLine
 10
51.0
 20
1.5
 30
0.0
 11
51.0
 21
1.0
 31
0.0
  0
LINE
  5
65
330
A
100
AcDbEntity
  8
0
  6
Continuous
 62
     7
370
     0
100
AcDbLine
 10
43.5
 20
1.5
 30
0.0
 11
43.5
 21
1.0
 31
0.0
  0
LINE
  5
66
330
A
100
AcDbEntity
  8
0
  6
CENTERX2
 62
     7
370
     0
100
AcDbLine
 10
36.0
 20
1.5
 30
0.0
 11
36.0
 21
1.0
 31
0.0
  0
LINE
  5
67
330
A
100
AcDbEntity
  8
0
  6
Continuous
 62
     7
370
     0
100
AcDbLine
 10
28.5
 20
1.5
 30
0.0
 11
28.5
 21
1.0
 31
0.0
  0
LINE
  5
68
330
A
100
AcDbEntity
  8
0
  6
Continuous
 62
     7
370
     0
100
AcDbLine
 10
21.0
 20
1.5
 30
0.0
 11
21.0
 21
1.0
 31
0.0
  0
LINE
  5
69
330
A
100
AcDbEntity
  8
0
  6
Continuous
 62
     7
370
     0
100
AcDbLine
 10
13.5
 20
1.5
 30
0.0
 11
13.5
 21
1.0
 31
0.0
  0
LINE
  5
6A
330
A
100
AcDbEntity
  8
0
  6
Continuous
 62
     7
370
     0
100
AcDbLine
 10
6.0
 20
22.0
 30
0.0
 11
5.5
 21
22.0
 31
0.0
  0
LINE
  5
6B
330
A
100
AcDbEntity
  8
0
  6
Continuous
 62
     7
370
     0
100
AcDbLine
 10
6.0
 20
11.75
 30
0.0
 11
5.5
 21
11.75
 31
0.0
  0
LINE
  5
6C
330
A
100
AcDbEntity
  8
0
  6
Continuous
 62
     7
370
     0
100
AcDbLine
 10
6.0
 20
1.5
 30
0.0
 11
6.0
 21
11.75
 31
0.0
  0
LINE
  5
6D
330
A
100
AcDbEntity
  8
0
  6
Continuous
 62
     7
370
     0
100
AcDbLine
 10
20.0
 20
3.75
 30
0.0
 11
20.0
 21
1.5
 31
0.0
  0
LINE
  5
6E
330
A
100
AcDbEntity
  8
0
  6
Continuous
 62
     7
370
     0
100
AcDbLine
 10
66.0
 20
41.748
 30
0.0
 11
50.0
 21
41.748
 31
0.0
  0
LINE
  5
6F
330
A
100
AcDbEntity
  8
0
  6
Continuous
 62
     7
370
     0
100
AcDbLine
 10
66.0
 20
40.996
 30
0.0
 11
50.0
 21
40.996
 31
0.0
  0
LINE
  5
70
330
A
100
AcDbEntity
  8
0
  6
Continuous
 62
     7
370
     0
100
AcDbLine
 10
66.0
 20
40.24399999999999
 30
0.0
 11
50.0
 21
40.24399999999999
 31
0.0
  0
LINE
  5
71
330
A
100
AcDbEntity
  8
0
  6
Continuous
 62
     7
370
     0
100
AcDbLine
 10
50.0
 20
42.5
 30
0.0
 11
50.0
 21
40.24399999999999
 31
0.0
  0
LINE
  5
72
330
A
100
AcDbEntity
  8
0
  6
Continuous
 62
     7
370
     0
100
AcDbLine
 10
51.5
 20
41.748
 30
0.0
 11
51.5
 21
40.24399999999999
 31
0.0
  0
LINE
  5
73
330
A
100
AcDbEntity
  8
0
  6
Continuous
 62
     7
370
     0
100
AcDbLine
 10
63.0
 20
41.748
 30
0.0
 11
63.0
 21
40.24399999999999
 31
0.0
  0
LINE
  5
74
330
A
100
AcDbEntity
  8
0
  6
Continuous
 62
     7
370
     0
100
AcDbLine
 10
60.5
 20
41.748
 30
0.0
 11
60.5
 21
40.24399999999999
 31
0.0
  0
MTEXT
  5
76
330
A
100
AcDbEntity
  8
0
 62
     1
100
AcDbMText
 10
35.11047267045046
 20
3.698574366499156
 30
0.0
 40
0.4
 41
0.0
 71
     1
 72
     1
  1
STEEL A-36, 1 3/8" THICK BURNED
  7
SLDTEXTSTYLE0
 73
     1
 44
1.0
  0
MTEXT
  5
77
330
A
100
AcDbEntity
  8
0
 62
     1
100
AcDbMText
 10
47.09490739284342
 20
2.778390939059462
 30
0.0
 40
0.4
 41
0.0
 71
     1
 72
     1
  1
96.1 lbs
  7
SLDTEXTSTYLE0
 73
     1
 44
1.0
  0
MTEXT
  5
78
330
A
100
AcDbEntity
  8
0
 62
     1
100
AcDbMText
 10
60.18018405742216
 20
12.27390738140956
 30
0.0
 40
0.6666666667
 41
0.0
 71
     2
 72
     1
  1
4 REQUIRED\PPER BASE ASSEM
  7
SLDTEXTSTYLE0
 73
     1
 44
1.0
  0
MTEXT
  5
79
330
A
100
AcDbEntity
  8
0
 62
     7
100
AcDbMText
 10
66.8535803182
 20
36.3546511702
 30
0.0
 40
0.375
 41
0.0
 71
     1
 72
     1
  1
D
  7
SLDTEXTSTYLE0
 73
     1
 44
1.0
  0
MTEXT
  5
7A
330
A
100
AcDbEntity
  8
0
 62
     7
100
AcDbMText
 10
66.7804233988
 20
26.184845899
 30
0.0
 40
0.375
 41
0.0
 71
     1
 72
     1
  1
C
  7
SLDTEXTSTYLE0
 73
     1
 44
1.0
  0
MTEXT
  5
7B
330
A
100
AcDbEntity
  8
0
 62
     7
100
AcDbMText
 10
66.8244832006
 20
16.8752606386
 30
0.0
 40
0.375
 41
0.0
 71
     1
 72
     1
  1
B
  7
SLDTEXTSTYLE0
 73
     1
 44
1.0
  0
MTEXT
  5
7C
330
A
100
AcDbEntity
  8
0
 62
     7
100
AcDbMText
 10
66.82220664039999
 20
6.855072833099999
 30
0.0
 40
0.375
 41
0.0
 71
     1
 72
     1
  1
A
  7
SLDTEXTSTYLE0
 73
     1
 44
1.0
  0
MTEXT
  5
7D
330
A
100
AcDbEntity
  8
0
 62
     7
100
AcDbMText
 10
3.8574103947
 20
6.773657474199999
 30
0.0
 40
0.375
 41
0.0
 71
     1
 72
     1
  1
A
  7
SLDTEXTSTYLE0
 73
     1
 44
1.0
  0
MTEXT
  5
7E
330
A
100
AcDbEntity
  8
0
 62
     7
100
AcDbMText
 10
3.8446380257
 20
17.1111811225
 30
0.0
 40
0.375
 41
0.0
 71
     1
 72
     1
  1
B
  7
SLDTEXTSTYLE0
 73
     1
 44
1.0
  0
MTEXT
  5
7F
330
A
100
AcDbEntity
  8
0
 62
     7
100
AcDbMText
 10
3.7953116217
 20
27.4969600264
 30
0.0
 40
0.375
 41
0.0
 71
     1
 72
     1
  1
C
  7
SLDTEXTSTYLE0
 73
     1
 44
1.0
  0
MTEXT
  5
80
330
A
100
AcDbEntity
  8
0
 62
     7
100
AcDbMText
 10
3.7821958485
 20
37.2258735343
 30
0.0
 40
0.375
 41
0.0
 71
     1
 72
     1
  1
D
  7
SLDTEXTSTYLE0
 73
     1
 44
1.0
  0
MTEXT
  5
81
330
A
100
AcDbEntity
  8
0
 62
     7
100
AcDbMText
 10
64.7432232461
 20
2.0787142358
 30
0.0
 40
0.36
 41
0.0
 71
     1
 72
     1
  1
REV.
  7
SLDTEXTSTYLE0
 73
     1
 44
1.0
  0
MTEXT
  5
82
330
A
100
AcDbEntity
  8
0
 62
     7
100
AcDbMText
 10
49.3963080474
 20
7.034763897799999
 30
0.0
 40
0.36
 41
0.0
 71
     1
 72
     1
  1
%%p\P%%p\P%%p\P%%p
  7
SLDTEXTSTYLE0
 73
     1
 44
1.0
  0
MTEXT
  5
83
330
A
100
AcDbEntity
  8
0
 62
     7
100
AcDbMText
 10
35.2477660994
 20
4.3899383999
 30
0.0
 40
0.36
 41
0.0
 71
     1
 72
     1
  1
MATERIAL
  7
SLDTEXTSTYLE0
 73
     1
 44
1.0
  0
MTEXT
  5
84
330
A
100
AcDbEntity
  8
0
 62
     7
100
AcDbMText
 10
35.23861362579999
 20
2.9266952275
 30
0.0
 40
0.36
 41
0.0
 71
     1
 72
     1
  1
FINISH
  7
SLDTEXTSTYLE0
 73
     1
 44
1.0
  0
MTEXT
  5
85
330
A
100
AcDbEntity
  8
0
 62
     7
100
AcDbMText
 10
63.2017320133
 20
1.287073523899999
 30
0.0
 40
0.375
 41
0.0
 71
     1
 72
     1
  1
1
  7
SLDTEXTSTYLE0
 73
     1
 44
1.0
  0
MTEXT
  5
86
330
A
100
AcDbEntity
  8
0
 62
     7
100
AcDbMText
 10
54.37754501609999
 20
1.3260431792
 30
0.0
 40
0.375
 41
0.0
 71
     1
 72
     1
  1
2
  7
SLDTEXTSTYLE0
 73
     1
 44
1.0
  0
MTEXT
  5
87
330
A
100
AcDbEntity
  8
0
 62
     7
100
AcDbMText
 10
46.14508672369999
 20
1.3390330643
 30
0.0
 40
0.375
 41
0.0
 71
     1
 72
     1
  1
3
  7
SLDTEXTSTYLE0
 73
     1
 44
1.0
  0
MTEXT
  5
88
330
A
100
AcDbEntity
  8
0
 62
     7
100
AcDbMText
 10
38.7267103229
 20
1.346979509399999
 30
0.0
 40
0.375
 41
0.0
 71
     1
 72
     1
  1
4
  7
SLDTEXTSTYLE0
 73
     1
 44
1.0
  0
MTEXT
  5
89
330
A
100
AcDbEntity
  8
0
 62
     7
100
AcDbMText
 10
30.92505867409999
 20
1.359969394499999
 30
0.0
 40
0.375
 41
0.0
 71
     1
 72
     1
  1
5
  7
SLDTEXTSTYLE0
 73
     1
 44
1.0
  0
MTEXT
  5
8A
330
A
100
AcDbEntity
  8
0
 62
     7
100
AcDbMText
 10
23.6408619944
 20
1.295019968899999
 30
0.0
 40
0.375
 41
0.0
 71
     1
 72
     1
  1
6
  7
SLDTEXTSTYLE0
 73
     1
 44
1.0
  0
MTEXT
  5
8B
330
A
100
AcDbEntity
  8
0
 62
     7
100
AcDbMText
 10
15.7209235146
 20
1.3520229494
 30
0.0
 40
0.375
 41
0.0
 71
     1
 72
     1
  1
7
  7
SLDTEXTSTYLE0
 73
     1
 44
1.0
  0
MTEXT
  5
8C
330
A
100
AcDbEntity
  8
0
 62
     7
100
AcDbMText
 10
8.592605456199999
 20
1.359969394499999
 30
0.0
 40
0.375
 41
0.0
 71
     1
 72
     1
  1
8
  7
SLDTEXTSTYLE0
 73
     1
 44
1.0
  0
MTEXT
  5
8D
330
A
100
AcDbEntity
  8
0
 62
     7
100
AcDbMText
 10
8.4691158123
 20
43.2347584853
 30
0.0
 40
0.375
 41
0.0
 71
     1
 72
     1
  1
8
  7
SLDTEXTSTYLE0
 73
     1
 44
1.0
  0
MTEXT
  5
8E
330
A
100
AcDbEntity
  8
0
 62
     7
100
AcDbMText
 10
16.281827991
 20
43.145609375
 30
0.0
 40
0.375
 41
0.0
 71
     1
 72
     1
  1
7
  7
SLDTEXTSTYLE0
 73
     1
 44
1.0
  0
MTEXT
  5
8F
330
A
100
AcDbEntity
  8
0
 62
     7
100
AcDbMText
 10
23.80685895889999
 20
43.11947482639999
 30
0.0
 40
0.375
 41
0.0
 71
     1
 72
     1
  1
6
  7
SLDTEXTSTYLE0
 73
     1
 44
1.0
  0
MTEXT
  5
90
330
A
100
AcDbEntity
  8
0
 62
     7
100
AcDbMText
 10
31.6247767236
 20
43.0720435981
 30
0.0
 40
0.375
 41
0.0
 71
     1
 72
     1
  1
5
  7
SLDTEXTSTYLE0
 73
     1
 44
1.0
  0
MTEXT
  5
91
330
A
100
AcDbEntity
  8
0
 62
     7
100
AcDbMText
 10
39.3952632601
 20
43.1873272569
 30
0.0
 40
0.375
 41
0.0
 71
     1
 72
     1
  1
4
  7
SLDTEXTSTYLE0
 73
     1
 44
1.0
  0
MTEXT
  5
92
330
A
100
AcDbEntity
  8
0
 62
     7
100
AcDbMText
 10
47.2052089631
 20
43.10458657549999
 30
0.0
 40
0.375
 41
0.0
 71
     1
 72
     1
  1
3
  7
SLDTEXTSTYLE0
 73
     1
 44
1.0
  0
MTEXT
  5
93
330
A
100
AcDbEntity
  8
0
 62
     7
100
AcDbMText
 10
54.68419194049999
 20
43.1534010417
 30
0.0
 40
0.375
 41
0.0
 71
     1
 72
     1
  1
2
  7
SLDTEXTSTYLE0
 73
     1
 44
1.0
  0
MTEXT
  5
94
330
A
100
AcDbEntity
  8
0
 62
     7
100
AcDbMText
 10
62.6675910681
 20
43.0869318489
 30
0.0
 40
0.375
 41
0.0
 71
     1
 72
     1
  1
1
  7
SLDTEXTSTYLE0
 73
     1
 44
1.0
  0
MTEXT
  5
95
330
A
100
AcDbEntity
  8
0
 62
     7
100
AcDbMText
 10
54.6217360465
 20
9.2028695439
 30
0.0
 40
0.6666666667
 41
0.0
 71
     1
 72
     1
  1
RADIO  ASTRONOMY  LAB
  7
SLDTEXTSTYLE0
 73
     1
 44
1.0
  0
MTEXT
  5
96
330
A
100
AcDbEntity
  8
0
 62
     7
100
AcDbMText
 10
60.0910315019
 20
8.0781964362
 30
0.0
 40
0.4
 41
0.0
 71
     2
 72
     1
  1
University of California - Berkeley\PTel: 510-642-5040    Fax: 510-642-3411
  7
SLDTEXTSTYLE0
 73
     1
 44
1.0
  0
MTEXT
  5
97
330
A
100
AcDbEntity
  8
0
 62
     7
100
AcDbMText
 10
37.5359397626
 20
6.5510375446
 30
0.0
 40
0.36
 41
0.0
 71
     1
 72
     1
  1
NAME
  7
SLDTEXTSTYLE0
 73
     1
 44
1.0
  0
MTEXT
  5
98
330
A
100
AcDbEntity
  8
0
 62
     7
100
AcDbMText
 10
41.96775689419999
 20
6.533313707999999
 30
0.0
 40
0.36
 41
0.0
 71
     1
 72
     1
  1
DATE
  7
SLDTEXTSTYLE0
 73
     1
 44
1.0
  0
MTEXT
  5
99
330
A
100
AcDbEntity
  8
0
 62
     7
100
AcDbMText
 10
54.3173217296
 20
2.096611452799999
 30
0.0
 40
0.36
 41
0.0
 71
     1
 72
     1
  1
SIZE
  7
SLDTEXTSTYLE0
 73
     1
 44
1.0
  0
MTEXT
  5
9A
330
A
100
AcDbEntity
  8
0
 62
     7
100
AcDbMText
 10
54.53799952229999
 20
3.376527868999999
 30
0.0
 40
0.75
 41
0.0
 71
     1
 72
     1
  1
B
  7
SLDTEXTSTYLE0
 73
     1
 44
1.0
  0
MTEXT
  5
9B
330
A
100
AcDbEntity
  8
0
 62
     7
100
AcDbMText
 10
44.31685140449999
 20
2.0514646827
 30
0.0
 40
0.36
 41
0.0
 71
     1
 72
     1
  1
SCALE:
  7
SLDTEXTSTYLE0
 73
     1
 44
1.0
  0
MTEXT
  5
9C
330
A
100
AcDbEntity
  8
0
 62
     7
100
AcDbMText
 10
55.69756231220001
 20
2.080001124799999
 30
0.0
 40
0.36
 41
0.0
 71
     1
 72
     1
  1
DWG NUM:      SHEET             OF
  7
SLDTEXTSTYLE0
 73
     1
 44
1.0
  0
MTEXT
  5
9D
330
A
100
AcDbEntity
  8
0
 62
     7
100
AcDbMText
 10
63.9951259177
 20
41.5412107411
 30
0.0
 40
0.36
 41
0.0
 71
     1
 72
     1
  1
DATE
  7
SLDTEXTSTYLE0
 73
     1
 44
1.0
  0
MTEXT
  5
9E
330
A
100
AcDbEntity
  8
0
 62
     7
100
AcDbMText
 10
61.20995431709999
 20
41.53949824139999
 30
0.0
 40
0.36
 41
0.0
 71
     1
 72
     1
  1
NAME
  7
SLDTEXTSTYLE0
 73
     1
 44
1.0
  0
MTEXT
  5
9F
330
A
100
AcDbEntity
  8
0
 62
     7
100
AcDbMText
 10
56.132295403
 20
42.2878586827
 30
0.0
 40
0.36
 41
0.0
 71
     1
 72
     1
  1
REVISIONS
  7
SLDTEXTSTYLE0
 73
     1
 44
1.0
  0
MTEXT
  5
A0
330
A
100
AcDbEntity
  8
0
 62
     7
100
AcDbMText
 10
50.3287943475
 20
41.533732966
 30
0.0
 40
0.36
 41
0.0
 71
     1
 72
     1
  1
REV
  7
SLDTEXTSTYLE0
 73
     1
 44
1.0
  0
MTEXT
  5
A1
330
A
100
AcDbEntity
  8
0
 62
     7
100
AcDbMText
 10
51.8498227663
 20
41.531562701
 30
0.0
 40
0.36
 41
0.0
 71
     1
 72
     1
  1
DESCRIPTION
  7
SLDTEXTSTYLE0
 73
     1
 44
1.0
  0
MTEXT
  5
A2
330
A
100
AcDbEntity
  8
0
 62
     7
100
AcDbMText
 10
44.296078711
 20
2.7937832593
 30
0.0
 40
0.36
 41
0.0
 71
     1
 72
     1
  1
WEIGHT:
  7
SLDTEXTSTYLE0
 73
     1
 44
1.0
  0
MTEXT
  5
A3
330
A
100
AcDbEntity
  8
0
 62
     7
100
AcDbMText
 10
35.2430564705
 20
5.7901778525
 30
0.0
 40
0.36
 41
0.0
 71
     1
 72
     1
  1
DRAWN
  7
SLDTEXTSTYLE0
 73
     1
 44
1.0
  0
MTEXT
  5
A4
330
A
100
AcDbEntity
  8
0
 62
     7
100
AcDbMText
 10
35.2421468027
 20
5.0453216955
 30
0.0
 40
0.36
 41
0.0
 71
     1
 72
     1
  1
CHECKED
  7
SLDTEXTSTYLE0
 73
     1
 44
1.0
  0
MTEXT
  5
A5
330
A
100
AcDbEntity
  8
0
 62
     7
100
AcDbMText
 10
48.6611171697
 20
7.015682038799999
 30
0.0
 40
0.36
 41
0.0
 71
     3
 72
     1
  1
WHOLE & FRACTION\PDECIMAL   X.X\PDECIMAL   X.XX\PDECIMAL   X.XXX
  7
SLDTEXTSTYLE0
 73
     1
 44
1.0
  0
MTEXT
  5
A6
330
A
100
AcDbEntity
  8
0
 62
     7
100
AcDbMText
 10
50.3491902811
 20
7.858944104299999
 30
0.0
 40
0.36
 41
0.0
 71
     2
 72
     1
  1
LINEAR
  7
SLDTEXTSTYLE0
 73
     1
 44
1.0
  0
MTEXT
  5
A7
330
A
100
AcDbEntity
  8
0
 62
     7
100
AcDbMText
 10
52.6712182055
 20
7.8830150626
 30
0.0
 40
0.36
 41
0.0
 71
     2
 72
     1
  1
ANGLE
  7
SLDTEXTSTYLE0
 73
     1
 44
1.0
  0
INSERT
  5
AE
330
A
100
AcDbEntity
  8
0
100
AcDbBlockReference
  2
NOTE50
 10
44.667986743
 20
4.3761790104
 30
0.0
  0
MTEXT
  5
AF
330
A
100
AcDbEntity
  8
0
 62
     7
100
AcDbMText
 10
48.9950139524
 20
9.2356113863
 30
0.0
 40
0.36
 41
0.0
 71
     2
 72
     1
  1
UNLESS OTHERWISE SPECIFIED\PDIMENSIONS ARE INCHES & DEGREES
  7
SLDTEXTSTYLE0
 73
     1
 44
1.0
  0
MTEXT
  5
B0
330
A
100
AcDbEntity
  8
0
 62
     7
100
AcDbMText
 10
44.80520043600001
 20
7.833473812
 30
0.0
 40
0.36
 41
0.0
 71
     1
 72
     1
  1
TOLERANCES:
  7
SLDTEXTSTYLE0
 73
     1
 44
1.0
  0
MTEXT
  5
B1
330
A
100
AcDbEntity
  8
0
 62
     7
100
AcDbMText
 10
51.821847405
 20
7.0312486711
 30
0.0
 40
0.36
 41
0.0
 71
     1
 72
     1
  1
%%p\P%%p\P%%p\P%%p
  7
SLDTEXTSTYLE0
 73
     1
 44
1.0
  0
MTEXT
  5
B2
330
A
100
AcDbEntity
  8
0
 62
     7
100
AcDbMText
 10
58.65360117409999
 20
41.54490574119999
 30
0.0
 40
0.36
 41
0.0
 71
     1
 72
     1
  1
ZONE
  7
SLDTEXTSTYLE0
 73
     1
 44
1.0
  0
MTEXT
  5
B3
330
A
100
AcDbEntity
  8
0
 62
     7
100
AcDbMText
 10
20.3808707277
 20
3.458266668699999
 30
0.0
 40
0.32
 41
0.0
 71
     1
 72
     1
  1
THIS DRAWING IS THE PROPERTY OF AND CONTAINS CONFIDENTIAL\PINFORMATION PROPRIETARY TO THE UNIVERSITY OF CALIFORNIA AND\PSHALL BE USED ONLY FOR THE PURPOSE FOR WHICH IT WAS PROVIDED\PAND SHALL NOT BE REPRODUCED OR DISCLOSED TO OTHERS.
  7
SLDTEXTSTYLE0
 73
     1
 44
1.0
  0
MTEXT
  5
B4
330
A
100
AcDbEntity
  8
0
 62
     7
100
AcDbMText
 10
50.5558344517
 20
40.81959670439999
 30
0.0
 40
0.36
 41
0.0
 71
     1
 72
     1
  1
A
  7
SLDTEXTSTYLE0
 73
     1
 44
1.0
  0
MTEXT
  5
B5
330
A
100
AcDbEntity
  8
0
 62
     7
100
AcDbMText
 10
51.9119836556
 20
40.8186060335
 30
0.0
 40
0.36
 41
0.0
 71
     1
 72
     1
  1
RELEASED
  7
SLDTEXTSTYLE0
 73
     1
 44
1.0
  0
MTEXT
  5
B6
330
A
100
AcDbEntity
  8
0
 62
     7
100
AcDbMText
 10
37.4766966926
 20
5.8405075573
 30
0.0
 40
0.4166666667000001
 41
0.0
 71
     1
 72
     1
  1
M. C. FLEMING
  7
SLDTEXTSTYLE0
 73
     1
 44
1.0
  0
MTEXT
  5
B7
330
A
100
AcDbEntity
  8
0
 62
     7
100
AcDbMText
 10
65.0084175521
 20
3.3082817912
 30
0.0
 40
0.75
 41
0.0
 71
     1
 72
     1
  1
A
  7
SLDTEXTSTYLE0
 73
     1
 44
1.0
  0
MTEXT
  5
B8
330
A
100
AcDbEntity
  8
0
 62
     7
100
AcDbMText
 10
41.2885611079
 20
5.8336167047
 30
0.0
 40
0.4166666667000001
 41
0.0
 71
     1
 72
     1
  1
2005-01-15
  7
SLDTEXTSTYLE0
 73
     1
 44
1.0
  0
MTEXT
  5
B9
330
A
100
AcDbEntity
  8
0
 62
     7
100
AcDbMText
 10
50.04964365300001
 20
7.039306895599999
 30
0.0
 40
0.36
 41
0.0
 71
     1
 72
     1
  1
1/32\P0.1\P0.01\P0.005
  7
SLDTEXTSTYLE0
 73
     1
 44
1.0
  0
MTEXT
  5
BA
330
A
100
AcDbEntity
  8
0
 62
     7
100
AcDbMText
 10
52.4099368779
 20
7.031500408999999
 30
0.0
 40
0.36
 41
0.0
 71
     1
 72
     1
  1
1%%d\P0.1%%d\P0.01%%d\P0.001%%d
  7
SLDTEXTSTYLE0
 73
     1
 44
1.0
  0
MTEXT
  5
BB
330
A
100
AcDbEntity
  8
0
 62
     7
100
AcDbMText
 10
56.32681204409999
 20
3.3806480451
 30
0.0
 40
0.75
 41
0.0
 71
     1
 72
     1
  1
24-09-252   1 of 1
  7
SLDTEXTSTYLE0
 73
     1
 44
1.0
  0
MTEXT
  5
BC
330
A
100
AcDbEntity
  8
0
 62
     7
100
AcDbMText
 10
61.1839129978
 20
40.8203446032
 30
0.0
 40
0.4166666667000001
 41
0.0
 71
     1
 72
     1
  1
M.C.F.
  7
SLDTEXTSTYLE0
 73
     1
 44
1.0
  0
MTEXT
  5
BD
330
A
100
AcDbEntity
  8
0
 62
     7
100
AcDbMText
 10
63.36789603899999
 20
40.8166095859
 30
0.0
 40
0.4166666667000001
 41
0.0
 71
     1
 72
     1
  1
2005-01-15
  7
SLDTEXTSTYLE0
 73
     1
 44
1.0
  0
MTEXT
  5
BE
330
A
100
AcDbEntity
  8
0
 62
     7
100
AcDbMText
 10
59.75471760600001
 20
6.1303452935
 30
0.0
 40
0.75
 41
0.0
 71
     2
 72
     1
  1
CARMA 6m Base,\PArm, Lifting Plate
  7
SLDTEXTSTYLE0
 73
     1
 44
1.0
  0
POINT
  5
BF
330
A
100
AcDbEntity
  8
0
 62
     1
100
AcDbPoint
 10
25.8034825636
 20
32.2107492851
 30
0.0
  0
POINT
  5
C0
330
A
100
AcDbEntity
  8
0
 62
     1
100
AcDbPoint
 10
25.8034825636
 20
17.8688737121
 30
0.0
  0
CIRCLE
  5
C1
330
A
100
AcDbEntity
  8
0
  6
Continuous
 62
     7
370
    15
100
AcDbCircle
 10
42.80348256359999
 20
22.5398114986
 30
0.0
 40
0.2655
  0
CIRCLE
  5
C2
330
A
100
AcDbEntity
  8
0
  6
Continuous
 62
     7
370
    15
100
AcDbCircle
 10
42.80348256359999
 20
22.5398114986
 30
0.0
 40
0.21095
  0
CIRCLE
  5
C3
330
A
100
AcDbEntity
  8
0
  6
Continuous
 62
     7
370
    15
100
AcDbCircle
 10
40.30348256359999
 20
25.0398114986
 30
0.0
 40
0.2655
  0
CIRCLE
  5
C4
330
A
100
AcDbEntity
  8
0
  6
Continuous
 62
     7
370
    15
100
AcDbCircle
 10
40.30348256359999
 20
25.0398114986
 30
0.0
 40
0.21095
  0
ARC
  5
C5
330
A
100
AcDbEntity
  8
0
  6
Continuous
 62
     7
370
    15
100
AcDbCircle
 10
26.3034825636
 20
31.6148724888
 30
0.0
 40
0.5
100
AcDbArc
 50
80.0
 51
180.0
  0
LINE
  5
C6
330
A
100
AcDbEntity
  8
0
  6
Continuous
 62
     7
370
    15
100
AcDbLine
 10
38.1154825065
 20
30.0398116582
 30
0.0
 11
26.3903066525
 21
32.1072763653
 31
0.0
  0
LINE
  5
C7
330
A
100
AcDbEntity
  8
0
  6
Continuous
 62
     7
370
    15
100
AcDbLine
 10
42.80348256359999
 20
30.0398114986
 30
0.0
 11
38.1154825065
 21
30.0398116582
 31
0.0
  0
ARC
  5
C8
330
A
100
AcDbEntity
  8
0
  6
Continuous
 62
     7
370
    15
100
AcDbCircle
 10
42.80348256359999
 20
25.0398114986
 30
0.0
 40
5.0
100
AcDbArc
 50
270.0
 51
90.0
  0
LINE
  5
C9
330
A
100
AcDbEntity
  8
0
  6
Continuous
 62
     7
370
    15
100
AcDbLine
 10
38.1154825065
 20
20.03981133899999
 30
0.0
 11
42.80348256359999
 21
20.03981149859999
 31
0.0
  0
LINE
  5
CA
330
A
100
AcDbEntity
  8
0
  6
Continuous
 62
     7
370
    15
100
AcDbLine
 10
26.3903066525
 20
17.9723466319
 30
0.0
 11
38.1154825065
 21
20.03981133899999
 31
0.0
  0
ARC
  5
CB
330
A
100
AcDbEntity
  8
0
  6
Continuous
 62
     7
370
    15
100
AcDbCircle
 10
26.3034825636
 20
18.46475050839999
 30
0.0
 40
0.5
100
AcDbArc
 50
180.0
 51
280.0
  0
LINE
  5
CC
330
A
100
AcDbEntity
  8
0
  6
Continuous
 62
     7
370
    15
100
AcDbLine
 10
25.8034825636
 20
31.6148724888
 30
0.0
 11
25.8034825636
 21
18.46475050839999
 31
0.0
  0
CIRCLE
  5
CD
330
A
100
AcDbEntity
  8
0
  6
Continuous
 62
     7
370
    15
100
AcDbCircle
 10
42.80348256359999
 20
25.0398114986
 30
0.0
 40
2.009999999999999
  0
CIRCLE
  5
CE
330
A
100
AcDbEntity
  8
0
  6
Continuous
 62
     7
370
    15
100
AcDbCircle
 10
31.1364825636
 20
25.0398114986
 30
0.0
 40
1.5
  0
CIRCLE
  5
CF
330
A
100
AcDbEntity
  8
0
  6
Continuous
 62
     7
370
    15
100
AcDbCircle
 10
45.30348256359999
 20
25.0398114986
 30
0.0
 40
0.2655
  0
CIRCLE
  5
D0
330
A
100
AcDbEntity
  8
0
  6
Continuous
 62
     7
370
    15
100
AcDbCircle
 10
42.80348256359999
 20
27.5398114986
 30
0.0
 40
0.2655
  0
CIRCLE
  5
D1
330
A
100
AcDbEntity
  8
0
  6
Continuous
 62
     7
370
    15
100
AcDbCircle
 10
45.30348256359999
 20
25.0398114986
 30
0.0
 40
0.21095
  0
CIRCLE
  5
D2
330
A
100
AcDbEntity
  8
0
  6
Continuous
 62
     7
370
    15
100
AcDbCircle
 10
42.80348256359999
 20
27.5398114986
 30
0.0
 40
0.21095
  0
DIMENSION
  5
E2
330
A
100
AcDbEntity
  8
0
100
AcDbDimension
  2
*D1
 10
18.9271266064
 20
17.8688737121
 30
0.0
 11
18.9271266064
 21
25.0398114986
 31
0.0
 70
   160
  1
<> TO \PSHARP CORNERS
 71
     5
 42
0.0
  3
SLDDIMSTYLE0
100
AcDbAlignedDimension
 13
25.8034825636
 23
32.2107492851
 33
0.0
 14
25.8034825636
 24
17.8688737121
 34
0.0
 50
90.0
100
AcDbRotatedDimension
  0
DIMENSION
  5
F0
330
A
100
AcDbEntity
  8
0
100
AcDbDimension
  2
*D2
 10
38.1154825636
 20
30.0398114986
 30
0.0
 11
27.60533378849999
 21
28.4401947028
 31
0.0
 70
   162
 71
     5
 42
0.0
  3
SLDDIMSTYLE1
100
AcDb2LineAngularDimension
 13
22.79263655469999
 23
25.0398114986
 33
0.0
 14
49.482463323
 24
25.0398114986
 34
0.0
 15
26.3903066525
 25
32.1072763653
 35
0.0
 16
27.79064877159999
 26
30.1322937348
 36
0.0
  0
DIMENSION
  5
FD
330
A
100
AcDbEntity
  8
0
100
AcDbDimension
  2
*D3
 10
26.3903066525
 20
17.9723466319
 30
0.0
 11
27.5842845336
 21
21.6375867232
 31
0.0
 70
   162
 71
     5
 42
0.0
  3
SLDDIMSTYLE1
100
AcDb2LineAngularDimension
 13
22.79263655469999
 23
25.0398114986
 33
0.0
 14
49.482463323
 24
25.0398114986
 34
0.0
 15
38.1154825636
 25
20.03981149859999
 35
0.0
 16
27.4728939584
 26
23.3370784864
 36
0.0
  0
DIMENSION
  5
10C
330
A
100
AcDbEntity
  8
0
100
AcDbDimension
  2
*D4
 10
47.80348256359999
 20
38.2663046827
 30
0.0
 11
36.8034825636
 21
38.2663046827
 31
0.0
 70
   160
  1
(<>)
 71
     5
 42
0.0
  3
SLDDIMSTYLE0
100
AcDbAlignedDimension
 13
25.8034825636
 23
31.6148724888
 33
0.0
 14
47.80348256359999
 24
25.0398114986
 34
0.0
100
AcDbRotatedDimension
  0
DIMENSION
  5
119
330
A
100
AcDbEntity
  8
0
100
AcDbDimension
  2
*D5
 10
54.75570216779999
 20
20.03981149859999
 30
0.0
 11
54.75570216779999
 21
25.0398114986
 31
0.0
 70
   160
 71
     5
 42
0.0
  3
SLDDIMSTYLE0
100
AcDbAlignedDimension
 13
42.80348256359999
 23
30.0398114986
 33
0.0
 14
42.80348256359999
 24
20.03981149859999
 34
0.0
 50
90.0
100
AcDbRotatedDimension
  0
DIMENSION
  5
126
330
A
100
AcDbEntity
  8
0
100
AcDbDimension
  2
*D6
 10
42.80348256359999
 20
36.10901910309999
 30
0.0
 11
34.3034825636
 21
36.10901910309999
 31
0.0
 70
   160
 71
     5
 42
0.0
  3
SLDDIMSTYLE0
100
AcDbAlignedDimension
 13
25.8034825636
 23
31.6148724888
 33
0.0
 14
42.80348256359999
 24
25.0398114986
 34
0.0
100
AcDbRotatedDimension
  0
DIMENSION
  5
133
330
A
100
AcDbEntity
  8
0
100
AcDbDimension
  2
*D7
 10
31.1364825636
 20
15.13033458029999
 30
0.0
 11
36.9699825636
 21
15.13033458029999
 31
0.0
 70
   160
 71
     5
 42
0.0
  3
SLDDIMSTYLE0
100
AcDbAlignedDimension
 13
42.80348256359999
 23
25.0398114986
 33
0.0
 14
31.1364825636
 24
25.0398114986
 34
0.0
100
AcDbRotatedDimension
  0
DIMENSION
  5
142
330
A
100
AcDbEntity
  8
0
100
AcDbDimension
  2
*D8
 10
38.1154825636
 20
33.55949978169999
 30
0.0
 11
31.9594825636
 21
33.55949978169999
 31
0.0
 70
   160
  1
(<>)
 71
     5
 42
0.0
  3
SLDDIMSTYLE0
100
AcDbAlignedDimension
 13
25.8034825636
 23
31.6148724888
 33
0.0
 14
38.1154825636
 24
30.0398114986
 34
0.0
100
AcDbRotatedDimension
  0
DIMENSION
  5
154
330
A
100
AcDbEntity
  8
0
100
AcDbDimension
  2
*D9
 10
45.1420209702
 20
25.17556884219999
 30
0.0
 11
60.2216185453
 21
17.07337365589999
 31
0.0
 70
   163
  1
<> DRILL THRU\P%%c.532 X 45%%d C-SINK BOTH SIDES\PTAP 1/2-13 THRU, 4 PLACES\PON 5.000 DIA BOLT CIRCLE\P\PSTUDS TO BE INSERTED FROM \PBOTTOM SIDE
 71
     5
 42
0.0
  3
SLDDIMSTYLE2
100
AcDbDiametricDimension
 15
45.46494415709999
 25
24.904054155
 35
0.0
 40
0.0
  0
DIMENSION
  5
162
330
A
100
AcDbEntity
  8
0
100
AcDbDimension
  2
*D10
 10
51.90960354689999
 20
27.5398114986
 30
0.0
 11
51.90960354689999
 21
26.2898114986
 31
0.0
 70
   160
 71
     5
 42
0.0
  3
SLDDIMSTYLE3
100
AcDbAlignedDimension
 13
49.482463323
 23
25.0398114986
 33
0.0
 14
42.80348256359999
 24
27.5398114986
 34
0.0
 50
90.0
100
AcDbRotatedDimension
  0
DIMENSION
  5
16F
330
A
100
AcDbEntity
  8
0
100
AcDbDimension
  2
*D11
 10
31.45796133719999
 20
26.50495701969999
 30
0.0
 11
25.3660609476
 21
13.4619369503
 31
0.0
 70
   163
  1
<> DIA\PBURNED OKAY\PPLEASE DEBURR
 71
     5
 42
0.0
  3
SLDDIMSTYLE2
100
AcDbDiametricDimension
 15
30.8150037901
 25
23.57466597739999
 35
0.0
 40
0.0
  0
DIMENSION
  5
17D
330
A
100
AcDbEntity
  8
0
100
AcDbDimension
  2
*D12
 10
42.0457221532
 20
26.9015040512
 30
0.0
 11
49.5077754375
 21
15.4752568627
 31
0.0
 70
   163
  1
<>\PDEBURR
 71
     5
 42
0.0
  3
SLDDIMSTYLE4
100
AcDbDiametricDimension
 15
43.561242974
 25
23.17811894599999
 35
0.0
 40
0.0
  0
DIMENSION
  5
189
330
A
100
AcDbEntity
  8
0
100
AcDbDimension
  2
*D13
 10
42.80348256359999
 20
25.0398114986
 30
0.0
 11
49.9123075154
 21
18.8772806989
 31
0.0
 70
   164
  1
<> RAD
 71
     5
 42
0.0
  3
SLDDIMSTYLE5
100
AcDbRadialDimension
 15
45.94566821189999
 25
21.15050958799999
 35
0.0
 40
0.0
  0
DIMENSION
  5
195
330
A
100
AcDbEntity
  8
0
100
AcDbDimension
  2
*D14
 10
26.3034825636
 20
18.46475050839999
 30
0.0
 11
21.2810148577
 21
15.9405082139
 31
0.0
 70
   164
  1
<> RAD\P2 PLACES
 71
     5
 42
0.0
  3
SLDDIMSTYLE5
100
AcDbRadialDimension
 15
25.9452536182
 25
18.11593533859999
 35
0.0
 40
0.0
  0
DIMENSION
  5
1A2
330
A
100
AcDbEntity
  8
0
 62
     7
100
AcDbDimension
  2
*D15
 10
38.1154825636
 20
33.5345816713
 30
0.0
 11
40.4507258053
 21
33.5345816713
 31
0.0
 70
   160
 71
     5
 42
0.0
  3
SLDDIMSTYLE0
100
AcDbAlignedDimension
 13
42.80348256359999
 23
25.0398114986
 33
0.0
 14
38.1154825636
 24
30.0398114986
 34
0.0
100
AcDbRotatedDimension
  0
CIRCLE
  5
1A3
330
A
100
AcDbEntity
  8
0
  6
HIDDEN
 62
     7
100
AcDbCircle
 10
45.30348256359999
 20
25.0398114986
 30
0.0
 40
0.25
  0
CIRCLE
  5
1A4
330
A
100
AcDbEntity
  8
0
  6
HIDDEN
 62
     7
100
AcDbCircle
 10
42.80348256359999
 20
22.5398114986
 30
0.0
 40
0.25
  0
CIRCLE
  5
1A5
330
A
100
AcDbEntity
  8
0
  6
HIDDEN
 62
     7
100
AcDbCircle
 10
40.30348256359999
 20
25.0398114986
 30
0.0
 40
0.25
  0
CIRCLE
  5
1A6
330
A
100
AcDbEntity
  8
0
  6
HIDDEN
 62
     7
100
AcDbCircle
 10
42.80348256359999
 20
27.5398114986
 30
0.0
 40
0.25
  0
LINE
  5
1A7
330
A
100
AcDbEntity
  8
0
  6
CENTERX2
 62
     7
370
     0
100
AcDbLine
 10
22.79263655469999
 20
25.0398114986
 30
0.0
 11
49.482463323
 21
25.0398114986
 31
0.0
  0
LINE
  5
1A8
330
A
100
AcDbEntity
  8
0
  6
Continuous
 62
     7
370
    15
100
AcDbLine
 10
11.2517243167
 20
17.96475050839999
 30
0.0
 11
12.6897243167
 21
17.96475050839999
 31
0.0
  0
LINE
  5
1A9
330
A
100
AcDbEntity
  8
0
  6
Continuous
 62
     7
370
    15
100
AcDbLine
 10
12.6897243167
 20
32.1148724888
 30
0.0
 11
11.2517243167
 21
32.1148724888
 31
0.0
  0
LINE
  5
1AA
330
A
100
AcDbEntity
  8
0
  6
Continuous
 62
     7
370
    15
100
AcDbLine
 10
11.2517243167
 20
18.46475050839999
 30
0.0
 11
12.6897243167
 21
18.46475050839999
 31
0.0
  0
LINE
  5
1AB
330
A
100
AcDbEntity
  8
0
  6
Continuous
 62
     7
370
    15
100
AcDbLine
 10
12.6897243167
 20
18.46475050839999
 30
0.0
 11
12.6897243167
 21
17.96475050839999
 31
0.0
  0
LINE
  5
1AC
330
A
100
AcDbEntity
  8
0
  6
Continuous
 62
     7
370
    15
100
AcDbLine
 10
11.2517243167
 20
17.96475050839999
 30
0.0
 11
11.2517243167
 21
18.46475050839999
 31
0.0
  0
LINE
  5
1AD
330
A
100
AcDbEntity
  8
0
  6
Continuous
 62
     7
370
    15
100
AcDbLine
 10
12.6897243167
 20
31.6148724888
 30
0.0
 11
11.2517243167
 21
31.6148724888
 31
0.0
  0
LINE
  5
1AE
330
A
100
AcDbEntity
  8
0
  6
Continuous
 62
     7
370
    15
100
AcDbLine
 10
12.6897243167
 20
31.6148724888
 30
0.0
 11
12.6897243167
 21
18.46475050839999
 31
0.0
  0
LINE
  5
1AF
330
A
100
AcDbEntity
  8
0
  6
Continuous
 62
     7
370
    15
100
AcDbLine
 10
11.2517243167
 20
31.6148724888
 30
0.0
 11
11.2517243167
 21
18.46475050839999
 31
0.0
  0
LINE
  5
1B0
330
A
100
AcDbEntity
  8
0
  6
Continuous
 62
     7
370
    15
100
AcDbLine
 10
12.6897243167
 20
32.1148724888
 30
0.0
 11
12.6897243167
 21
31.6148724888
 31
0.0
  0
LINE
  5
1B1
330
A
100
AcDbEntity
  8
0
  6
Continuous
 62
     7
370
    15
100
AcDbLine
 10
11.2517243167
 20
31.6148724888
 30
0.0
 11
11.2517243167
 21
32.1148724888
 31
0.0
  0
DIMENSION
  5
1C4
330
A
100
AcDbEntity
  8
0
100
AcDbDimension
  2
*D16
 10
12.6897243167
 20
37.7358001767
 30
0.0
 11
16.9705183789
 21
37.7358001767
 31
0.0
 70
   160
  1
<> \PBLANCHARD GRIND\PBOTH SIDES FROM\P1 1/2" STOCK
 71
     5
 42
0.0
  3
SLDDIMSTYLE6
100
AcDbAlignedDimension
 13
11.2517243167
 23
31.6148724888
 33
0.0
 14
12.6897243167
 24
31.6148724888
 34
0.0
100
AcDbRotatedDimension
  0
LINE
  5
1C5
330
A
100
AcDbEntity
  8
0
  6
Continuous
 62
     7
370
    15
100
AcDbLine
 10
19.613167779
 20
5.875801608699999
 30
0.0
 11
19.613167779
 21
6.462894452499999
 31
0.0
  0
LINE
  5
1C6
330
A
100
AcDbEntity
  8
0
  6
Continuous
 62
     7
370
    15
100
AcDbLine
 10
8.704901727799999
 20
8.488594631699999
 30
0.0
 11
8.704901727799999
 21
7.901501787999999
 31
0.0
  0
POLYLINE
  5
1C7
330
A
100
AcDbEntity
  8
0
  6
Continuous
 62
     7
100
AcDb2dPolyline
 66
     1
 10
0.0
 20
0.0
 30
0.0
 70
   128
 40
0.0023622047
 41
0.0023622047
  0
VERTEX
  5
1C8
330
1C7
100
AcDbEntity
  8
0
100
AcDbVertex
100
AcDb2dVertex
 10
13.8089599517
 20
11.25534085289999
 30
0.0
  0
VERTEX
  5
1C9
330
1C7
100
AcDbEntity
  8
0
100
AcDbVertex
100
AcDb2dVertex
 10
13.7809486359
 20
11.2746122097
 30
0.0
  0
VERTEX
  5
1CA
330
1C7
100
AcDbEntity
  8
0
100
AcDbVertex
100
AcDb2dVertex
 10
13.74756604969999
 20
11.29078279809999
 30
0.0
  0
VERTEX
  5
1CB
330
1C7
100
AcDbEntity
  8
0
100
AcDbVertex
100
AcDb2dVertex
 10
13.7098265061
 20
11.30336128299999
 30
0.0
  0
VERTEX
  5
1CC
330
1C7
100
AcDbEntity
  8
0
100
AcDbVertex
100
AcDb2dVertex
 10
13.6688767019
 20
11.31196547329999
 30
0.0
  0
VERTEX
  5
1CD
330
1C7
100
AcDbEntity
  8
0
100
AcDbVertex
100
AcDb2dVertex
 10
13.6259608763
 20
11.3163339353
 30
0.0
  0
VERTEX
  5
1CE
330
1C7
100
AcDbEntity
  8
0
100
AcDbVertex
100
AcDb2dVertex
 10
13.582383005
 20
11.3163339353
 30
0.0
  0
VERTEX
  5
1CF
330
1C7
100
AcDbEntity
  8
0
100
AcDbVertex
100
AcDb2dVertex
 10
13.5394671794
 20
11.31196547329999
 30
0.0
  0
VERTEX
  5
1D0
330
1C7
100
AcDbEntity
  8
0
100
AcDbVertex
100
AcDb2dVertex
 10
13.4985173752
 20
11.30336128299999
 30
0.0
  0
VERTEX
  5
1D1
330
1C7
100
AcDbEntity
  8
0
100
AcDbVertex
100
AcDb2dVertex
 10
13.4607778316
 20
11.29078279809999
 30
0.0
  0
VERTEX
  5
1D2
330
1C7
100
AcDbEntity
  8
0
100
AcDbVertex
100
AcDb2dVertex
 10
13.4273952453
 20
11.2746122097
 30
0.0
  0
SEQEND
  5
1D3
330
1C7
100
AcDbEntity
  8
0
  0
LINE
  5
1D4
330
A
100
AcDbEntity
  8
0
  6
Continuous
 62
     7
370
    15
100
AcDbLine
 10
17.2234764369
 20
8.4402348993
 30
0.0
 11
13.8089599517
 21
11.25534085289999
 31
0.0
  0
LINE
  5
1D5
330
A
100
AcDbEntity
  8
0
  6
Continuous
 62
     7
370
    15
100
AcDbLine
 10
18.880934732
 20
7.4834045922
 30
0.0
 11
17.2234764369
 21
8.4402348993
 31
0.0
  0
POLYLINE
  5
1D6
330
A
100
AcDbEntity
  8
0
  6
Continuous
 62
     7
100
AcDb2dPolyline
 66
     1
 10
0.0
 20
0.0
 30
0.0
 70
   128
 40
0.0023622047
 41
0.0023622047
  0
VERTEX
  5
1D7
330
1D6
100
AcDbEntity
  8
0
100
AcDbVertex
100
AcDb2dVertex
 10
15.34540082599999
 20
5.442384312699999
 30
0.0
  0
VERTEX
  5
1D8
330
1D6
100
AcDbEntity
  8
0
100
AcDbVertex
100
AcDb2dVertex
 10
15.4419906916
 20
5.389516917
 30
0.0
  0
VERTEX
  5
1D9
330
1D6
100
AcDbEntity
  8
0
100
AcDbVertex
100
AcDb2dVertex
 10
15.5433176902
 20
5.3396921266
 30
0.0
  0
VERTEX
  5
1DA
330
1D6
100
AcDbEntity
  8
0
100
AcDbVertex
100
AcDb2dVertex
 10
15.64909459949999
 20
5.293051175199999
 30
0.0
  0
VERTEX
  5
1DB
330
1D6
100
AcDbEntity
  8
0
100
AcDbVertex
100
AcDb2dVertex
 10
15.75902158319999
 20
5.2497262717
 30
0.0
  0
VERTEX
  5
1DC
330
1D6
100
AcDbEntity
  8
0
100
AcDbVertex
100
AcDb2dVertex
 10
15.8727870415
 20
5.209840225199999
 30
0.0
  0
VERTEX
  5
1DD
330
1D6
100
AcDbEntity
  8
0
100
AcDbVertex
100
AcDb2dVertex
 10
15.9900684937
 20
5.173506097099999
 30
0.0
  0
VERTEX
  5
1DE
330
1D6
100
AcDbEntity
  8
0
100
AcDbVertex
100
AcDb2dVertex
 10
16.1105334929
 20
5.140826880299999
 30
0.0
  0
VERTEX
  5
1DF
330
1D6
100
AcDbEntity
  8
0
100
AcDbVertex
100
AcDb2dVertex
 10
16.23384056789999
 20
5.111895207699999
 30
0.0
  0
VERTEX
  5
1E0
330
1D6
100
AcDbEntity
  8
0
100
AcDbVertex
100
AcDb2dVertex
 10
16.3596401914
 20
5.0867930892
 30
0.0
  0
VERTEX
  5
1E1
330
1D6
100
AcDbEntity
  8
0
100
AcDbVertex
100
AcDb2dVertex
 10
16.48757577069999
 20
5.065591679599999
 30
0.0
  0
VERTEX
  5
1E2
330
1D6
100
AcDbEntity
  8
0
100
AcDbVertex
100
AcDb2dVertex
 10
16.61728465849999
 20
5.048351076499999
 30
0.0
  0
VERTEX
  5
1E3
330
1D6
100
AcDbEntity
  8
0
100
AcDbVertex
100
AcDb2dVertex
 10
16.74839918089999
 20
5.0351201502
 30
0.0
  0
VERTEX
  5
1E4
330
1D6
100
AcDbEntity
  8
0
100
AcDbVertex
100
AcDb2dVertex
 10
16.88054767959999
 20
5.0259364054
 30
0.0
  0
VERTEX
  5
1E5
330
1D6
100
AcDbEntity
  8
0
100
AcDbVertex
100
AcDb2dVertex
 10
17.0133555652
 20
5.020825874199999
 30
0.0
  0
VERTEX
  5
1E6
330
1D6
100
AcDbEntity
  8
0
100
AcDbVertex
100
AcDb2dVertex
 10
17.1464463793
 20
5.019803043099999
 30
0.0
  0
VERTEX
  5
1E7
330
1D6
100
AcDbEntity
  8
0
100
AcDbVertex
100
AcDb2dVertex
 10
17.2794428616
 20
5.022870811399999
 30
0.0
  0
VERTEX
  5
1E8
330
1D6
100
AcDbEntity
  8
0
100
AcDbVertex
100
AcDb2dVertex
 10
17.4119680192
 20
5.030020483199999
 30
0.0
  0
VERTEX
  5
1E9
330
1D6
100
AcDbEntity
  8
0
100
AcDbVertex
100
AcDb2dVertex
 10
17.543646195
 20
5.041231791899999
 30
0.0
  0
VERTEX
  5
1EA
330
1D6
100
AcDbEntity
  8
0
100
AcDbVertex
100
AcDb2dVertex
 10
17.674104133
 20
5.0564729579
 30
0.0
  0
VERTEX
  5
1EB
330
1D6
100
AcDbEntity
  8
0
100
AcDbVertex
100
AcDb2dVertex
 10
17.80297203589999
 20
5.075700778399999
 30
0.0
  0
VERTEX
  5
1EC
330
1D6
100
AcDbEntity
  8
0
100
AcDbVertex
100
AcDb2dVertex
 10
17.9298846137
 20
5.0988607501
 30
0.0
  0
VERTEX
  5
1ED
330
1D6
100
AcDbEntity
  8
0
100
AcDbVertex
100
AcDb2dVertex
 10
18.0544821189
 20
5.1258872235
 30
0.0
  0
VERTEX
  5
1EE
330
1D6
100
AcDbEntity
  8
0
100
AcDbVertex
100
AcDb2dVertex
 10
18.17641136639999
 20
5.1567035892
 30
0.0
  0
VERTEX
  5
1EF
330
1D6
100
AcDbEntity
  8
0
100
AcDbVertex
100
AcDb2dVertex
 10
18.2953267344
 20
5.191222494699999
 30
0.0
  0
VERTEX
  5
1F0
330
1D6
100
AcDbEntity
  8
0
100
AcDbVertex
100
AcDb2dVertex
 10
18.41089114429999
 20
5.2293460926
 30
0.0
  0
VERTEX
  5
1F1
330
1D6
100
AcDbEntity
  8
0
100
AcDbVertex
100
AcDb2dVertex
 10
18.5227770165
 20
5.2709663174
 30
0.0
  0
VERTEX
  5
1F2
330
1D6
100
AcDbEntity
  8
0
100
AcDbVertex
100
AcDb2dVertex
 10
18.630667198
 20
5.315965192
 30
0.0
  0
VERTEX
  5
1F3
330
1D6
100
AcDbEntity
  8
0
100
AcDbVertex
100
AcDb2dVertex
 10
18.7342558626
 20
5.364215162099999
 30
0.0
  0
VERTEX
  5
1F4
330
1D6
100
AcDbEntity
  8
0
100
AcDbVertex
100
AcDb2dVertex
 10
18.8332493769
 20
5.415579458099999
 30
0.0
  0
VERTEX
  5
1F5
330
1D6
100
AcDbEntity
  8
0
100
AcDbVertex
100
AcDb2dVertex
 10
18.92736713309999
 20
5.4699124822
 30
0.0
  0
VERTEX
  5
1F6
330
1D6
100
AcDbEntity
  8
0
100
AcDbVertex
100
AcDb2dVertex
 10
19.016342344
 20
5.527060221599999
 30
0.0
  0
VERTEX
  5
1F7
330
1D6
100
AcDbEntity
  8
0
100
AcDbVertex
100
AcDb2dVertex
 10
19.09992279989999
 20
5.5868606848
 30
0.0
  0
VERTEX
  5
1F8
330
1D6
100
AcDbEntity
  8
0
100
AcDbVertex
100
AcDb2dVertex
 10
19.17787158279999
 20
5.6491443608
 30
0.0
  0
VERTEX
  5
1F9
330
1D6
100
AcDbEntity
  8
0
100
AcDbVertex
100
AcDb2dVertex
 10
19.2499677385
 20
5.713734699999999
 30
0.0
  0
VERTEX
  5
1FA
330
1D6
100
AcDbEntity
  8
0
100
AcDbVertex
100
AcDb2dVertex
 10
19.31600690249999
 20
5.780448613799999
 30
0.0
  0
VERTEX
  5
1FB
330
1D6
100
AcDbEntity
  8
0
100
AcDbVertex
100
AcDb2dVertex
 10
19.3758018797
 20
5.8490969945
 30
0.0
  0
VERTEX
  5
1FC
330
1D6
100
AcDbEntity
  8
0
100
AcDbVertex
100
AcDb2dVertex
 10
19.4291831748
 20
5.9194852508
 30
0.0
  0
VERTEX
  5
1FD
330
1D6
100
AcDbEntity
  8
0
100
AcDbVertex
100
AcDb2dVertex
 10
19.47599947249999
 20
5.9914138595
 30
0.0
  0
VERTEX
  5
1FE
330
1D6
100
AcDbEntity
  8
0
100
AcDbVertex
100
AcDb2dVertex
 10
19.51611806709999
 20
6.0646789312
 30
0.0
  0
VERTEX
  5
1FF
330
1D6
100
AcDbEntity
  8
0
100
AcDbVertex
100
AcDb2dVertex
 10
19.54942523799999
 20
6.139072788099999
 30
0.0
  0
VERTEX
  5
200
330
1D6
100
AcDbEntity
  8
0
100
AcDbVertex
100
AcDb2dVertex
 10
19.57582657249999
 20
6.2143845526
 30
0.0
  0
VERTEX
  5
201
330
1D6
100
AcDbEntity
  8
0
100
AcDbVertex
100
AcDb2dVertex
 10
19.5952472331
 20
6.290400745399999
 30
0.0
  0
VERTEX
  5
202
330
1D6
100
AcDbEntity
  8
0
100
AcDbVertex
100
AcDb2dVertex
 10
19.6076321698
 20
6.366905890399999
 30
0.0
  0
VERTEX
  5
203
330
1D6
100
AcDbEntity
  8
0
100
AcDbVertex
100
AcDb2dVertex
 10
19.6129462761
 20
6.443683125399999
 30
0.0
  0
VERTEX
  5
204
330
1D6
100
AcDbEntity
  8
0
100
AcDbVertex
100
AcDb2dVertex
 10
19.61117448869999
 20
6.520514817
 30
0.0
  0
VERTEX
  5
205
330
1D6
100
AcDbEntity
  8
0
100
AcDbVertex
100
AcDb2dVertex
 10
19.60232182989999
 20
6.597183177399999
 30
0.0
  0
VERTEX
  5
206
330
1D6
100
AcDbEntity
  8
0
100
AcDbVertex
100
AcDb2dVertex
 10
19.58641339349999
 20
6.6734708819
 30
0.0
  0
VERTEX
  5
207
330
1D6
100
AcDbEntity
  8
0
100
AcDbVertex
100
AcDb2dVertex
 10
19.56349427369999
 20
6.7491616845
 30
0.0
  0
VERTEX
  5
208
330
1D6
100
AcDbEntity
  8
0
100
AcDbVertex
100
AcDb2dVertex
 10
19.5336294373
 20
6.824041031599999
 30
0.0
  0
VERTEX
  5
209
330
1D6
100
AcDbEntity
  8
0
100
AcDbVertex
100
AcDb2dVertex
 10
19.4969035392
 20
6.8978966695
 30
0.0
  0
VERTEX
  5
20A
330
1D6
100
AcDbEntity
  8
0
100
AcDbVertex
100
AcDb2dVertex
 10
19.4534206832
 20
6.9705192463
 30
0.0
  0
VERTEX
  5
20B
330
1D6
100
AcDbEntity
  8
0
100
AcDbVertex
100
AcDb2dVertex
 10
19.4033041261
 20
7.041702905499999
 30
0.0
  0
VERTEX
  5
20C
330
1D6
100
AcDbEntity
  8
0
100
AcDbVertex
100
AcDb2dVertex
 10
19.34669592869999
 20
7.111245869299999
 30
0.0
  0
VERTEX
  5
20D
330
1D6
100
AcDbEntity
  8
0
100
AcDbVertex
100
AcDb2dVertex
 10
19.28375655299999
 20
7.178951010499999
 30
0.0
  0
VERTEX
  5
20E
330
1D6
100
AcDbEntity
  8
0
100
AcDbVertex
100
AcDb2dVertex
 10
19.21466440769999
 20
7.244626411599999
 30
0.0
  0
VERTEX
  5
20F
330
1D6
100
AcDbEntity
  8
0
100
AcDbVertex
100
AcDb2dVertex
 10
19.1396153419
 20
7.308085908599999
 30
0.0
  0
VERTEX
  5
210
330
1D6
100
AcDbEntity
  8
0
100
AcDbVertex
100
AcDb2dVertex
 10
19.05882209019999
 20
7.369149618499999
 30
0.0
  0
VERTEX
  5
211
330
1D6
100
AcDbEntity
  8
0
100
AcDbVertex
100
AcDb2dVertex
 10
18.97251367009999
 20
7.4276444497
 30
0.0
  0
VERTEX
  5
212
330
1D6
100
AcDbEntity
  8
0
100
AcDbVertex
100
AcDb2dVertex
 10
18.880934732
 20
7.4834045922
 30
0.0
  0
SEQEND
  5
213
330
1D6
100
AcDbEntity
  8
0
  0
LINE
  5
214
330
A
100
AcDbEntity
  8
0
  6
Continuous
 62
     7
370
    15
100
AcDbLine
 10
13.68794253089999
 20
6.3992146197
 30
0.0
 11
15.34540082599999
 21
5.442384312699999
 31
0.0
  0
LINE
  5
215
330
A
100
AcDbEntity
  8
0
  6
Continuous
 62
     7
370
    15
100
AcDbLine
 10
8.8115076187
 20
8.370373029299999
 30
0.0
 11
13.68794253089999
 21
6.3992146197
 31
0.0
  0
POLYLINE
  5
216
330
A
100
AcDbEntity
  8
0
  6
Continuous
 62
     7
100
AcDb2dPolyline
 66
     1
 10
0.0
 20
0.0
 30
0.0
 70
   128
 40
0.0023622047
 41
0.0023622047
  0
VERTEX
  5
217
330
216
100
AcDbEntity
  8
0
100
AcDbVertex
100
AcDb2dVertex
 10
8.7781250325
 20
8.5906456457
 30
0.0
  0
VERTEX
  5
218
330
216
100
AcDbEntity
  8
0
100
AcDbVertex
100
AcDb2dVertex
 10
8.750113716699999
 20
8.571374288899999
 30
0.0
  0
VERTEX
  5
219
330
216
100
AcDbEntity
  8
0
100
AcDbVertex
100
AcDb2dVertex
 10
8.728324780999999
 20
8.549587714099999
 30
0.0
  0
VERTEX
  5
21A
330
216
100
AcDbEntity
  8
0
100
AcDbVertex
100
AcDb2dVertex
 10
8.7134202712
 20
8.525947895299999
 30
0.0
  0
VERTEX
  5
21B
330
216
100
AcDbEntity
  8
0
100
AcDbVertex
100
AcDb2dVertex
 10
8.7058530532
 20
8.5011731165
 30
0.0
  0
VERTEX
  5
21C
330
216
100
AcDbEntity
  8
0
100
AcDbVertex
100
AcDb2dVertex
 10
8.7058530532
 20
8.476016146900001
 30
0.0
  0
VERTEX
  5
21D
330
216
100
AcDbEntity
  8
0
100
AcDbVertex
100
AcDb2dVertex
 10
8.7134202712
 20
8.451241368099999
 30
0.0
  0
VERTEX
  5
21E
330
216
100
AcDbEntity
  8
0
100
AcDbVertex
100
AcDb2dVertex
 10
8.728324780999999
 20
8.4276015494
 30
0.0
  0
VERTEX
  5
21F
330
216
100
AcDbEntity
  8
0
100
AcDbVertex
100
AcDb2dVertex
 10
8.750113716699999
 20
8.4058149745
 30
0.0
  0
VERTEX
  5
220
330
216
100
AcDbEntity
  8
0
100
AcDbVertex
100
AcDb2dVertex
 10
8.7781250325
 20
8.386543617699999
 30
0.0
  0
VERTEX
  5
221
330
216
100
AcDbEntity
  8
0
100
AcDbVertex
100
AcDb2dVertex
 10
8.8115076187
 20
8.370373029299999
 30
0.0
  0
SEQEND
  5
222
330
216
100
AcDbEntity
  8
0
  0
LINE
  5
223
330
A
100
AcDbEntity
  8
0
  6
Continuous
 62
     7
370
    15
100
AcDbLine
 10
13.4273952453
 20
11.2746122097
 30
0.0
 11
8.7781250325
 21
8.5906456457
 31
0.0
  0
POLYLINE
  5
224
330
A
100
AcDbEntity
  8
0
  6
Continuous
 62
     7
100
AcDb2dPolyline
 66
     1
 10
0.0
 20
0.0
 30
0.0
 70
   128
 40
0.0023622047
 41
0.0023622047
  0
VERTEX
  5
225
330
224
100
AcDbEntity
  8
0
100
AcDbVertex
100
AcDb2dVertex
 10
16.4025254639
 20
6.052649376299999
 30
0.0
  0
VERTEX
  5
226
330
224
100
AcDbEntity
  8
0
100
AcDbVertex
100
AcDb2dVertex
 10
16.4644828028
 20
6.019759740299999
 30
0.0
  0
VERTEX
  5
227
330
224
100
AcDbEntity
  8
0
100
AcDbVertex
100
AcDb2dVertex
 10
16.53099020079999
 20
5.9899783759
 30
0.0
  0
VERTEX
  5
228
330
224
100
AcDbEntity
  8
0
100
AcDbVertex
100
AcDb2dVertex
 10
16.60158115619999
 20
5.963514177999999
 30
0.0
  0
VERTEX
  5
229
330
224
100
AcDbEntity
  8
0
100
AcDbVertex
100
AcDb2dVertex
 10
16.6757605241
 20
5.940552773999999
 30
0.0
  0
VERTEX
  5
22A
330
224
100
AcDbEntity
  8
0
100
AcDbVertex
100
AcDb2dVertex
 10
16.75300798969999
 20
5.9212552215
 30
0.0
  0
VERTEX
  5
22B
330
224
100
AcDbEntity
  8
0
100
AcDbVertex
100
AcDb2dVertex
 10
16.8327817174
 20
5.905756879
 30
0.0
  0
VERTEX
  5
22C
330
224
100
AcDbEntity
  8
0
100
AcDbVertex
100
AcDb2dVertex
 10
16.9145221519
 20
5.894166456299999
 30
0.0
  0
VERTEX
  5
22D
330
224
100
AcDbEntity
  8
0
100
AcDbVertex
100
AcDb2dVertex
 10
16.9976559427
 20
5.8865652519
 30
0.0
  0
VERTEX
  5
22E
330
224
100
AcDbEntity
  8
0
100
AcDbVertex
100
AcDb2dVertex
 10
17.0815999661
 20
5.8830065827
 30
0.0
  0
VERTEX
  5
22F
330
224
100
AcDbEntity
  8
0
100
AcDbVertex
100
AcDb2dVertex
 10
17.165765415
 20
5.883515410299999
 30
0.0
  0
VERTEX
  5
230
330
224
100
AcDbEntity
  8
0
100
AcDbVertex
100
AcDb2dVertex
 10
17.2495619293
 20
5.888088165599999
 30
0.0
  0
VERTEX
  5
231
330
224
100
AcDbEntity
  8
0
100
AcDbVertex
100
AcDb2dVertex
 10
17.3324017366
 20
5.896692773999999
 30
0.0
  0
VERTEX
  5
232
330
224
100
AcDbEntity
  8
0
100
AcDbVertex
100
AcDb2dVertex
 10
17.4137037752
 20
5.909268880399999
 30
0.0
  0
VERTEX
  5
233
330
224
100
AcDbEntity
  8
0
100
AcDbVertex
100
AcDb2dVertex
 10
17.4928977697
 20
5.925728272299999
 30
0.0
  0
VERTEX
  5
234
330
224
100
AcDbEntity
  8
0
100
AcDbVertex
100
AcDb2dVertex
 10
17.5694282312
 20
5.9459554991
 30
0.0
  0
VERTEX
  5
235
330
224
100
AcDbEntity
  8
0
100
AcDbVertex
100
AcDb2dVertex
 10
17.6427583535
 20
5.969808681199999
 30
0.0
  0
VERTEX
  5
236
330
224
100
AcDbEntity
  8
0
100
AcDbVertex
100
AcDb2dVertex
 10
17.71237377829999
 20
5.9971205057
 30
0.0
  0
VERTEX
  5
237
330
224
100
AcDbEntity
  8
0
100
AcDbVertex
100
AcDb2dVertex
 10
17.77778620359999
 20
6.0276993998
 30
0.0
  0
VERTEX
  5
238
330
224
100
AcDbEntity
  8
0
100
AcDbVertex
100
AcDb2dVertex
 10
17.8385368082
 20
6.0613308744
 30
0.0
  0
VERTEX
  5
239
330
224
100
AcDbEntity
  8
0
100
AcDbVertex
100
AcDb2dVertex
 10
17.89419947029999
 20
6.097779029099999
 30
0.0
  0
VERTEX
  5
23A
330
224
100
AcDbEntity
  8
0
100
AcDbVertex
100
AcDb2dVertex
 10
17.94438375609999
 20
6.1367882061
 30
0.0
  0
VERTEX
  5
23B
330
224
100
AcDbEntity
  8
0
100
AcDbVertex
100
AcDb2dVertex
 10
17.9887376592
 20
6.178084784199999
 30
0.0
  0
VERTEX
  5
23C
330
224
100
AcDbEntity
  8
0
100
AcDbVertex
100
AcDb2dVertex
 10
18.02695006859999
 20
6.221379097399999
 30
0.0
  0
VERTEX
  5
23D
330
224
100
AcDbEntity
  8
0
100
AcDbVertex
100
AcDb2dVertex
 10
18.05875295179999
 20
6.2663674673
 30
0.0
  0
VERTEX
  5
23E
330
224
100
AcDbEntity
  8
0
100
AcDbVertex
100
AcDb2dVertex
 10
18.0839232344
 20
6.312734332799999
 30
0.0
  0
VERTEX
  5
23F
330
224
100
AcDbEntity
  8
0
100
AcDbVertex
100
AcDb2dVertex
 10
18.102284365
 20
6.360154463699999
 30
0.0
  0
VERTEX
  5
240
330
224
100
AcDbEntity
  8
0
100
AcDbVertex
100
AcDb2dVertex
 10
18.11370755339999
 20
6.408295241699999
 30
0.0
  0
VERTEX
  5
241
330
224
100
AcDbEntity
  8
0
100
AcDbVertex
100
AcDb2dVertex
 10
18.1181126742
 20
6.456818993999999
 30
0.0
  0
VERTEX
  5
242
330
224
100
AcDbEntity
  8
0
100
AcDbVertex
100
AcDb2dVertex
 10
18.11546882859999
 20
6.5053853613
 30
0.0
  0
VERTEX
  5
243
330
224
100
AcDbEntity
  8
0
100
AcDbVertex
100
AcDb2dVertex
 10
18.1057945613
 20
6.553653685399999
 30
0.0
  0
VERTEX
  5
244
330
224
100
AcDbEntity
  8
0
100
AcDbVertex
100
AcDb2dVertex
 10
18.08915773029999
 20
6.601285398599999
 30
0.0
  0
VERTEX
  5
245
330
224
100
AcDbEntity
  8
0
100
AcDbVertex
100
AcDb2dVertex
 10
18.0656750311
 20
6.6479463988
 30
0.0
  0
VERTEX
  5
246
330
224
100
AcDbEntity
  8
0
100
AcDbVertex
100
AcDb2dVertex
 10
18.0355111778
 20
6.693309392599999
 30
0.0
  0
VERTEX
  5
247
330
224
100
AcDbEntity
  8
0
100
AcDbVertex
100
AcDb2dVertex
 10
17.9988777483
 20
6.737056191099999
 30
0.0
  0
VERTEX
  5
248
330
224
100
AcDbEntity
  8
0
100
AcDbVertex
100
AcDb2dVertex
 10
17.9560316998
 20
6.778879942
 30
0.0
  0
VERTEX
  5
249
330
224
100
AcDbEntity
  8
0
100
AcDbVertex
100
AcDb2dVertex
 10
17.9072735664
 20
6.818487281699999
 30
0.0
  0
VERTEX
  5
24A
330
224
100
AcDbEntity
  8
0
100
AcDbVertex
100
AcDb2dVertex
 10
17.8529453515
 20
6.8556003933
 30
0.0
  0
VERTEX
  5
24B
330
224
100
AcDbEntity
  8
0
100
AcDbVertex
100
AcDb2dVertex
 10
17.7934281285
 20
6.889958954799999
 30
0.0
  0
VERTEX
  5
24C
330
224
100
AcDbEntity
  8
0
100
AcDbVertex
100
AcDb2dVertex
 10
17.7291393679
 20
6.921321965599999
 30
0.0
  0
VERTEX
  5
24D
330
224
100
AcDbEntity
  8
0
100
AcDbVertex
100
AcDb2dVertex
 10
17.6605300092
 20
6.9494694369
 30
0.0
  0
VERTEX
  5
24E
330
224
100
AcDbEntity
  8
0
100
AcDbVertex
100
AcDb2dVertex
 10
17.5880812977
 20
6.974203934199999
 30
0.0
  0
VERTEX
  5
24F
330
224
100
AcDbEntity
  8
0
100
AcDbVertex
100
AcDb2dVertex
 10
17.5123014091
 20
6.9953519629
 30
0.0
  0
VERTEX
  5
250
330
224
100
AcDbEntity
  8
0
100
AcDbVertex
100
AcDb2dVertex
 10
17.4337218848
 20
7.0127651848
 30
0.0
  0
VERTEX
  5
251
330
224
100
AcDbEntity
  8
0
100
AcDbVertex
100
AcDb2dVertex
 10
17.3528939039
 20
7.0263214585
 30
0.0
  0
VERTEX
  5
252
330
224
100
AcDbEntity
  8
0
100
AcDbVertex
100
AcDb2dVertex
 10
17.2703844164
 20
7.035925696599999
 30
0.0
  0
VERTEX
  5
253
330
224
100
AcDbEntity
  8
0
100
AcDbVertex
100
AcDb2dVertex
 10
17.18677216709999
 20
7.0415105322
 30
0.0
  0
VERTEX
  5
254
330
224
100
AcDbEntity
  8
0
100
AcDbVertex
100
AcDb2dVertex
 10
17.102643636
 20
7.043036791799999
 30
0.0
  0
VERTEX
  5
255
330
224
100
AcDbEntity
  8
0
100
AcDbVertex
100
AcDb2dVertex
 10
17.0185889241
 20
7.0404937697
 30
0.0
  0
VERTEX
  5
256
330
224
100
AcDbEntity
  8
0
100
AcDbVertex
100
AcDb2dVertex
 10
16.935197615
 20
7.0338993034
 30
0.0
  0
VERTEX
  5
257
330
224
100
AcDbEntity
  8
0
100
AcDbVertex
100
AcDb2dVertex
 10
16.85305463869999
 20
7.0232996483
 30
0.0
  0
VERTEX
  5
258
330
224
100
AcDbEntity
  8
0
100
AcDbVertex
100
AcDb2dVertex
 10
16.77273616909999
 20
7.0087691535
 30
0.0
  0
VERTEX
  5
259
330
224
100
AcDbEntity
  8
0
100
AcDbVertex
100
AcDb2dVertex
 10
16.6948055828
 20
6.9904097398
 30
0.0
  0
VERTEX
  5
25A
330
224
100
AcDbEntity
  8
0
100
AcDbVertex
100
AcDb2dVertex
 10
16.6198095066
 20
6.968350185399999
 30
0.0
  0
VERTEX
  5
25B
330
224
100
AcDbEntity
  8
0
100
AcDbVertex
100
AcDb2dVertex
 10
16.5482739842
 20
6.9427452222
 30
0.0
  0
VERTEX
  5
25C
330
224
100
AcDbEntity
  8
0
100
AcDbVertex
100
AcDb2dVertex
 10
16.48070078599999
 20
6.913774450599999
 30
0.0
  0
VERTEX
  5
25D
330
224
100
AcDbEntity
  8
0
100
AcDbVertex
100
AcDb2dVertex
 10
16.4175638893
 20
6.8816410798
 30
0.0
  0
VERTEX
  5
25E
330
224
100
AcDbEntity
  8
0
100
AcDbVertex
100
AcDb2dVertex
 10
16.359306154
 20
6.8465705022
 30
0.0
  0
VERTEX
  5
25F
330
224
100
AcDbEntity
  8
0
100
AcDbVertex
100
AcDb2dVertex
 10
16.3063362164
 20
6.808808712899999
 30
0.0
  0
VERTEX
  5
260
330
224
100
AcDbEntity
  8
0
100
AcDbVertex
100
AcDb2dVertex
 10
16.2590256225
 20
6.7686205835
 30
0.0
  0
VERTEX
  5
261
330
224
100
AcDbEntity
  8
0
100
AcDbVertex
100
AcDb2dVertex
 10
16.2177062222
 20
6.726288005099999
 30
0.0
  0
VERTEX
  5
262
330
224
100
AcDbEntity
  8
0
100
AcDbVertex
100
AcDb2dVertex
 10
16.1826678413
 20
6.68210791
 30
0.0
  0
VERTEX
  5
263
330
224
100
AcDbEntity
  8
0
100
AcDbVertex
100
AcDb2dVertex
 10
16.15415624879999
 20
6.6363901901
 30
0.0
  0
VERTEX
  5
264
330
224
100
AcDbEntity
  8
0
100
AcDbVertex
100
AcDb2dVertex
 10
16.1323714332
 20
6.589455522299999
 30
0.0
  0
VERTEX
  5
265
330
224
100
AcDbEntity
  8
0
100
AcDbVertex
100
AcDb2dVertex
 10
16.1174661993
 20
6.5416331194
 30
0.0
  0
VERTEX
  5
266
330
224
100
AcDbEntity
  8
0
100
AcDbVertex
100
AcDb2dVertex
 10
16.1095450966
 20
6.4932584214
 30
0.0
  0
VERTEX
  5
267
330
224
100
AcDbEntity
  8
0
100
AcDbVertex
100
AcDb2dVertex
 10
16.10866368579999
 20
6.444670742
 30
0.0
  0
VERTEX
  5
268
330
224
100
AcDbEntity
  8
0
100
AcDbVertex
100
AcDb2dVertex
 10
16.1148281496
 20
6.396210888799999
 30
0.0
  0
VERTEX
  5
269
330
224
100
AcDbEntity
  8
0
100
AcDbVertex
100
AcDb2dVertex
 10
16.12799524849999
 20
6.348218772899999
 30
0.0
  0
VERTEX
  5
26A
330
224
100
AcDbEntity
  8
0
100
AcDbVertex
100
AcDb2dVertex
 10
16.1480726249
 20
6.3010310245
 30
0.0
  0
VERTEX
  5
26B
330
224
100
AcDbEntity
  8
0
100
AcDbVertex
100
AcDb2dVertex
 10
16.1749194504
 20
6.254978631699999
 30
0.0
  0
VERTEX
  5
26C
330
224
100
AcDbEntity
  8
0
100
AcDbVertex
100
AcDb2dVertex
 10
16.2083474137
 20
6.2103846191
 30
0.0
  0
VERTEX
  5
26D
330
224
100
AcDbEntity
  8
0
100
AcDbVertex
100
AcDb2dVertex
 10
16.2481220419
 20
6.167561781399999
 30
0.0
  0
VERTEX
  5
26E
330
224
100
AcDbEntity
  8
0
100
AcDbVertex
100
AcDb2dVertex
 10
16.2939643443
 20
6.126810490299999
 30
0.0
  0
VERTEX
  5
26F
330
224
100
AcDbEntity
  8
0
100
AcDbVertex
100
AcDb2dVertex
 10
16.3455527702
 20
6.088416586699999
 30
0.0
  0
VERTEX
  5
270
330
224
100
AcDbEntity
  8
0
100
AcDbVertex
100
AcDb2dVertex
 10
16.4025254639
 20
6.052649376299999
 30
0.0
  0
SEQEND
  5
271
330
224
100
AcDbEntity
  8
0
  0
POLYLINE
  5
272
330
A
100
AcDbEntity
  8
0
  6
Continuous
 62
     7
100
AcDb2dPolyline
 66
     1
 10
0.0
 20
0.0
 30
0.0
 70
   128
 40
0.0023622047
 41
0.0023622047
  0
VERTEX
  5
273
330
272
100
AcDbEntity
  8
0
100
AcDbVertex
100
AcDb2dVertex
 10
12.457930285
 20
8.5379997707
 30
0.0
  0
VERTEX
  5
274
330
272
100
AcDbEntity
  8
0
100
AcDbVertex
100
AcDb2dVertex
 10
12.5115902956
 20
8.509880974399999
 30
0.0
  0
VERTEX
  5
275
330
272
100
AcDbEntity
  8
0
100
AcDbVertex
100
AcDb2dVertex
 10
12.56970084619999
 20
8.484883184299999
 30
0.0
  0
VERTEX
  5
276
330
272
100
AcDbEntity
  8
0
100
AcDbVertex
100
AcDb2dVertex
 10
12.6317193743
 20
8.4632397979
 30
0.0
  0
VERTEX
  5
277
330
272
100
AcDbEntity
  8
0
100
AcDbVertex
100
AcDb2dVertex
 10
12.6970668296
 20
8.445152893599999
 30
0.0
  0
VERTEX
  5
278
330
272
100
AcDbEntity
  8
0
100
AcDbVertex
100
AcDb2dVertex
 10
12.7651330805
 20
8.430791344099999
 30
0.0
  0
VERTEX
  5
279
330
272
100
AcDbEntity
  8
0
100
AcDbVertex
100
AcDb2dVertex
 10
12.83528261089999
 20
8.420289239199998
 30
0.0
  0
VERTEX
  5
27A
330
272
100
AcDbEntity
  8
0
100
AcDbVertex
100
AcDb2dVertex
 10
12.90686045339999
 20
8.4137446344
 30
0.0
  0
VERTEX
  5
27B
330
272
100
AcDbEntity
  8
0
100
AcDbVertex
100
AcDb2dVertex
 10
12.979198305
 20
8.4112186347
 30
0.0
  0
VERTEX
  5
27C
330
272
100
AcDbEntity
  8
0
100
AcDbVertex
100
AcDb2dVertex
 10
13.0516207666
 20
8.412734824799999
 30
0.0
  0
VERTEX
  5
27D
330
272
100
AcDbEntity
  8
0
100
AcDbVertex
100
AcDb2dVertex
 10
13.1234516493
 20
8.4182790484
 30
0.0
  0
VERTEX
  5
27E
330
272
100
AcDbEntity
  8
0
100
AcDbVertex
100
AcDb2dVertex
 10
13.1940202875
 20
8.427799540599998
 30
0.0
  0
VERTEX
  5
27F
330
272
100
AcDbEntity
  8
0
100
AcDbVertex
100
AcDb2dVertex
 10
13.2626678007
 20
8.4412074111
 30
0.0
  0
VERTEX
  5
280
330
272
100
AcDbEntity
  8
0
100
AcDbVertex
100
AcDb2dVertex
 10
13.3287532457
 20
8.458377474299998
 30
0.0
  0
VERTEX
  5
281
330
272
100
AcDbEntity
  8
0
100
AcDbVertex
100
AcDb2dVertex
 10
13.39165960049999
 20
8.4791494178
 30
0.0
  0
VERTEX
  5
282
330
272
100
AcDbEntity
  8
0
100
AcDbVertex
100
AcDb2dVertex
 10
13.45079952539999
 20
8.5033292997
 30
0.0
  0
VERTEX
  5
283
330
272
100
AcDbEntity
  8
0
100
AcDbVertex
100
AcDb2dVertex
 10
13.5056208468
 20
8.530691359
 30
0.0
  0
VERTEX
  5
284
330
272
100
AcDbEntity
  8
0
100
AcDbVertex
100
AcDb2dVertex
 10
13.55561171289999
 20
8.5609801233
 30
0.0
  0
VERTEX
  5
285
330
272
100
AcDbEntity
  8
0
100
AcDbVertex
100
AcDb2dVertex
 10
13.6003053723
 20
8.593912794799999
 30
0.0
  0
VERTEX
  5
286
330
272
100
AcDbEntity
  8
0
100
AcDbVertex
100
AcDb2dVertex
 10
13.6392845325
 20
8.629181889899999
 30
0.0
  0
VERTEX
  5
287
330
272
100
AcDbEntity
  8
0
100
AcDbVertex
100
AcDb2dVertex
 10
13.6721852554
 20
8.666458110499998
 30
0.0
  0
VERTEX
  5
288
330
272
100
AcDbEntity
  8
0
100
AcDbVertex
100
AcDb2dVertex
 10
13.69870035599999
 20
8.705393418699999
 30
0.0
  0
VERTEX
  5
289
330
272
100
AcDbEntity
  8
0
100
AcDbVertex
100
AcDb2dVertex
 10
13.7185822699
 20
8.745624285999999
 30
0.0
  0
VERTEX
  5
28A
330
272
100
AcDbEntity
  8
0
100
AcDbVertex
100
AcDb2dVertex
 10
13.731645365
 20
8.7867750876
 30
0.0
  0
VERTEX
  5
28B
330
272
100
AcDbEntity
  8
0
100
AcDbVertex
100
AcDb2dVertex
 10
13.7377676747
 20
8.828461609599999
 30
0.0
  0
VERTEX
  5
28C
330
272
100
AcDbEntity
  8
0
100
AcDbVertex
100
AcDb2dVertex
 10
13.7368920366
 20
8.8702946361
 30
0.0
  0
VERTEX
  5
28D
330
272
100
AcDbEntity
  8
0
100
AcDbVertex
100
AcDb2dVertex
 10
13.7290266264
 20
8.911883583399999
 30
0.0
  0
VERTEX
  5
28E
330
272
100
AcDbEntity
  8
0
100
AcDbVertex
100
AcDb2dVertex
 10
13.71424488119999
 20
8.952840146799999
 30
0.0
  0
VERTEX
  5
28F
330
272
100
AcDbEntity
  8
0
100
AcDbVertex
100
AcDb2dVertex
 10
13.6926848143
 20
8.992781925800001
 30
0.0
  0
VERTEX
  5
290
330
272
100
AcDbEntity
  8
0
100
AcDbVertex
100
AcDb2dVertex
 10
13.6645477261
 20
9.0313359949
 30
0.0
  0
VERTEX
  5
291
330
272
100
AcDbEntity
  8
0
100
AcDbVertex
100
AcDb2dVertex
 10
13.6300963252
 20
9.068142384999999
 30
0.0
  0
VERTEX
  5
292
330
272
100
AcDbEntity
  8
0
100
AcDbVertex
100
AcDb2dVertex
 10
13.5896522748
 20
9.102857444799999
 30
0.0
  0
VERTEX
  5
293
330
272
100
AcDbEntity
  8
0
100
AcDbVertex
100
AcDb2dVertex
 10
13.5435931903
 20
9.1351570491
 30
0.0
  0
VERTEX
  5
294
330
272
100
AcDbEntity
  8
0
100
AcDbVertex
100
AcDb2dVertex
 10
13.49234911289999
 20
9.164739625399999
 30
0.0
  0
VERTEX
  5
295
330
272
100
AcDbEntity
  8
0
100
AcDbVertex
100
AcDb2dVertex
 10
13.4363984947
 20
9.1913289689
 30
0.0
  0
VERTEX
  5
296
330
272
100
AcDbEntity
  8
0
100
AcDbVertex
100
AcDb2dVertex
 10
13.3762637316
 20
9.214676822199999
 30
0.0
  0
VERTEX
  5
297
330
272
100
AcDbEntity
  8
0
100
AcDbVertex
100
AcDb2dVertex
 10
13.3125062856
 20
9.234565192599999
 30
0.0
  0
VERTEX
  5
298
330
272
100
AcDbEntity
  8
0
100
AcDbVertex
100
AcDb2dVertex
 10
13.2457214429
 20
9.250808387899999
 30
0.0
  0
VERTEX
  5
299
330
272
100
AcDbEntity
  8
0
100
AcDbVertex
100
AcDb2dVertex
 10
13.1765327556
 20
9.263254749599999
 30
0.0
  0
VERTEX
  5
29A
330
272
100
AcDbEntity
  8
0
100
AcDbVertex
100
AcDb2dVertex
 10
13.1055862197
 20
9.271788069400001
 30
0.0
  0
VERTEX
  5
29B
330
272
100
AcDbEntity
  8
0
100
AcDbVertex
100
AcDb2dVertex
 10
13.033544244
 20
9.2763286741
 30
0.0
  0
VERTEX
  5
29C
330
272
100
AcDbEntity
  8
0
100
AcDbVertex
100
AcDb2dVertex
 10
12.961079465
 20
9.276834169199998
 30
0.0
  0
VERTEX
  5
29D
330
272
100
AcDbEntity
  8
0
100
AcDbVertex
100
AcDb2dVertex
 10
12.8888684667
 20
9.273299834999999
 30
0.0
  0
VERTEX
  5
29E
330
272
100
AcDbEntity
  8
0
100
AcDbVertex
100
AcDb2dVertex
 10
12.8175854639
 20
9.2657586708
 30
0.0
  0
VERTEX
  5
29F
330
272
100
AcDbEntity
  8
0
100
AcDbVertex
100
AcDb2dVertex
 10
12.7478960067
 20
9.2542810862
 30
0.0
  0
VERTEX
  5
2A0
330
272
100
AcDbEntity
  8
0
100
AcDbVertex
100
AcDb2dVertex
 10
12.68045076679999
 20
9.238974244400001
 30
0.0
  0
VERTEX
  5
2A1
330
272
100
AcDbEntity
  8
0
100
AcDbVertex
100
AcDb2dVertex
 10
12.6158794623
 20
9.2199810613
 30
0.0
  0
VERTEX
  5
2A2
330
272
100
AcDbEntity
  8
0
100
AcDbVertex
100
AcDb2dVertex
 10
12.55478497799999
 20
9.197478871199999
 30
0.0
  0
VERTEX
  5
2A3
330
272
100
AcDbEntity
  8
0
100
AcDbVertex
100
AcDb2dVertex
 10
12.4977377366
 20
9.1716777708
 30
0.0
  0
VERTEX
  5
2A4
330
272
100
AcDbEntity
  8
0
100
AcDbVertex
100
AcDb2dVertex
 10
12.4452703729
 20
9.142818658099999
 30
0.0
  0
VERTEX
  5
2A5
330
272
100
AcDbEntity
  8
0
100
AcDbVertex
100
AcDb2dVertex
 10
12.3978727605
 20
9.111170982899999
 30
0.0
  0
VERTEX
  5
2A6
330
272
100
AcDbEntity
  8
0
100
AcDbVertex
100
AcDb2dVertex
 10
12.3559874381
 20
9.0770302309
 30
0.0
  0
VERTEX
  5
2A7
330
272
100
AcDbEntity
  8
0
100
AcDbVertex
100
AcDb2dVertex
 10
12.3200054778
 20
9.040715165299999
 30
0.0
  0
VERTEX
  5
2A8
330
272
100
AcDbEntity
  8
0
100
AcDbVertex
100
AcDb2dVertex
 10
12.2902628333
 20
9.0025648499
 30
0.0
  0
VERTEX
  5
2A9
330
272
100
AcDbEntity
  8
0
100
AcDbVertex
100
AcDb2dVertex
 10
12.2670372038
 20
8.962935484099999
 30
0.0
  0
VERTEX
  5
2AA
330
272
100
AcDbEntity
  8
0
100
AcDbVertex
100
AcDb2dVertex
 10
12.2505454407
 20
8.922197076399999
 30
0.0
  0
VERTEX
  5
2AB
330
272
100
AcDbEntity
  8
0
100
AcDbVertex
100
AcDb2dVertex
 10
12.2409415231
 20
8.880729990499999
 30
0.0
  0
VERTEX
  5
2AC
330
272
100
AcDbEntity
  8
0
100
AcDbVertex
100
AcDb2dVertex
 10
12.2383151203
 20
8.838921393299999
 30
0.0
  0
VERTEX
  5
2AD
330
272
100
AcDbEntity
  8
0
100
AcDbVertex
100
AcDb2dVertex
 10
12.2426907542
 20
8.797161640499998
 30
0.0
  0
VERTEX
  5
2AE
330
272
100
AcDbEntity
  8
0
100
AcDbVertex
100
AcDb2dVertex
 10
12.2540275707
 20
8.755840631499999
 30
0.0
  0
VERTEX
  5
2AF
330
272
100
AcDbEntity
  8
0
100
AcDbVertex
100
AcDb2dVertex
 10
12.27221972109999
 20
8.715344169699999
 30
0.0
  0
VERTEX
  5
2B0
330
272
100
AcDbEntity
  8
0
100
AcDbVertex
100
AcDb2dVertex
 10
12.29709735
 20
8.676050359400001
 30
0.0
  0
VERTEX
  5
2B1
330
272
100
AcDbEntity
  8
0
100
AcDbVertex
100
AcDb2dVertex
 10
12.3284281819
 20
8.6383260764
 30
0.0
  0
VERTEX
  5
2B2
330
272
100
AcDbEntity
  8
0
100
AcDbVertex
100
AcDb2dVertex
 10
12.3659196891
 20
8.6025235422
 30
0.0
  0
VERTEX
  5
2B3
330
272
100
AcDbEntity
  8
0
100
AcDbVertex
100
AcDb2dVertex
 10
12.4092218236
 20
8.568977035399999
 30
0.0
  0
VERTEX
  5
2B4
330
272
100
AcDbEntity
  8
0
100
AcDbVertex
100
AcDb2dVertex
 10
12.457930285
 20
8.5379997707
 30
0.0
  0
SEQEND
  5
2B5
330
272
100
AcDbEntity
  8
0
  0
POLYLINE
  5
2B6
330
A
100
AcDbEntity
  8
0
  6
Continuous
 62
     7
100
AcDb2dPolyline
 66
     1
 10
0.0
 20
0.0
 30
0.0
 70
   128
 40
0.0023622047
 41
0.0023622047
  0
VERTEX
  5
2B7
330
2B6
100
AcDbEntity
  8
0
100
AcDbVertex
100
AcDb2dVertex
 10
17.9031828303
 20
5.898450294199999
 30
0.0
  0
VERTEX
  5
2B8
330
2B6
100
AcDbEntity
  8
0
100
AcDbVertex
100
AcDb2dVertex
 10
17.9273606144
 20
5.887414104199999
 30
0.0
  0
VERTEX
  5
2B9
330
2B6
100
AcDbEntity
  8
0
100
AcDbVertex
100
AcDb2dVertex
 10
17.9552954391
 20
5.879894226
 30
0.0
  0
VERTEX
  5
2BA
330
2B6
100
AcDbEntity
  8
0
100
AcDbVertex
100
AcDb2dVertex
 10
17.98548133059999
 20
5.876296057899999
 30
0.0
  0
VERTEX
  5
2BB
330
2B6
100
AcDbEntity
  8
0
100
AcDbVertex
100
AcDb2dVertex
 10
18.0162909598
 20
5.8768135782
 30
0.0
  0
VERTEX
  5
2BC
330
2B6
100
AcDbEntity
  8
0
100
AcDbVertex
100
AcDb2dVertex
 10
18.0460633715
 20
5.8814188873
 30
0.0
  0
VERTEX
  5
2BD
330
2B6
100
AcDbEntity
  8
0
100
AcDbVertex
100
AcDb2dVertex
 10
18.0731935274
 20
5.889863711699999
 30
0.0
  0
VERTEX
  5
2BE
330
2B6
100
AcDbEntity
  8
0
100
AcDbVertex
100
AcDb2dVertex
 10
18.0962188337
 20
5.9016927888
 30
0.0
  0
VERTEX
  5
2BF
330
2B6
100
AcDbEntity
  8
0
100
AcDbVertex
100
AcDb2dVertex
 10
18.11389799019999
 20
5.916268409899999
 30
0.0
  0
VERTEX
  5
2C0
330
2B6
100
AcDbEntity
  8
0
100
AcDbVertex
100
AcDb2dVertex
 10
18.12527790889999
 20
5.9328047996
 30
0.0
  0
VERTEX
  5
2C1
330
2B6
100
AcDbEntity
  8
0
100
AcDbVertex
100
AcDb2dVertex
 10
18.1297450956
 20
5.950410476799999
 30
0.0
  0
VERTEX
  5
2C2
330
2B6
100
AcDbEntity
  8
0
100
AcDbVertex
100
AcDb2dVertex
 10
18.127058723
 20
5.968136314899999
 30
0.0
  0
VERTEX
  5
2C3
330
2B6
100
AcDbEntity
  8
0
100
AcDbVertex
100
AcDb2dVertex
 10
18.1173636142
 20
5.985026709299999
 30
0.0
  0
VERTEX
  5
2C4
330
2B6
100
AcDbEntity
  8
0
100
AcDbVertex
100
AcDb2dVertex
 10
18.10118243499999
 20
6.0001710946
 30
0.0
  0
VERTEX
  5
2C5
330
2B6
100
AcDbEntity
  8
0
100
AcDbVertex
100
AcDb2dVertex
 10
18.0793875169
 20
6.012753032999999
 30
0.0
  0
VERTEX
  5
2C6
330
2B6
100
AcDbEntity
  8
0
100
AcDbVertex
100
AcDb2dVertex
 10
18.0531538297
 20
6.022094228899999
 30
0.0
  0
VERTEX
  5
2C7
330
2B6
100
AcDbEntity
  8
0
100
AcDbVertex
100
AcDb2dVertex
 10
18.0238956382
 20
6.027691096099999
 30
0.0
  0
VERTEX
  5
2C8
330
2B6
100
AcDbEntity
  8
0
100
AcDbVertex
100
AcDb2dVertex
 10
17.9931902591
 20
6.0292419059
 30
0.0
  0
VERTEX
  5
2C9
330
2B6
100
AcDbEntity
  8
0
100
AcDbVertex
100
AcDb2dVertex
 10
17.9626930272
 20
6.026663054
 30
0.0
  0
VERTEX
  5
2CA
330
2B6
100
AcDbEntity
  8
0
100
AcDbVertex
100
AcDb2dVertex
 10
17.9340480564
 20
6.020093566699999
 30
0.0
  0
VERTEX
  5
2CB
330
2B6
100
AcDbEntity
  8
0
100
AcDbVertex
100
AcDb2dVertex
 10
17.9087996043
 20
6.0098876069
 30
0.0
  0
VERTEX
  5
2CC
330
2B6
100
AcDbEntity
  8
0
100
AcDbVertex
100
AcDb2dVertex
 10
17.8883088216
 20
5.996595380499999
 30
0.0
  0
VERTEX
  5
2CD
330
2B6
100
AcDbEntity
  8
0
100
AcDbVertex
100
AcDb2dVertex
 10
17.8736803716
 20
5.9809334749
 30
0.0
  0
VERTEX
  5
2CE
330
2B6
100
AcDbEntity
  8
0
100
AcDbVertex
100
AcDb2dVertex
 10
17.865702878
 20
5.963746227499999
 30
0.0
  0
VERTEX
  5
2CF
330
2B6
100
AcDbEntity
  8
0
100
AcDbVertex
100
AcDb2dVertex
 10
17.8648064093
 20
5.9459602071
 30
0.0
  0
VERTEX
  5
2D0
330
2B6
100
AcDbEntity
  8
0
100
AcDbVertex
100
AcDb2dVertex
 10
17.8710392945
 20
5.928534262899999
 30
0.0
  0
VERTEX
  5
2D1
330
2B6
100
AcDbEntity
  8
0
100
AcDbVertex
100
AcDb2dVertex
 10
17.8840655172
 20
5.9124078319
 30
0.0
  0
VERTEX
  5
2D2
330
2B6
100
AcDbEntity
  8
0
100
AcDbVertex
100
AcDb2dVertex
 10
17.9031828303
 20
5.898450294199999
 30
0.0
  0
SEQEND
  5
2D3
330
2B6
100
AcDbEntity
  8
0
  0
POLYLINE
  5
2D4
330
A
100
AcDbEntity
  8
0
  6
Continuous
 62
     7
100
AcDb2dPolyline
 66
     1
 10
0.0
 20
0.0
 30
0.0
 70
   128
 40
0.0023622047
 41
0.0023622047
  0
VERTEX
  5
2D5
330
2D4
100
AcDbEntity
  8
0
100
AcDbVertex
100
AcDb2dVertex
 10
16.1354158773
 20
5.898450294199999
 30
0.0
  0
VERTEX
  5
2D6
330
2D4
100
AcDbEntity
  8
0
100
AcDbVertex
100
AcDb2dVertex
 10
16.1595936615
 20
5.887414104199999
 30
0.0
  0
VERTEX
  5
2D7
330
2D4
100
AcDbEntity
  8
0
100
AcDbVertex
100
AcDb2dVertex
 10
16.18752848609999
 20
5.879894226
 30
0.0
  0
VERTEX
  5
2D8
330
2D4
100
AcDbEntity
  8
0
100
AcDbVertex
100
AcDb2dVertex
 10
16.21771437769999
 20
5.876296057899999
 30
0.0
  0
VERTEX
  5
2D9
330
2D4
100
AcDbEntity
  8
0
100
AcDbVertex
100
AcDb2dVertex
 10
16.2485240068
 20
5.8768135782
 30
0.0
  0
VERTEX
  5
2DA
330
2D4
100
AcDbEntity
  8
0
100
AcDbVertex
100
AcDb2dVertex
 10
16.2782964186
 20
5.8814188873
 30
0.0
  0
VERTEX
  5
2DB
330
2D4
100
AcDbEntity
  8
0
100
AcDbVertex
100
AcDb2dVertex
 10
16.3054265744
 20
5.889863711699999
 30
0.0
  0
VERTEX
  5
2DC
330
2D4
100
AcDbEntity
  8
0
100
AcDbVertex
100
AcDb2dVertex
 10
16.32845188069999
 20
5.9016927888
 30
0.0
  0
VERTEX
  5
2DD
330
2D4
100
AcDbEntity
  8
0
100
AcDbVertex
100
AcDb2dVertex
 10
16.3461310372
 20
5.916268409899999
 30
0.0
  0
VERTEX
  5
2DE
330
2D4
100
AcDbEntity
  8
0
100
AcDbVertex
100
AcDb2dVertex
 10
16.3575109559
 20
5.9328047996
 30
0.0
  0
VERTEX
  5
2DF
330
2D4
100
AcDbEntity
  8
0
100
AcDbVertex
100
AcDb2dVertex
 10
16.36197814259999
 20
5.950410476799999
 30
0.0
  0
VERTEX
  5
2E0
330
2D4
100
AcDbEntity
  8
0
100
AcDbVertex
100
AcDb2dVertex
 10
16.35929176999999
 20
5.968136314899999
 30
0.0
  0
VERTEX
  5
2E1
330
2D4
100
AcDbEntity
  8
0
100
AcDbVertex
100
AcDb2dVertex
 10
16.3495966612
 20
5.985026709299999
 30
0.0
  0
VERTEX
  5
2E2
330
2D4
100
AcDbEntity
  8
0
100
AcDbVertex
100
AcDb2dVertex
 10
16.33341548199999
 20
6.0001710946
 30
0.0
  0
VERTEX
  5
2E3
330
2D4
100
AcDbEntity
  8
0
100
AcDbVertex
100
AcDb2dVertex
 10
16.311620564
 20
6.012753032999999
 30
0.0
  0
VERTEX
  5
2E4
330
2D4
100
AcDbEntity
  8
0
100
AcDbVertex
100
AcDb2dVertex
 10
16.2853868768
 20
6.022094228899999
 30
0.0
  0
VERTEX
  5
2E5
330
2D4
100
AcDbEntity
  8
0
100
AcDbVertex
100
AcDb2dVertex
 10
16.2561286852
 20
6.027691096099999
 30
0.0
  0
VERTEX
  5
2E6
330
2D4
100
AcDbEntity
  8
0
100
AcDbVertex
100
AcDb2dVertex
 10
16.22542330609999
 20
6.0292419059
 30
0.0
  0
VERTEX
  5
2E7
330
2D4
100
AcDbEntity
  8
0
100
AcDbVertex
100
AcDb2dVertex
 10
16.19492607429999
 20
6.026663054
 30
0.0
  0
VERTEX
  5
2E8
330
2D4
100
AcDbEntity
  8
0
100
AcDbVertex
100
AcDb2dVertex
 10
16.16628110339999
 20
6.020093566699999
 30
0.0
  0
VERTEX
  5
2E9
330
2D4
100
AcDbEntity
  8
0
100
AcDbVertex
100
AcDb2dVertex
 10
16.1410326513
 20
6.0098876069
 30
0.0
  0
VERTEX
  5
2EA
330
2D4
100
AcDbEntity
  8
0
100
AcDbVertex
100
AcDb2dVertex
 10
16.1205418686
 20
5.996595380499999
 30
0.0
  0
VERTEX
  5
2EB
330
2D4
100
AcDbEntity
  8
0
100
AcDbVertex
100
AcDb2dVertex
 10
16.1059134187
 20
5.9809334749
 30
0.0
  0
VERTEX
  5
2EC
330
2D4
100
AcDbEntity
  8
0
100
AcDbVertex
100
AcDb2dVertex
 10
16.097935925
 20
5.963746227499999
 30
0.0
  0
VERTEX
  5
2ED
330
2D4
100
AcDbEntity
  8
0
100
AcDbVertex
100
AcDb2dVertex
 10
16.0970394563
 20
5.9459602071
 30
0.0
  0
VERTEX
  5
2EE
330
2D4
100
AcDbEntity
  8
0
100
AcDbVertex
100
AcDb2dVertex
 10
16.1032723416
 20
5.928534262899999
 30
0.0
  0
VERTEX
  5
2EF
330
2D4
100
AcDbEntity
  8
0
100
AcDbVertex
100
AcDb2dVertex
 10
16.1162985642
 20
5.9124078319
 30
0.0
  0
VERTEX
  5
2F0
330
2D4
100
AcDbEntity
  8
0
100
AcDbVertex
100
AcDb2dVertex
 10
16.1354158773
 20
5.898450294199999
 30
0.0
  0
SEQEND
  5
2F1
330
2D4
100
AcDbEntity
  8
0
  0
POLYLINE
  5
2F2
330
A
100
AcDbEntity
  8
0
  6
Continuous
 62
     7
100
AcDb2dPolyline
 66
     1
 10
0.0
 20
0.0
 30
0.0
 70
   128
 40
0.0023622047
 41
0.0023622047
  0
VERTEX
  5
2F3
330
2F2
100
AcDbEntity
  8
0
100
AcDbVertex
100
AcDb2dVertex
 10
16.1354158773
 20
6.918960433899999
 30
0.0
  0
VERTEX
  5
2F4
330
2F2
100
AcDbEntity
  8
0
100
AcDbVertex
100
AcDb2dVertex
 10
16.1595936615
 20
6.907924244
 30
0.0
  0
VERTEX
  5
2F5
330
2F2
100
AcDbEntity
  8
0
100
AcDbVertex
100
AcDb2dVertex
 10
16.18752848609999
 20
6.9004043657
 30
0.0
  0
VERTEX
  5
2F6
330
2F2
100
AcDbEntity
  8
0
100
AcDbVertex
100
AcDb2dVertex
 10
16.21771437769999
 20
6.8968061977
 30
0.0
  0
VERTEX
  5
2F7
330
2F2
100
AcDbEntity
  8
0
100
AcDbVertex
100
AcDb2dVertex
 10
16.2485240068
 20
6.897323717999999
 30
0.0
  0
VERTEX
  5
2F8
330
2F2
100
AcDbEntity
  8
0
100
AcDbVertex
100
AcDb2dVertex
 10
16.2782964186
 20
6.9019290271
 30
0.0
  0
VERTEX
  5
2F9
330
2F2
100
AcDbEntity
  8
0
100
AcDbVertex
100
AcDb2dVertex
 10
16.3054265744
 20
6.9103738515
 30
0.0
  0
VERTEX
  5
2FA
330
2F2
100
AcDbEntity
  8
0
100
AcDbVertex
100
AcDb2dVertex
 10
16.32845188069999
 20
6.922202928599999
 30
0.0
  0
VERTEX
  5
2FB
330
2F2
100
AcDbEntity
  8
0
100
AcDbVertex
100
AcDb2dVertex
 10
16.3461310372
 20
6.9367785497
 30
0.0
  0
VERTEX
  5
2FC
330
2F2
100
AcDbEntity
  8
0
100
AcDbVertex
100
AcDb2dVertex
 10
16.3575109559
 20
6.9533149394
 30
0.0
  0
VERTEX
  5
2FD
330
2F2
100
AcDbEntity
  8
0
100
AcDbVertex
100
AcDb2dVertex
 10
16.36197814259999
 20
6.970920616599999
 30
0.0
  0
VERTEX
  5
2FE
330
2F2
100
AcDbEntity
  8
0
100
AcDbVertex
100
AcDb2dVertex
 10
16.35929176999999
 20
6.9886464546
 30
0.0
  0
VERTEX
  5
2FF
330
2F2
100
AcDbEntity
  8
0
100
AcDbVertex
100
AcDb2dVertex
 10
16.3495966612
 20
7.005536849099999
 30
0.0
  0
VERTEX
  5
300
330
2F2
100
AcDbEntity
  8
0
100
AcDbVertex
100
AcDb2dVertex
 10
16.33341548199999
 20
7.0206812344
 30
0.0
  0
VERTEX
  5
301
330
2F2
100
AcDbEntity
  8
0
100
AcDbVertex
100
AcDb2dVertex
 10
16.311620564
 20
7.033263172699999
 30
0.0
  0
VERTEX
  5
302
330
2F2
100
AcDbEntity
  8
0
100
AcDbVertex
100
AcDb2dVertex
 10
16.2853868768
 20
7.0426043687
 30
0.0
  0
VERTEX
  5
303
330
2F2
100
AcDbEntity
  8
0
100
AcDbVertex
100
AcDb2dVertex
 10
16.2561286852
 20
7.0482012358
 30
0.0
  0
VERTEX
  5
304
330
2F2
100
AcDbEntity
  8
0
100
AcDbVertex
100
AcDb2dVertex
 10
16.22542330609999
 20
7.0497520457
 30
0.0
  0
VERTEX
  5
305
330
2F2
100
AcDbEntity
  8
0
100
AcDbVertex
100
AcDb2dVertex
 10
16.19492607429999
 20
7.047173193699999
 30
0.0
  0
VERTEX
  5
306
330
2F2
100
AcDbEntity
  8
0
100
AcDbVertex
100
AcDb2dVertex
 10
16.16628110339999
 20
7.040603706499999
 30
0.0
  0
VERTEX
  5
307
330
2F2
100
AcDbEntity
  8
0
100
AcDbVertex
100
AcDb2dVertex
 10
16.1410326513
 20
7.030397746699999
 30
0.0
  0
VERTEX
  5
308
330
2F2
100
AcDbEntity
  8
0
100
AcDbVertex
100
AcDb2dVertex
 10
16.1205418686
 20
7.017105520299999
 30
0.0
  0
VERTEX
  5
309
330
2F2
100
AcDbEntity
  8
0
100
AcDbVertex
100
AcDb2dVertex
 10
16.1059134187
 20
7.0014436147
 30
0.0
  0
VERTEX
  5
30A
330
2F2
100
AcDbEntity
  8
0
100
AcDbVertex
100
AcDb2dVertex
 10
16.097935925
 20
6.9842563672
 30
0.0
  0
VERTEX
  5
30B
330
2F2
100
AcDbEntity
  8
0
100
AcDbVertex
100
AcDb2dVertex
 10
16.0970394563
 20
6.9664703469
 30
0.0
  0
VERTEX
  5
30C
330
2F2
100
AcDbEntity
  8
0
100
AcDbVertex
100
AcDb2dVertex
 10
16.1032723416
 20
6.9490444027
 30
0.0
  0
VERTEX
  5
30D
330
2F2
100
AcDbEntity
  8
0
100
AcDbVertex
100
AcDb2dVertex
 10
16.1162985642
 20
6.932917971599999
 30
0.0
  0
VERTEX
  5
30E
330
2F2
100
AcDbEntity
  8
0
100
AcDbVertex
100
AcDb2dVertex
 10
16.1354158773
 20
6.918960433899999
 30
0.0
  0
SEQEND
  5
30F
330
2F2
100
AcDbEntity
  8
0
  0
POLYLINE
  5
310
330
A
100
AcDbEntity
  8
0
  6
Continuous
 62
     7
100
AcDb2dPolyline
 66
     1
 10
0.0
 20
0.0
 30
0.0
 70
   128
 40
0.0023622047
 41
0.0023622047
  0
VERTEX
  5
311
330
310
100
AcDbEntity
  8
0
100
AcDbVertex
100
AcDb2dVertex
 10
17.9031828303
 20
6.918960433899999
 30
0.0
  0
VERTEX
  5
312
330
310
100
AcDbEntity
  8
0
100
AcDbVertex
100
AcDb2dVertex
 10
17.9273606144
 20
6.907924244
 30
0.0
  0
VERTEX
  5
313
330
310
100
AcDbEntity
  8
0
100
AcDbVertex
100
AcDb2dVertex
 10
17.9552954391
 20
6.9004043657
 30
0.0
  0
VERTEX
  5
314
330
310
100
AcDbEntity
  8
0
100
AcDbVertex
100
AcDb2dVertex
 10
17.98548133059999
 20
6.8968061977
 30
0.0
  0
VERTEX
  5
315
330
310
100
AcDbEntity
  8
0
100
AcDbVertex
100
AcDb2dVertex
 10
18.0162909598
 20
6.897323717999999
 30
0.0
  0
VERTEX
  5
316
330
310
100
AcDbEntity
  8
0
100
AcDbVertex
100
AcDb2dVertex
 10
18.0460633715
 20
6.9019290271
 30
0.0
  0
VERTEX
  5
317
330
310
100
AcDbEntity
  8
0
100
AcDbVertex
100
AcDb2dVertex
 10
18.0731935274
 20
6.9103738515
 30
0.0
  0
VERTEX
  5
318
330
310
100
AcDbEntity
  8
0
100
AcDbVertex
100
AcDb2dVertex
 10
18.0962188337
 20
6.922202928599999
 30
0.0
  0
VERTEX
  5
319
330
310
100
AcDbEntity
  8
0
100
AcDbVertex
100
AcDb2dVertex
 10
18.11389799019999
 20
6.9367785497
 30
0.0
  0
VERTEX
  5
31A
330
310
100
AcDbEntity
  8
0
100
AcDbVertex
100
AcDb2dVertex
 10
18.12527790889999
 20
6.9533149394
 30
0.0
  0
VERTEX
  5
31B
330
310
100
AcDbEntity
  8
0
100
AcDbVertex
100
AcDb2dVertex
 10
18.1297450956
 20
6.970920616599999
 30
0.0
  0
VERTEX
  5
31C
330
310
100
AcDbEntity
  8
0
100
AcDbVertex
100
AcDb2dVertex
 10
18.127058723
 20
6.9886464546
 30
0.0
  0
VERTEX
  5
31D
330
310
100
AcDbEntity
  8
0
100
AcDbVertex
100
AcDb2dVertex
 10
18.1173636142
 20
7.005536849099999
 30
0.0
  0
VERTEX
  5
31E
330
310
100
AcDbEntity
  8
0
100
AcDbVertex
100
AcDb2dVertex
 10
18.10118243499999
 20
7.0206812344
 30
0.0
  0
VERTEX
  5
31F
330
310
100
AcDbEntity
  8
0
100
AcDbVertex
100
AcDb2dVertex
 10
18.0793875169
 20
7.033263172699999
 30
0.0
  0
VERTEX
  5
320
330
310
100
AcDbEntity
  8
0
100
AcDbVertex
100
AcDb2dVertex
 10
18.0531538297
 20
7.0426043687
 30
0.0
  0
VERTEX
  5
321
330
310
100
AcDbEntity
  8
0
100
AcDbVertex
100
AcDb2dVertex
 10
18.0238956382
 20
7.0482012358
 30
0.0
  0
VERTEX
  5
322
330
310
100
AcDbEntity
  8
0
100
AcDbVertex
100
AcDb2dVertex
 10
17.9931902591
 20
7.0497520457
 30
0.0
  0
VERTEX
  5
323
330
310
100
AcDbEntity
  8
0
100
AcDbVertex
100
AcDb2dVertex
 10
17.9626930272
 20
7.047173193699999
 30
0.0
  0
VERTEX
  5
324
330
310
100
AcDbEntity
  8
0
100
AcDbVertex
100
AcDb2dVertex
 10
17.9340480564
 20
7.040603706499999
 30
0.0
  0
VERTEX
  5
325
330
310
100
AcDbEntity
  8
0
100
AcDbVertex
100
AcDb2dVertex
 10
17.9087996043
 20
7.030397746699999
 30
0.0
  0
VERTEX
  5
326
330
310
100
AcDbEntity
  8
0
100
AcDbVertex
100
AcDb2dVertex
 10
17.8883088216
 20
7.017105520299999
 30
0.0
  0
VERTEX
  5
327
330
310
100
AcDbEntity
  8
0
100
AcDbVertex
100
AcDb2dVertex
 10
17.8736803716
 20
7.0014436147
 30
0.0
  0
VERTEX
  5
328
330
310
100
AcDbEntity
  8
0
100
AcDbVertex
100
AcDb2dVertex
 10
17.865702878
 20
6.9842563672
 30
0.0
  0
VERTEX
  5
329
330
310
100
AcDbEntity
  8
0
100
AcDbVertex
100
AcDb2dVertex
 10
17.8648064093
 20
6.9664703469
 30
0.0
  0
VERTEX
  5
32A
330
310
100
AcDbEntity
  8
0
100
AcDbVertex
100
AcDb2dVertex
 10
17.8710392945
 20
6.9490444027
 30
0.0
  0
VERTEX
  5
32B
330
310
100
AcDbEntity
  8
0
100
AcDbVertex
100
AcDb2dVertex
 10
17.8840655172
 20
6.932917971599999
 30
0.0
  0
VERTEX
  5
32C
330
310
100
AcDbEntity
  8
0
100
AcDbVertex
100
AcDb2dVertex
 10
17.9031828303
 20
6.918960433899999
 30
0.0
  0
SEQEND
  5
32D
330
310
100
AcDbEntity
  8
0
  0
LINE
  5
32E
330
A
100
AcDbEntity
  8
0
  6
Continuous
 62
     7
370
    15
100
AcDbLine
 10
15.34540082599999
 20
4.855291468899999
 30
0.0
 11
15.34540082599999
 21
5.442384312699999
 31
0.0
  0
POLYLINE
  5
32F
330
A
100
AcDbEntity
  8
0
  6
Continuous
 62
     7
100
AcDb2dPolyline
 66
     1
 10
0.0
 20
0.0
 30
0.0
 70
   128
 40
0.0023622047
 41
0.0023622047
  0
VERTEX
  5
330
330
32F
100
AcDbEntity
  8
0
100
AcDbVertex
100
AcDb2dVertex
 10
15.34540082599999
 20
4.855291468899999
 30
0.0
  0
VERTEX
  5
331
330
32F
100
AcDbEntity
  8
0
100
AcDbVertex
100
AcDb2dVertex
 10
15.4419906916
 20
4.8024240733
 30
0.0
  0
VERTEX
  5
332
330
32F
100
AcDbEntity
  8
0
100
AcDbVertex
100
AcDb2dVertex
 10
15.5433176902
 20
4.7525992829
 30
0.0
  0
VERTEX
  5
333
330
32F
100
AcDbEntity
  8
0
100
AcDbVertex
100
AcDb2dVertex
 10
15.64909459949999
 20
4.705958331499999
 30
0.0
  0
VERTEX
  5
334
330
32F
100
AcDbEntity
  8
0
100
AcDbVertex
100
AcDb2dVertex
 10
15.75902158319999
 20
4.662633428
 30
0.0
  0
VERTEX
  5
335
330
32F
100
AcDbEntity
  8
0
100
AcDbVertex
100
AcDb2dVertex
 10
15.8727870415
 20
4.622747381499999
 30
0.0
  0
VERTEX
  5
336
330
32F
100
AcDbEntity
  8
0
100
AcDbVertex
100
AcDb2dVertex
 10
15.9900684937
 20
4.586413253299999
 30
0.0
  0
VERTEX
  5
337
330
32F
100
AcDbEntity
  8
0
100
AcDbVertex
100
AcDb2dVertex
 10
16.1105334929
 20
4.553734036499999
 30
0.0
  0
VERTEX
  5
338
330
32F
100
AcDbEntity
  8
0
100
AcDbVertex
100
AcDb2dVertex
 10
16.23384056789999
 20
4.5248023639
 30
0.0
  0
VERTEX
  5
339
330
32F
100
AcDbEntity
  8
0
100
AcDbVertex
100
AcDb2dVertex
 10
16.3596401914
 20
4.499700245499999
 30
0.0
  0
VERTEX
  5
33A
330
32F
100
AcDbEntity
  8
0
100
AcDbVertex
100
AcDb2dVertex
 10
16.48757577069999
 20
4.478498835799999
 30
0.0
  0
VERTEX
  5
33B
330
32F
100
AcDbEntity
  8
0
100
AcDbVertex
100
AcDb2dVertex
 10
16.61728465849999
 20
4.461258232699999
 30
0.0
  0
VERTEX
  5
33C
330
32F
100
AcDbEntity
  8
0
100
AcDbVertex
100
AcDb2dVertex
 10
16.74839918089999
 20
4.448027306499999
 30
0.0
  0
VERTEX
  5
33D
330
32F
100
AcDbEntity
  8
0
100
AcDbVertex
100
AcDb2dVertex
 10
16.88054767959999
 20
4.4388435616
 30
0.0
  0
VERTEX
  5
33E
330
32F
100
AcDbEntity
  8
0
100
AcDbVertex
100
AcDb2dVertex
 10
17.0133555652
 20
4.4337330305
 30
0.0
  0
VERTEX
  5
33F
330
32F
100
AcDbEntity
  8
0
100
AcDbVertex
100
AcDb2dVertex
 10
17.1464463793
 20
4.432710199399999
 30
0.0
  0
VERTEX
  5
340
330
32F
100
AcDbEntity
  8
0
100
AcDbVertex
100
AcDb2dVertex
 10
17.2794428616
 20
4.435777967699999
 30
0.0
  0
VERTEX
  5
341
330
32F
100
AcDbEntity
  8
0
100
AcDbVertex
100
AcDb2dVertex
 10
17.4119680192
 20
4.442927639399999
 30
0.0
  0
VERTEX
  5
342
330
32F
100
AcDbEntity
  8
0
100
AcDbVertex
100
AcDb2dVertex
 10
17.543646195
 20
4.454138948199999
 30
0.0
  0
VERTEX
  5
343
330
32F
100
AcDbEntity
  8
0
100
AcDbVertex
100
AcDb2dVertex
 10
17.674104133
 20
4.4693801141
 30
0.0
  0
VERTEX
  5
344
330
32F
100
AcDbEntity
  8
0
100
AcDbVertex
100
AcDb2dVertex
 10
17.80297203589999
 20
4.4886079346
 30
0.0
  0
VERTEX
  5
345
330
32F
100
AcDbEntity
  8
0
100
AcDbVertex
100
AcDb2dVertex
 10
17.9298846137
 20
4.5117679063
 30
0.0
  0
VERTEX
  5
346
330
32F
100
AcDbEntity
  8
0
100
AcDbVertex
100
AcDb2dVertex
 10
18.0544821189
 20
4.5387943797
 30
0.0
  0
VERTEX
  5
347
330
32F
100
AcDbEntity
  8
0
100
AcDbVertex
100
AcDb2dVertex
 10
18.17641136639999
 20
4.5696107454
 30
0.0
  0
VERTEX
  5
348
330
32F
100
AcDbEntity
  8
0
100
AcDbVertex
100
AcDb2dVertex
 10
18.2953267344
 20
4.604129651
 30
0.0
  0
VERTEX
  5
349
330
32F
100
AcDbEntity
  8
0
100
AcDbVertex
100
AcDb2dVertex
 10
18.41089114429999
 20
4.642253248899999
 30
0.0
  0
VERTEX
  5
34A
330
32F
100
AcDbEntity
  8
0
100
AcDbVertex
100
AcDb2dVertex
 10
18.5227770165
 20
4.6838734737
 30
0.0
  0
VERTEX
  5
34B
330
32F
100
AcDbEntity
  8
0
100
AcDbVertex
100
AcDb2dVertex
 10
18.630667198
 20
4.7288723482
 30
0.0
  0
VERTEX
  5
34C
330
32F
100
AcDbEntity
  8
0
100
AcDbVertex
100
AcDb2dVertex
 10
18.7342558626
 20
4.7771223184
 30
0.0
  0
VERTEX
  5
34D
330
32F
100
AcDbEntity
  8
0
100
AcDbVertex
100
AcDb2dVertex
 10
18.8332493769
 20
4.8284866143
 30
0.0
  0
VERTEX
  5
34E
330
32F
100
AcDbEntity
  8
0
100
AcDbVertex
100
AcDb2dVertex
 10
18.92736713309999
 20
4.882819638399999
 30
0.0
  0
VERTEX
  5
34F
330
32F
100
AcDbEntity
  8
0
100
AcDbVertex
100
AcDb2dVertex
 10
19.016342344
 20
4.939967377799999
 30
0.0
  0
VERTEX
  5
350
330
32F
100
AcDbEntity
  8
0
100
AcDbVertex
100
AcDb2dVertex
 10
19.09992279989999
 20
4.999767841
 30
0.0
  0
VERTEX
  5
351
330
32F
100
AcDbEntity
  8
0
100
AcDbVertex
100
AcDb2dVertex
 10
19.17787158279999
 20
5.062051517099999
 30
0.0
  0
VERTEX
  5
352
330
32F
100
AcDbEntity
  8
0
100
AcDbVertex
100
AcDb2dVertex
 10
19.2499677385
 20
5.1266418562
 30
0.0
  0
VERTEX
  5
353
330
32F
100
AcDbEntity
  8
0
100
AcDbVertex
100
AcDb2dVertex
 10
19.31600690249999
 20
5.1933557701
 30
0.0
  0
VERTEX
  5
354
330
32F
100
AcDbEntity
  8
0
100
AcDbVertex
100
AcDb2dVertex
 10
19.3758018797
 20
5.2620041508
 30
0.0
  0
VERTEX
  5
355
330
32F
100
AcDbEntity
  8
0
100
AcDbVertex
100
AcDb2dVertex
 10
19.4291831748
 20
5.332392407099999
 30
0.0
  0
VERTEX
  5
356
330
32F
100
AcDbEntity
  8
0
100
AcDbVertex
100
AcDb2dVertex
 10
19.47599947249999
 20
5.4043210158
 30
0.0
  0
VERTEX
  5
357
330
32F
100
AcDbEntity
  8
0
100
AcDbVertex
100
AcDb2dVertex
 10
19.51611806709999
 20
5.477586087499999
 30
0.0
  0
VERTEX
  5
358
330
32F
100
AcDbEntity
  8
0
100
AcDbVertex
100
AcDb2dVertex
 10
19.54942523799999
 20
5.551979944299999
 30
0.0
  0
VERTEX
  5
359
330
32F
100
AcDbEntity
  8
0
100
AcDbVertex
100
AcDb2dVertex
 10
19.57582657249999
 20
5.627291708799999
 30
0.0
  0
VERTEX
  5
35A
330
32F
100
AcDbEntity
  8
0
100
AcDbVertex
100
AcDb2dVertex
 10
19.5952472331
 20
5.703307901699999
 30
0.0
  0
VERTEX
  5
35B
330
32F
100
AcDbEntity
  8
0
100
AcDbVertex
100
AcDb2dVertex
 10
19.6076321698
 20
5.779813046699999
 30
0.0
  0
VERTEX
  5
35C
330
32F
100
AcDbEntity
  8
0
100
AcDbVertex
100
AcDb2dVertex
 10
19.6129462761
 20
5.856590281699999
 30
0.0
  0
VERTEX
  5
35D
330
32F
100
AcDbEntity
  8
0
100
AcDbVertex
100
AcDb2dVertex
 10
19.613167779
 20
5.875801608699999
 30
0.0
  0
SEQEND
  5
35E
330
32F
100
AcDbEntity
  8
0
  0
LINE
  5
35F
330
A
100
AcDbEntity
  8
0
  6
Continuous
 62
     7
370
    15
100
AcDbLine
 10
13.68794253089999
 20
5.812121776
 30
0.0
 11
13.68794253089999
 21
6.3992146197
 31
0.0
  0
LINE
  5
360
330
A
100
AcDbEntity
  8
0
  6
Continuous
 62
     7
370
    15
100
AcDbLine
 10
13.68794253089999
 20
5.812121776
 30
0.0
 11
15.34540082599999
 21
4.855291468899999
 31
0.0
  0
POLYLINE
  5
361
330
A
100
AcDbEntity
  8
0
  6
Continuous
 62
     7
100
AcDb2dPolyline
 66
     1
 10
0.0
 20
0.0
 30
0.0
 70
   128
 40
0.0023622047
 41
0.0023622047
  0
VERTEX
  5
362
330
361
100
AcDbEntity
  8
0
100
AcDbVertex
100
AcDb2dVertex
 10
17.98003597289999
 20
6.169348030599999
 30
0.0
  0
VERTEX
  5
363
330
361
100
AcDbEntity
  8
0
100
AcDbVertex
100
AcDb2dVertex
 10
17.9560316998
 20
6.1917870983
 30
0.0
  0
VERTEX
  5
364
330
361
100
AcDbEntity
  8
0
100
AcDbVertex
100
AcDb2dVertex
 10
17.9072735664
 20
6.231394437999999
 30
0.0
  0
VERTEX
  5
365
330
361
100
AcDbEntity
  8
0
100
AcDbVertex
100
AcDb2dVertex
 10
17.8529453515
 20
6.2685075495
 30
0.0
  0
VERTEX
  5
366
330
361
100
AcDbEntity
  8
0
100
AcDbVertex
100
AcDb2dVertex
 10
17.7934281285
 20
6.302866111
 30
0.0
  0
VERTEX
  5
367
330
361
100
AcDbEntity
  8
0
100
AcDbVertex
100
AcDb2dVertex
 10
17.7291393679
 20
6.3342291219
 30
0.0
  0
VERTEX
  5
368
330
361
100
AcDbEntity
  8
0
100
AcDbVertex
100
AcDb2dVertex
 10
17.6605300092
 20
6.362376593099999
 30
0.0
  0
VERTEX
  5
369
330
361
100
AcDbEntity
  8
0
100
AcDbVertex
100
AcDb2dVertex
 10
17.5880812977
 20
6.387111090499999
 30
0.0
  0
VERTEX
  5
36A
330
361
100
AcDbEntity
  8
0
100
AcDbVertex
100
AcDb2dVertex
 10
17.5123014091
 20
6.408259119199999
 30
0.0
  0
VERTEX
  5
36B
330
361
100
AcDbEntity
  8
0
100
AcDbVertex
100
AcDb2dVertex
 10
17.4337218848
 20
6.425672341
 30
0.0
  0
VERTEX
  5
36C
330
361
100
AcDbEntity
  8
0
100
AcDbVertex
100
AcDb2dVertex
 10
17.3528939039
 20
6.4392286147
 30
0.0
  0
VERTEX
  5
36D
330
361
100
AcDbEntity
  8
0
100
AcDbVertex
100
AcDb2dVertex
 10
17.2703844164
 20
6.448832852799999
 30
0.0
  0
VERTEX
  5
36E
330
361
100
AcDbEntity
  8
0
100
AcDbVertex
100
AcDb2dVertex
 10
17.18677216709999
 20
6.4544176885
 30
0.0
  0
VERTEX
  5
36F
330
361
100
AcDbEntity
  8
0
100
AcDbVertex
100
AcDb2dVertex
 10
17.102643636
 20
6.455943947999999
 30
0.0
  0
VERTEX
  5
370
330
361
100
AcDbEntity
  8
0
100
AcDbVertex
100
AcDb2dVertex
 10
17.0185889241
 20
6.4534009259
 30
0.0
  0
VERTEX
  5
371
330
361
100
AcDbEntity
  8
0
100
AcDbVertex
100
AcDb2dVertex
 10
16.935197615
 20
6.4468064596
 30
0.0
  0
VERTEX
  5
372
330
361
100
AcDbEntity
  8
0
100
AcDbVertex
100
AcDb2dVertex
 10
16.85305463869999
 20
6.4362068046
 30
0.0
  0
VERTEX
  5
373
330
361
100
AcDbEntity
  8
0
100
AcDbVertex
100
AcDb2dVertex
 10
16.77273616909999
 20
6.4216763097
 30
0.0
  0
VERTEX
  5
374
330
361
100
AcDbEntity
  8
0
100
AcDbVertex
100
AcDb2dVertex
 10
16.6948055828
 20
6.403316896
 30
0.0
  0
VERTEX
  5
375
330
361
100
AcDbEntity
  8
0
100
AcDbVertex
100
AcDb2dVertex
 10
16.6198095066
 20
6.381257341599999
 30
0.0
  0
VERTEX
  5
376
330
361
100
AcDbEntity
  8
0
100
AcDbVertex
100
AcDb2dVertex
 10
16.5482739842
 20
6.3556523784
 30
0.0
  0
VERTEX
  5
377
330
361
100
AcDbEntity
  8
0
100
AcDbVertex
100
AcDb2dVertex
 10
16.48070078599999
 20
6.326681606799999
 30
0.0
  0
VERTEX
  5
378
330
361
100
AcDbEntity
  8
0
100
AcDbVertex
100
AcDb2dVertex
 10
16.4175638893
 20
6.294548235999999
 30
0.0
  0
VERTEX
  5
379
330
361
100
AcDbEntity
  8
0
100
AcDbVertex
100
AcDb2dVertex
 10
16.359306154
 20
6.259477658499999
 30
0.0
  0
VERTEX
  5
37A
330
361
100
AcDbEntity
  8
0
100
AcDbVertex
100
AcDb2dVertex
 10
16.3063362164
 20
6.221715869099999
 30
0.0
  0
VERTEX
  5
37B
330
361
100
AcDbEntity
  8
0
100
AcDbVertex
100
AcDb2dVertex
 10
16.2590256225
 20
6.181527739799999
 30
0.0
  0
VERTEX
  5
37C
330
361
100
AcDbEntity
  8
0
100
AcDbVertex
100
AcDb2dVertex
 10
16.2462995851
 20
6.169348030599999
 30
0.0
  0
SEQEND
  5
37D
330
361
100
AcDbEntity
  8
0
  0
POLYLINE
  5
37E
330
A
100
AcDbEntity
  8
0
  6
Continuous
 62
     7
100
AcDb2dPolyline
 66
     1
 10
0.0
 20
0.0
 30
0.0
 70
   128
 40
0.0023622047
 41
0.0023622047
  0
VERTEX
  5
37F
330
37E
100
AcDbEntity
  8
0
100
AcDbVertex
100
AcDb2dVertex
 10
18.0801782489
 20
5.8928895035
 30
0.0
  0
VERTEX
  5
380
330
37E
100
AcDbEntity
  8
0
100
AcDbVertex
100
AcDb2dVertex
 10
18.0883952849
 20
5.899923521199999
 30
0.0
  0
VERTEX
  5
381
330
37E
100
AcDbEntity
  8
0
100
AcDbVertex
100
AcDb2dVertex
 10
18.09893228199999
 20
5.91460889
 30
0.0
  0
VERTEX
  5
382
330
37E
100
AcDbEntity
  8
0
100
AcDbVertex
100
AcDb2dVertex
 10
18.10252625549999
 20
5.9303682319
 30
0.0
  0
VERTEX
  5
383
330
37E
100
AcDbEntity
  8
0
100
AcDbVertex
100
AcDb2dVertex
 10
18.09893228199999
 20
5.9461275738
 30
0.0
  0
VERTEX
  5
384
330
37E
100
AcDbEntity
  8
0
100
AcDbVertex
100
AcDb2dVertex
 10
18.0883952849
 20
5.960812942599999
 30
0.0
  0
VERTEX
  5
385
330
37E
100
AcDbEntity
  8
0
100
AcDbVertex
100
AcDb2dVertex
 10
18.0716333432
 20
5.9734235547
 30
0.0
  0
VERTEX
  5
386
330
37E
100
AcDbEntity
  8
0
100
AcDbVertex
100
AcDb2dVertex
 10
18.04978875549999
 20
5.983100017699999
 30
0.0
  0
VERTEX
  5
387
330
37E
100
AcDbEntity
  8
0
100
AcDbVertex
100
AcDb2dVertex
 10
18.0243501943
 20
5.9891828966
 30
0.0
  0
VERTEX
  5
388
330
37E
100
AcDbEntity
  8
0
100
AcDbVertex
100
AcDb2dVertex
 10
17.9970512555
 20
5.991257653399999
 30
0.0
  0
VERTEX
  5
389
330
37E
100
AcDbEntity
  8
0
100
AcDbVertex
100
AcDb2dVertex
 10
17.9697523167
 20
5.9891828966
 30
0.0
  0
VERTEX
  5
38A
330
37E
100
AcDbEntity
  8
0
100
AcDbVertex
100
AcDb2dVertex
 10
17.94431375549999
 20
5.983100017699999
 30
0.0
  0
VERTEX
  5
38B
330
37E
100
AcDbEntity
  8
0
100
AcDbVertex
100
AcDb2dVertex
 10
17.9224691677
 20
5.9734235547
 30
0.0
  0
VERTEX
  5
38C
330
37E
100
AcDbEntity
  8
0
100
AcDbVertex
100
AcDb2dVertex
 10
17.905707226
 20
5.960812942599999
 30
0.0
  0
VERTEX
  5
38D
330
37E
100
AcDbEntity
  8
0
100
AcDbVertex
100
AcDb2dVertex
 10
17.8951702289
 20
5.9461275738
 30
0.0
  0
VERTEX
  5
38E
330
37E
100
AcDbEntity
  8
0
100
AcDbVertex
100
AcDb2dVertex
 10
17.89157625549999
 20
5.9303682319
 30
0.0
  0
VERTEX
  5
38F
330
37E
100
AcDbEntity
  8
0
100
AcDbVertex
100
AcDb2dVertex
 10
17.8951702289
 20
5.91460889
 30
0.0
  0
VERTEX
  5
390
330
37E
100
AcDbEntity
  8
0
100
AcDbVertex
100
AcDb2dVertex
 10
17.905707226
 20
5.899923521199999
 30
0.0
  0
VERTEX
  5
391
330
37E
100
AcDbEntity
  8
0
100
AcDbVertex
100
AcDb2dVertex
 10
17.9139242621
 20
5.8928895035
 30
0.0
  0
SEQEND
  5
392
330
37E
100
AcDbEntity
  8
0
  0
POLYLINE
  5
393
330
A
100
AcDbEntity
  8
0
  6
Continuous
 62
     7
100
AcDb2dPolyline
 66
     1
 10
0.0
 20
0.0
 30
0.0
 70
   128
 40
0.0023622047
 41
0.0023622047
  0
VERTEX
  5
394
330
393
100
AcDbEntity
  8
0
100
AcDbVertex
100
AcDb2dVertex
 10
16.3124112959
 20
5.8928895035
 30
0.0
  0
VERTEX
  5
395
330
393
100
AcDbEntity
  8
0
100
AcDbVertex
100
AcDb2dVertex
 10
16.320628332
 20
5.899923521199999
 30
0.0
  0
VERTEX
  5
396
330
393
100
AcDbEntity
  8
0
100
AcDbVertex
100
AcDb2dVertex
 10
16.331165329
 20
5.91460889
 30
0.0
  0
VERTEX
  5
397
330
393
100
AcDbEntity
  8
0
100
AcDbVertex
100
AcDb2dVertex
 10
16.3347593025
 20
5.9303682319
 30
0.0
  0
VERTEX
  5
398
330
393
100
AcDbEntity
  8
0
100
AcDbVertex
100
AcDb2dVertex
 10
16.331165329
 20
5.9461275738
 30
0.0
  0
VERTEX
  5
399
330
393
100
AcDbEntity
  8
0
100
AcDbVertex
100
AcDb2dVertex
 10
16.320628332
 20
5.960812942599999
 30
0.0
  0
VERTEX
  5
39A
330
393
100
AcDbEntity
  8
0
100
AcDbVertex
100
AcDb2dVertex
 10
16.3038663903
 20
5.9734235547
 30
0.0
  0
VERTEX
  5
39B
330
393
100
AcDbEntity
  8
0
100
AcDbVertex
100
AcDb2dVertex
 10
16.2820218025
 20
5.983100017699999
 30
0.0
  0
VERTEX
  5
39C
330
393
100
AcDbEntity
  8
0
100
AcDbVertex
100
AcDb2dVertex
 10
16.25658324129999
 20
5.9891828966
 30
0.0
  0
VERTEX
  5
39D
330
393
100
AcDbEntity
  8
0
100
AcDbVertex
100
AcDb2dVertex
 10
16.2292843025
 20
5.991257653399999
 30
0.0
  0
VERTEX
  5
39E
330
393
100
AcDbEntity
  8
0
100
AcDbVertex
100
AcDb2dVertex
 10
16.2019853637
 20
5.9891828966
 30
0.0
  0
VERTEX
  5
39F
330
393
100
AcDbEntity
  8
0
100
AcDbVertex
100
AcDb2dVertex
 10
16.1765468025
 20
5.983100017699999
 30
0.0
  0
VERTEX
  5
3A0
330
393
100
AcDbEntity
  8
0
100
AcDbVertex
100
AcDb2dVertex
 10
16.1547022148
 20
5.9734235547
 30
0.0
  0
VERTEX
  5
3A1
330
393
100
AcDbEntity
  8
0
100
AcDbVertex
100
AcDb2dVertex
 10
16.13794027299999
 20
5.960812942599999
 30
0.0
  0
VERTEX
  5
3A2
330
393
100
AcDbEntity
  8
0
100
AcDbVertex
100
AcDb2dVertex
 10
16.127403276
 20
5.9461275738
 30
0.0
  0
VERTEX
  5
3A3
330
393
100
AcDbEntity
  8
0
100
AcDbVertex
100
AcDb2dVertex
 10
16.1238093025
 20
5.9303682319
 30
0.0
  0
VERTEX
  5
3A4
330
393
100
AcDbEntity
  8
0
100
AcDbVertex
100
AcDb2dVertex
 10
16.127403276
 20
5.91460889
 30
0.0
  0
VERTEX
  5
3A5
330
393
100
AcDbEntity
  8
0
100
AcDbVertex
100
AcDb2dVertex
 10
16.13794027299999
 20
5.899923521199999
 30
0.0
  0
VERTEX
  5
3A6
330
393
100
AcDbEntity
  8
0
100
AcDbVertex
100
AcDb2dVertex
 10
16.1461573091
 20
5.8928895035
 30
0.0
  0
SEQEND
  5
3A7
330
393
100
AcDbEntity
  8
0
  0
LINE
  5
3A8
330
A
100
AcDbEntity
  8
0
  6
Continuous
 62
     7
370
    15
100
AcDbLine
 10
8.8115076187
 20
8.370373029299999
 30
0.0
 11
8.8115076187
 21
7.783280185599999
 31
0.0
  0
LINE
  5
3A9
330
A
100
AcDbEntity
  8
0
  6
Continuous
 62
     7
370
    15
100
AcDbLine
 10
8.8115076187
 20
7.783280185599999
 30
0.0
 11
13.68794253089999
 21
5.812121776
 31
0.0
  0
POLYLINE
  5
3AA
330
A
100
AcDbEntity
  8
0
  6
Continuous
 62
     7
100
AcDb2dPolyline
 66
     1
 10
0.0
 20
0.0
 30
0.0
 70
   128
 40
0.0023622047
 41
0.0023622047
  0
VERTEX
  5
3AB
330
3AA
100
AcDbEntity
  8
0
100
AcDbVertex
100
AcDb2dVertex
 10
18.0801782489
 20
6.9133996433
 30
0.0
  0
VERTEX
  5
3AC
330
3AA
100
AcDbEntity
  8
0
100
AcDbVertex
100
AcDb2dVertex
 10
18.0883952849
 20
6.920433661
 30
0.0
  0
VERTEX
  5
3AD
330
3AA
100
AcDbEntity
  8
0
100
AcDbVertex
100
AcDb2dVertex
 10
18.09893228199999
 20
6.9351190298
 30
0.0
  0
VERTEX
  5
3AE
330
3AA
100
AcDbEntity
  8
0
100
AcDbVertex
100
AcDb2dVertex
 10
18.10252625549999
 20
6.9508783717
 30
0.0
  0
VERTEX
  5
3AF
330
3AA
100
AcDbEntity
  8
0
100
AcDbVertex
100
AcDb2dVertex
 10
18.09893228199999
 20
6.966637713599999
 30
0.0
  0
VERTEX
  5
3B0
330
3AA
100
AcDbEntity
  8
0
100
AcDbVertex
100
AcDb2dVertex
 10
18.0883952849
 20
6.9813230824
 30
0.0
  0
VERTEX
  5
3B1
330
3AA
100
AcDbEntity
  8
0
100
AcDbVertex
100
AcDb2dVertex
 10
18.0716333432
 20
6.9939336945
 30
0.0
  0
VERTEX
  5
3B2
330
3AA
100
AcDbEntity
  8
0
100
AcDbVertex
100
AcDb2dVertex
 10
18.04978875549999
 20
7.003610157499999
 30
0.0
  0
VERTEX
  5
3B3
330
3AA
100
AcDbEntity
  8
0
100
AcDbVertex
100
AcDb2dVertex
 10
18.0243501943
 20
7.009693036399999
 30
0.0
  0
VERTEX
  5
3B4
330
3AA
100
AcDbEntity
  8
0
100
AcDbVertex
100
AcDb2dVertex
 10
17.9970512555
 20
7.011767793099999
 30
0.0
  0
VERTEX
  5
3B5
330
3AA
100
AcDbEntity
  8
0
100
AcDbVertex
100
AcDb2dVertex
 10
17.9697523167
 20
7.009693036399999
 30
0.0
  0
VERTEX
  5
3B6
330
3AA
100
AcDbEntity
  8
0
100
AcDbVertex
100
AcDb2dVertex
 10
17.94431375549999
 20
7.003610157499999
 30
0.0
  0
VERTEX
  5
3B7
330
3AA
100
AcDbEntity
  8
0
100
AcDbVertex
100
AcDb2dVertex
 10
17.9224691677
 20
6.9939336945
 30
0.0
  0
VERTEX
  5
3B8
330
3AA
100
AcDbEntity
  8
0
100
AcDbVertex
100
AcDb2dVertex
 10
17.905707226
 20
6.9813230824
 30
0.0
  0
VERTEX
  5
3B9
330
3AA
100
AcDbEntity
  8
0
100
AcDbVertex
100
AcDb2dVertex
 10
17.8951702289
 20
6.966637713599999
 30
0.0
  0
VERTEX
  5
3BA
330
3AA
100
AcDbEntity
  8
0
100
AcDbVertex
100
AcDb2dVertex
 10
17.89157625549999
 20
6.9508783717
 30
0.0
  0
VERTEX
  5
3BB
330
3AA
100
AcDbEntity
  8
0
100
AcDbVertex
100
AcDb2dVertex
 10
17.8951702289
 20
6.9351190298
 30
0.0
  0
VERTEX
  5
3BC
330
3AA
100
AcDbEntity
  8
0
100
AcDbVertex
100
AcDb2dVertex
 10
17.905707226
 20
6.920433661
 30
0.0
  0
VERTEX
  5
3BD
330
3AA
100
AcDbEntity
  8
0
100
AcDbVertex
100
AcDb2dVertex
 10
17.9139242621
 20
6.9133996433
 30
0.0
  0
SEQEND
  5
3BE
330
3AA
100
AcDbEntity
  8
0
  0
POLYLINE
  5
3BF
330
A
100
AcDbEntity
  8
0
  6
Continuous
 62
     7
100
AcDb2dPolyline
 66
     1
 10
0.0
 20
0.0
 30
0.0
 70
   128
 40
0.0023622047
 41
0.0023622047
  0
VERTEX
  5
3C0
330
3BF
100
AcDbEntity
  8
0
100
AcDbVertex
100
AcDb2dVertex
 10
16.3124112959
 20
6.9133996433
 30
0.0
  0
VERTEX
  5
3C1
330
3BF
100
AcDbEntity
  8
0
100
AcDbVertex
100
AcDb2dVertex
 10
16.320628332
 20
6.920433661
 30
0.0
  0
VERTEX
  5
3C2
330
3BF
100
AcDbEntity
  8
0
100
AcDbVertex
100
AcDb2dVertex
 10
16.331165329
 20
6.9351190298
 30
0.0
  0
VERTEX
  5
3C3
330
3BF
100
AcDbEntity
  8
0
100
AcDbVertex
100
AcDb2dVertex
 10
16.3347593025
 20
6.9508783717
 30
0.0
  0
VERTEX
  5
3C4
330
3BF
100
AcDbEntity
  8
0
100
AcDbVertex
100
AcDb2dVertex
 10
16.331165329
 20
6.966637713599999
 30
0.0
  0
VERTEX
  5
3C5
330
3BF
100
AcDbEntity
  8
0
100
AcDbVertex
100
AcDb2dVertex
 10
16.320628332
 20
6.9813230824
 30
0.0
  0
VERTEX
  5
3C6
330
3BF
100
AcDbEntity
  8
0
100
AcDbVertex
100
AcDb2dVertex
 10
16.3038663903
 20
6.9939336945
 30
0.0
  0
VERTEX
  5
3C7
330
3BF
100
AcDbEntity
  8
0
100
AcDbVertex
100
AcDb2dVertex
 10
16.2820218025
 20
7.003610157499999
 30
0.0
  0
VERTEX
  5
3C8
330
3BF
100
AcDbEntity
  8
0
100
AcDbVertex
100
AcDb2dVertex
 10
16.25658324129999
 20
7.009693036399999
 30
0.0
  0
VERTEX
  5
3C9
330
3BF
100
AcDbEntity
  8
0
100
AcDbVertex
100
AcDb2dVertex
 10
16.2292843025
 20
7.011767793099999
 30
0.0
  0
VERTEX
  5
3CA
330
3BF
100
AcDbEntity
  8
0
100
AcDbVertex
100
AcDb2dVertex
 10
16.2019853637
 20
7.009693036399999
 30
0.0
  0
VERTEX
  5
3CB
330
3BF
100
AcDbEntity
  8
0
100
AcDbVertex
100
AcDb2dVertex
 10
16.1765468025
 20
7.003610157499999
 30
0.0
  0
VERTEX
  5
3CC
330
3BF
100
AcDbEntity
  8
0
100
AcDbVertex
100
AcDb2dVertex
 10
16.1547022148
 20
6.9939336945
 30
0.0
  0
VERTEX
  5
3CD
330
3BF
100
AcDbEntity
  8
0
100
AcDbVertex
100
AcDb2dVertex
 10
16.13794027299999
 20
6.9813230824
 30
0.0
  0
VERTEX
  5
3CE
330
3BF
100
AcDbEntity
  8
0
100
AcDbVertex
100
AcDb2dVertex
 10
16.127403276
 20
6.966637713599999
 30
0.0
  0
VERTEX
  5
3CF
330
3BF
100
AcDbEntity
  8
0
100
AcDbVertex
100
AcDb2dVertex
 10
16.1238093025
 20
6.9508783717
 30
0.0
  0
VERTEX
  5
3D0
330
3BF
100
AcDbEntity
  8
0
100
AcDbVertex
100
AcDb2dVertex
 10
16.127403276
 20
6.9351190298
 30
0.0
  0
VERTEX
  5
3D1
330
3BF
100
AcDbEntity
  8
0
100
AcDbVertex
100
AcDb2dVertex
 10
16.13794027299999
 20
6.920433661
 30
0.0
  0
VERTEX
  5
3D2
330
3BF
100
AcDbEntity
  8
0
100
AcDbVertex
100
AcDb2dVertex
 10
16.1461573091
 20
6.9133996433
 30
0.0
  0
SEQEND
  5
3D3
330
3BF
100
AcDbEntity
  8
0
  0
POLYLINE
  5
3D4
330
A
100
AcDbEntity
  8
0
  6
Continuous
 62
     7
100
AcDb2dPolyline
 66
     1
 10
0.0
 20
0.0
 30
0.0
 70
   128
 40
0.0023622047
 41
0.0023622047
  0
VERTEX
  5
3D5
330
3D4
100
AcDbEntity
  8
0
100
AcDbVertex
100
AcDb2dVertex
 10
13.5395637952
 20
8.5506063908
 30
0.0
  0
VERTEX
  5
3D6
330
3D4
100
AcDbEntity
  8
0
100
AcDbVertex
100
AcDb2dVertex
 10
13.49234911289999
 20
8.5776467816
 30
0.0
  0
VERTEX
  5
3D7
330
3D4
100
AcDbEntity
  8
0
100
AcDbVertex
100
AcDb2dVertex
 10
13.4363984947
 20
8.604236125099999
 30
0.0
  0
VERTEX
  5
3D8
330
3D4
100
AcDbEntity
  8
0
100
AcDbVertex
100
AcDb2dVertex
 10
13.3762637316
 20
8.6275839784
 30
0.0
  0
VERTEX
  5
3D9
330
3D4
100
AcDbEntity
  8
0
100
AcDbVertex
100
AcDb2dVertex
 10
13.3125062856
 20
8.647472348899999
 30
0.0
  0
VERTEX
  5
3DA
330
3D4
100
AcDbEntity
  8
0
100
AcDbVertex
100
AcDb2dVertex
 10
13.2457214429
 20
8.6637155441
 30
0.0
  0
VERTEX
  5
3DB
330
3D4
100
AcDbEntity
  8
0
100
AcDbVertex
100
AcDb2dVertex
 10
13.1765327556
 20
8.6761619058
 30
0.0
  0
VERTEX
  5
3DC
330
3D4
100
AcDbEntity
  8
0
100
AcDbVertex
100
AcDb2dVertex
 10
13.1055862197
 20
8.6846952257
 30
0.0
  0
VERTEX
  5
3DD
330
3D4
100
AcDbEntity
  8
0
100
AcDbVertex
100
AcDb2dVertex
 10
13.033544244
 20
8.689235830299999
 30
0.0
  0
VERTEX
  5
3DE
330
3D4
100
AcDbEntity
  8
0
100
AcDbVertex
100
AcDb2dVertex
 10
12.961079465
 20
8.689741325399999
 30
0.0
  0
VERTEX
  5
3DF
330
3D4
100
AcDbEntity
  8
0
100
AcDbVertex
100
AcDb2dVertex
 10
12.8888684667
 20
8.6862069913
 30
0.0
  0
VERTEX
  5
3E0
330
3D4
100
AcDbEntity
  8
0
100
AcDbVertex
100
AcDb2dVertex
 10
12.8175854639
 20
8.678665826999999
 30
0.0
  0
VERTEX
  5
3E1
330
3D4
100
AcDbEntity
  8
0
100
AcDbVertex
100
AcDb2dVertex
 10
12.7478960067
 20
8.667188242399999
 30
0.0
  0
VERTEX
  5
3E2
330
3D4
100
AcDbEntity
  8
0
100
AcDbVertex
100
AcDb2dVertex
 10
12.68045076679999
 20
8.6518814007
 30
0.0
  0
VERTEX
  5
3E3
330
3D4
100
AcDbEntity
  8
0
100
AcDbVertex
100
AcDb2dVertex
 10
12.6158794623
 20
8.632888217599999
 30
0.0
  0
VERTEX
  5
3E4
330
3D4
100
AcDbEntity
  8
0
100
AcDbVertex
100
AcDb2dVertex
 10
12.55478497799999
 20
8.6103860274
 30
0.0
  0
VERTEX
  5
3E5
330
3D4
100
AcDbEntity
  8
0
100
AcDbVertex
100
AcDb2dVertex
 10
12.4977377366
 20
8.584584926999999
 30
0.0
  0
VERTEX
  5
3E6
330
3D4
100
AcDbEntity
  8
0
100
AcDbVertex
100
AcDb2dVertex
 10
12.4452703729
 20
8.555725814299998
 30
0.0
  0
VERTEX
  5
3E7
330
3D4
100
AcDbEntity
  8
0
100
AcDbVertex
100
AcDb2dVertex
 10
12.4369569466
 20
8.5506063908
 30
0.0
  0
SEQEND
  5
3E8
330
3D4
100
AcDbEntity
  8
0
  0
POLYLINE
  5
3E9
330
A
100
AcDbEntity
  8
0
  6
Continuous
 62
     7
100
AcDb2dPolyline
 66
     1
 10
0.0
 20
0.0
 30
0.0
 70
   128
 40
0.0023622047
 41
0.0023622047
  0
VERTEX
  5
3EA
330
3E9
100
AcDbEntity
  8
0
100
AcDbVertex
100
AcDb2dVertex
 10
8.8115076187
 20
7.783280185599999
 30
0.0
  0
VERTEX
  5
3EB
330
3E9
100
AcDbEntity
  8
0
100
AcDbVertex
100
AcDb2dVertex
 10
8.7781250325
 20
7.799450773999999
 30
0.0
  0
VERTEX
  5
3EC
330
3E9
100
AcDbEntity
  8
0
100
AcDbVertex
100
AcDb2dVertex
 10
8.750113716699999
 20
7.8187221308
 30
0.0
  0
VERTEX
  5
3ED
330
3E9
100
AcDbEntity
  8
0
100
AcDbVertex
100
AcDb2dVertex
 10
8.728324780999999
 20
7.840508705599999
 30
0.0
  0
VERTEX
  5
3EE
330
3E9
100
AcDbEntity
  8
0
100
AcDbVertex
100
AcDb2dVertex
 10
8.7134202712
 20
7.8641485244
 30
0.0
  0
VERTEX
  5
3EF
330
3E9
100
AcDbEntity
  8
0
100
AcDbVertex
100
AcDb2dVertex
 10
8.7058530532
 20
7.888923303099999
 30
0.0
  0
VERTEX
  5
3F0
330
3E9
100
AcDbEntity
  8
0
100
AcDbVertex
100
AcDb2dVertex
 10
8.704901727799999
 20
7.901501787999999
 30
0.0
  0
SEQEND
  5
3F1
330
3E9
100
AcDbEntity
  8
0
  0
INSERT
  5
3F6
330
A
100
AcDbEntity
  8
0
100
AcDbBlockReference
  2
NOTE67
 10
35.90000912499999
 20
26.1066021576
 30
0.0
  0
LEADER
  5
3F7
330
A
100
AcDbEntity
  8
0
 62
     1
100
AcDbLeader
  3
SLDDIMSTYLE7
 73
     0
 76
     3
 10
19.5453401797
 20
6.796793100499999
 30
0.0
 10
22.8405036161
 20
8.8492939623
 30
0.0
 10
23.8405036161
 20
8.8492939623
 30
0.0
340
3F9
213
0.0
223
-0.2997668420891539
233
0.0
  0
MTEXT
  5
3F9
102
{ACAD_REACTORS
330
3F7
102
}
330
A
100
AcDbEntity
  8
0
 62
     1
100
AcDbMText
 10
23.9195864231
 20
9.149060804400001
 30
0.0
 40
0.4
 41
0.0
 71
     1
 72
     1
  1
RADIUS EXPOSED EDGES 1/32 TO 1/16 BOTH SIDES\PEXCEPT BACK EDGES HIDDEN INSIDE LEG
  7
SLDTEXTSTYLE0
 73
     1
 44
1.0
  0
POLYLINE
  5
3FA
330
A
100
AcDbEntity
  8
0
  6
HIDDEN
 62
     7
100
AcDb2dPolyline
 66
     1
 10
0.0
 20
0.0
 30
0.0
 70
   128
  0
VERTEX
  5
3FB
330
3FA
100
AcDbEntity
  8
0
100
AcDbVertex
100
AcDb2dVertex
 10
17.9086629078
 20
5.879342724899999
 30
0.0
  0
VERTEX
  5
3FC
330
3FA
100
AcDbEntity
  8
0
100
AcDbVertex
100
AcDb2dVertex
 10
17.8815663139
 20
5.902753426499999
 30
0.0
  0
VERTEX
  5
3FD
330
3FA
100
AcDbEntity
  8
0
100
AcDbVertex
100
AcDb2dVertex
 10
17.8720512555
 20
5.9303682319
 30
0.0
  0
VERTEX
  5
3FE
330
3FA
100
AcDbEntity
  8
0
100
AcDbVertex
100
AcDb2dVertex
 10
17.8815663139
 20
5.9579830373
 30
0.0
  0
VERTEX
  5
3FF
330
3FA
100
AcDbEntity
  8
0
100
AcDbVertex
100
AcDb2dVertex
 10
17.9086629078
 20
5.981393738899999
 30
0.0
  0
VERTEX
  5
400
330
3FA
100
AcDbEntity
  8
0
100
AcDbVertex
100
AcDb2dVertex
 10
17.94921582639999
 20
5.9970362696
 30
0.0
  0
VERTEX
  5
401
330
3FA
100
AcDbEntity
  8
0
100
AcDbVertex
100
AcDb2dVertex
 10
17.9970512555
 20
6.0025291959
 30
0.0
  0
VERTEX
  5
402
330
3FA
100
AcDbEntity
  8
0
100
AcDbVertex
100
AcDb2dVertex
 10
18.0448866845
 20
5.9970362696
 30
0.0
  0
VERTEX
  5
403
330
3FA
100
AcDbEntity
  8
0
100
AcDbVertex
100
AcDb2dVertex
 10
18.08543960309999
 20
5.981393738899999
 30
0.0
  0
VERTEX
  5
404
330
3FA
100
AcDbEntity
  8
0
100
AcDbVertex
100
AcDb2dVertex
 10
18.112536197
 20
5.9579830373
 30
0.0
  0
VERTEX
  5
405
330
3FA
100
AcDbEntity
  8
0
100
AcDbVertex
100
AcDb2dVertex
 10
18.1220512555
 20
5.9303682319
 30
0.0
  0
VERTEX
  5
406
330
3FA
100
AcDbEntity
  8
0
100
AcDbVertex
100
AcDb2dVertex
 10
18.112536197
 20
5.902753426499999
 30
0.0
  0
VERTEX
  5
407
330
3FA
100
AcDbEntity
  8
0
100
AcDbVertex
100
AcDb2dVertex
 10
18.08543960309999
 20
5.879342724899999
 30
0.0
  0
VERTEX
  5
408
330
3FA
100
AcDbEntity
  8
0
100
AcDbVertex
100
AcDb2dVertex
 10
18.0448866845
 20
5.863700194199999
 30
0.0
  0
VERTEX
  5
409
330
3FA
100
AcDbEntity
  8
0
100
AcDbVertex
100
AcDb2dVertex
 10
17.9970512555
 20
5.858207267899999
 30
0.0
  0
VERTEX
  5
40A
330
3FA
100
AcDbEntity
  8
0
100
AcDbVertex
100
AcDb2dVertex
 10
17.94921582639999
 20
5.863700194199999
 30
0.0
  0
VERTEX
  5
40B
330
3FA
100
AcDbEntity
  8
0
100
AcDbVertex
100
AcDb2dVertex
 10
17.9086629078
 20
5.879342724899999
 30
0.0
  0
SEQEND
  5
40C
330
3FA
100
AcDbEntity
  8
0
  0
POLYLINE
  5
40D
330
A
100
AcDbEntity
  8
0
  6
HIDDEN
 62
     7
100
AcDb2dPolyline
 66
     1
 10
0.0
 20
0.0
 30
0.0
 70
   128
  0
VERTEX
  5
40E
330
40D
100
AcDbEntity
  8
0
100
AcDbVertex
100
AcDb2dVertex
 10
16.1408959549
 20
5.981393738899999
 30
0.0
  0
VERTEX
  5
40F
330
40D
100
AcDbEntity
  8
0
100
AcDbVertex
100
AcDb2dVertex
 10
16.18144887349999
 20
5.9970362696
 30
0.0
  0
VERTEX
  5
410
330
40D
100
AcDbEntity
  8
0
100
AcDbVertex
100
AcDb2dVertex
 10
16.2292843025
 20
6.0025291959
 30
0.0
  0
VERTEX
  5
411
330
40D
100
AcDbEntity
  8
0
100
AcDbVertex
100
AcDb2dVertex
 10
16.2771197316
 20
5.9970362696
 30
0.0
  0
VERTEX
  5
412
330
40D
100
AcDbEntity
  8
0
100
AcDbVertex
100
AcDb2dVertex
 10
16.31767265019999
 20
5.981393738899999
 30
0.0
  0
VERTEX
  5
413
330
40D
100
AcDbEntity
  8
0
100
AcDbVertex
100
AcDb2dVertex
 10
16.3447692441
 20
5.9579830373
 30
0.0
  0
VERTEX
  5
414
330
40D
100
AcDbEntity
  8
0
100
AcDbVertex
100
AcDb2dVertex
 10
16.3542843025
 20
5.9303682319
 30
0.0
  0
VERTEX
  5
415
330
40D
100
AcDbEntity
  8
0
100
AcDbVertex
100
AcDb2dVertex
 10
16.3447692441
 20
5.902753426499999
 30
0.0
  0
VERTEX
  5
416
330
40D
100
AcDbEntity
  8
0
100
AcDbVertex
100
AcDb2dVertex
 10
16.31767265019999
 20
5.879342724899999
 30
0.0
  0
VERTEX
  5
417
330
40D
100
AcDbEntity
  8
0
100
AcDbVertex
100
AcDb2dVertex
 10
16.2771197316
 20
5.863700194199999
 30
0.0
  0
VERTEX
  5
418
330
40D
100
AcDbEntity
  8
0
100
AcDbVertex
100
AcDb2dVertex
 10
16.2292843025
 20
5.858207267899999
 30
0.0
  0
VERTEX
  5
419
330
40D
100
AcDbEntity
  8
0
100
AcDbVertex
100
AcDb2dVertex
 10
16.18144887349999
 20
5.863700194199999
 30
0.0
  0
VERTEX
  5
41A
330
40D
100
AcDbEntity
  8
0
100
AcDbVertex
100
AcDb2dVertex
 10
16.1408959549
 20
5.879342724899999
 30
0.0
  0
VERTEX
  5
41B
330
40D
100
AcDbEntity
  8
0
100
AcDbVertex
100
AcDb2dVertex
 10
16.1137993609
 20
5.902753426499999
 30
0.0
  0
VERTEX
  5
41C
330
40D
100
AcDbEntity
  8
0
100
AcDbVertex
100
AcDb2dVertex
 10
16.1042843025
 20
5.9303682319
 30
0.0
  0
VERTEX
  5
41D
330
40D
100
AcDbEntity
  8
0
100
AcDbVertex
100
AcDb2dVertex
 10
16.1137993609
 20
5.9579830373
 30
0.0
  0
VERTEX
  5
41E
330
40D
100
AcDbEntity
  8
0
100
AcDbVertex
100
AcDb2dVertex
 10
16.1408959549
 20
5.981393738899999
 30
0.0
  0
SEQEND
  5
41F
330
40D
100
AcDbEntity
  8
0
  0
POLYLINE
  5
420
330
A
100
AcDbEntity
  8
0
  6
HIDDEN
 62
     7
100
AcDb2dPolyline
 66
     1
 10
0.0
 20
0.0
 30
0.0
 70
   128
  0
VERTEX
  5
421
330
420
100
AcDbEntity
  8
0
100
AcDbVertex
100
AcDb2dVertex
 10
16.31767265019999
 20
7.0019038787
 30
0.0
  0
VERTEX
  5
422
330
420
100
AcDbEntity
  8
0
100
AcDbVertex
100
AcDb2dVertex
 10
16.3447692441
 20
6.9784931771
 30
0.0
  0
VERTEX
  5
423
330
420
100
AcDbEntity
  8
0
100
AcDbVertex
100
AcDb2dVertex
 10
16.3542843025
 20
6.9508783717
 30
0.0
  0
VERTEX
  5
424
330
420
100
AcDbEntity
  8
0
100
AcDbVertex
100
AcDb2dVertex
 10
16.3447692441
 20
6.9232635663
 30
0.0
  0
VERTEX
  5
425
330
420
100
AcDbEntity
  8
0
100
AcDbVertex
100
AcDb2dVertex
 10
16.31767265019999
 20
6.8998528647
 30
0.0
  0
VERTEX
  5
426
330
420
100
AcDbEntity
  8
0
100
AcDbVertex
100
AcDb2dVertex
 10
16.2771197316
 20
6.884210333999999
 30
0.0
  0
VERTEX
  5
427
330
420
100
AcDbEntity
  8
0
100
AcDbVertex
100
AcDb2dVertex
 10
16.2292843025
 20
6.878717407699999
 30
0.0
  0
VERTEX
  5
428
330
420
100
AcDbEntity
  8
0
100
AcDbVertex
100
AcDb2dVertex
 10
16.18144887349999
 20
6.884210333999999
 30
0.0
  0
VERTEX
  5
429
330
420
100
AcDbEntity
  8
0
100
AcDbVertex
100
AcDb2dVertex
 10
16.1408959549
 20
6.8998528647
 30
0.0
  0
VERTEX
  5
42A
330
420
100
AcDbEntity
  8
0
100
AcDbVertex
100
AcDb2dVertex
 10
16.1137993609
 20
6.9232635663
 30
0.0
  0
VERTEX
  5
42B
330
420
100
AcDbEntity
  8
0
100
AcDbVertex
100
AcDb2dVertex
 10
16.1042843025
 20
6.9508783717
 30
0.0
  0
VERTEX
  5
42C
330
420
100
AcDbEntity
  8
0
100
AcDbVertex
100
AcDb2dVertex
 10
16.1137993609
 20
6.9784931771
 30
0.0
  0
VERTEX
  5
42D
330
420
100
AcDbEntity
  8
0
100
AcDbVertex
100
AcDb2dVertex
 10
16.1408959549
 20
7.0019038787
 30
0.0
  0
VERTEX
  5
42E
330
420
100
AcDbEntity
  8
0
100
AcDbVertex
100
AcDb2dVertex
 10
16.18144887349999
 20
7.0175464094
 30
0.0
  0
VERTEX
  5
42F
330
420
100
AcDbEntity
  8
0
100
AcDbVertex
100
AcDb2dVertex
 10
16.2292843025
 20
7.0230393357
 30
0.0
  0
VERTEX
  5
430
330
420
100
AcDbEntity
  8
0
100
AcDbVertex
100
AcDb2dVertex
 10
16.2771197316
 20
7.0175464094
 30
0.0
  0
VERTEX
  5
431
330
420
100
AcDbEntity
  8
0
100
AcDbVertex
100
AcDb2dVertex
 10
16.31767265019999
 20
7.0019038787
 30
0.0
  0
SEQEND
  5
432
330
420
100
AcDbEntity
  8
0
  0
POLYLINE
  5
433
330
A
100
AcDbEntity
  8
0
  6
HIDDEN
 62
     7
100
AcDb2dPolyline
 66
     1
 10
0.0
 20
0.0
 30
0.0
 70
   128
  0
VERTEX
  5
434
330
433
100
AcDbEntity
  8
0
100
AcDbVertex
100
AcDb2dVertex
 10
18.08543960309999
 20
6.8998528647
 30
0.0
  0
VERTEX
  5
435
330
433
100
AcDbEntity
  8
0
100
AcDbVertex
100
AcDb2dVertex
 10
18.0448866845
 20
6.884210333999999
 30
0.0
  0
VERTEX
  5
436
330
433
100
AcDbEntity
  8
0
100
AcDbVertex
100
AcDb2dVertex
 10
17.9970512555
 20
6.878717407699999
 30
0.0
  0
VERTEX
  5
437
330
433
100
AcDbEntity
  8
0
100
AcDbVertex
100
AcDb2dVertex
 10
17.94921582639999
 20
6.884210333999999
 30
0.0
  0
VERTEX
  5
438
330
433
100
AcDbEntity
  8
0
100
AcDbVertex
100
AcDb2dVertex
 10
17.9086629078
 20
6.8998528647
 30
0.0
  0
VERTEX
  5
439
330
433
100
AcDbEntity
  8
0
100
AcDbVertex
100
AcDb2dVertex
 10
17.8815663139
 20
6.9232635663
 30
0.0
  0
VERTEX
  5
43A
330
433
100
AcDbEntity
  8
0
100
AcDbVertex
100
AcDb2dVertex
 10
17.8720512555
 20
6.9508783717
 30
0.0
  0
VERTEX
  5
43B
330
433
100
AcDbEntity
  8
0
100
AcDbVertex
100
AcDb2dVertex
 10
17.8815663139
 20
6.9784931771
 30
0.0
  0
VERTEX
  5
43C
330
433
100
AcDbEntity
  8
0
100
AcDbVertex
100
AcDb2dVertex
 10
17.9086629078
 20
7.0019038787
 30
0.0
  0
VERTEX
  5
43D
330
433
100
AcDbEntity
  8
0
100
AcDbVertex
100
AcDb2dVertex
 10
17.94921582639999
 20
7.0175464094
 30
0.0
  0
VERTEX
  5
43E
330
433
100
AcDbEntity
  8
0
100
AcDbVertex
100
AcDb2dVertex
 10
17.9970512555
 20
7.0230393357
 30
0.0
  0
VERTEX
  5
43F
330
433
100
AcDbEntity
  8
0
100
AcDbVertex
100
AcDb2dVertex
 10
18.0448866845
 20
7.0175464094
 30
0.0
  0
VERTEX
  5
440
330
433
100
AcDbEntity
  8
0
100
AcDbVertex
100
AcDb2dVertex
 10
18.08543960309999
 20
7.0019038787
 30
0.0
  0
VERTEX
  5
441
330
433
100
AcDbEntity
  8
0
100
AcDbVertex
100
AcDb2dVertex
 10
18.112536197
 20
6.9784931771
 30
0.0
  0
VERTEX
  5
442
330
433
100
AcDbEntity
  8
0
100
AcDbVertex
100
AcDb2dVertex
 10
18.1220512555
 20
6.9508783717
 30
0.0
  0
VERTEX
  5
443
330
433
100
AcDbEntity
  8
0
100
AcDbVertex
100
AcDb2dVertex
 10
18.112536197
 20
6.9232635663
 30
0.0
  0
VERTEX
  5
444
330
433
100
AcDbEntity
  8
0
100
AcDbVertex
100
AcDb2dVertex
 10
18.08543960309999
 20
6.8998528647
 30
0.0
  0
SEQEND
  5
445
330
433
100
AcDbEntity
  8
0
  0
ENDSEC
  0
SECTION
  2
OBJECTS
  0
DICTIONARY
  5
19
330
0
100
AcDbDictionary
281
     1
  3
ACAD_GROUP
350
1A
  3
ACAD_LAYOUT
350
1E
  3
ACAD_MLINESTYLE
350
1B
  3
ACAD_PLOTSETTINGS
350
22
  3
ACAD_PLOTSTYLENAME
350
1F
  3
ACAD_WIPEOUT_VARS
350
23
  0
DICTIONARY
  5
1A
102
{ACAD_REACTORS
330
19
102
}
330
19
100
AcDbDictionary
281
     1
  0
DICTIONARY
  5
1E
102
{ACAD_REACTORS
330
19
102
}
330
19
100
AcDbDictionary
281
     1
  3
Layout1
350
21
  3
Model
350
20
  0
DICTIONARY
  5
1B
102
{ACAD_REACTORS
330
19
102
}
330
19
100
AcDbDictionary
281
     1
  3
Standard
350
1C
  0
DICTIONARY
  5
22
102
{ACAD_REACTORS
330
19
102
}
330
19
100
AcDbDictionary
281
     1
  0
ACDBDICTIONARYWDFLT
  5
1F
102
{ACAD_REACTORS
330
19
102
}
330
19
100
AcDbDictionary
281
     1
  3
Normal
350
1D
100
AcDbDictionaryWithDefault
340
1D
  0
WIPEOUTVARIABLES
  5
23
330
19
100
AcDbWipeoutVariables
 70
     1
  0
LAYOUT
  5
21
102
{ACAD_REACTORS
330
1E
102
}
330
1E
100
AcDbPlotSettings
  1

  2

  4

  6

 40
0.0
 41
0.0
 42
0.0
 43
0.0
 44
0.0
 45
0.0
 46
0.0
 47
0.0
 48
0.0
 49
0.0
140
0.0
141
0.0
142
1.0
143
1.0
 70
     0
 72
     0
 73
     0
 74
     0
  7

 75
     0
147
1.0
148
0.0
149
0.0
100
AcDbLayout
  1
Layout1
 70
     1
 71
     1
 10
0.0
 20
0.0
 11
12.0
 21
9.0
 12
0.0
 22
0.0
 32
0.0
 14
1.000000000000000E+20
 24
1.000000000000000E+20
 34
1.000000000000000E+20
 15
-1.000000000000000E+20
 25
-1.000000000000000E+20
 35
-1.000000000000000E+20
146
0.0
 13
0.0
 23
0.0
 33
0.0
 16
1.0
 26
0.0
 36
0.0
 17
0.0
 27
1.0
 37
0.0
 76
     0
330
B
  0
LAYOUT
  5
20
102
{ACAD_REACTORS
330
1E
102
}
330
1E
100
AcDbPlotSettings
  1

  2

  4

  6

 40
0.0
 41
0.0
 42
0.0
 43
0.0
 44
0.0
 45
0.0
 46
0.0
 47
0.0
 48
0.0
 49
0.0
140
0.0
141
0.0
142
1.0
143
1.0
 70
  1024
 72
     0
 73
     0
 74
     0
  7

 75
     0
147
1.0
148
0.0
149
0.0
100
AcDbLayout
  1
Model
 70
     0
 71
     0
 10
0.0
 20
0.0
 11
0.0
 21
0.0
 12
0.0
 22
0.0
 32
0.0
 14
0.0
 24
0.0
 34
0.0
 15
0.0
 25
0.0
 35
0.0
146
0.0
 13
0.0
 23
0.0
 33
0.0
 16
0.0
 26
0.0
 36
0.0
 17
0.0
 27
0.0
 37
0.0
 76
     0
330
A
  0
MLINESTYLE
  5
1C
102
{ACAD_REACTORS
330
1B
102
}
330
1B
100
AcDbMlineStyle
  2
STANDARD
 70
     0
  3

 62
     0
 51
90.0
 52
90.0
 71
     2
 49
0.5
 62
   256
  6
BYLAYER
 49
-0.5
 62
   256
  6
BYLAYER
  0
ACDBPLACEHOLDER
  5
1D
102
{ACAD_REACTORS
330
1F
102
}
330
1F
  0
ENDSEC
  0
EOF
