  0
SECTION
  2
HEADER
  9
$ACADVER
  1
AC1015
  9
$ACADMAINTVER
 70
    10
  9
$DWGCODEPAGE
  3
ANSI_1252
  9
$INSBASE
 10
0.0
 20
0.0
 30
0.0
  9
$EXTMIN
 10
2.25
 20
0.2274811499000001
 30
0.0
  9
$EXTMAX
 10
50.2808102386
 20
32.426068864
 30
0.0
  9
$LIMMIN
 10
0.0
 20
0.0
  9
$LIMMAX
 10
0.0
 20
0.0
  9
$ORTHOMODE
 70
     0
  9
$REGENMODE
 70
     1
  9
$FILLMODE
 70
     1
  9
$QTEXTMODE
 70
     0
  9
$MIRRTEXT
 70
     1
  9
$LTSCALE
 40
1.0
  9
$ATTMODE
 70
     1
  9
$TEXTSIZE
 40
0.0
  9
$TRACEWID
 40
0.05
  9
$TEXTSTYLE
  7
Standard
  9
$CLAYER
  8
0
  9
$CELTYPE
  6
Continuous
  9
$CECOLOR
 62
   256
  9
$CELTSCALE
 40
1.0
  9
$DISPSILH
 70
     0
  9
$DIMSCALE
 40
1.0
  9
$DIMASZ
 40
0.0
  9
$DIMEXO
 40
0.0
  9
$DIMDLI
 40
0.38
  9
$DIMRND
 40
0.0
  9
$DIMDLE
 40
0.0
  9
$DIMEXE
 40
0.18
  9
$DIMTP
 40
0.0
  9
$DIMTM
 40
0.0
  9
$DIMTXT
 40
0.3
  9
$DIMCEN
 40
0.09
  9
$DIMTSZ
 40
0.0
  9
$DIMTOL
 70
     0
  9
$DIMLIM
 70
     0
  9
$DIMTIH
 70
     1
  9
$DIMTOH
 70
     1
  9
$DIMSE1
 70
     0
  9
$DIMSE2
 70
     0
  9
$DIMTAD
 70
     0
  9
$DIMZIN
 70
     0
  9
$DIMBLK
  1

  9
$DIMASO
 70
     1
  9
$DIMSHO
 70
     1
  9
$DIMPOST
  1

  9
$DIMAPOST
  1

  9
$DIMALT
 70
     0
  9
$DIMALTD
 70
     2
  9
$DIMALTF
 40
25.4
  9
$DIMLFAC
 40
1.0
  9
$DIMTOFL
 70
     0
  9
$DIMTVP
 40
0.0
  9
$DIMTIX
 70
     0
  9
$DIMSOXD
 70
     0
  9
$DIMSAH
 70
     0
  9
$DIMBLK1
  1

  9
$DIMBLK2
  1

  9
$DIMSTYLE
  2
Standard
  9
$DIMCLRD
 70
     0
  9
$DIMCLRE
 70
     0
  9
$DIMCLRT
 70
     0
  9
$DIMTFAC
 40
1.0
  9
$DIMGAP
 40
0.0
  9
$DIMJUST
 70
     0
  9
$DIMSD1
 70
     0
  9
$DIMSD2
 70
     0
  9
$DIMTOLJ
 70
     1
  9
$DIMTZIN
 70
     0
  9
$DIMALTZ
 70
     0
  9
$DIMALTTZ
 70
     0
  9
$DIMUPT
 70
     0
  9
$DIMDEC
 70
     4
  9
$DIMTDEC
 70
     4
  9
$DIMALTU
 70
     2
  9
$DIMALTTD
 70
     2
  9
$DIMTXSTY
  7
Standard
  9
$DIMAUNIT
 70
     0
  9
$DIMADEC
 70
     0
  9
$DIMALTRND
 40
0.0
  9
$DIMAZIN
 70
     0
  9
$DIMDSEP
 70
     0
  9
$DIMATFIT
 70
     3
  9
$DIMFRAC
 70
     0
  9
$DIMLDRBLK
  1

  9
$DIMLUNIT
 70
     2
  9
$DIMLWD
 70
     0
  9
$DIMLWE
 70
     0
  9
$DIMTMOVE
 70
     0
  9
$LUNITS
 70
     2
  9
$LUPREC
 70
     3
  9
$SKETCHINC
 40
0.1
  9
$FILLETRAD
 40
0.0
  9
$AUNITS
 70
     0
  9
$AUPREC
 70
     2
  9
$MENU
  1
acad
  9
$ELEVATION
 40
0.0
  9
$PELEVATION
 40
0.0
  9
$THICKNESS
 40
0.0
  9
$LIMCHECK
 70
     0
  9
$CHAMFERA
 40
0.0
  9
$CHAMFERB
 40
0.0
  9
$CHAMFERC
 40
0.0
  9
$CHAMFERD
 40
0.0
  9
$SKPOLY
 70
     0
  9
$TDCREATE
 40
2453398.555326967
  9
$TDUCREATE
 40
2453398.888660301
  9
$TDUPDATE
 40
2453398.555808368
  9
$TDUUPDATE
 40
2453398.889141701
  9
$TDINDWG
 40
0.0004906366
  9
$TDUSRTIMER
 40
0.0004904514
  9
$USRTIMER
 70
     1
  9
$ANGBASE
 50
0.0
  9
$ANGDIR
 70
     0
  9
$PDMODE
 70
     0
  9
$PDSIZE
 40
-1.0
  9
$PLINEWID
 40
0.0
  9
$SPLFRAME
 70
     0
  9
$SPLINETYPE
 70
     6
  9
$SPLINESEGS
 70
     8
  9
$HANDSEED
  5
2F9
  9
$SURFTAB1
 70
     6
  9
$SURFTAB2
 70
     6
  9
$SURFTYPE
 70
     6
  9
$SURFU
 70
     6
  9
$SURFV
 70
     6
  9
$UCSBASE
  2

  9
$UCSNAME
  2

  9
$UCSORG
 10
0.0
 20
0.0
 30
0.0
  9
$UCSXDIR
 10
1.0
 20
0.0
 30
0.0
  9
$UCSYDIR
 10
0.0
 20
1.0
 30
0.0
  9
$UCSORTHOREF
  2

  9
$UCSORTHOVIEW
 70
     0
  9
$UCSORGTOP
 10
0.0
 20
0.0
 30
0.0
  9
$UCSORGBOTTOM
 10
0.0
 20
0.0
 30
0.0
  9
$UCSORGLEFT
 10
0.0
 20
0.0
 30
0.0
  9
$UCSORGRIGHT
 10
0.0
 20
0.0
 30
0.0
  9
$UCSORGFRONT
 10
0.0
 20
0.0
 30
0.0
  9
$UCSORGBACK
 10
0.0
 20
0.0
 30
0.0
  9
$PUCSBASE
  2

  9
$PUCSNAME
  2

  9
$PUCSORG
 10
0.0
 20
0.0
 30
0.0
  9
$PUCSXDIR
 10
1.0
 20
0.0
 30
0.0
  9
$PUCSYDIR
 10
0.0
 20
1.0
 30
0.0
  9
$PUCSORTHOREF
  2

  9
$PUCSORTHOVIEW
 70
     0
  9
$PUCSORGTOP
 10
0.0
 20
0.0
 30
0.0
  9
$PUCSORGBOTTOM
 10
0.0
 20
0.0
 30
0.0
  9
$PUCSORGLEFT
 10
0.0
 20
0.0
 30
0.0
  9
$PUCSORGRIGHT
 10
0.0
 20
0.0
 30
0.0
  9
$PUCSORGFRONT
 10
0.0
 20
0.0
 30
0.0
  9
$PUCSORGBACK
 10
0.0
 20
0.0
 30
0.0
  9
$USERI1
 70
     0
  9
$USERI2
 70
     0
  9
$USERI3
 70
     0
  9
$USERI4
 70
     0
  9
$USERI5
 70
     0
  9
$USERR1
 40
0.0
  9
$USERR2
 40
0.0
  9
$USERR3
 40
0.0
  9
$USERR4
 40
0.0
  9
$USERR5
 40
0.0
  9
$WORLDVIEW
 70
     1
  9
$SHADEDGE
 70
     3
  9
$SHADEDIF
 70
    70
  9
$TILEMODE
 70
     1
  9
$MAXACTVP
 70
    16
  9
$PINSBASE
 10
0.0
 20
0.0
 30
0.0
  9
$PLIMCHECK
 70
     0
  9
$PEXTMIN
 10
1.000000000000000E+20
 20
1.000000000000000E+20
 30
1.000000000000000E+20
  9
$PEXTMAX
 10
-1.000000000000000E+20
 20
-1.000000000000000E+20
 30
-1.000000000000000E+20
  9
$PLIMMIN
 10
0.0
 20
0.0
  9
$PLIMMAX
 10
12.0
 20
9.0
  9
$UNITMODE
 70
     0
  9
$VISRETAIN
 70
     0
  9
$PLINEGEN
 70
     1
  9
$PSLTSCALE
 70
     1
  9
$TREEDEPTH
 70
  3020
  9
$CMLSTYLE
  2
Standard
  9
$CMLJUST
 70
     0
  9
$CMLSCALE
 40
1.0
  9
$PROXYGRAPHICS
 70
     0
  9
$MEASUREMENT
 70
     0
  9
$CELWEIGHT
370
     0
  9
$ENDCAPS
280
     0
  9
$JOINSTYLE
280
     0
  9
$LWDISPLAY
290
     1
  9
$INSUNITS
 70
     0
  9
$HYPERLINKBASE
  1

  9
$STYLESHEET
  1

  9
$XEDIT
290
     1
  9
$CEPSNTYPE
380
     0
  9
$PSTYLEMODE
290
     1
  9
$FINGERPRINTGUID
  2

  9
$VERSIONGUID
  2
{28C923DE-AA5D-4E03-A0D6-E53BD656D71B}
  9
$EXTNAMES
290
     1
  9
$PSVPSCALE
 40
0.0
  9
$OLESTARTUP
290
     0
  0
ENDSEC
  0
SECTION
  2
CLASSES
  0
CLASS
  1
LWPOLYLINE
  2
AcDbPolyline
  3
AutoCAD 2000
 90
    32768
280
     0
281
     1
  0
CLASS
  1
IMAGE
  2
AcDbRasterImage
  3
ISM
 90
    32895
280
     0
281
     1
  0
CLASS
  1
OLE2FRAME
  2
AcDbOle2Frame
  3
AutoCAD 2000
 90
    32768
280
     0
281
     1
  0
CLASS
  1
HATCH
  2
AcDbHatch
  3
AutoCAD 2000
 90
    32768
280
     0
281
     1
  0
CLASS
  1
DICTIONARYVAR
  2
AcDbDictionaryVar
  3
AutoCAD 2000
 90
    32768
280
     0
281
     0
  0
CLASS
  1
RASTERVARIABLES
  2
AcDbRasterVariables
  3
ISM
 90
    32768
280
     0
281
     0
  0
CLASS
  1
IMAGEDEF
  2
AcDbRasterImageDef
  3
ISM
 90
    32768
280
     0
281
     0
  0
CLASS
  1
IMAGEDEF_REACTOR
  2
AcDbRasterImageDefReactor
  3
ISM
 90
    32769
280
     0
281
     0
  0
CLASS
  1
IDBUFFER
  2
AcDbIdBuffer
  3
AutoCAD 2000
 90
    32768
280
     0
281
     0
  0
CLASS
  1
SPATIAL_FILTER
  2
AcDbSpatialFilter
  3
AutoCAD 2000
 90
    32768
280
     0
281
     0
  0
CLASS
  1
XRECORD
  2
AcDbXrecord
  3
AutoCAD 2000
 90
    32768
280
     0
281
     0
  0
CLASS
  1
SORTENTSTABLE
  2
AcDbSortentsTable
  3
AutoCAD 2000
 90
    32768
280
     0
281
     0
  0
CLASS
  1
LAYER_INDEX
  2
AcDbLayerIndex
  3
AutoCAD 2000
 90
    32768
280
     0
281
     0
  0
CLASS
  1
SPATIAL_INDEX
  2
AcDbSpatialIndex
  3
AutoCAD 2000
 90
    32768
280
     0
281
     0
  0
CLASS
  1
OBJECT_PTR
  2
CAseDLPNTableRecord
  3
"ASE-LPNTableRecord"
 90
    32769
280
     0
281
     0
  0
CLASS
  1
LAYOUT
  2
AcDbLayout
  3
AutoCAD 2000
 90
        0
280
     0
281
     0
  0
CLASS
  1
PLOTSETTINGS
  2
AcDbPlotSettings
  3
AutoCAD 2000
 90
    32768
280
     0
281
     0
  0
CLASS
  1
ACDBDICTIONARYWDFLT
  2
AcDbDictionaryWithDefault
  3
AutoCAD 2000
 90
        0
280
     0
281
     0
  0
CLASS
  1
ACDBPLACEHOLDER
  2
AcDbPlaceHolder
  3
AutoCAD 2000
 90
        0
280
     0
281
     0
  0
CLASS
  1
VBA_PROJECT
  2
AcDbVbaProject
  3
acadvba
 90
    32768
280
     0
281
     0
  0
CLASS
  1
WIPEOUT
  2
AcDbWipeout
  3
WipeOut|AutoCAD Express Tool|expresstools@autodesk.com
 90
    32895
280
     0
281
     1
  0
CLASS
  1
WIPEOUTVARIABLES
  2
AcDbWipeoutVariables
  3
WipeOut|AutoCAD Express Tool|expresstools@autodesk.com
 90
        0
280
     0
281
     0
  0
CLASS
  1
RTEXT
  2
RText
  3
RText|AutoCAD Express Tool|expresstools@autodesk.com
 90
    32768
280
     0
281
     1
  0
CLASS
  1
ARCALIGNEDTEXT
  2
AcDbArcAlignedText
  3
ATEXT|AutoCAD Express Tool|expresstools@autodesk.com
 90
    32768
280
     0
281
     1
  0
ENDSEC
  0
SECTION
  2
TABLES
  0
TABLE
  2
VPORT
  5
7
330
0
100
AcDbSymbolTable
 70
     5
  0
VPORT
  5
2F8
330
7
100
AcDbSymbolTableRecord
100
AcDbViewportTableRecord
  2
*Active
 70
     0
 10
0.0
 20
0.0
 11
1.0
 21
1.0
 12
25.21853197084892
 22
16.5
 13
0.0
 23
0.0
 14
1.0
 24
1.0
 15
0.0
 25
0.0
 16
0.0
 26
0.0
 36
1.0
 17
0.0
 27
0.0
 37
0.0
 40
32.99999999063452
 41
1.5
 42
50.0
 43
0.0
 44
0.0
 50
0.0
 51
0.0
 71
     0
 72
  2000
 73
     1
 74
     1
 75
     0
 76
     0
 77
     0
 78
     0
281
     0
 65
     0
110
0.0
120
0.0
130
0.0
111
1.0
121
0.0
131
0.0
112
0.0
122
1.0
132
0.0
 79
     0
146
0.0
  0
ENDTAB
  0
TABLE
  2
LTYPE
  5
4
330
0
100
AcDbSymbolTable
 70
     6
  0
LTYPE
  5
11
330
4
100
AcDbSymbolTableRecord
100
AcDbLinetypeTableRecord
  2
ByBlock
 70
     0
  3

 72
    65
 73
     0
 40
0.0
  0
LTYPE
  5
12
330
4
100
AcDbSymbolTableRecord
100
AcDbLinetypeTableRecord
  2
ByLayer
 70
     0
  3

 72
    65
 73
     0
 40
0.0
  0
LTYPE
  5
13
330
4
100
AcDbSymbolTableRecord
100
AcDbLinetypeTableRecord
  2
Continuous
 70
     0
  3
Solid line
 72
    65
 73
     0
 40
0.0
  0
LTYPE
  5
24
330
4
100
AcDbSymbolTableRecord
100
AcDbLinetypeTableRecord
  2
HIDDEN
 70
     0
  3
Hidden __ __ __ __ __ __ __ __ __ __ __ __ __ __
 72
    65
 73
     2
 40
0.075
 49
0.05
 74
     0
 49
-0.025
 74
     0
  0
LTYPE
  5
25
330
4
100
AcDbSymbolTableRecord
100
AcDbLinetypeTableRecord
  2
PHANTOM
 70
     0
  3
Phantom ______  __  __  ______  __  __  ______
 72
    65
 73
     6
 40
0.5
 49
0.25
 74
     0
 49
-0.05
 74
     0
 49
0.05
 74
     0
 49
-0.05
 74
     0
 49
0.05
 74
     0
 49
-0.05
 74
     0
  0
LTYPE
  5
26
330
4
100
AcDbSymbolTableRecord
100
AcDbLinetypeTableRecord
  2
CENTER
 70
     0
  3
Center ____ _ ____ _ ____ _ ____ _ ____ _ ____
 72
    65
 73
     4
 40
0.4
 49
0.25
 74
     0
 49
-0.05
 74
     0
 49
0.05
 74
     0
 49
-0.05
 74
     0
  0
LTYPE
  5
27
330
4
100
AcDbSymbolTableRecord
100
AcDbLinetypeTableRecord
  2
CENTERX2
 70
     0
  3
Center (2x) ________  __  ________  __  _____
 72
    65
 73
     4
 40
0.8
 49
0.5
 74
     0
 49
-0.1
 74
     0
 49
0.1
 74
     0
 49
-0.1
 74
     0
  0
LTYPE
  5
28
330
4
100
AcDbSymbolTableRecord
100
AcDbLinetypeTableRecord
  2
DOT2
 70
     0
  3
Dot (.5x) ........................................
 72
    65
 73
     2
 40
0.025
 49
0.0
 74
     0
 49
-0.025
 74
     0
  0
ENDTAB
  0
TABLE
  2
LAYER
  5
2
330
0
100
AcDbSymbolTable
 70
     1
  0
LAYER
  5
14
330
2
100
AcDbSymbolTableRecord
100
AcDbLayerTableRecord
  2
0
 70
     0
 62
     7
  6
Continuous
370
    -3
390
1D
  0
ENDTAB
  0
TABLE
  2
STYLE
  5
3
330
0
100
AcDbSymbolTable
 70
     2
  0
STYLE
  5
17
330
3
100
AcDbSymbolTableRecord
100
AcDbTextStyleTableRecord
  2
Standard
 70
     0
 40
0.0
 41
1.0
 50
0.0
 71
     0
 42
0.0
  3
txt
  4

  0
STYLE
  5
75
330
3
100
AcDbSymbolTableRecord
100
AcDbTextStyleTableRecord
  2
SLDTEXTSTYLE0
 70
     0
 40
0.0
 41
0.75
 50
0.0
 71
     0
 42
0.0
  3
txt
  4

  0
ENDTAB
  0
TABLE
  2
VIEW
  5
5
330
0
100
AcDbSymbolTable
 70
     0
  0
ENDTAB
  0
TABLE
  2
UCS
  5
6
330
0
100
AcDbSymbolTable
 70
     0
  0
ENDTAB
  0
TABLE
  2
APPID
  5
8
330
0
100
AcDbSymbolTable
 70
     1
  0
APPID
  5
16
330
8
100
AcDbSymbolTableRecord
100
AcDbRegAppTableRecord
  2
ACAD
 70
     0
  0
ENDTAB
  0
TABLE
  2
DIMSTYLE
  5
9
330
0
100
AcDbSymbolTable
 70
     7
100
AcDbDimStyleTable
 71
     1
340
18
  0
DIMSTYLE
105
18
330
9
100
AcDbSymbolTableRecord
100
AcDbDimStyleTableRecord
  2
Standard
 70
     0
340
17
  0
DIMSTYLE
105
D6
102
{ACAD_REACTORS
330
DA
330
11A
330
129
330
136
330
145
330
16C
330
189
102
}
330
9
100
AcDbSymbolTableRecord
100
AcDbDimStyleTableRecord
  2
SLDDIMSTYLE0
 70
     0
 41
0.5625
 44
0.36
 78
    12
140
0.3
147
0.075
173
     1
176
     1
177
     1
178
     1
271
     3
284
    12
340
17
  0
DIMSTYLE
105
E2
102
{ACAD_REACTORS
330
E8
330
F5
102
}
330
9
100
AcDbSymbolTableRecord
100
AcDbDimStyleTableRecord
  2
SLDDIMSTYLE1
 70
     0
 41
0.5625
 44
0.36
 78
    12
140
0.3
147
0.075
173
     1
176
     1
177
     1
178
     1
271
     0
284
    12
340
17
  0
DIMSTYLE
105
FD
102
{ACAD_REACTORS
330
101
330
15F
102
}
330
9
100
AcDbSymbolTableRecord
100
AcDbDimStyleTableRecord
  2
SLDDIMSTYLE2
 70
     0
 41
0.5625
 44
0.36
 78
    12
140
0.3
147
0.075
172
     1
173
     1
176
     1
177
     1
178
     1
271
     3
284
    12
340
17
  0
DIMSTYLE
105
109
102
{ACAD_REACTORS
330
10D
102
}
330
9
100
AcDbSymbolTableRecord
100
AcDbDimStyleTableRecord
  2
SLDDIMSTYLE3
 70
     0
 41
0.5625
 44
0.36
 78
    12
140
0.3
147
0.075
173
     1
176
     1
177
     1
178
     1
271
     3
284
    12
340
17
  0
DIMSTYLE
105
14E
102
{ACAD_REACTORS
330
152
102
}
330
9
100
AcDbSymbolTableRecord
100
AcDbDimStyleTableRecord
  2
SLDDIMSTYLE4
 70
     0
 41
0.5625
 44
0.36
 78
    12
140
0.3
147
0.075
173
     1
176
     1
177
     1
178
     1
271
     3
284
    12
340
17
  0
DIMSTYLE
105
2EE
330
9
100
AcDbSymbolTableRecord
100
AcDbDimStyleTableRecord
  2
SLDDIMSTYLE5
 70
     0
 41
0.5625
 44
0.0
140
0.5625
147
0.140625
173
     1
271
     0
272
     0
340
17
  0
ENDTAB
  0
TABLE
  2
BLOCK_RECORD
  5
1
330
0
100
AcDbSymbolTable
 70
    15
  0
BLOCK_RECORD
  5
A
330
1
100
AcDbSymbolTableRecord
100
AcDbBlockTableRecord
  2
*MODEL_SPACE
340
20
  0
BLOCK_RECORD
  5
B
330
1
100
AcDbSymbolTableRecord
100
AcDbBlockTableRecord
  2
*PAPER_SPACE
340
21
  0
BLOCK_RECORD
  5
A8
330
1
100
AcDbSymbolTableRecord
100
AcDbBlockTableRecord
  2
NOTE50
340
0
102
{BLKREFS
331
AE
102
}
  0
BLOCK_RECORD
  5
CB
330
1
100
AcDbSymbolTableRecord
100
AcDbBlockTableRecord
  2
*D1
340
0
  0
BLOCK_RECORD
  5
DB
330
1
100
AcDbSymbolTableRecord
100
AcDbBlockTableRecord
  2
*D2
340
0
  0
BLOCK_RECORD
  5
E9
330
1
100
AcDbSymbolTableRecord
100
AcDbBlockTableRecord
  2
*D3
340
0
  0
BLOCK_RECORD
  5
F6
330
1
100
AcDbSymbolTableRecord
100
AcDbBlockTableRecord
  2
*D4
340
0
  0
BLOCK_RECORD
  5
102
330
1
100
AcDbSymbolTableRecord
100
AcDbBlockTableRecord
  2
*D5
340
0
  0
BLOCK_RECORD
  5
10E
330
1
100
AcDbSymbolTableRecord
100
AcDbBlockTableRecord
  2
*D6
340
0
  0
BLOCK_RECORD
  5
11B
330
1
100
AcDbSymbolTableRecord
100
AcDbBlockTableRecord
  2
*D7
340
0
  0
BLOCK_RECORD
  5
12A
330
1
100
AcDbSymbolTableRecord
100
AcDbBlockTableRecord
  2
*D8
340
0
  0
BLOCK_RECORD
  5
137
330
1
100
AcDbSymbolTableRecord
100
AcDbBlockTableRecord
  2
*D9
340
0
  0
BLOCK_RECORD
  5
146
330
1
100
AcDbSymbolTableRecord
100
AcDbBlockTableRecord
  2
*D10
340
0
  0
BLOCK_RECORD
  5
153
330
1
100
AcDbSymbolTableRecord
100
AcDbBlockTableRecord
  2
*D11
340
0
  0
BLOCK_RECORD
  5
160
330
1
100
AcDbSymbolTableRecord
100
AcDbBlockTableRecord
  2
*D12
340
0
  0
BLOCK_RECORD
  5
16D
330
1
100
AcDbSymbolTableRecord
100
AcDbBlockTableRecord
  2
NOTE67
340
0
102
{BLKREFS
331
171
102
}
  0
BLOCK_RECORD
  5
17D
330
1
100
AcDbSymbolTableRecord
100
AcDbBlockTableRecord
  2
*D14
340
0
  0
ENDTAB
  0
ENDSEC
  0
SECTION
  2
BLOCKS
  0
BLOCK
  5
D
330
A
100
AcDbEntity
  8
0
100
AcDbBlockBegin
  2
*MODEL_SPACE
 70
     0
 10
0.0
 20
0.0
 30
0.0
  3
*MODEL_SPACE
  1

  0
ENDBLK
  5
E
330
A
100
AcDbEntity
  8
0
100
AcDbBlockEnd
  0
BLOCK
  5
F
330
B
100
AcDbEntity
 67
     1
  8
0
100
AcDbBlockBegin
  2
*PAPER_SPACE
 70
     0
 10
0.0
 20
0.0
 30
0.0
  3
*PAPER_SPACE
  1

  0
ENDBLK
  5
10
330
B
100
AcDbEntity
 67
     1
  8
0
100
AcDbBlockEnd
  0
BLOCK
  5
A9
330
A8
100
AcDbEntity
  8
0
 62
     0
100
AcDbBlockBegin
  2
NOTE50
 70
     0
 10
0.0
 20
0.0
 30
0.0
  3
NOTE50
  1

  0
MTEXT
  5
AA
330
A8
100
AcDbEntity
  8
0
 62
     7
100
AcDbMText
 10
0.0
 20
0.0
 30
0.0
 40
0.27
 41
0.0
 71
     1
 72
     1
  1
BREAK SHARP EDGES 0.010 RAD %%p 0.003
  7
SLDTEXTSTYLE0
 73
     1
 44
1.0
  0
MTEXT
  5
AB
330
A8
100
AcDbEntity
  8
0
 62
     7
100
AcDbMText
 10
0.0
 20
-0.4050000000000001
 30
0.0
 40
0.27
 41
0.0
 71
     1
 72
     1
  1
MACHINED SURF FINISH  
  7
SLDTEXTSTYLE0
 73
     1
 44
1.0
  0
MTEXT
  5
AC
330
A8
100
AcDbEntity
  8
0
 62
     7
100
AcDbMText
 10
4.158
 20
-0.4050000000000001
 30
0.0
 40
0.27
 41
0.0
 71
     1
 72
     1
  1
< 125 MICROINCH
  7
SLDTEXTSTYLE0
 73
     1
 44
1.0
  0
ENDBLK
  5
AD
330
A8
100
AcDbEntity
  8
0
100
AcDbBlockEnd
  0
BLOCK
  5
CC
330
CB
100
AcDbEntity
  8
0
 62
     1
100
AcDbBlockBegin
  2
*D1
 70
     1
 10
0.0
 20
0.0
 30
0.0
  3
*D1
  1

  0
MTEXT
  5
CD
330
CB
100
AcDbEntity
  8
0
100
AcDbMText
 10
13.7024769926
 20
18.14730267819999
 30
0.0
 40
0.3
 41
0.0
 71
     7
 72
     1
  1
12 15/16"
  7
SLDTEXTSTYLE0
 73
     1
 44
1.0
  0
MTEXT
  5
CE
330
CB
100
AcDbEntity
  8
0
100
AcDbMText
 10
15.35337586049999
 20
18.14730267819999
 30
0.0
 40
0.3
 41
0.0
 71
     7
 72
     1
  1
 TO
  7
SLDTEXTSTYLE0
 73
     1
 44
1.0
  0
MTEXT
  5
CF
330
CB
100
AcDbEntity
  8
0
100
AcDbMText
 10
13.3898741624
 20
17.5775364517
 30
0.0
 40
0.3
 41
0.0
 71
     7
 72
     1
  1
SHARP CORNERS
  7
SLDTEXTSTYLE0
 73
     1
 44
1.0
  0
LINE
  5
D0
330
CB
100
AcDbEntity
  8
0
100
AcDbLine
 10
22.17464785929999
 20
24.3470661225
 30
0.0
 11
14.4979589737
 21
24.3470661225
 31
0.0
  0
LINE
  5
D1
330
CB
100
AcDbEntity
  8
0
100
AcDbLine
 10
22.17464785929999
 20
11.4158063952
 30
0.0
 11
14.4979589737
 21
11.4158063952
 31
0.0
  0
LINE
  5
D2
330
CB
100
AcDbEntity
  8
0
100
AcDbLine
 10
14.8579589737
 20
24.3470661225
 30
0.0
 11
14.8579589737
 21
18.56706890459999
 31
0.0
  0
LINE
  5
D3
330
CB
100
AcDbEntity
  8
0
100
AcDbLine
 10
14.8579589737
 20
11.4158063952
 30
0.0
 11
14.8579589737
 21
17.4275364517
 31
0.0
  0
SOLID
  5
D4
330
CB
100
AcDbEntity
  8
0
100
AcDbTrace
 10
14.8579589737
 20
24.3470661225
 30
0.0
 11
14.76420897369999
 21
23.78456612249999
 31
0.0
 12
14.95170897369999
 22
23.78456612249999
 32
0.0
 13
14.95170897369999
 23
23.78456612249999
 33
0.0
  0
SOLID
  5
D5
330
CB
100
AcDbEntity
  8
0
100
AcDbTrace
 10
14.8579589737
 20
11.4158063952
 30
0.0
 11
14.95170897369999
 21
11.9783063952
 31
0.0
 12
14.76420897369999
 22
11.9783063952
 32
0.0
 13
14.76420897369999
 23
11.9783063952
 33
0.0
  0
POINT
  5
D7
330
CB
100
AcDbEntity
  8
0
100
AcDbPoint
 10
22.29464785929999
 20
24.3470661225
 30
0.0
  0
POINT
  5
D8
330
CB
100
AcDbEntity
  8
0
100
AcDbPoint
 10
22.29464785929999
 20
11.4158063952
 30
0.0
  0
ENDBLK
  5
D9
330
CB
100
AcDbEntity
  8
0
 62
     1
100
AcDbBlockEnd
  0
BLOCK
  5
DC
330
DB
100
AcDbEntity
  8
0
 62
     1
100
AcDbBlockBegin
  2
*D2
 70
     1
 10
0.0
 20
0.0
 30
0.0
  3
*D2
  1

  0
MTEXT
  5
DD
330
DB
100
AcDbEntity
  8
0
 62
     7
100
AcDbMText
 10
26.57564313449999
 20
20.5564487175
 30
0.0
 40
0.3
 41
0.0
 71
     7
 72
     1
  1
10%%d
  7
SLDTEXTSTYLE0
 73
     1
 44
1.0
  0
ARC
  5
DE
330
DB
100
AcDbEntity
  8
0
 62
     7
100
AcDbCircle
 10
58.9630569574
 20
17.8814362589
 30
0.0
 40
32.2399360414
100
AcDbArc
 50
170.0
 51
174.4915769216
  0
ARC
  5
DF
330
DB
100
AcDbEntity
  8
0
 62
     7
100
AcDbCircle
 10
58.9630569574
 20
17.8814362589
 30
0.0
 40
32.2399360414
100
AcDbArc
 50
175.5080286602
 51
180.0
  0
SOLID
  5
E0
330
DB
100
AcDbEntity
  8
0
 62
     7
100
AcDbTrace
 10
27.21291798719999
 20
23.4798424006
 30
0.0
 11
27.027612342
 21
22.9405306815
 31
0.0
 12
27.21254077219999
 22
22.90958353809999
 32
0.0
 13
27.21254077219999
 23
22.90958353809999
 33
0.0
  0
SOLID
  5
E1
330
DB
100
AcDbEntity
  8
0
 62
     7
100
AcDbTrace
 10
26.723120916
 20
17.8814362589
 30
0.0
 11
26.821773844
 21
18.4430971105
 31
0.0
 12
26.6342809771
 22
18.44473260869999
 32
0.0
 13
26.6342809771
 23
18.44473260869999
 33
0.0
  0
POINT
  5
E3
330
DB
100
AcDbEntity
  8
0
 62
     7
100
AcDbPoint
 10
21.1542420439
 20
17.8814362589
 30
0.0
  0
POINT
  5
E4
330
DB
100
AcDbEntity
  8
0
 62
     7
100
AcDbPoint
 10
41.432421504
 20
17.8814362589
 30
0.0
  0
POINT
  5
E5
330
DB
100
AcDbEntity
  8
0
 62
     7
100
AcDbPoint
 10
22.8814719482
 20
24.2435932027
 30
0.0
  0
POINT
  5
E6
330
DB
100
AcDbEntity
  8
0
 62
     7
100
AcDbPoint
 10
30.60664785929999
 20
22.8814362589
 30
0.0
  0
ENDBLK
  5
E7
330
DB
100
AcDbEntity
  8
0
100
AcDbBlockEnd
  0
BLOCK
  5
EA
330
E9
100
AcDbEntity
  8
0
 62
     1
100
AcDbBlockBegin
  2
*D3
 70
     1
 10
0.0
 20
0.0
 30
0.0
  3
*D3
  1

  0
MTEXT
  5
EB
330
E9
100
AcDbEntity
  8
0
 62
     7
100
AcDbMText
 10
26.5977269604
 20
14.9385896583
 30
0.0
 40
0.3
 41
0.0
 71
     7
 72
     1
  1
10%%d
  7
SLDTEXTSTYLE0
 73
     1
 44
1.0
  0
ARC
  5
EC
330
E9
100
AcDbEntity
  8
0
 62
     7
100
AcDbCircle
 10
58.9630569574
 20
17.8814362589
 30
0.0
 40
32.2177678588
100
AcDbArc
 50
180.0
 51
184.4916219052999
  0
ARC
  5
ED
330
E9
100
AcDbEntity
  8
0
 62
     7
100
AcDbCircle
 10
58.9630569574
 20
17.8814362589
 30
0.0
 40
32.2177678588
100
AcDbArc
 50
185.5087730559
 51
190.0
  0
SOLID
  5
EE
330
E9
100
AcDbEntity
  8
0
 62
     7
100
AcDbTrace
 10
26.7452890986
 20
17.8814362589
 30
0.0
 11
26.6564525398
 21
17.3181393759
 31
0.0
 12
26.8439453969
 22
17.3197759992
 32
0.0
 13
26.8439453969
 23
17.3197759992
 33
0.0
  0
SOLID
  5
EF
330
E9
100
AcDbEntity
  8
0
 62
     7
100
AcDbTrace
 10
27.2347493853
 20
12.2868795817
 30
0.0
 11
27.2343755922
 21
12.8571384464
 31
0.0
 12
27.0494469762
 22
12.82619241269999
 32
0.0
 13
27.0494469762
 23
12.82619241269999
 33
0.0
  0
POINT
  5
F0
330
E9
100
AcDbEntity
  8
0
 62
     7
100
AcDbPoint
 10
30.60664785929999
 20
12.8814362589
 30
0.0
  0
POINT
  5
F1
330
E9
100
AcDbEntity
  8
0
 62
     7
100
AcDbPoint
 10
22.8814719482
 20
11.519279315
 30
0.0
  0
POINT
  5
F2
330
E9
100
AcDbEntity
  8
0
 62
     7
100
AcDbPoint
 10
21.1542420439
 20
17.8814362589
 30
0.0
  0
POINT
  5
F3
330
E9
100
AcDbEntity
  8
0
 62
     7
100
AcDbPoint
 10
41.432421504
 20
17.8814362589
 30
0.0
  0
ENDBLK
  5
F4
330
E9
100
AcDbEntity
  8
0
100
AcDbBlockEnd
  0
BLOCK
  5
F7
330
F6
100
AcDbEntity
  8
0
 62
     1
100
AcDbBlockBegin
  2
*D4
 70
     1
 10
0.0
 20
0.0
 30
0.0
  3
*D4
  1

  0
MTEXT
  5
F8
330
F6
100
AcDbEntity
  8
0
 62
     7
100
AcDbMText
 10
40.0966060271
 20
11.62160304799999
 30
0.0
 40
0.3
 41
0.0
 71
     7
 72
     1
  1
%%c
  7
SLDTEXTSTYLE0
 73
     1
 44
1.0
  0
MTEXT
  5
F9
330
F6
100
AcDbEntity
  8
0
 62
     7
100
AcDbMText
 10
40.6089539516
 20
11.62160304799999
 30
0.0
 40
0.3
 41
0.0
 71
     7
 72
     1
  1
6 1/2"
  7
SLDTEXTSTYLE0
 73
     1
 44
1.0
  0
LINE
  5
FA
330
F6
100
AcDbEntity
  8
0
 62
     7
100
AcDbLine
 10
37.0288637274
 20
15.1328010843
 30
0.0
 11
39.1591060271
 21
11.75648616119999
 31
0.0
  0
LINE
  5
FB
330
F6
100
AcDbEntity
  8
0
 62
     7
100
AcDbLine
 10
39.1591060271
 20
11.75648616119999
 30
0.0
 11
39.9091060271
 21
11.75648616119999
 31
0.0
  0
SOLID
  5
FC
330
F6
100
AcDbEntity
  8
0
 62
     7
100
AcDbTrace
 10
37.0288637274
 20
15.1328010843
 30
0.0
 11
37.2497289207
 21
14.60705030789999
 31
0.0
 12
37.40830402689999
 22
14.70710122329999
 32
0.0
 13
37.40830402689999
 23
14.70710122329999
 33
0.0
  0
POINT
  5
FE
330
F6
100
AcDbEntity
  8
0
 62
     7
100
AcDbPoint
 10
37.0288637274
 20
15.1328010843
 30
0.0
  0
POINT
  5
FF
330
F6
100
AcDbEntity
  8
0
 62
     7
100
AcDbPoint
 10
33.5604319913
 20
20.63007143339999
 30
0.0
  0
ENDBLK
  5
100
330
F6
100
AcDbEntity
  8
0
100
AcDbBlockEnd
  0
BLOCK
  5
103
330
102
100
AcDbEntity
  8
0
 62
     1
100
AcDbBlockBegin
  2
*D5
 70
     1
 10
0.0
 20
0.0
 30
0.0
  3
*D5
  1

  0
MTEXT
  5
104
330
102
100
AcDbEntity
  8
0
 62
     7
100
AcDbMText
 10
42.03201274229999
 20
14.059086069
 30
0.0
 40
0.3
 41
0.0
 71
     7
 72
     1
  1
5"
  7
SLDTEXTSTYLE0
 73
     1
 44
1.0
  0
MTEXT
  5
105
330
102
100
AcDbEntity
  8
0
 62
     7
100
AcDbMText
 10
42.4221627423
 20
14.059086069
 30
0.0
 40
0.3
 41
0.0
 71
     7
 72
     1
  1
 RAD
  7
SLDTEXTSTYLE0
 73
     1
 44
1.0
  0
LINE
  5
106
330
102
100
AcDbEntity
  8
0
 62
     7
100
AcDbLine
 10
39.51406080449999
 20
15.19879681259999
 30
0.0
 11
41.09451274229999
 21
14.1939691822
 31
0.0
  0
LINE
  5
107
330
102
100
AcDbEntity
  8
0
 62
     7
100
AcDbLine
 10
41.09451274229999
 20
14.1939691822
 30
0.0
 11
41.84451274229999
 21
14.1939691822
 31
0.0
  0
SOLID
  5
108
330
102
100
AcDbEntity
  8
0
 62
     7
100
AcDbTrace
 10
39.51406080449999
 20
15.19879681259999
 30
0.0
 11
39.93844527119999
 21
14.8178858822
 31
0.0
 12
40.03904425039999
 22
14.9761138676
 32
0.0
 13
40.03904425039999
 23
14.9761138676
 33
0.0
  0
POINT
  5
10A
330
102
100
AcDbEntity
  8
0
 62
     7
100
AcDbPoint
 10
39.51406080449999
 20
15.19879681259999
 30
0.0
  0
POINT
  5
10B
330
102
100
AcDbEntity
  8
0
 62
     7
100
AcDbPoint
 10
35.2946478593
 20
17.8814362589
 30
0.0
  0
ENDBLK
  5
10C
330
102
100
AcDbEntity
  8
0
100
AcDbBlockEnd
  0
BLOCK
  5
10F
330
10E
100
AcDbEntity
  8
0
 62
     1
100
AcDbBlockBegin
  2
*D6
 70
     1
 10
0.0
 20
0.0
 30
0.0
  3
*D6
  1

  0
MTEXT
  5
110
330
10E
100
AcDbEntity
  8
0
100
AcDbMText
 10
44.3172706566
 20
17.74655314569999
 30
0.0
 40
0.3
 41
0.0
 71
     7
 72
     1
  1
10"
  7
SLDTEXTSTYLE0
 73
     1
 44
1.0
  0
LINE
  5
111
330
10E
100
AcDbEntity
  8
0
100
AcDbLine
 10
35.41464785929999
 20
22.8814362589
 30
0.0
 11
44.9474311283
 21
22.8814362589
 31
0.0
  0
LINE
  5
112
330
10E
100
AcDbEntity
  8
0
100
AcDbLine
 10
35.41464785929999
 20
12.8814362589
 30
0.0
 11
44.9474311283
 21
12.8814362589
 31
0.0
  0
LINE
  5
113
330
10E
100
AcDbEntity
  8
0
100
AcDbLine
 10
44.58743112829999
 20
22.8814362589
 30
0.0
 11
44.58743112829999
 21
18.1663193721
 31
0.0
  0
LINE
  5
114
330
10E
100
AcDbEntity
  8
0
100
AcDbLine
 10
44.58743112829999
 20
12.8814362589
 30
0.0
 11
44.58743112829999
 21
17.59655314569999
 31
0.0
  0
SOLID
  5
115
330
10E
100
AcDbEntity
  8
0
100
AcDbTrace
 10
44.58743112829999
 20
22.8814362589
 30
0.0
 11
44.4936811283
 21
22.3189362589
 31
0.0
 12
44.6811811283
 22
22.3189362589
 32
0.0
 13
44.6811811283
 23
22.3189362589
 33
0.0
  0
SOLID
  5
116
330
10E
100
AcDbEntity
  8
0
100
AcDbTrace
 10
44.58743112829999
 20
12.8814362589
 30
0.0
 11
44.6811811283
 21
13.4439362589
 31
0.0
 12
44.4936811283
 22
13.4439362589
 32
0.0
 13
44.4936811283
 23
13.4439362589
 33
0.0
  0
POINT
  5
117
330
10E
100
AcDbEntity
  8
0
100
AcDbPoint
 10
35.2946478593
 20
22.8814362589
 30
0.0
  0
POINT
  5
118
330
10E
100
AcDbEntity
  8
0
100
AcDbPoint
 10
35.2946478593
 20
12.8814362589
 30
0.0
  0
ENDBLK
  5
119
330
10E
100
AcDbEntity
  8
0
 62
     1
100
AcDbBlockEnd
  0
BLOCK
  5
11C
330
11B
100
AcDbEntity
  8
0
 62
     1
100
AcDbBlockBegin
  2
*D7
 70
     1
 10
0.0
 20
0.0
 30
0.0
  3
*D7
  1

  0
MTEXT
  5
11D
330
11B
100
AcDbEntity
  8
0
100
AcDbMText
 10
25.7753693688
 20
25.1374823087
 30
0.0
 40
0.3
 41
0.0
 71
     7
 72
     1
  1
8 5/16"
  7
SLDTEXTSTYLE0
 73
     1
 44
1.0
  0
LINE
  5
11E
330
11B
100
AcDbEntity
  8
0
100
AcDbLine
 10
22.29464785929999
 20
23.87118932619999
 30
0.0
 11
22.29464785929999
 21
25.6323654219
 31
0.0
  0
LINE
  5
11F
330
11B
100
AcDbEntity
  8
0
100
AcDbLine
 10
30.60664785929999
 20
23.0014362589
 30
0.0
 11
30.60664785929999
 21
25.6323654219
 31
0.0
  0
LINE
  5
120
330
11B
100
AcDbEntity
  8
0
100
AcDbLine
 10
22.29464785929999
 20
25.2723654219
 30
0.0
 11
25.40036936879999
 21
25.2723654219
 31
0.0
  0
LINE
  5
121
330
11B
100
AcDbEntity
  8
0
100
AcDbLine
 10
30.60664785929999
 20
25.2723654219
 30
0.0
 11
27.5009263499
 21
25.2723654219
 31
0.0
  0
ARC
  5
122
330
11B
100
AcDbEntity
  8
0
100
AcDbCircle
 10
26.15763559519999
 20
25.2723654219
 30
0.0
 40
0.6370180068
100
AcDbArc
 50
153.4349488229
 51
206.5650511771
  0
ARC
  5
123
330
11B
100
AcDbEntity
  8
0
100
AcDbCircle
 10
26.7436601235
 20
25.2723654219
 30
0.0
 40
0.6370180068
100
AcDbArc
 50
333.4349488229
 51
26.5650511771
  0
SOLID
  5
124
330
11B
100
AcDbEntity
  8
0
100
AcDbTrace
 10
22.29464785929999
 20
25.2723654219
 30
0.0
 11
22.8571478593
 21
25.1786154219
 31
0.0
 12
22.8571478593
 22
25.3661154219
 32
0.0
 13
22.8571478593
 23
25.3661154219
 33
0.0
  0
SOLID
  5
125
330
11B
100
AcDbEntity
  8
0
100
AcDbTrace
 10
30.60664785929999
 20
25.2723654219
 30
0.0
 11
30.04414785929999
 21
25.3661154219
 31
0.0
 12
30.04414785929999
 22
25.1786154219
 32
0.0
 13
30.04414785929999
 23
25.1786154219
 33
0.0
  0
POINT
  5
126
330
11B
100
AcDbEntity
  8
0
100
AcDbPoint
 10
22.29464785929999
 20
23.75118932619999
 30
0.0
  0
POINT
  5
127
330
11B
100
AcDbEntity
  8
0
100
AcDbPoint
 10
30.60664785929999
 20
22.8814362589
 30
0.0
  0
ENDBLK
  5
128
330
11B
100
AcDbEntity
  8
0
 62
     1
100
AcDbBlockEnd
  0
BLOCK
  5
12B
330
12A
100
AcDbEntity
  8
0
 62
     1
100
AcDbBlockBegin
  2
*D8
 70
     1
 10
0.0
 20
0.0
 30
0.0
  3
*D8
  1

  0
MTEXT
  5
12C
330
12A
100
AcDbEntity
  8
0
100
AcDbMText
 10
28.5244873876
 20
27.0341114049
 30
0.0
 40
0.3
 41
0.0
 71
     7
 72
     1
  1
13"
  7
SLDTEXTSTYLE0
 73
     1
 44
1.0
  0
LINE
  5
12D
330
12A
100
AcDbEntity
  8
0
100
AcDbLine
 10
22.29464785929999
 20
23.87118932619999
 30
0.0
 11
22.29464785929999
 21
27.5289945182
 31
0.0
  0
LINE
  5
12E
330
12A
100
AcDbEntity
  8
0
100
AcDbLine
 10
35.2946478593
 20
18.0014362589
 30
0.0
 11
35.2946478593
 21
27.5289945182
 31
0.0
  0
LINE
  5
12F
330
12A
100
AcDbEntity
  8
0
100
AcDbLine
 10
22.29464785929999
 20
27.1689945182
 30
0.0
 11
28.3369873876
 21
27.1689945182
 31
0.0
  0
LINE
  5
130
330
12A
100
AcDbEntity
  8
0
100
AcDbLine
 10
35.2946478593
 20
27.1689945182
 30
0.0
 11
29.252308331
 21
27.1689945182
 31
0.0
  0
SOLID
  5
131
330
12A
100
AcDbEntity
  8
0
100
AcDbTrace
 10
22.29464785929999
 20
27.1689945182
 30
0.0
 11
22.8571478593
 21
27.0752445182
 31
0.0
 12
22.8571478593
 22
27.2627445182
 32
0.0
 13
22.8571478593
 23
27.2627445182
 33
0.0
  0
SOLID
  5
132
330
12A
100
AcDbEntity
  8
0
100
AcDbTrace
 10
35.2946478593
 20
27.1689945182
 30
0.0
 11
34.7321478593
 21
27.2627445182
 31
0.0
 12
34.7321478593
 22
27.0752445182
 32
0.0
 13
34.7321478593
 23
27.0752445182
 33
0.0
  0
POINT
  5
133
330
12A
100
AcDbEntity
  8
0
100
AcDbPoint
 10
22.29464785929999
 20
23.75118932619999
 30
0.0
  0
POINT
  5
134
330
12A
100
AcDbEntity
  8
0
100
AcDbPoint
 10
35.2946478593
 20
17.8814362589
 30
0.0
  0
ENDBLK
  5
135
330
12A
100
AcDbEntity
  8
0
 62
     1
100
AcDbBlockEnd
  0
BLOCK
  5
138
330
137
100
AcDbEntity
  8
0
 62
     1
100
AcDbBlockBegin
  2
*D9
 70
     1
 10
0.0
 20
0.0
 30
0.0
  3
*D9
  1

  0
MTEXT
  5
139
330
137
100
AcDbEntity
  8
0
100
AcDbMText
 10
31.0244873876
 20
28.5502606566
 30
0.0
 40
0.3
 41
0.0
 71
     7
 72
     1
  1
18"
  7
SLDTEXTSTYLE0
 73
     1
 44
1.0
  0
LINE
  5
13A
330
137
100
AcDbEntity
  8
0
100
AcDbLine
 10
22.29464785929999
 20
23.87118932619999
 30
0.0
 11
22.29464785929999
 21
29.04514376989999
 31
0.0
  0
LINE
  5
13B
330
137
100
AcDbEntity
  8
0
100
AcDbLine
 10
40.2946478593
 20
18.0014362589
 30
0.0
 11
40.2946478593
 21
29.04514376989999
 31
0.0
  0
LINE
  5
13C
330
137
100
AcDbEntity
  8
0
100
AcDbLine
 10
22.29464785929999
 20
28.68514376989999
 30
0.0
 11
30.6494873876
 21
28.68514376989999
 31
0.0
  0
LINE
  5
13D
330
137
100
AcDbEntity
  8
0
100
AcDbLine
 10
40.2946478593
 20
28.68514376989999
 30
0.0
 11
31.93980833099999
 21
28.68514376989999
 31
0.0
  0
ARC
  5
13E
330
137
100
AcDbEntity
  8
0
100
AcDbCircle
 10
31.406753614
 20
28.68514376989999
 30
0.0
 40
0.6370180068
100
AcDbArc
 50
153.4349488229
 51
206.5650511771
  0
ARC
  5
13F
330
137
100
AcDbEntity
  8
0
100
AcDbCircle
 10
31.18254210459999
 20
28.68514376989999
 30
0.0
 40
0.6370180068
100
AcDbArc
 50
333.4349488229
 51
26.5650511771
  0
SOLID
  5
140
330
137
100
AcDbEntity
  8
0
100
AcDbTrace
 10
22.29464785929999
 20
28.68514376989999
 30
0.0
 11
22.8571478593
 21
28.59139376989999
 31
0.0
 12
22.8571478593
 22
28.77889376989999
 32
0.0
 13
22.8571478593
 23
28.77889376989999
 33
0.0
  0
SOLID
  5
141
330
137
100
AcDbEntity
  8
0
100
AcDbTrace
 10
40.2946478593
 20
28.68514376989999
 30
0.0
 11
39.7321478593
 21
28.77889376989999
 31
0.0
 12
39.7321478593
 22
28.59139376989999
 32
0.0
 13
39.7321478593
 23
28.59139376989999
 33
0.0
  0
POINT
  5
142
330
137
100
AcDbEntity
  8
0
100
AcDbPoint
 10
22.29464785929999
 20
23.75118932619999
 30
0.0
  0
POINT
  5
143
330
137
100
AcDbEntity
  8
0
100
AcDbPoint
 10
40.2946478593
 20
17.8814362589
 30
0.0
  0
ENDBLK
  5
144
330
137
100
AcDbEntity
  8
0
 62
     1
100
AcDbBlockEnd
  0
BLOCK
  5
147
330
146
100
AcDbEntity
  8
0
 62
     1
100
AcDbBlockBegin
  2
*D10
 70
     1
 10
0.0
 20
0.0
 30
0.0
  3
*D10
  1

  0
MTEXT
  5
148
330
146
100
AcDbEntity
  8
0
 62
     7
100
AcDbMText
 10
19.4851397676
 20
9.672007588799999
 30
0.0
 40
0.3
 41
0.0
 71
     7
 72
     1
  1
1/2"
  7
SLDTEXTSTYLE0
 73
     1
 44
1.0
  0
MTEXT
  5
149
330
146
100
AcDbEntity
  8
0
 62
     7
100
AcDbMText
 10
20.23550372989999
 20
9.672007588799999
 30
0.0
 40
0.3
 41
0.0
 71
     7
 72
     1
  1
 RAD
  7
SLDTEXTSTYLE0
 73
     1
 44
1.0
  0
MTEXT
  5
14A
330
146
100
AcDbEntity
  8
0
 62
     7
100
AcDbMText
 10
19.48711071099999
 20
9.1022413624
 30
0.0
 40
0.3
 41
0.0
 71
     7
 72
     1
  1
2 PLACES
  7
SLDTEXTSTYLE0
 73
     1
 44
1.0
  0
LINE
  5
14B
330
146
100
AcDbEntity
  8
0
 62
     7
100
AcDbLine
 10
22.66893212559999
 20
11.5277456395
 30
0.0
 11
22.1478879752
 21
9.522007588799999
 31
0.0
  0
LINE
  5
14C
330
146
100
AcDbEntity
  8
0
 62
     7
100
AcDbLine
 10
22.1478879752
 20
9.522007588799999
 30
0.0
 11
21.3978879752
 21
9.522007588799999
 31
0.0
  0
SOLID
  5
14D
330
146
100
AcDbEntity
  8
0
 62
     7
100
AcDbTrace
 10
22.66893212559999
 20
11.5277456395
 30
0.0
 11
22.4367636342
 21
11.00688759349999
 31
0.0
 12
22.6182402162
 22
10.95974419329999
 32
0.0
 13
22.6182402162
 23
10.95974419329999
 33
0.0
  0
POINT
  5
14F
330
146
100
AcDbEntity
  8
0
 62
     7
100
AcDbPoint
 10
22.66893212559999
 20
11.5277456395
 30
0.0
  0
POINT
  5
150
330
146
100
AcDbEntity
  8
0
 62
     7
100
AcDbPoint
 10
22.7946478593
 20
12.0116831915
 30
0.0
  0
ENDBLK
  5
151
330
146
100
AcDbEntity
  8
0
100
AcDbBlockEnd
  0
BLOCK
  5
154
330
153
100
AcDbEntity
  8
0
 62
     1
100
AcDbBlockBegin
  2
*D11
 70
     1
 10
0.0
 20
0.0
 30
0.0
  3
*D11
  1

  0
MTEXT
  5
155
330
153
100
AcDbEntity
  8
0
 62
     7
100
AcDbMText
 10
16.2013145774
 20
20.72203020279999
 30
0.0
 40
0.3
 41
0.0
 71
     7
 72
     1
  1
%%c
  7
SLDTEXTSTYLE0
 73
     1
 44
1.0
  0
MTEXT
  5
156
330
153
100
AcDbEntity
  8
0
 62
     7
100
AcDbMText
 10
16.7136625019
 20
20.72203020279999
 30
0.0
 40
0.3
 41
0.0
 71
     7
 72
     1
  1
1 1/8"
  7
SLDTEXTSTYLE0
 73
     1
 44
1.0
  0
MTEXT
  5
157
330
153
100
AcDbEntity
  8
0
 62
     7
100
AcDbMText
 10
17.79430438869999
 20
20.72203020279999
 30
0.0
 40
0.3
 41
0.0
 71
     7
 72
     1
  1
 DRILL THRU
  7
SLDTEXTSTYLE0
 73
     1
 44
1.0
  0
MTEXT
  5
158
330
153
100
AcDbEntity
  8
0
 62
     7
100
AcDbMText
 10
17.49470655849999
 20
20.1522639764
 30
0.0
 40
0.3
 41
0.0
 71
     7
 72
     1
  1
DEBURR
  7
SLDTEXTSTYLE0
 73
     1
 44
1.0
  0
LINE
  5
159
330
153
100
AcDbEntity
  8
0
 62
     7
100
AcDbLine
 10
23.23787200519999
 20
18.2869988724
 30
0.0
 11
21.0417868416
 21
20.5720302028
 31
0.0
  0
LINE
  5
15A
330
153
100
AcDbEntity
  8
0
 62
     7
100
AcDbLine
 10
21.0417868416
 20
20.5720302028
 30
0.0
 11
20.2917868416
 21
20.5720302028
 31
0.0
  0
SOLID
  5
15B
330
153
100
AcDbEntity
  8
0
 62
     7
100
AcDbTrace
 10
23.23787200519999
 20
18.2869988724
 30
0.0
 11
22.91568991989999
 21
18.75752412829999
 31
0.0
 12
22.7805023821
 22
18.62759884359999
 32
0.0
 13
22.7805023821
 23
18.62759884359999
 33
0.0
  0
POINT
  5
15C
330
153
100
AcDbEntity
  8
0
 62
     7
100
AcDbPoint
 10
23.23787200519999
 20
18.2869988724
 30
0.0
  0
POINT
  5
15D
330
153
100
AcDbEntity
  8
0
 62
     7
100
AcDbPoint
 10
24.0174237135
 20
17.4758736453
 30
0.0
  0
ENDBLK
  5
15E
330
153
100
AcDbEntity
  8
0
100
AcDbBlockEnd
  0
BLOCK
  5
161
330
160
100
AcDbEntity
  8
0
 62
     1
100
AcDbBlockBegin
  2
*D12
 70
     1
 10
0.0
 20
0.0
 30
0.0
  3
*D12
  1

  0
MTEXT
  5
162
330
160
100
AcDbEntity
  8
0
100
AcDbMText
 10
28.6356984254
 20
9.269689600199999
 30
0.0
 40
0.3
 41
0.0
 71
     7
 72
     1
  1
11 21/32"
  7
SLDTEXTSTYLE0
 73
     1
 44
1.0
  0
LINE
  5
163
330
160
100
AcDbEntity
  8
0
100
AcDbLine
 10
23.6276478593
 20
17.7614362589
 30
0.0
 11
23.6276478593
 21
9.0445727134
 31
0.0
  0
LINE
  5
164
330
160
100
AcDbEntity
  8
0
100
AcDbLine
 10
35.2946478593
 20
17.7614362589
 30
0.0
 11
35.2946478593
 21
9.0445727134
 31
0.0
  0
LINE
  5
165
330
160
100
AcDbEntity
  8
0
100
AcDbLine
 10
23.6276478593
 20
9.4045727134
 30
0.0
 11
28.4481984254
 21
9.4045727134
 31
0.0
  0
LINE
  5
166
330
160
100
AcDbEntity
  8
0
100
AcDbLine
 10
35.2946478593
 20
9.4045727134
 30
0.0
 11
30.47409729329999
 21
9.4045727134
 31
0.0
  0
SOLID
  5
167
330
160
100
AcDbEntity
  8
0
100
AcDbTrace
 10
23.6276478593
 20
9.4045727134
 30
0.0
 11
24.19014785929999
 21
9.3108227134
 31
0.0
 12
24.19014785929999
 22
9.4983227134
 32
0.0
 13
24.19014785929999
 23
9.4983227134
 33
0.0
  0
SOLID
  5
168
330
160
100
AcDbEntity
  8
0
100
AcDbTrace
 10
35.2946478593
 20
9.4045727134
 30
0.0
 11
34.7321478593
 21
9.4983227134
 31
0.0
 12
34.7321478593
 22
9.3108227134
 32
0.0
 13
34.7321478593
 23
9.3108227134
 33
0.0
  0
POINT
  5
169
330
160
100
AcDbEntity
  8
0
100
AcDbPoint
 10
23.6276478593
 20
17.8814362589
 30
0.0
  0
POINT
  5
16A
330
160
100
AcDbEntity
  8
0
100
AcDbPoint
 10
35.2946478593
 20
17.8814362589
 30
0.0
  0
ENDBLK
  5
16B
330
160
100
AcDbEntity
  8
0
 62
     1
100
AcDbBlockEnd
  0
BLOCK
  5
16E
330
16D
100
AcDbEntity
  8
0
 62
     0
100
AcDbBlockBegin
  2
NOTE67
 70
     0
 10
0.0
 20
0.0
 30
0.0
  3
NOTE67
  1

  0
MTEXT
  5
16F
330
16D
100
AcDbEntity
  8
0
 62
     1
100
AcDbMText
 10
0.0
 20
0.0
 30
0.0
 40
0.5625
 41
0.0
 71
     1
 72
     1
  1
{\Fgdt;q}
  7
SLDTEXTSTYLE0
 73
     1
 44
1.0
  0
ENDBLK
  5
170
330
16D
100
AcDbEntity
  8
0
100
AcDbBlockEnd
  0
BLOCK
  5
17E
330
17D
100
AcDbEntity
  8
0
 62
     1
100
AcDbBlockBegin
  2
*D14
 70
     1
 10
0.0
 20
0.0
 30
0.0
  3
*D14
  1

  0
MTEXT
  5
17F
330
17D
100
AcDbEntity
  8
0
100
AcDbMText
 10
12.8312279839
 20
26.4224800747
 30
0.0
 40
0.3
 41
0.0
 71
     7
 72
     1
  1
3/4"
  7
SLDTEXTSTYLE0
 73
     1
 44
1.0
  0
LINE
  5
180
330
17D
100
AcDbEntity
  8
0
100
AcDbLine
 10
10.6209700065
 20
23.87118932619999
 30
0.0
 11
10.6209700065
 21
26.9173631879
 31
0.0
  0
LINE
  5
181
330
17D
100
AcDbEntity
  8
0
100
AcDbLine
 10
11.3709700065
 20
23.87118932619999
 30
0.0
 11
11.3709700065
 21
26.9173631879
 31
0.0
  0
LINE
  5
182
330
17D
100
AcDbEntity
  8
0
100
AcDbLine
 10
10.6209700065
 20
26.55736318789999
 30
0.0
 11
9.1209700065
 21
26.55736318789999
 31
0.0
  0
LINE
  5
183
330
17D
100
AcDbEntity
  8
0
100
AcDbLine
 10
11.3709700065
 20
26.55736318789999
 30
0.0
 11
12.6437279839
 21
26.55736318789999
 31
0.0
  0
SOLID
  5
184
330
17D
100
AcDbEntity
  8
0
100
AcDbTrace
 10
10.6209700065
 20
26.55736318789999
 30
0.0
 11
10.05847000649999
 21
26.6511131879
 31
0.0
 12
10.05847000649999
 22
26.46361318789999
 32
0.0
 13
10.05847000649999
 23
26.46361318789999
 33
0.0
  0
SOLID
  5
185
330
17D
100
AcDbEntity
  8
0
100
AcDbTrace
 10
11.3709700065
 20
26.55736318789999
 30
0.0
 11
11.93347000649999
 21
26.46361318789999
 31
0.0
 12
11.93347000649999
 22
26.6511131879
 32
0.0
 13
11.93347000649999
 23
26.6511131879
 33
0.0
  0
POINT
  5
186
330
17D
100
AcDbEntity
  8
0
100
AcDbPoint
 10
10.6209700065
 20
23.75118932619999
 30
0.0
  0
POINT
  5
187
330
17D
100
AcDbEntity
  8
0
100
AcDbPoint
 10
11.3709700065
 20
23.75118932619999
 30
0.0
  0
ENDBLK
  5
188
330
17D
100
AcDbEntity
  8
0
 62
     1
100
AcDbBlockEnd
  0
ENDSEC
  0
SECTION
  2
ENTITIES
  0
LINE
  5
2A
330
A
100
AcDbEntity
  8
0
  6
Continuous
 62
     7
370
     0
100
AcDbLine
 10
10.12499999999999
 20
31.875
 30
0.0
 11
4.5
 21
31.875
 31
0.0
  0
LINE
  5
2B
330
A
100
AcDbEntity
  8
0
  6
Continuous
 62
     7
370
     0
100
AcDbLine
 10
15.75
 20
31.875
 30
0.0
 11
10.12499999999999
 21
31.875
 31
0.0
  0
LINE
  5
2C
330
A
100
AcDbEntity
  8
0
  6
Continuous
 62
     7
370
     0
100
AcDbLine
 10
49.5
 20
1.125
 30
0.0
 11
43.875
 21
1.125
 31
0.0
  0
LINE
  5
2D
330
A
100
AcDbEntity
  8
0
  6
Continuous
 62
     7
370
     0
100
AcDbLine
 10
49.5
 20
1.125
 30
0.0
 11
49.5
 21
8.8125
 31
0.0
  0
LINE
  5
2E
330
A
100
AcDbEntity
  8
0
  6
Continuous
 62
     7
370
     0
100
AcDbLine
 10
49.5
 20
24.1875
 30
0.0
 11
49.875
 21
24.1875
 31
0.0
  0
LINE
  5
2F
330
A
100
AcDbEntity
  8
0
  6
Continuous
 62
     7
370
     0
100
AcDbLine
 10
49.5
 20
16.5
 30
0.0
 11
49.875
 21
16.5
 31
0.0
  0
LINE
  5
30
330
A
100
AcDbEntity
  8
0
  6
Continuous
 62
     7
370
     0
100
AcDbLine
 10
21.375
 20
31.875
 30
0.0
 11
15.75
 21
31.875
 31
0.0
  0
LINE
  5
31
330
A
100
AcDbEntity
  8
0
  6
Continuous
 62
     7
370
     0
100
AcDbLine
 10
27.0
 20
31.875
 30
0.0
 11
21.375
 21
31.875
 31
0.0
  0
LINE
  5
32
330
A
100
AcDbEntity
  8
0
  6
Continuous
 62
     7
370
     0
100
AcDbLine
 10
32.625
 20
31.875
 30
0.0
 11
27.0
 21
31.875
 31
0.0
  0
LINE
  5
33
330
A
100
AcDbEntity
  8
0
  6
Continuous
 62
     7
370
     0
100
AcDbLine
 10
38.25
 20
31.875
 30
0.0
 11
32.625
 21
31.875
 31
0.0
  0
LINE
  5
34
330
A
100
AcDbEntity
  8
0
  6
Continuous
 62
     7
370
     0
100
AcDbLine
 10
43.875
 20
31.875
 30
0.0
 11
38.25
 21
31.875
 31
0.0
  0
LINE
  5
35
330
A
100
AcDbEntity
  8
0
  6
Continuous
 62
     7
370
     0
100
AcDbLine
 10
49.5
 20
8.8125
 30
0.0
 11
49.875
 21
8.8125
 31
0.0
  0
LINE
  5
36
330
A
100
AcDbEntity
  8
0
  6
Continuous
 62
     7
370
     0
100
AcDbLine
 10
49.5
 20
31.875
 30
0.0
 11
43.875
 21
31.875
 31
0.0
  0
LINE
  5
37
330
A
100
AcDbEntity
  8
0
  6
Continuous
 62
     7
370
     0
100
AcDbLine
 10
43.875
 20
31.875
 30
0.0
 11
43.875
 21
32.25
 31
0.0
  0
LINE
  5
38
330
A
100
AcDbEntity
  8
0
  6
Continuous
 62
     7
370
     0
100
AcDbLine
 10
38.25
 20
31.875
 30
0.0
 11
38.25
 21
32.25
 31
0.0
  0
LINE
  5
39
330
A
100
AcDbEntity
  8
0
  6
Continuous
 62
     7
370
     0
100
AcDbLine
 10
32.625
 20
31.875
 30
0.0
 11
32.625
 21
32.25
 31
0.0
  0
LINE
  5
3A
330
A
100
AcDbEntity
  8
0
  6
Continuous
 62
     7
370
     0
100
AcDbLine
 10
27.0
 20
31.875
 30
0.0
 11
27.0
 21
32.25
 31
0.0
  0
LINE
  5
3B
330
A
100
AcDbEntity
  8
0
  6
Continuous
 62
     7
370
     0
100
AcDbLine
 10
21.375
 20
31.875
 30
0.0
 11
21.375
 21
32.25
 31
0.0
  0
LINE
  5
3C
330
A
100
AcDbEntity
  8
0
  6
Continuous
 62
     7
370
     0
100
AcDbLine
 10
15.75
 20
31.875
 30
0.0
 11
15.75
 21
32.25
 31
0.0
  0
LINE
  5
3D
330
A
100
AcDbEntity
  8
0
  6
Continuous
 62
     7
370
     0
100
AcDbLine
 10
10.12499999999999
 20
31.875
 30
0.0
 11
10.12499999999999
 21
32.25
 31
0.0
  0
LINE
  5
3E
330
A
100
AcDbEntity
  8
0
  6
Continuous
 62
     7
370
     0
100
AcDbLine
 10
26.25
 20
5.07
 30
0.0
 11
26.25
 21
1.127999999999999
 31
0.0
  0
LINE
  5
3F
330
A
100
AcDbEntity
  8
0
  6
Continuous
 62
     7
370
     0
100
AcDbLine
 10
33.0
 20
7.125
 30
0.0
 11
49.5
 21
7.125
 31
0.0
  0
LINE
  5
40
330
A
100
AcDbEntity
  8
0
  6
Continuous
 62
     7
370
     0
100
AcDbLine
 10
33.0
 20
7.125
 30
0.0
 11
33.0
 21
1.125
 31
0.0
  0
LINE
  5
41
330
A
100
AcDbEntity
  8
0
  6
Continuous
 62
     7
370
     0
100
AcDbLine
 10
40.49999999999999
 20
7.125
 30
0.0
 11
40.49999999999999
 21
1.125
 31
0.0
  0
LINE
  5
42
330
A
100
AcDbEntity
  8
0
  6
Continuous
 62
     7
370
     0
100
AcDbLine
 10
40.49999999999999
 20
1.689
 30
0.0
 11
49.5
 21
1.689
 31
0.0
  0
LINE
  5
43
330
A
100
AcDbEntity
  8
0
  6
Continuous
 62
     7
370
     0
100
AcDbLine
 10
40.49999999999999
 20
2.813999999999999
 30
0.0
 11
49.5
 21
2.813999999999999
 31
0.0
  0
LINE
  5
44
330
A
100
AcDbEntity
  8
0
  6
Continuous
 62
     7
370
     0
100
AcDbLine
 10
40.49999999999999
 20
5.064
 30
0.0
 11
49.5
 21
5.064
 31
0.0
  0
LINE
  5
45
330
A
100
AcDbEntity
  8
0
  6
Continuous
 62
     7
370
     0
100
AcDbLine
 10
41.625
 20
2.813999999999999
 30
0.0
 11
41.625
 21
1.125
 31
0.0
  0
LINE
  5
46
330
A
100
AcDbEntity
  8
0
  6
Continuous
 62
     7
370
     0
100
AcDbLine
 10
26.25
 20
2.253
 30
0.0
 11
40.49999999999999
 21
2.253
 31
0.0
  0
LINE
  5
47
330
A
100
AcDbEntity
  8
0
  6
Continuous
 62
     7
370
     0
100
AcDbLine
 10
48.375
 20
2.813999999999999
 30
0.0
 11
48.375
 21
1.125
 31
0.0
  0
LINE
  5
48
330
A
100
AcDbEntity
  8
0
  6
Continuous
 62
     7
370
     0
100
AcDbLine
 10
40.49999999999999
 20
6.0
 30
0.0
 11
33.0
 21
6.0
 31
0.0
  0
LINE
  5
49
330
A
100
AcDbEntity
  8
0
  6
Continuous
 62
     7
370
     0
100
AcDbLine
 10
33.0
 20
3.561
 30
0.0
 11
40.49999999999999
 21
3.561
 31
0.0
  0
LINE
  5
4A
330
A
100
AcDbEntity
  8
0
  6
Continuous
 62
     7
370
     0
100
AcDbLine
 10
33.0
 20
1.689
 30
0.0
 11
40.49999999999999
 21
1.689
 31
0.0
  0
LINE
  5
4B
330
A
100
AcDbEntity
  8
0
  6
Continuous
 62
     7
370
     0
100
AcDbLine
 10
26.25
 20
3.941999999999999
 30
0.0
 11
33.0
 21
3.941999999999999
 31
0.0
  0
LINE
  5
4C
330
A
100
AcDbEntity
  8
0
  6
Continuous
 62
     7
370
     0
100
AcDbLine
 10
49.5
 20
8.8125
 30
0.0
 11
49.5
 21
16.5
 31
0.0
  0
LINE
  5
4D
330
A
100
AcDbEntity
  8
0
  6
Continuous
 62
     7
370
     0
100
AcDbLine
 10
49.5
 20
16.5
 30
0.0
 11
49.5
 21
24.1875
 31
0.0
  0
LINE
  5
4E
330
A
100
AcDbEntity
  8
0
  6
Continuous
 62
     7
370
     0
100
AcDbLine
 10
49.5
 20
24.1875
 30
0.0
 11
49.5
 21
31.875
 31
0.0
  0
LINE
  5
4F
330
A
100
AcDbEntity
  8
0
  6
Continuous
 62
     7
370
     0
100
AcDbLine
 10
43.875
 20
1.125
 30
0.0
 11
38.25
 21
1.125
 31
0.0
  0
LINE
  5
50
330
A
100
AcDbEntity
  8
0
  6
Continuous
 62
     7
370
     0
100
AcDbLine
 10
38.25
 20
1.125
 30
0.0
 11
32.625
 21
1.125
 31
0.0
  0
LINE
  5
51
330
A
100
AcDbEntity
  8
0
  6
Continuous
 62
     7
370
     0
100
AcDbLine
 10
26.25
 20
4.506
 30
0.0
 11
33.0
 21
4.506
 31
0.0
  0
LINE
  5
52
330
A
100
AcDbEntity
  8
0
  6
Continuous
 62
     7
370
     0
100
AcDbLine
 10
26.25
 20
2.8125
 30
0.0
 11
15.0
 21
2.8125
 31
0.0
  0
LINE
  5
53
330
A
100
AcDbEntity
  8
0
  6
Continuous
 62
     7
370
     0
100
AcDbLine
 10
33.0
 20
5.07
 30
0.0
 11
26.25
 21
5.07
 31
0.0
  0
LINE
  5
54
330
A
100
AcDbEntity
  8
0
  6
Continuous
 62
     7
370
     0
100
AcDbLine
 10
30.75
 20
5.07
 30
0.0
 11
30.75
 21
3.378
 31
0.0
  0
LINE
  5
55
330
A
100
AcDbEntity
  8
0
  6
Continuous
 62
     7
370
     0
100
AcDbLine
 10
33.0
 20
5.435999999999999
 30
0.0
 11
40.49999999999999
 21
5.435999999999999
 31
0.0
  0
LINE
  5
56
330
A
100
AcDbEntity
  8
0
  6
Continuous
 62
     7
370
     0
100
AcDbLine
 10
26.25
 20
3.378
 30
0.0
 11
33.0
 21
3.378
 31
0.0
  0
LINE
  5
57
330
A
100
AcDbEntity
  8
0
  6
Continuous
 62
     7
370
     0
100
AcDbLine
 10
36.75
 20
6.0
 30
0.0
 11
36.75
 21
3.561
 31
0.0
  0
LINE
  5
58
330
A
100
AcDbEntity
  8
0
  6
Continuous
 62
     7
370
     0
100
AcDbLine
 10
32.625
 20
1.125
 30
0.0
 11
27.0
 21
1.125
 31
0.0
  0
LINE
  5
59
330
A
100
AcDbEntity
  8
0
  6
Continuous
 62
     7
370
     0
100
AcDbLine
 10
27.0
 20
1.125
 30
0.0
 11
21.375
 21
1.125
 31
0.0
  0
LINE
  5
5A
330
A
100
AcDbEntity
  8
0
  6
Continuous
 62
     7
370
     0
100
AcDbLine
 10
21.375
 20
1.125
 30
0.0
 11
15.75
 21
1.125
 31
0.0
  0
LINE
  5
5B
330
A
100
AcDbEntity
  8
0
  6
Continuous
 62
     7
370
     0
100
AcDbLine
 10
15.75
 20
1.125
 30
0.0
 11
10.12499999999999
 21
1.125
 31
0.0
  0
LINE
  5
5C
330
A
100
AcDbEntity
  8
0
  6
Continuous
 62
     7
370
     0
100
AcDbLine
 10
38.625
 20
6.0
 30
0.0
 11
38.625
 21
3.561
 31
0.0
  0
LINE
  5
5D
330
A
100
AcDbEntity
  8
0
  6
Continuous
 62
     7
370
     0
100
AcDbLine
 10
10.12499999999999
 20
1.125
 30
0.0
 11
4.5
 21
1.125
 31
0.0
  0
LINE
  5
5E
330
A
100
AcDbEntity
  8
0
  6
Continuous
 62
     7
370
     0
100
AcDbLine
 10
2.25
 20
31.875
 30
0.0
 11
2.25
 21
1.125
 31
0.0
  0
LINE
  5
5F
330
A
100
AcDbEntity
  8
0
  6
Continuous
 62
     7
370
     0
100
AcDbLine
 10
4.5
 20
8.8125
 30
0.0
 11
4.5
 21
16.5
 31
0.0
  0
LINE
  5
60
330
A
100
AcDbEntity
  8
0
  6
Continuous
 62
     7
370
     0
100
AcDbLine
 10
4.5
 20
16.5
 30
0.0
 11
4.5
 21
24.1875
 31
0.0
  0
LINE
  5
61
330
A
100
AcDbEntity
  8
0
  6
Continuous
 62
     7
370
     0
100
AcDbLine
 10
4.5
 20
24.1875
 30
0.0
 11
4.5
 21
31.875
 31
0.0
  0
LINE
  5
62
330
A
100
AcDbEntity
  8
0
  6
Continuous
 62
     7
370
     0
100
AcDbLine
 10
4.5
 20
24.1875
 30
0.0
 11
4.125
 21
24.1875
 31
0.0
  0
LINE
  5
63
330
A
100
AcDbEntity
  8
0
  6
Continuous
 62
     7
370
     0
100
AcDbLine
 10
43.875
 20
1.125
 30
0.0
 11
43.875
 21
0.75
 31
0.0
  0
LINE
  5
64
330
A
100
AcDbEntity
  8
0
  6
Continuous
 62
     7
370
     0
100
AcDbLine
 10
38.25
 20
1.125
 30
0.0
 11
38.25
 21
0.75
 31
0.0
  0
LINE
  5
65
330
A
100
AcDbEntity
  8
0
  6
Continuous
 62
     7
370
     0
100
AcDbLine
 10
32.625
 20
1.125
 30
0.0
 11
32.625
 21
0.75
 31
0.0
  0
LINE
  5
66
330
A
100
AcDbEntity
  8
0
  6
CENTERX2
 62
     7
370
     0
100
AcDbLine
 10
27.0
 20
1.125
 30
0.0
 11
27.0
 21
0.75
 31
0.0
  0
LINE
  5
67
330
A
100
AcDbEntity
  8
0
  6
Continuous
 62
     7
370
     0
100
AcDbLine
 10
21.375
 20
1.125
 30
0.0
 11
21.375
 21
0.75
 31
0.0
  0
LINE
  5
68
330
A
100
AcDbEntity
  8
0
  6
Continuous
 62
     7
370
     0
100
AcDbLine
 10
15.75
 20
1.125
 30
0.0
 11
15.75
 21
0.75
 31
0.0
  0
LINE
  5
69
330
A
100
AcDbEntity
  8
0
  6
Continuous
 62
     7
370
     0
100
AcDbLine
 10
10.12499999999999
 20
1.125
 30
0.0
 11
10.12499999999999
 21
0.75
 31
0.0
  0
LINE
  5
6A
330
A
100
AcDbEntity
  8
0
  6
Continuous
 62
     7
370
     0
100
AcDbLine
 10
4.5
 20
16.5
 30
0.0
 11
4.125
 21
16.5
 31
0.0
  0
LINE
  5
6B
330
A
100
AcDbEntity
  8
0
  6
Continuous
 62
     7
370
     0
100
AcDbLine
 10
4.5
 20
8.8125
 30
0.0
 11
4.125
 21
8.8125
 31
0.0
  0
LINE
  5
6C
330
A
100
AcDbEntity
  8
0
  6
Continuous
 62
     7
370
     0
100
AcDbLine
 10
4.5
 20
1.125
 30
0.0
 11
4.5
 21
8.8125
 31
0.0
  0
LINE
  5
6D
330
A
100
AcDbEntity
  8
0
  6
Continuous
 62
     7
370
     0
100
AcDbLine
 10
15.0
 20
2.8125
 30
0.0
 11
15.0
 21
1.125
 31
0.0
  0
LINE
  5
6E
330
A
100
AcDbEntity
  8
0
  6
Continuous
 62
     7
370
     0
100
AcDbLine
 10
49.5
 20
31.31099999999999
 30
0.0
 11
37.5
 21
31.31099999999999
 31
0.0
  0
LINE
  5
6F
330
A
100
AcDbEntity
  8
0
  6
Continuous
 62
     7
370
     0
100
AcDbLine
 10
49.5
 20
30.74699999999999
 30
0.0
 11
37.5
 21
30.74699999999999
 31
0.0
  0
LINE
  5
70
330
A
100
AcDbEntity
  8
0
  6
Continuous
 62
     7
370
     0
100
AcDbLine
 10
49.5
 20
30.183
 30
0.0
 11
37.5
 21
30.183
 31
0.0
  0
LINE
  5
71
330
A
100
AcDbEntity
  8
0
  6
Continuous
 62
     7
370
     0
100
AcDbLine
 10
37.5
 20
31.875
 30
0.0
 11
37.5
 21
30.183
 31
0.0
  0
LINE
  5
72
330
A
100
AcDbEntity
  8
0
  6
Continuous
 62
     7
370
     0
100
AcDbLine
 10
38.625
 20
31.31099999999999
 30
0.0
 11
38.625
 21
30.183
 31
0.0
  0
LINE
  5
73
330
A
100
AcDbEntity
  8
0
  6
Continuous
 62
     7
370
     0
100
AcDbLine
 10
47.25
 20
31.31099999999999
 30
0.0
 11
47.25
 21
30.183
 31
0.0
  0
LINE
  5
74
330
A
100
AcDbEntity
  8
0
  6
Continuous
 62
     7
370
     0
100
AcDbLine
 10
45.375
 20
31.31099999999999
 30
0.0
 11
45.375
 21
30.183
 31
0.0
  0
MTEXT
  5
76
330
A
100
AcDbEntity
  8
0
 62
     1
100
AcDbMText
 10
26.43526044149847
 20
2.702048802289279
 30
0.0
 40
0.3
 41
0.0
 71
     1
 72
     1
  1
STEEL A-36, 3/4" THICK BURNED
  7
SLDTEXTSTYLE0
 73
     1
 44
1.0
  0
MTEXT
  5
77
330
A
100
AcDbEntity
  8
0
 62
     1
100
AcDbMText
 10
35.2196412004868
 20
2.150432018214774
 30
0.0
 40
0.3
 41
0.0
 71
     1
 72
     1
  1
30.3 lbs
  7
SLDTEXTSTYLE0
 73
     1
 44
1.0
  0
MTEXT
  5
78
330
A
100
AcDbEntity
  8
0
 62
     1
100
AcDbMText
 10
44.93674071348524
 20
9.480215057298014
 30
0.0
 40
0.5
 41
0.0
 71
     2
 72
     1
  1
4 REQUIRED\PPER BASE ASSEM
  7
SLDTEXTSTYLE0
 73
     1
 44
1.0
  0
MTEXT
  5
79
330
A
100
AcDbEntity
  8
0
 62
     7
100
AcDbMText
 10
50.14018523859999
 20
27.2659883776
 30
0.0
 40
0.28125
 41
0.0
 71
     1
 72
     1
  1
D
  7
SLDTEXTSTYLE0
 73
     1
 44
1.0
  0
MTEXT
  5
7A
330
A
100
AcDbEntity
  8
0
 62
     7
100
AcDbMText
 10
50.08531754909999
 20
19.6386344243
 30
0.0
 40
0.28125
 41
0.0
 71
     1
 72
     1
  1
C
  7
SLDTEXTSTYLE0
 73
     1
 44
1.0
  0
MTEXT
  5
7B
330
A
100
AcDbEntity
  8
0
 62
     7
100
AcDbMText
 10
50.1183624005
 20
12.656445479
 30
0.0
 40
0.28125
 41
0.0
 71
     1
 72
     1
  1
B
  7
SLDTEXTSTYLE0
 73
     1
 44
1.0
  0
MTEXT
  5
7C
330
A
100
AcDbEntity
  8
0
 62
     7
100
AcDbMText
 10
50.1166549803
 20
5.1413046249
 30
0.0
 40
0.28125
 41
0.0
 71
     1
 72
     1
  1
A
  7
SLDTEXTSTYLE0
 73
     1
 44
1.0
  0
MTEXT
  5
7D
330
A
100
AcDbEntity
  8
0
 62
     7
100
AcDbMText
 10
2.893057796
 20
5.0802431056
 30
0.0
 40
0.28125
 41
0.0
 71
     1
 72
     1
  1
A
  7
SLDTEXTSTYLE0
 73
     1
 44
1.0
  0
MTEXT
  5
7E
330
A
100
AcDbEntity
  8
0
 62
     7
100
AcDbMText
 10
2.8834785192
 20
12.8333858419
 30
0.0
 40
0.28125
 41
0.0
 71
     1
 72
     1
  1
B
  7
SLDTEXTSTYLE0
 73
     1
 44
1.0
  0
MTEXT
  5
7F
330
A
100
AcDbEntity
  8
0
 62
     7
100
AcDbMText
 10
2.846483716299999
 20
20.62272001979999
 30
0.0
 40
0.28125
 41
0.0
 71
     1
 72
     1
  1
C
  7
SLDTEXTSTYLE0
 73
     1
 44
1.0
  0
MTEXT
  5
80
330
A
100
AcDbEntity
  8
0
 62
     7
100
AcDbMText
 10
2.8366468864
 20
27.9194051507
 30
0.0
 40
0.28125
 41
0.0
 71
     1
 72
     1
  1
D
  7
SLDTEXTSTYLE0
 73
     1
 44
1.0
  0
MTEXT
  5
81
330
A
100
AcDbEntity
  8
0
 62
     7
100
AcDbMText
 10
48.5574174346
 20
1.559035676899999
 30
0.0
 40
0.27
 41
0.0
 71
     1
 72
     1
  1
REV.
  7
SLDTEXTSTYLE0
 73
     1
 44
1.0
  0
MTEXT
  5
82
330
A
100
AcDbEntity
  8
0
 62
     7
100
AcDbMText
 10
37.0472310355
 20
5.2760729234
 30
0.0
 40
0.27
 41
0.0
 71
     1
 72
     1
  1
%%p\P%%p\P%%p\P%%p
  7
SLDTEXTSTYLE0
 73
     1
 44
1.0
  0
MTEXT
  5
83
330
A
100
AcDbEntity
  8
0
 62
     7
100
AcDbMText
 10
26.43582457449999
 20
3.2924537999
 30
0.0
 40
0.27
 41
0.0
 71
     1
 72
     1
  1
MATERIAL
  7
SLDTEXTSTYLE0
 73
     1
 44
1.0
  0
MTEXT
  5
84
330
A
100
AcDbEntity
  8
0
 62
     7
100
AcDbMText
 10
26.4289602194
 20
2.195021420599999
 30
0.0
 40
0.27
 41
0.0
 71
     1
 72
     1
  1
FINISH
  7
SLDTEXTSTYLE0
 73
     1
 44
1.0
  0
MTEXT
  5
85
330
A
100
AcDbEntity
  8
0
 62
     7
100
AcDbMText
 10
47.40129901
 20
0.9653051428999999
 30
0.0
 40
0.28125
 41
0.0
 71
     1
 72
     1
  1
1
  7
SLDTEXTSTYLE0
 73
     1
 44
1.0
  0
MTEXT
  5
86
330
A
100
AcDbEntity
  8
0
 62
     7
100
AcDbMText
 10
40.7831587621
 20
0.9945323844
 30
0.0
 40
0.28125
 41
0.0
 71
     1
 72
     1
  1
2
  7
SLDTEXTSTYLE0
 73
     1
 44
1.0
  0
MTEXT
  5
87
330
A
100
AcDbEntity
  8
0
 62
     7
100
AcDbMText
 10
34.6088150428
 20
1.004274798199999
 30
0.0
 40
0.28125
 41
0.0
 71
     1
 72
     1
  1
3
  7
SLDTEXTSTYLE0
 73
     1
 44
1.0
  0
MTEXT
  5
88
330
A
100
AcDbEntity
  8
0
 62
     7
100
AcDbMText
 10
29.04503274219999
 20
1.010234631999999
 30
0.0
 40
0.28125
 41
0.0
 71
     1
 72
     1
  1
4
  7
SLDTEXTSTYLE0
 73
     1
 44
1.0
  0
MTEXT
  5
89
330
A
100
AcDbEntity
  8
0
 62
     7
100
AcDbMText
 10
23.1937940055
 20
1.019977045899999
 30
0.0
 40
0.28125
 41
0.0
 71
     1
 72
     1
  1
5
  7
SLDTEXTSTYLE0
 73
     1
 44
1.0
  0
MTEXT
  5
8A
330
A
100
AcDbEntity
  8
0
 62
     7
100
AcDbMText
 10
17.7306464958
 20
0.9712649767
 30
0.0
 40
0.28125
 41
0.0
 71
     1
 72
     1
  1
6
  7
SLDTEXTSTYLE0
 73
     1
 44
1.0
  0
MTEXT
  5
8B
330
A
100
AcDbEntity
  8
0
 62
     7
100
AcDbMText
 10
11.79069263589999
 20
1.014017212099999
 30
0.0
 40
0.28125
 41
0.0
 71
     1
 72
     1
  1
7
  7
SLDTEXTSTYLE0
 73
     1
 44
1.0
  0
MTEXT
  5
8C
330
A
100
AcDbEntity
  8
0
 62
     7
100
AcDbMText
 10
6.444454092099999
 20
1.019977045899999
 30
0.0
 40
0.28125
 41
0.0
 71
     1
 72
     1
  1
8
  7
SLDTEXTSTYLE0
 73
     1
 44
1.0
  0
MTEXT
  5
8D
330
A
100
AcDbEntity
  8
0
 62
     7
100
AcDbMText
 10
6.351836859199999
 20
32.426068864
 30
0.0
 40
0.28125
 41
0.0
 71
     1
 72
     1
  1
8
  7
SLDTEXTSTYLE0
 73
     1
 44
1.0
  0
MTEXT
  5
8E
330
A
100
AcDbEntity
  8
0
 62
     7
100
AcDbMText
 10
12.21137099329999
 20
32.3592070312
 30
0.0
 40
0.28125
 41
0.0
 71
     1
 72
     1
  1
7
  7
SLDTEXTSTYLE0
 73
     1
 44
1.0
  0
MTEXT
  5
8F
330
A
100
AcDbEntity
  8
0
 62
     7
100
AcDbMText
 10
17.8551442191
 20
32.3396061198
 30
0.0
 40
0.28125
 41
0.0
 71
     1
 72
     1
  1
6
  7
SLDTEXTSTYLE0
 73
     1
 44
1.0
  0
MTEXT
  5
90
330
A
100
AcDbEntity
  8
0
 62
     7
100
AcDbMText
 10
23.71858254269999
 20
32.3040326985
 30
0.0
 40
0.28125
 41
0.0
 71
     1
 72
     1
  1
5
  7
SLDTEXTSTYLE0
 73
     1
 44
1.0
  0
MTEXT
  5
91
330
A
100
AcDbEntity
  8
0
 62
     7
100
AcDbMText
 10
29.5464474451
 20
32.3904954427
 30
0.0
 40
0.28125
 41
0.0
 71
     1
 72
     1
  1
4
  7
SLDTEXTSTYLE0
 73
     1
 44
1.0
  0
MTEXT
  5
92
330
A
100
AcDbEntity
  8
0
 62
     7
100
AcDbMText
 10
35.40390672239999
 20
32.3284399316
 30
0.0
 40
0.28125
 41
0.0
 71
     1
 72
     1
  1
3
  7
SLDTEXTSTYLE0
 73
     1
 44
1.0
  0
MTEXT
  5
93
330
A
100
AcDbEntity
  8
0
 62
     7
100
AcDbMText
 10
41.0131439554
 20
32.36505078119999
 30
0.0
 40
0.28125
 41
0.0
 71
     1
 72
     1
  1
2
  7
SLDTEXTSTYLE0
 73
     1
 44
1.0
  0
MTEXT
  5
94
330
A
100
AcDbEntity
  8
0
 62
     7
100
AcDbMText
 10
47.00069330109999
 20
32.3151988867
 30
0.0
 40
0.28125
 41
0.0
 71
     1
 72
     1
  1
1
  7
SLDTEXTSTYLE0
 73
     1
 44
1.0
  0
MTEXT
  5
95
330
A
100
AcDbEntity
  8
0
 62
     7
100
AcDbMText
 10
40.9663020349
 20
6.902152157899999
 30
0.0
 40
0.5
 41
0.0
 71
     1
 72
     1
  1
RADIO  ASTRONOMY  LAB
  7
SLDTEXTSTYLE0
 73
     1
 44
1.0
  0
MTEXT
  5
96
330
A
100
AcDbEntity
  8
0
 62
     7
100
AcDbMText
 10
45.0682736264
 20
6.0586473271
 30
0.0
 40
0.3
 41
0.0
 71
     2
 72
     1
  1
University of California - Berkeley\PTel: 510-642-5040    Fax: 510-642-3411
  7
SLDTEXTSTYLE0
 73
     1
 44
1.0
  0
MTEXT
  5
97
330
A
100
AcDbEntity
  8
0
 62
     7
100
AcDbMText
 10
28.1519548219
 20
4.913278158499999
 30
0.0
 40
0.27
 41
0.0
 71
     1
 72
     1
  1
NAME
  7
SLDTEXTSTYLE0
 73
     1
 44
1.0
  0
MTEXT
  5
98
330
A
100
AcDbEntity
  8
0
 62
     7
100
AcDbMText
 10
31.4758176706
 20
4.899985281
 30
0.0
 40
0.27
 41
0.0
 71
     1
 72
     1
  1
DATE
  7
SLDTEXTSTYLE0
 73
     1
 44
1.0
  0
MTEXT
  5
99
330
A
100
AcDbEntity
  8
0
 62
     7
100
AcDbMText
 10
40.7379912972
 20
1.5724585896
 30
0.0
 40
0.27
 41
0.0
 71
     1
 72
     1
  1
SIZE
  7
SLDTEXTSTYLE0
 73
     1
 44
1.0
  0
MTEXT
  5
9A
330
A
100
AcDbEntity
  8
0
 62
     7
100
AcDbMText
 10
40.90349964179999
 20
2.5323959018
 30
0.0
 40
0.5625
 41
0.0
 71
     1
 72
     1
  1
B
  7
SLDTEXTSTYLE0
 73
     1
 44
1.0
  0
MTEXT
  5
9B
330
A
100
AcDbEntity
  8
0
 62
     7
100
AcDbMText
 10
33.2376385533
 20
1.538598511999999
 30
0.0
 40
0.27
 41
0.0
 71
     1
 72
     1
  1
SCALE:
  7
SLDTEXTSTYLE0
 73
     1
 44
1.0
  0
MTEXT
  5
9C
330
A
100
AcDbEntity
  8
0
 62
     7
100
AcDbMText
 10
41.77317173419999
 20
1.5600008436
 30
0.0
 40
0.27
 41
0.0
 71
     1
 72
     1
  1
DWG NUM:      SHEET             OF
  7
SLDTEXTSTYLE0
 73
     1
 44
1.0
  0
MTEXT
  5
9D
330
A
100
AcDbEntity
  8
0
 62
     7
100
AcDbMText
 10
47.9963444383
 20
31.1559080558
 30
0.0
 40
0.27
 41
0.0
 71
     1
 72
     1
  1
DATE
  7
SLDTEXTSTYLE0
 73
     1
 44
1.0
  0
MTEXT
  5
9E
330
A
100
AcDbEntity
  8
0
 62
     7
100
AcDbMText
 10
45.90746573779999
 20
31.154623681
 30
0.0
 40
0.27
 41
0.0
 71
     1
 72
     1
  1
NAME
  7
SLDTEXTSTYLE0
 73
     1
 44
1.0
  0
MTEXT
  5
9F
330
A
100
AcDbEntity
  8
0
 62
     7
100
AcDbMText
 10
42.0992215522
 20
31.715894012
 30
0.0
 40
0.27
 41
0.0
 71
     1
 72
     1
  1
REVISIONS
  7
SLDTEXTSTYLE0
 73
     1
 44
1.0
  0
MTEXT
  5
A0
330
A
100
AcDbEntity
  8
0
 62
     7
100
AcDbMText
 10
37.7465957607
 20
31.15029972449999
 30
0.0
 40
0.27
 41
0.0
 71
     1
 72
     1
  1
REV
  7
SLDTEXTSTYLE0
 73
     1
 44
1.0
  0
MTEXT
  5
A1
330
A
100
AcDbEntity
  8
0
 62
     7
100
AcDbMText
 10
38.88736707469999
 20
31.1486720258
 30
0.0
 40
0.27
 41
0.0
 71
     1
 72
     1
  1
DESCRIPTION
  7
SLDTEXTSTYLE0
 73
     1
 44
1.0
  0
MTEXT
  5
A2
330
A
100
AcDbEntity
  8
0
 62
     7
100
AcDbMText
 10
33.22205903329999
 20
2.095337444499999
 30
0.0
 40
0.27
 41
0.0
 71
     1
 72
     1
  1
WEIGHT:
  7
SLDTEXTSTYLE0
 73
     1
 44
1.0
  0
MTEXT
  5
A3
330
A
100
AcDbEntity
  8
0
 62
     7
100
AcDbMText
 10
26.4322923529
 20
4.342633389399999
 30
0.0
 40
0.27
 41
0.0
 71
     1
 72
     1
  1
DRAWN
  7
SLDTEXTSTYLE0
 73
     1
 44
1.0
  0
MTEXT
  5
A4
330
A
100
AcDbEntity
  8
0
 62
     7
100
AcDbMText
 10
26.431610102
 20
3.7839912716
 30
0.0
 40
0.27
 41
0.0
 71
     1
 72
     1
  1
CHECKED
  7
SLDTEXTSTYLE0
 73
     1
 44
1.0
  0
MTEXT
  5
A5
330
A
100
AcDbEntity
  8
0
 62
     7
100
AcDbMText
 10
36.4958378773
 20
5.2617615291
 30
0.0
 40
0.27
 41
0.0
 71
     3
 72
     1
  1
WHOLE & FRACTION\PDECIMAL   X.X\PDECIMAL   X.XX\PDECIMAL   X.XXX
  7
SLDTEXTSTYLE0
 73
     1
 44
1.0
  0
MTEXT
  5
A6
330
A
100
AcDbEntity
  8
0
 62
     7
100
AcDbMText
 10
37.76189271079999
 20
5.8942080782
 30
0.0
 40
0.27
 41
0.0
 71
     2
 72
     1
  1
LINEAR
  7
SLDTEXTSTYLE0
 73
     1
 44
1.0
  0
MTEXT
  5
A7
330
A
100
AcDbEntity
  8
0
 62
     7
100
AcDbMText
 10
39.5034136541
 20
5.9122612969
 30
0.0
 40
0.27
 41
0.0
 71
     2
 72
     1
  1
ANGLE
  7
SLDTEXTSTYLE0
 73
     1
 44
1.0
  0
INSERT
  5
AE
330
A
100
AcDbEntity
  8
0
100
AcDbBlockReference
  2
NOTE50
 10
33.5009900572
 20
3.282134257799999
 30
0.0
  0
MTEXT
  5
AF
330
A
100
AcDbEntity
  8
0
 62
     7
100
AcDbMText
 10
36.7462604643
 20
6.926708539699999
 30
0.0
 40
0.27
 41
0.0
 71
     2
 72
     1
  1
UNLESS OTHERWISE SPECIFIED\PDIMENSIONS ARE INCHES & DEGREES
  7
SLDTEXTSTYLE0
 73
     1
 44
1.0
  0
MTEXT
  5
B0
330
A
100
AcDbEntity
  8
0
 62
     7
100
AcDbMText
 10
33.60390032699999
 20
5.875105358999999
 30
0.0
 40
0.27
 41
0.0
 71
     1
 72
     1
  1
TOLERANCES:
  7
SLDTEXTSTYLE0
 73
     1
 44
1.0
  0
MTEXT
  5
B1
330
A
100
AcDbEntity
  8
0
 62
     7
100
AcDbMText
 10
38.8663855537
 20
5.2734365033
 30
0.0
 40
0.27
 41
0.0
 71
     1
 72
     1
  1
%%p\P%%p\P%%p\P%%p
  7
SLDTEXTSTYLE0
 73
     1
 44
1.0
  0
MTEXT
  5
B2
330
A
100
AcDbEntity
  8
0
 62
     7
100
AcDbMText
 10
43.99020088060001
 20
31.1586793059
 30
0.0
 40
0.27
 41
0.0
 71
     1
 72
     1
  1
ZONE
  7
SLDTEXTSTYLE0
 73
     1
 44
1.0
  0
MTEXT
  5
B3
330
A
100
AcDbEntity
  8
0
 62
     7
100
AcDbMText
 10
15.28565304579999
 20
2.5937000015
 30
0.0
 40
0.24
 41
0.0
 71
     1
 72
     1
  1
THIS DRAWING IS THE PROPERTY OF AND CONTAINS CONFIDENTIAL\PINFORMATION PROPRIETARY TO THE UNIVERSITY OF CALIFORNIA AND\PSHALL BE USED ONLY FOR THE PURPOSE FOR WHICH IT WAS PROVIDED\PAND SHALL NOT BE REPRODUCED OR DISCLOSED TO OTHERS.
  7
SLDTEXTSTYLE0
 73
     1
 44
1.0
  0
MTEXT
  5
B4
330
A
100
AcDbEntity
  8
0
 62
     7
100
AcDbMText
 10
37.9168758388
 20
30.61469752829999
 30
0.0
 40
0.27
 41
0.0
 71
     1
 72
     1
  1
A
  7
SLDTEXTSTYLE0
 73
     1
 44
1.0
  0
MTEXT
  5
B5
330
A
100
AcDbEntity
  8
0
 62
     7
100
AcDbMText
 10
38.9339877417
 20
30.6139545251
 30
0.0
 40
0.27
 41
0.0
 71
     1
 72
     1
  1
RELEASED
  7
SLDTEXTSTYLE0
 73
     1
 44
1.0
  0
MTEXT
  5
B6
330
A
100
AcDbEntity
  8
0
 62
     7
100
AcDbMText
 10
28.10752251949999
 20
4.380380667999999
 30
0.0
 40
0.3125
 41
0.0
 71
     1
 72
     1
  1
M. C. FLEMING
  7
SLDTEXTSTYLE0
 73
     1
 44
1.0
  0
MTEXT
  5
B7
330
A
100
AcDbEntity
  8
0
 62
     7
100
AcDbMText
 10
48.7563131641
 20
2.4812113434
 30
0.0
 40
0.5625
 41
0.0
 71
     1
 72
     1
  1
A
  7
SLDTEXTSTYLE0
 73
     1
 44
1.0
  0
MTEXT
  5
B8
330
A
100
AcDbEntity
  8
0
 62
     7
100
AcDbMText
 10
30.9664208309
 20
4.3752125285
 30
0.0
 40
0.3125
 41
0.0
 71
     1
 72
     1
  1
2005-01-16
  7
SLDTEXTSTYLE0
 73
     1
 44
1.0
  0
MTEXT
  5
B9
330
A
100
AcDbEntity
  8
0
 62
     7
100
AcDbMText
 10
37.53723273979999
 20
5.2794801717
 30
0.0
 40
0.27
 41
0.0
 71
     1
 72
     1
  1
1/16\P0.1\P0.01\P0.005
  7
SLDTEXTSTYLE0
 73
     1
 44
1.0
  0
MTEXT
  5
BA
330
A
100
AcDbEntity
  8
0
 62
     7
100
AcDbMText
 10
39.3074526584
 20
5.2736253067
 30
0.0
 40
0.27
 41
0.0
 71
     1
 72
     1
  1
1%%d\P0.1%%d\P0.01%%d\P0.001%%d
  7
SLDTEXTSTYLE0
 73
     1
 44
1.0
  0
MTEXT
  5
BB
330
A
100
AcDbEntity
  8
0
 62
     7
100
AcDbMText
 10
42.24510903299999
 20
2.535486033799999
 30
0.0
 40
0.5625
 41
0.0
 71
     1
 72
     1
  1
24-09-253   1 of 1
  7
SLDTEXTSTYLE0
 73
     1
 44
1.0
  0
MTEXT
  5
BC
330
A
100
AcDbEntity
  8
0
 62
     7
100
AcDbMText
 10
45.8879347483
 20
30.6152584524
 30
0.0
 40
0.3125
 41
0.0
 71
     1
 72
     1
  1
M.C.F.
  7
SLDTEXTSTYLE0
 73
     1
 44
1.0
  0
MTEXT
  5
BD
330
A
100
AcDbEntity
  8
0
 62
     7
100
AcDbMText
 10
47.5259220293
 20
30.6124571894
 30
0.0
 40
0.3125
 41
0.0
 71
     1
 72
     1
  1
2005-01-16
  7
SLDTEXTSTYLE0
 73
     1
 44
1.0
  0
MTEXT
  5
BE
330
A
100
AcDbEntity
  8
0
 62
     7
100
AcDbMText
 10
44.8160382045
 20
4.6142872186
 30
0.0
 40
0.5625
 41
0.0
 71
     2
 72
     1
  1
CARMA 6m Base,\PArm, Support Plate
  7
SLDTEXTSTYLE0
 73
     1
 44
1.0
  0
POINT
  5
BF
330
A
100
AcDbEntity
  8
0
 62
     1
100
AcDbPoint
 10
22.29464785929999
 20
24.3470661225
 30
0.0
  0
POINT
  5
C0
330
A
100
AcDbEntity
  8
0
 62
     1
100
AcDbPoint
 10
22.29464785929999
 20
11.4158063952
 30
0.0
  0
ARC
  5
C1
330
A
100
AcDbEntity
  8
0
  6
Continuous
 62
     7
370
    15
100
AcDbCircle
 10
22.7946478593
 20
23.75118932619999
 30
0.0
 40
0.5
100
AcDbArc
 50
80.0
 51
180.0
  0
ARC
  5
C2
330
A
100
AcDbEntity
  8
0
  6
Continuous
 62
     7
370
    15
100
AcDbCircle
 10
22.7946478593
 20
12.0116831915
 30
0.0
 40
0.5
100
AcDbArc
 50
180.0
 51
280.0
  0
CIRCLE
  5
C3
330
A
100
AcDbEntity
  8
0
  6
Continuous
 62
     7
370
    15
100
AcDbCircle
 10
35.2946478593
 20
17.8814362589
 30
0.0
 40
3.25
  0
CIRCLE
  5
C4
330
A
100
AcDbEntity
  8
0
  6
Continuous
 62
     7
370
    15
100
AcDbCircle
 10
23.6276478593
 20
17.8814362589
 30
0.0
 40
0.5625
  0
LINE
  5
C5
330
A
100
AcDbEntity
  8
0
  6
Continuous
 62
     7
370
    15
100
AcDbLine
 10
22.29464785929999
 20
23.75118932619999
 30
0.0
 11
22.29464785929999
 21
12.0116831915
 31
0.0
  0
LINE
  5
C6
330
A
100
AcDbEntity
  8
0
  6
Continuous
 62
     7
370
    15
100
AcDbLine
 10
22.8814719482
 20
11.519279315
 30
0.0
 11
30.60664780219999
 21
12.8814360993
 31
0.0
  0
LINE
  5
C7
330
A
100
AcDbEntity
  8
0
  6
Continuous
 62
     7
370
    15
100
AcDbLine
 10
30.60664780219999
 20
12.8814360993
 30
0.0
 11
35.2946478593
 21
12.8814362589
 31
0.0
  0
ARC
  5
C8
330
A
100
AcDbEntity
  8
0
  6
Continuous
 62
     7
370
    15
100
AcDbCircle
 10
35.2946478593
 20
17.8814362589
 30
0.0
 40
5.0
100
AcDbArc
 50
270.0
 51
90.0
  0
LINE
  5
C9
330
A
100
AcDbEntity
  8
0
  6
Continuous
 62
     7
370
    15
100
AcDbLine
 10
35.2946478593
 20
22.8814362589
 30
0.0
 11
30.60664780219999
 21
22.8814364184
 31
0.0
  0
LINE
  5
CA
330
A
100
AcDbEntity
  8
0
  6
Continuous
 62
     7
370
    15
100
AcDbLine
 10
30.60664780219999
 20
22.8814364184
 30
0.0
 11
22.8814719482
 21
24.2435932027
 31
0.0
  0
DIMENSION
  5
DA
330
A
100
AcDbEntity
  8
0
100
AcDbDimension
  2
*D1
 10
14.8579589737
 20
11.4158063952
 30
0.0
 11
14.8579589737
 21
17.9973026782
 31
0.0
 70
   160
  1
<> TO\PSHARP CORNERS
 71
     5
 42
0.0
  3
SLDDIMSTYLE0
100
AcDbAlignedDimension
 13
22.29464785929999
 23
24.3470661225
 33
0.0
 14
22.29464785929999
 24
11.4158063952
 34
0.0
 50
90.0
100
AcDbRotatedDimension
  0
DIMENSION
  5
E8
330
A
100
AcDbEntity
  8
0
100
AcDbDimension
  2
*D2
 10
22.8814719482
 20
24.2435932027
 30
0.0
 11
26.8458036062
 21
20.69133183069999
 31
0.0
 70
   162
 71
     5
 42
0.0
  3
SLDDIMSTYLE1
100
AcDb2LineAngularDimension
 13
21.1542420439
 23
17.8814362589
 33
0.0
 14
41.432421504
 24
17.8814362589
 34
0.0
 15
30.60664785929999
 25
22.8814362589
 35
0.0
 16
26.9989380382
 26
22.0895923478
 36
0.0
  0
DIMENSION
  5
F5
330
A
100
AcDbEntity
  8
0
100
AcDbDimension
  2
*D3
 10
21.1542420439
 20
17.8814362589
 30
0.0
 11
26.8678874321
 21
15.0734727715
 31
0.0
 70
   162
 71
     5
 42
0.0
  3
SLDDIMSTYLE1
100
AcDb2LineAngularDimension
 13
30.60664785929999
 23
12.8814362589
 33
0.0
 14
22.8814719482
 24
11.519279315
 34
0.0
 15
41.432421504
 25
17.8814362589
 35
0.0
 16
26.77595327469999
 26
16.4761169626
 36
0.0
  0
DIMENSION
  5
101
330
A
100
AcDbEntity
  8
0
100
AcDbDimension
  2
*D4
 10
33.5604319913
 20
20.63007143339999
 30
0.0
 11
40.9230369705
 21
11.75648616119999
 31
0.0
 70
   163
  1
<>
 71
     5
 42
0.0
  3
SLDDIMSTYLE2
100
AcDbDiametricDimension
 15
37.0288637274
 25
15.1328010843
 35
0.0
 40
0.0
  0
DIMENSION
  5
10D
330
A
100
AcDbEntity
  8
0
100
AcDbDimension
  2
*D5
 10
35.2946478593
 20
17.8814362589
 30
0.0
 11
42.69207783659999
 21
14.1939691822
 31
0.0
 70
   164
  1
<> RAD
 71
     5
 42
0.0
  3
SLDDIMSTYLE3
100
AcDbRadialDimension
 15
39.51406080449999
 25
15.19879681259999
 35
0.0
 40
0.0
  0
DIMENSION
  5
11A
330
A
100
AcDbEntity
  8
0
100
AcDbDimension
  2
*D6
 10
44.58743112829999
 20
12.8814362589
 30
0.0
 11
44.58743112829999
 21
17.8814362589
 31
0.0
 70
   160
 71
     5
 42
0.0
  3
SLDDIMSTYLE0
100
AcDbAlignedDimension
 13
35.2946478593
 23
22.8814362589
 33
0.0
 14
35.2946478593
 24
12.8814362589
 34
0.0
 50
90.0
100
AcDbRotatedDimension
  0
DIMENSION
  5
129
330
A
100
AcDbEntity
  8
0
100
AcDbDimension
  2
*D7
 10
30.60664785929999
 20
25.2723654219
 30
0.0
 11
26.45064785929999
 21
25.2723654219
 31
0.0
 70
   160
  1
(<>)
 71
     5
 42
0.0
  3
SLDDIMSTYLE0
100
AcDbAlignedDimension
 13
22.29464785929999
 23
23.75118932619999
 33
0.0
 14
30.60664785929999
 24
22.8814362589
 34
0.0
100
AcDbRotatedDimension
  0
DIMENSION
  5
136
330
A
100
AcDbEntity
  8
0
100
AcDbDimension
  2
*D8
 10
35.2946478593
 20
27.1689945182
 30
0.0
 11
28.7946478593
 21
27.1689945182
 31
0.0
 70
   160
 71
     5
 42
0.0
  3
SLDDIMSTYLE0
100
AcDbAlignedDimension
 13
22.29464785929999
 23
23.75118932619999
 33
0.0
 14
35.2946478593
 24
17.8814362589
 34
0.0
100
AcDbRotatedDimension
  0
DIMENSION
  5
145
330
A
100
AcDbEntity
  8
0
100
AcDbDimension
  2
*D9
 10
40.2946478593
 20
28.68514376989999
 30
0.0
 11
31.2946478593
 21
28.68514376989999
 31
0.0
 70
   160
  1
(<>)
 71
     5
 42
0.0
  3
SLDDIMSTYLE0
100
AcDbAlignedDimension
 13
22.29464785929999
 23
23.75118932619999
 33
0.0
 14
40.2946478593
 24
17.8814362589
 34
0.0
100
AcDbRotatedDimension
  0
DIMENSION
  5
152
330
A
100
AcDbEntity
  8
0
100
AcDbDimension
  2
*D10
 10
22.7946478593
 20
12.0116831915
 30
0.0
 11
20.3253118431
 21
9.522007588799999
 31
0.0
 70
   164
  1
<> RAD\P2 PLACES
 71
     5
 42
0.0
  3
SLDDIMSTYLE4
100
AcDbRadialDimension
 15
22.66893212559999
 25
11.5277456395
 35
0.0
 40
0.0
  0
DIMENSION
  5
15F
330
A
100
AcDbEntity
  8
0
100
AcDbDimension
  2
*D11
 10
24.0174237135
 20
17.4758736453
 30
0.0
 11
18.1528007095
 21
20.5720302028
 31
0.0
 70
   163
  1
<> DRILL THRU\PDEBURR
 71
     5
 42
0.0
  3
SLDDIMSTYLE2
100
AcDbDiametricDimension
 15
23.23787200519999
 25
18.2869988724
 35
0.0
 40
0.0
  0
DIMENSION
  5
16C
330
A
100
AcDbEntity
  8
0
100
AcDbDimension
  2
*D12
 10
35.2946478593
 20
9.4045727134
 30
0.0
 11
29.46114785929999
 21
9.4045727134
 31
0.0
 70
   160
 71
     5
 42
0.0
  3
SLDDIMSTYLE0
100
AcDbAlignedDimension
 13
23.6276478593
 23
17.8814362589
 33
0.0
 14
35.2946478593
 24
17.8814362589
 34
0.0
100
AcDbRotatedDimension
  0
INSERT
  5
171
330
A
100
AcDbEntity
  8
0
100
AcDbBlockReference
  2
NOTE67
 10
29.4260377358
 20
18.6838584906
 30
0.0
  0
LINE
  5
172
330
A
100
AcDbEntity
  8
0
  6
CENTERX2
 62
     7
370
     0
100
AcDbLine
 10
21.1542420439
 20
17.8814362589
 30
0.0
 11
41.432421504
 21
17.8814362589
 31
0.0
  0
LINE
  5
173
330
A
100
AcDbEntity
  8
0
  6
Continuous
 62
     7
370
    15
100
AcDbLine
 10
10.6209700065
 20
11.5116831915
 30
0.0
 11
11.3709700065
 21
11.5116831915
 31
0.0
  0
LINE
  5
174
330
A
100
AcDbEntity
  8
0
  6
Continuous
 62
     7
370
    15
100
AcDbLine
 10
11.3709700065
 20
24.2511893262
 30
0.0
 11
10.6209700065
 21
24.2511893262
 31
0.0
  0
LINE
  5
175
330
A
100
AcDbEntity
  8
0
  6
Continuous
 62
     7
370
    15
100
AcDbLine
 10
10.6209700065
 20
12.0116831915
 30
0.0
 11
11.3709700065
 21
12.0116831915
 31
0.0
  0
LINE
  5
176
330
A
100
AcDbEntity
  8
0
  6
Continuous
 62
     7
370
    15
100
AcDbLine
 10
11.3709700065
 20
12.0116831915
 30
0.0
 11
11.3709700065
 21
11.5116831915
 31
0.0
  0
LINE
  5
177
330
A
100
AcDbEntity
  8
0
  6
Continuous
 62
     7
370
    15
100
AcDbLine
 10
10.6209700065
 20
11.5116831915
 30
0.0
 11
10.6209700065
 21
12.0116831915
 31
0.0
  0
LINE
  5
178
330
A
100
AcDbEntity
  8
0
  6
Continuous
 62
     7
370
    15
100
AcDbLine
 10
11.3709700065
 20
23.75118932619999
 30
0.0
 11
10.6209700065
 21
23.75118932619999
 31
0.0
  0
LINE
  5
179
330
A
100
AcDbEntity
  8
0
  6
Continuous
 62
     7
370
    15
100
AcDbLine
 10
11.3709700065
 20
23.75118932619999
 30
0.0
 11
11.3709700065
 21
12.0116831915
 31
0.0
  0
LINE
  5
17A
330
A
100
AcDbEntity
  8
0
  6
Continuous
 62
     7
370
    15
100
AcDbLine
 10
10.6209700065
 20
23.75118932619999
 30
0.0
 11
10.6209700065
 21
12.0116831915
 31
0.0
  0
LINE
  5
17B
330
A
100
AcDbEntity
  8
0
  6
Continuous
 62
     7
370
    15
100
AcDbLine
 10
11.3709700065
 20
24.2511893262
 30
0.0
 11
11.3709700065
 21
23.75118932619999
 31
0.0
  0
LINE
  5
17C
330
A
100
AcDbEntity
  8
0
  6
Continuous
 62
     7
370
    15
100
AcDbLine
 10
10.6209700065
 20
23.75118932619999
 30
0.0
 11
10.6209700065
 21
24.2511893262
 31
0.0
  0
DIMENSION
  5
189
330
A
100
AcDbEntity
  8
0
100
AcDbDimension
  2
*D14
 10
11.3709700065
 20
26.55736318789999
 30
0.0
 11
13.2513140216
 21
26.55736318789999
 31
0.0
 70
   160
 71
     5
 42
0.0
  3
SLDDIMSTYLE0
100
AcDbAlignedDimension
 13
10.6209700065
 23
23.75118932619999
 33
0.0
 14
11.3709700065
 24
23.75118932619999
 34
0.0
100
AcDbRotatedDimension
  0
LINE
  5
18A
330
A
100
AcDbEntity
  8
0
  6
Continuous
 62
     7
370
    15
100
AcDbLine
 10
16.83259065549999
 20
5.242670428299999
 30
0.0
 11
16.83259065549999
 21
5.6101137937
 31
0.0
  0
LINE
  5
18B
330
A
100
AcDbEntity
  8
0
  6
Continuous
 62
     7
370
    15
100
AcDbLine
 10
5.738964477899999
 20
7.2340100074
 30
0.0
 11
5.738964477899999
 21
6.8665666421
 31
0.0
  0
POLYLINE
  5
18C
330
A
100
AcDbEntity
  8
0
  6
Continuous
 62
     7
100
AcDb2dPolyline
 66
     1
 10
0.0
 20
0.0
 30
0.0
 70
   128
 40
0.0017716535
 41
0.0017716535
  0
VERTEX
  5
18D
330
18C
100
AcDbEntity
  8
0
100
AcDbVertex
100
AcDb2dVertex
 10
11.2653607286
 20
10.2086140072
 30
0.0
  0
VERTEX
  5
18E
330
18C
100
AcDbEntity
  8
0
100
AcDbVertex
100
AcDb2dVertex
 10
11.23174714969999
 20
10.2317396354
 30
0.0
  0
VERTEX
  5
18F
330
18C
100
AcDbEntity
  8
0
100
AcDbVertex
100
AcDb2dVertex
 10
11.19168804619999
 20
10.2511443414
 30
0.0
  0
VERTEX
  5
190
330
18C
100
AcDbEntity
  8
0
100
AcDbVertex
100
AcDb2dVertex
 10
11.1464005938
 20
10.26623852319999
 30
0.0
  0
VERTEX
  5
191
330
18C
100
AcDbEntity
  8
0
100
AcDbVertex
100
AcDb2dVertex
 10
11.0972608288
 20
10.27656355169999
 30
0.0
  0
VERTEX
  5
192
330
18C
100
AcDbEntity
  8
0
100
AcDbVertex
100
AcDb2dVertex
 10
11.04576183809999
 20
10.281805706
 30
0.0
  0
VERTEX
  5
193
330
18C
100
AcDbEntity
  8
0
100
AcDbVertex
100
AcDb2dVertex
 10
10.9934683925
 20
10.281805706
 30
0.0
  0
VERTEX
  5
194
330
18C
100
AcDbEntity
  8
0
100
AcDbVertex
100
AcDb2dVertex
 10
10.9419694018
 20
10.27656355169999
 30
0.0
  0
VERTEX
  5
195
330
18C
100
AcDbEntity
  8
0
100
AcDbVertex
100
AcDb2dVertex
 10
10.8928296368
 20
10.26623852319999
 30
0.0
  0
VERTEX
  5
196
330
18C
100
AcDbEntity
  8
0
100
AcDbVertex
100
AcDb2dVertex
 10
10.8475421844
 20
10.2511443414
 30
0.0
  0
VERTEX
  5
197
330
18C
100
AcDbEntity
  8
0
100
AcDbVertex
100
AcDb2dVertex
 10
10.80748308089999
 20
10.2317396354
 30
0.0
  0
SEQEND
  5
198
330
18C
100
AcDbEntity
  8
0
  0
LINE
  5
199
330
A
100
AcDbEntity
  8
0
  6
Continuous
 62
     7
370
    15
100
AcDbLine
 10
13.964961045
 20
7.9829223299
 30
0.0
 11
11.2653607286
 21
10.2086140072
 31
0.0
  0
LINE
  5
19A
330
A
100
AcDbEntity
  8
0
  6
Continuous
 62
     7
370
    15
100
AcDbLine
 10
15.9539109991
 20
6.8347259614
 30
0.0
 11
13.964961045
 21
7.9829223299
 31
0.0
  0
POLYLINE
  5
19B
330
A
100
AcDbEntity
  8
0
  6
Continuous
 62
     7
100
AcDb2dPolyline
 66
     1
 10
0.0
 20
0.0
 30
0.0
 70
   128
 40
0.0017716535
 41
0.0017716535
  0
VERTEX
  5
19C
330
19B
100
AcDbEntity
  8
0
100
AcDbVertex
100
AcDb2dVertex
 10
11.71127031199999
 20
4.385501625899999
 30
0.0
  0
VERTEX
  5
19D
330
19B
100
AcDbEntity
  8
0
100
AcDbVertex
100
AcDb2dVertex
 10
11.82717815069999
 20
4.3220607512
 30
0.0
  0
VERTEX
  5
19E
330
19B
100
AcDbEntity
  8
0
100
AcDbVertex
100
AcDb2dVertex
 10
11.948770549
 20
4.262271002699999
 30
0.0
  0
VERTEX
  5
19F
330
19B
100
AcDbEntity
  8
0
100
AcDbVertex
100
AcDb2dVertex
 10
12.07570284009999
 20
4.206301861
 30
0.0
  0
VERTEX
  5
1A0
330
19B
100
AcDbEntity
  8
0
100
AcDbVertex
100
AcDb2dVertex
 10
12.2076152206
 20
4.154311976799999
 30
0.0
  0
VERTEX
  5
1A1
330
19B
100
AcDbEntity
  8
0
100
AcDbVertex
100
AcDb2dVertex
 10
12.3441337705
 20
4.106448721
 30
0.0
  0
VERTEX
  5
1A2
330
19B
100
AcDbEntity
  8
0
100
AcDbVertex
100
AcDb2dVertex
 10
12.48487151319999
 20
4.0628477672
 30
0.0
  0
VERTEX
  5
1A3
330
19B
100
AcDbEntity
  8
0
100
AcDbVertex
100
AcDb2dVertex
 10
12.6294295122
 20
4.023632707099999
 30
0.0
  0
VERTEX
  5
1A4
330
19B
100
AcDbEntity
  8
0
100
AcDbVertex
100
AcDb2dVertex
 10
12.77739800219999
 20
3.9889146999
 30
0.0
  0
VERTEX
  5
1A5
330
19B
100
AcDbEntity
  8
0
100
AcDbVertex
100
AcDb2dVertex
 10
12.9283575504
 20
3.958792157799999
 30
0.0
  0
VERTEX
  5
1A6
330
19B
100
AcDbEntity
  8
0
100
AcDbVertex
100
AcDb2dVertex
 10
13.08188024559999
 20
3.933350466199999
 30
0.0
  0
VERTEX
  5
1A7
330
19B
100
AcDbEntity
  8
0
100
AcDbVertex
100
AcDb2dVertex
 10
13.23753091099999
 20
3.9126617425
 30
0.0
  0
VERTEX
  5
1A8
330
19B
100
AcDbEntity
  8
0
100
AcDbVertex
100
AcDb2dVertex
 10
13.3948683379
 20
3.896784631
 30
0.0
  0
VERTEX
  5
1A9
330
19B
100
AcDbEntity
  8
0
100
AcDbVertex
100
AcDb2dVertex
 10
13.5534465362
 20
3.8857641372
 30
0.0
  0
VERTEX
  5
1AA
330
19B
100
AcDbEntity
  8
0
100
AcDbVertex
100
AcDb2dVertex
 10
13.7128159989
 20
3.8796314998
 30
0.0
  0
VERTEX
  5
1AB
330
19B
100
AcDbEntity
  8
0
100
AcDbVertex
100
AcDb2dVertex
 10
13.8725249759
 20
3.878404102499999
 30
0.0
  0
VERTEX
  5
1AC
330
19B
100
AcDbEntity
  8
0
100
AcDbVertex
100
AcDb2dVertex
 10
14.0321207547
 20
3.882085424399999
 30
0.0
  0
VERTEX
  5
1AD
330
19B
100
AcDbEntity
  8
0
100
AcDbVertex
100
AcDb2dVertex
 10
14.1911509438
 20
3.8906650306
 30
0.0
  0
VERTEX
  5
1AE
330
19B
100
AcDbEntity
  8
0
100
AcDbVertex
100
AcDb2dVertex
 10
14.3491647547
 20
3.904118601
 30
0.0
  0
VERTEX
  5
1AF
330
19B
100
AcDbEntity
  8
0
100
AcDbVertex
100
AcDb2dVertex
 10
14.50571428029999
 20
3.922408000199999
 30
0.0
  0
VERTEX
  5
1B0
330
19B
100
AcDbEntity
  8
0
100
AcDbVertex
100
AcDb2dVertex
 10
14.6603557638
 20
3.9454813848
 30
0.0
  0
VERTEX
  5
1B1
330
19B
100
AcDbEntity
  8
0
100
AcDbVertex
100
AcDb2dVertex
 10
14.8126508572
 20
3.973273350799999
 30
0.0
  0
VERTEX
  5
1B2
330
19B
100
AcDbEntity
  8
0
100
AcDbVertex
100
AcDb2dVertex
 10
14.96216786339999
 20
4.005705118899999
 30
0.0
  0
VERTEX
  5
1B3
330
19B
100
AcDbEntity
  8
0
100
AcDbVertex
100
AcDb2dVertex
 10
15.10848296039999
 20
4.0426847577
 30
0.0
  0
VERTEX
  5
1B4
330
19B
100
AcDbEntity
  8
0
100
AcDbVertex
100
AcDb2dVertex
 10
15.251181402
 20
4.084107444399999
 30
0.0
  0
VERTEX
  5
1B5
330
19B
100
AcDbEntity
  8
0
100
AcDbVertex
100
AcDb2dVertex
 10
15.3898586939
 20
4.1298557619
 30
0.0
  0
VERTEX
  5
1B6
330
19B
100
AcDbEntity
  8
0
100
AcDbVertex
100
AcDb2dVertex
 10
15.5241217405
 20
4.1798000316
 30
0.0
  0
VERTEX
  5
1B7
330
19B
100
AcDbEntity
  8
0
100
AcDbVertex
100
AcDb2dVertex
 10
15.6535899584
 20
4.2337986811
 30
0.0
  0
VERTEX
  5
1B8
330
19B
100
AcDbEntity
  8
0
100
AcDbVertex
100
AcDb2dVertex
 10
15.7778963559
 20
4.291698645199999
 30
0.0
  0
VERTEX
  5
1B9
330
19B
100
AcDbEntity
  8
0
100
AcDbVertex
100
AcDb2dVertex
 10
15.89668857309999
 20
4.3533358004
 30
0.0
  0
VERTEX
  5
1BA
330
19B
100
AcDbEntity
  8
0
100
AcDbVertex
100
AcDb2dVertex
 10
16.0096298804
 20
4.4185354293
 30
0.0
  0
VERTEX
  5
1BB
330
19B
100
AcDbEntity
  8
0
100
AcDbVertex
100
AcDb2dVertex
 10
16.11640013359999
 20
4.4871127166
 30
0.0
  0
VERTEX
  5
1BC
330
19B
100
AcDbEntity
  8
0
100
AcDbVertex
100
AcDb2dVertex
 10
16.2166966806
 20
4.5588732724
 30
0.0
  0
VERTEX
  5
1BD
330
19B
100
AcDbEntity
  8
0
100
AcDbVertex
100
AcDb2dVertex
 10
16.3102352201
 20
4.6336136837
 30
0.0
  0
VERTEX
  5
1BE
330
19B
100
AcDbEntity
  8
0
100
AcDbVertex
100
AcDb2dVertex
 10
16.3967506069
 20
4.711122090699999
 30
0.0
  0
VERTEX
  5
1BF
330
19B
100
AcDbEntity
  8
0
100
AcDbVertex
100
AcDb2dVertex
 10
16.4759976038
 20
4.791178787299999
 30
0.0
  0
VERTEX
  5
1C0
330
19B
100
AcDbEntity
  8
0
100
AcDbVertex
100
AcDb2dVertex
 10
16.5477515764
 20
4.8735568441
 30
0.0
  0
VERTEX
  5
1C1
330
19B
100
AcDbEntity
  8
0
100
AcDbVertex
100
AcDb2dVertex
 10
16.6118091304
 20
4.958022751699999
 30
0.0
  0
VERTEX
  5
1C2
330
19B
100
AcDbEntity
  8
0
100
AcDbVertex
100
AcDb2dVertex
 10
16.66798868769999
 20
5.0443370822
 30
0.0
  0
VERTEX
  5
1C3
330
19B
100
AcDbEntity
  8
0
100
AcDbVertex
100
AcDb2dVertex
 10
16.7161310013
 20
5.132255168199999
 30
0.0
  0
VERTEX
  5
1C4
330
19B
100
AcDbEntity
  8
0
100
AcDbVertex
100
AcDb2dVertex
 10
16.7560996064
 20
5.2215277964
 30
0.0
  0
VERTEX
  5
1C5
330
19B
100
AcDbEntity
  8
0
100
AcDbVertex
100
AcDb2dVertex
 10
16.7877812077
 20
5.311901913799999
 30
0.0
  0
VERTEX
  5
1C6
330
19B
100
AcDbEntity
  8
0
100
AcDbVertex
100
AcDb2dVertex
 10
16.81108600039999
 20
5.403121345199999
 30
0.0
  0
VERTEX
  5
1C7
330
19B
100
AcDbEntity
  8
0
100
AcDbVertex
100
AcDb2dVertex
 10
16.82594792449999
 20
5.494927519199999
 30
0.0
  0
VERTEX
  5
1C8
330
19B
100
AcDbEntity
  8
0
100
AcDbVertex
100
AcDb2dVertex
 10
16.8323248521
 20
5.587060201199999
 30
0.0
  0
VERTEX
  5
1C9
330
19B
100
AcDbEntity
  8
0
100
AcDbVertex
100
AcDb2dVertex
 10
16.8301987072
 20
5.6792582311
 30
0.0
  0
VERTEX
  5
1CA
330
19B
100
AcDbEntity
  8
0
100
AcDbVertex
100
AcDb2dVertex
 10
16.8195755167
 20
5.7712602636
 30
0.0
  0
VERTEX
  5
1CB
330
19B
100
AcDbEntity
  8
0
100
AcDbVertex
100
AcDb2dVertex
 10
16.80048539299999
 20
5.862805509
 30
0.0
  0
VERTEX
  5
1CC
330
19B
100
AcDbEntity
  8
0
100
AcDbVertex
100
AcDb2dVertex
 10
16.7729824492
 20
5.9536344722
 30
0.0
  0
VERTEX
  5
1CD
330
19B
100
AcDbEntity
  8
0
100
AcDbVertex
100
AcDb2dVertex
 10
16.7371446454
 20
6.0434896887
 30
0.0
  0
VERTEX
  5
1CE
330
19B
100
AcDbEntity
  8
0
100
AcDbVertex
100
AcDb2dVertex
 10
16.6930735678
 20
6.132116454099999
 30
0.0
  0
VERTEX
  5
1CF
330
19B
100
AcDbEntity
  8
0
100
AcDbVertex
100
AcDb2dVertex
 10
16.6408941406
 20
6.219263546299999
 30
0.0
  0
VERTEX
  5
1D0
330
19B
100
AcDbEntity
  8
0
100
AcDbVertex
100
AcDb2dVertex
 10
16.580754272
 20
6.3046839374
 30
0.0
  0
VERTEX
  5
1D1
330
19B
100
AcDbEntity
  8
0
100
AcDbVertex
100
AcDb2dVertex
 10
16.5128244351
 20
6.3881354939
 30
0.0
  0
VERTEX
  5
1D2
330
19B
100
AcDbEntity
  8
0
100
AcDbVertex
100
AcDb2dVertex
 10
16.4372971844
 20
6.4693816634
 30
0.0
  0
VERTEX
  5
1D3
330
19B
100
AcDbEntity
  8
0
100
AcDbVertex
100
AcDb2dVertex
 10
16.35438661
 20
6.5481921447
 30
0.0
  0
VERTEX
  5
1D4
330
19B
100
AcDbEntity
  8
0
100
AcDbVertex
100
AcDb2dVertex
 10
16.26432773099999
 20
6.624343541
 30
0.0
  0
VERTEX
  5
1D5
330
19B
100
AcDbEntity
  8
0
100
AcDbVertex
100
AcDb2dVertex
 10
16.167375829
 20
6.697619992899999
 30
0.0
  0
VERTEX
  5
1D6
330
19B
100
AcDbEntity
  8
0
100
AcDbVertex
100
AcDb2dVertex
 10
16.0638057248
 20
6.767813790399999
 30
0.0
  0
VERTEX
  5
1D7
330
19B
100
AcDbEntity
  8
0
100
AcDbVertex
100
AcDb2dVertex
 10
15.9539109991
 20
6.8347259614
 30
0.0
  0
SEQEND
  5
1D8
330
19B
100
AcDbEntity
  8
0
  0
LINE
  5
1D9
330
A
100
AcDbEntity
  8
0
  6
Continuous
 62
     7
370
    15
100
AcDbLine
 10
9.722320357799999
 20
5.5336979944
 30
0.0
 11
11.71127031199999
 21
4.385501625899999
 31
0.0
  0
LINE
  5
1DA
330
A
100
AcDbEntity
  8
0
  6
Continuous
 62
     7
370
    15
100
AcDbLine
 10
5.866891547
 20
7.0921440846
 30
0.0
 11
9.722320357799999
 21
5.5336979944
 31
0.0
  0
POLYLINE
  5
1DB
330
A
100
AcDbEntity
  8
0
  6
Continuous
 62
     7
100
AcDb2dPolyline
 66
     1
 10
0.0
 20
0.0
 30
0.0
 70
   128
 40
0.0017716535
 41
0.0017716535
  0
VERTEX
  5
1DC
330
1DB
100
AcDbEntity
  8
0
100
AcDbVertex
100
AcDb2dVertex
 10
5.826832443599999
 20
7.356471224199999
 30
0.0
  0
VERTEX
  5
1DD
330
1DB
100
AcDbEntity
  8
0
100
AcDbVertex
100
AcDb2dVertex
 10
5.7932188646
 20
7.333345596
 30
0.0
  0
VERTEX
  5
1DE
330
1DB
100
AcDbEntity
  8
0
100
AcDbVertex
100
AcDb2dVertex
 10
5.767072141799999
 20
7.307201706299999
 30
0.0
  0
VERTEX
  5
1DF
330
1DB
100
AcDbEntity
  8
0
100
AcDbVertex
100
AcDb2dVertex
 10
5.749186729999999
 20
7.278833923799999
 30
0.0
  0
VERTEX
  5
1E0
330
1DB
100
AcDbEntity
  8
0
100
AcDbVertex
100
AcDb2dVertex
 10
5.7401060685
 20
7.249104189199999
 30
0.0
  0
VERTEX
  5
1E1
330
1DB
100
AcDbEntity
  8
0
100
AcDbVertex
100
AcDb2dVertex
 10
5.7401060685
 20
7.218915825599999
 30
0.0
  0
VERTEX
  5
1E2
330
1DB
100
AcDbEntity
  8
0
100
AcDbVertex
100
AcDb2dVertex
 10
5.749186729999999
 20
7.189186091099999
 30
0.0
  0
VERTEX
  5
1E3
330
1DB
100
AcDbEntity
  8
0
100
AcDbVertex
100
AcDb2dVertex
 10
5.767072141799999
 20
7.1608183086
 30
0.0
  0
VERTEX
  5
1E4
330
1DB
100
AcDbEntity
  8
0
100
AcDbVertex
100
AcDb2dVertex
 10
5.7932188646
 20
7.134674418799999
 30
0.0
  0
VERTEX
  5
1E5
330
1DB
100
AcDbEntity
  8
0
100
AcDbVertex
100
AcDb2dVertex
 10
5.826832443599999
 20
7.1115487907
 30
0.0
  0
VERTEX
  5
1E6
330
1DB
100
AcDbEntity
  8
0
100
AcDbVertex
100
AcDb2dVertex
 10
5.866891547
 20
7.0921440846
 30
0.0
  0
SEQEND
  5
1E7
330
1DB
100
AcDbEntity
  8
0
  0
LINE
  5
1E8
330
A
100
AcDbEntity
  8
0
  6
Continuous
 62
     7
370
    15
100
AcDbLine
 10
10.80748308089999
 20
10.2317396354
 30
0.0
 11
5.826832443599999
 21
7.356471224199999
 31
0.0
  0
POLYLINE
  5
1E9
330
A
100
AcDbEntity
  8
0
  6
Continuous
 62
     7
100
AcDb2dPolyline
 66
     1
 10
0.0
 20
0.0
 30
0.0
 70
   128
 40
0.0017716535
 41
0.0017716535
  0
VERTEX
  5
1EA
330
1E9
100
AcDbEntity
  8
0
100
AcDbVertex
100
AcDb2dVertex
 10
12.4537324322
 20
4.8141158847
 30
0.0
  0
VERTEX
  5
1EB
330
1E9
100
AcDbEntity
  8
0
100
AcDbVertex
100
AcDb2dVertex
 10
12.5468663161
 20
4.763759423199999
 30
0.0
  0
VERTEX
  5
1EC
330
1E9
100
AcDbEntity
  8
0
100
AcDbVertex
100
AcDb2dVertex
 10
12.6455058689
 20
4.717027181
 30
0.0
  0
VERTEX
  5
1ED
330
1E9
100
AcDbEntity
  8
0
100
AcDbVertex
100
AcDb2dVertex
 10
12.7492287011
 20
4.6741192729
 30
0.0
  0
VERTEX
  5
1EE
330
1E9
100
AcDbEntity
  8
0
100
AcDbVertex
100
AcDb2dVertex
 10
12.85759065549999
 20
4.635219436999999
 30
0.0
  0
VERTEX
  5
1EF
330
1E9
100
AcDbEntity
  8
0
100
AcDbVertex
100
AcDb2dVertex
 10
12.9701277096
 20
4.600494248299999
 30
0.0
  0
VERTEX
  5
1F0
330
1E9
100
AcDbEntity
  8
0
100
AcDbVertex
100
AcDb2dVertex
 10
13.08635796239999
 20
4.570092405599999
 30
0.0
  0
VERTEX
  5
1F1
330
1E9
100
AcDbEntity
  8
0
100
AcDbVertex
100
AcDb2dVertex
 10
13.20578369819999
 20
4.544144094199999
 30
0.0
  0
VERTEX
  5
1F2
330
1E9
100
AcDbEntity
  8
0
100
AcDbVertex
100
AcDb2dVertex
 10
13.3278935176
 20
4.522760428599999
 30
0.0
  0
VERTEX
  5
1F3
330
1E9
100
AcDbEntity
  8
0
100
AcDbVertex
100
AcDb2dVertex
 10
13.45216452759999
 20
4.506032977099999
 30
0.0
  0
VERTEX
  5
1F4
330
1E9
100
AcDbEntity
  8
0
100
AcDbVertex
100
AcDb2dVertex
 10
13.57806458069999
 20
4.4940333691
 30
0.0
  0
VERTEX
  5
1F5
330
1E9
100
AcDbEntity
  8
0
100
AcDbVertex
100
AcDb2dVertex
 10
13.7050545535
 20
4.486812988899999
 30
0.0
  0
VERTEX
  5
1F6
330
1E9
100
AcDbEntity
  8
0
100
AcDbVertex
100
AcDb2dVertex
 10
13.83259065549999
 20
4.484402755099999
 30
0.0
  0
VERTEX
  5
1F7
330
1E9
100
AcDbEntity
  8
0
100
AcDbVertex
100
AcDb2dVertex
 10
13.96012675749999
 20
4.486812988899999
 30
0.0
  0
VERTEX
  5
1F8
330
1E9
100
AcDbEntity
  8
0
100
AcDbVertex
100
AcDb2dVertex
 10
14.0871167303
 20
4.4940333691
 30
0.0
  0
VERTEX
  5
1F9
330
1E9
100
AcDbEntity
  8
0
100
AcDbVertex
100
AcDb2dVertex
 10
14.21301678339999
 20
4.506032977099999
 30
0.0
  0
VERTEX
  5
1FA
330
1E9
100
AcDbEntity
  8
0
100
AcDbVertex
100
AcDb2dVertex
 10
14.33728779349999
 20
4.522760428599999
 30
0.0
  0
VERTEX
  5
1FB
330
1E9
100
AcDbEntity
  8
0
100
AcDbVertex
100
AcDb2dVertex
 10
14.4593976129
 20
4.544144094199999
 30
0.0
  0
VERTEX
  5
1FC
330
1E9
100
AcDbEntity
  8
0
100
AcDbVertex
100
AcDb2dVertex
 10
14.57882334859999
 20
4.570092405599999
 30
0.0
  0
VERTEX
  5
1FD
330
1E9
100
AcDbEntity
  8
0
100
AcDbVertex
100
AcDb2dVertex
 10
14.6950536014
 20
4.600494248299999
 30
0.0
  0
VERTEX
  5
1FE
330
1E9
100
AcDbEntity
  8
0
100
AcDbVertex
100
AcDb2dVertex
 10
14.8075906555
 20
4.635219436999999
 30
0.0
  0
VERTEX
  5
1FF
330
1E9
100
AcDbEntity
  8
0
100
AcDbVertex
100
AcDb2dVertex
 10
14.9159526099
 20
4.6741192729
 30
0.0
  0
VERTEX
  5
200
330
1E9
100
AcDbEntity
  8
0
100
AcDbVertex
100
AcDb2dVertex
 10
15.0196754421
 20
4.717027181
 30
0.0
  0
VERTEX
  5
201
330
1E9
100
AcDbEntity
  8
0
100
AcDbVertex
100
AcDb2dVertex
 10
15.118314995
 20
4.763759423199999
 30
0.0
  0
VERTEX
  5
202
330
1E9
100
AcDbEntity
  8
0
100
AcDbVertex
100
AcDb2dVertex
 10
15.2114488788
 20
4.8141158847
 30
0.0
  0
VERTEX
  5
203
330
1E9
100
AcDbEntity
  8
0
100
AcDbVertex
100
AcDb2dVertex
 10
15.2986782801
 20
4.8678809314
 30
0.0
  0
VERTEX
  5
204
330
1E9
100
AcDbEntity
  8
0
100
AcDbVertex
100
AcDb2dVertex
 10
15.3796296691
 20
4.9248243332
 30
0.0
  0
VERTEX
  5
205
330
1E9
100
AcDbEntity
  8
0
100
AcDbVertex
100
AcDb2dVertex
 10
15.4539563995
 20
4.9847022497
 30
0.0
  0
VERTEX
  5
206
330
1E9
100
AcDbEntity
  8
0
100
AcDbVertex
100
AcDb2dVertex
 10
15.5213401929
 20
5.047258274399999
 30
0.0
  0
VERTEX
  5
207
330
1E9
100
AcDbEntity
  8
0
100
AcDbVertex
100
AcDb2dVertex
 10
15.5814925015
 20
5.1122245329
 30
0.0
  0
VERTEX
  5
208
330
1E9
100
AcDbEntity
  8
0
100
AcDbVertex
100
AcDb2dVertex
 10
15.6341557439
 20
5.179322829599999
 30
0.0
  0
VERTEX
  5
209
330
1E9
100
AcDbEntity
  8
0
100
AcDbVertex
100
AcDb2dVertex
 10
15.67910440799999
 20
5.2482658394
 30
0.0
  0
VERTEX
  5
20A
330
1E9
100
AcDbEntity
  8
0
100
AcDbVertex
100
AcDb2dVertex
 10
15.7161460168
 20
5.3187583376
 30
0.0
  0
VERTEX
  5
20B
330
1E9
100
AcDbEntity
  8
0
100
AcDbVertex
100
AcDb2dVertex
 10
15.7451219523
 20
5.3904984647
 30
0.0
  0
VERTEX
  5
20C
330
1E9
100
AcDbEntity
  8
0
100
AcDbVertex
100
AcDb2dVertex
 10
15.7659081352
 20
5.4631790183
 30
0.0
  0
VERTEX
  5
20D
330
1E9
100
AcDbEntity
  8
0
100
AcDbVertex
100
AcDb2dVertex
 10
15.7784155558
 20
5.536488769099999
 30
0.0
  0
VERTEX
  5
20E
330
1E9
100
AcDbEntity
  8
0
100
AcDbVertex
100
AcDb2dVertex
 10
15.7825906555
 20
5.6101137937
 30
0.0
  0
VERTEX
  5
20F
330
1E9
100
AcDbEntity
  8
0
100
AcDbVertex
100
AcDb2dVertex
 10
15.7784155558
 20
5.6837388182
 30
0.0
  0
VERTEX
  5
210
330
1E9
100
AcDbEntity
  8
0
100
AcDbVertex
100
AcDb2dVertex
 10
15.7659081352
 20
5.757048569099999
 30
0.0
  0
VERTEX
  5
211
330
1E9
100
AcDbEntity
  8
0
100
AcDbVertex
100
AcDb2dVertex
 10
15.7451219523
 20
5.829729122699999
 30
0.0
  0
VERTEX
  5
212
330
1E9
100
AcDbEntity
  8
0
100
AcDbVertex
100
AcDb2dVertex
 10
15.7161460168
 20
5.901469249699999
 30
0.0
  0
VERTEX
  5
213
330
1E9
100
AcDbEntity
  8
0
100
AcDbVertex
100
AcDb2dVertex
 10
15.67910440799999
 20
5.971961747999999
 30
0.0
  0
VERTEX
  5
214
330
1E9
100
AcDbEntity
  8
0
100
AcDbVertex
100
AcDb2dVertex
 10
15.6341557439
 20
6.040904757799999
 30
0.0
  0
VERTEX
  5
215
330
1E9
100
AcDbEntity
  8
0
100
AcDbVertex
100
AcDb2dVertex
 10
15.5814925015
 20
6.1080030545
 30
0.0
  0
VERTEX
  5
216
330
1E9
100
AcDbEntity
  8
0
100
AcDbVertex
100
AcDb2dVertex
 10
15.5213401929
 20
6.172969312999999
 30
0.0
  0
VERTEX
  5
217
330
1E9
100
AcDbEntity
  8
0
100
AcDbVertex
100
AcDb2dVertex
 10
15.4539563995
 20
6.235525337699999
 30
0.0
  0
VERTEX
  5
218
330
1E9
100
AcDbEntity
  8
0
100
AcDbVertex
100
AcDb2dVertex
 10
15.3796296691
 20
6.295403254199999
 30
0.0
  0
VERTEX
  5
219
330
1E9
100
AcDbEntity
  8
0
100
AcDbVertex
100
AcDb2dVertex
 10
15.2986782801
 20
6.352346655999999
 30
0.0
  0
VERTEX
  5
21A
330
1E9
100
AcDbEntity
  8
0
100
AcDbVertex
100
AcDb2dVertex
 10
15.2114488788
 20
6.406111702699999
 30
0.0
  0
VERTEX
  5
21B
330
1E9
100
AcDbEntity
  8
0
100
AcDbVertex
100
AcDb2dVertex
 10
15.118314995
 20
6.456468164199999
 30
0.0
  0
VERTEX
  5
21C
330
1E9
100
AcDbEntity
  8
0
100
AcDbVertex
100
AcDb2dVertex
 10
15.0196754421
 20
6.503200406299999
 30
0.0
  0
VERTEX
  5
21D
330
1E9
100
AcDbEntity
  8
0
100
AcDbVertex
100
AcDb2dVertex
 10
14.9159526099
 20
6.5461083145
 30
0.0
  0
VERTEX
  5
21E
330
1E9
100
AcDbEntity
  8
0
100
AcDbVertex
100
AcDb2dVertex
 10
14.8075906555
 20
6.585008150399999
 30
0.0
  0
VERTEX
  5
21F
330
1E9
100
AcDbEntity
  8
0
100
AcDbVertex
100
AcDb2dVertex
 10
14.6950536014
 20
6.619733338999999
 30
0.0
  0
VERTEX
  5
220
330
1E9
100
AcDbEntity
  8
0
100
AcDbVertex
100
AcDb2dVertex
 10
14.57882334859999
 20
6.650135181699999
 30
0.0
  0
VERTEX
  5
221
330
1E9
100
AcDbEntity
  8
0
100
AcDbVertex
100
AcDb2dVertex
 10
14.4593976129
 20
6.6760834932
 30
0.0
  0
VERTEX
  5
222
330
1E9
100
AcDbEntity
  8
0
100
AcDbVertex
100
AcDb2dVertex
 10
14.33728779349999
 20
6.6974671588
 30
0.0
  0
VERTEX
  5
223
330
1E9
100
AcDbEntity
  8
0
100
AcDbVertex
100
AcDb2dVertex
 10
14.21301678339999
 20
6.714194610299999
 30
0.0
  0
VERTEX
  5
224
330
1E9
100
AcDbEntity
  8
0
100
AcDbVertex
100
AcDb2dVertex
 10
14.0871167303
 20
6.7261942183
 30
0.0
  0
VERTEX
  5
225
330
1E9
100
AcDbEntity
  8
0
100
AcDbVertex
100
AcDb2dVertex
 10
13.96012675749999
 20
6.7334145985
 30
0.0
  0
VERTEX
  5
226
330
1E9
100
AcDbEntity
  8
0
100
AcDbVertex
100
AcDb2dVertex
 10
13.83259065549999
 20
6.7358248322
 30
0.0
  0
VERTEX
  5
227
330
1E9
100
AcDbEntity
  8
0
100
AcDbVertex
100
AcDb2dVertex
 10
13.7050545535
 20
6.7334145985
 30
0.0
  0
VERTEX
  5
228
330
1E9
100
AcDbEntity
  8
0
100
AcDbVertex
100
AcDb2dVertex
 10
13.57806458069999
 20
6.7261942183
 30
0.0
  0
VERTEX
  5
229
330
1E9
100
AcDbEntity
  8
0
100
AcDbVertex
100
AcDb2dVertex
 10
13.45216452759999
 20
6.714194610299999
 30
0.0
  0
VERTEX
  5
22A
330
1E9
100
AcDbEntity
  8
0
100
AcDbVertex
100
AcDb2dVertex
 10
13.3278935176
 20
6.6974671588
 30
0.0
  0
VERTEX
  5
22B
330
1E9
100
AcDbEntity
  8
0
100
AcDbVertex
100
AcDb2dVertex
 10
13.20578369819999
 20
6.6760834932
 30
0.0
  0
VERTEX
  5
22C
330
1E9
100
AcDbEntity
  8
0
100
AcDbVertex
100
AcDb2dVertex
 10
13.08635796239999
 20
6.650135181699999
 30
0.0
  0
VERTEX
  5
22D
330
1E9
100
AcDbEntity
  8
0
100
AcDbVertex
100
AcDb2dVertex
 10
12.9701277096
 20
6.619733338999999
 30
0.0
  0
VERTEX
  5
22E
330
1E9
100
AcDbEntity
  8
0
100
AcDbVertex
100
AcDb2dVertex
 10
12.85759065549999
 20
6.585008150399999
 30
0.0
  0
VERTEX
  5
22F
330
1E9
100
AcDbEntity
  8
0
100
AcDbVertex
100
AcDb2dVertex
 10
12.7492287011
 20
6.5461083145
 30
0.0
  0
VERTEX
  5
230
330
1E9
100
AcDbEntity
  8
0
100
AcDbVertex
100
AcDb2dVertex
 10
12.6455058689
 20
6.503200406299999
 30
0.0
  0
VERTEX
  5
231
330
1E9
100
AcDbEntity
  8
0
100
AcDbVertex
100
AcDb2dVertex
 10
12.5468663161
 20
6.456468164199999
 30
0.0
  0
VERTEX
  5
232
330
1E9
100
AcDbEntity
  8
0
100
AcDbVertex
100
AcDb2dVertex
 10
12.4537324322
 20
6.406111702699999
 30
0.0
  0
VERTEX
  5
233
330
1E9
100
AcDbEntity
  8
0
100
AcDbVertex
100
AcDb2dVertex
 10
12.3665030309
 20
6.352346655999999
 30
0.0
  0
VERTEX
  5
234
330
1E9
100
AcDbEntity
  8
0
100
AcDbVertex
100
AcDb2dVertex
 10
12.2855516419
 20
6.295403254199999
 30
0.0
  0
VERTEX
  5
235
330
1E9
100
AcDbEntity
  8
0
100
AcDbVertex
100
AcDb2dVertex
 10
12.2112249115
 20
6.235525337699999
 30
0.0
  0
VERTEX
  5
236
330
1E9
100
AcDbEntity
  8
0
100
AcDbVertex
100
AcDb2dVertex
 10
12.1438411181
 20
6.172969312999999
 30
0.0
  0
VERTEX
  5
237
330
1E9
100
AcDbEntity
  8
0
100
AcDbVertex
100
AcDb2dVertex
 10
12.0836888095
 20
6.1080030545
 30
0.0
  0
VERTEX
  5
238
330
1E9
100
AcDbEntity
  8
0
100
AcDbVertex
100
AcDb2dVertex
 10
12.0310255671
 20
6.040904757799999
 30
0.0
  0
VERTEX
  5
239
330
1E9
100
AcDbEntity
  8
0
100
AcDbVertex
100
AcDb2dVertex
 10
11.986076903
 20
5.971961747999999
 30
0.0
  0
VERTEX
  5
23A
330
1E9
100
AcDbEntity
  8
0
100
AcDbVertex
100
AcDb2dVertex
 10
11.9490352943
 20
5.901469249699999
 30
0.0
  0
VERTEX
  5
23B
330
1E9
100
AcDbEntity
  8
0
100
AcDbVertex
100
AcDb2dVertex
 10
11.92005935869999
 20
5.829729122699999
 30
0.0
  0
VERTEX
  5
23C
330
1E9
100
AcDbEntity
  8
0
100
AcDbVertex
100
AcDb2dVertex
 10
11.8992731758
 20
5.757048569099999
 30
0.0
  0
VERTEX
  5
23D
330
1E9
100
AcDbEntity
  8
0
100
AcDbVertex
100
AcDb2dVertex
 10
11.88676575519999
 20
5.6837388182
 30
0.0
  0
VERTEX
  5
23E
330
1E9
100
AcDbEntity
  8
0
100
AcDbVertex
100
AcDb2dVertex
 10
11.8825906555
 20
5.6101137937
 30
0.0
  0
VERTEX
  5
23F
330
1E9
100
AcDbEntity
  8
0
100
AcDbVertex
100
AcDb2dVertex
 10
11.88676575519999
 20
5.536488769099999
 30
0.0
  0
VERTEX
  5
240
330
1E9
100
AcDbEntity
  8
0
100
AcDbVertex
100
AcDb2dVertex
 10
11.8992731758
 20
5.4631790183
 30
0.0
  0
VERTEX
  5
241
330
1E9
100
AcDbEntity
  8
0
100
AcDbVertex
100
AcDb2dVertex
 10
11.92005935869999
 20
5.3904984647
 30
0.0
  0
VERTEX
  5
242
330
1E9
100
AcDbEntity
  8
0
100
AcDbVertex
100
AcDb2dVertex
 10
11.9490352943
 20
5.3187583376
 30
0.0
  0
VERTEX
  5
243
330
1E9
100
AcDbEntity
  8
0
100
AcDbVertex
100
AcDb2dVertex
 10
11.986076903
 20
5.2482658394
 30
0.0
  0
VERTEX
  5
244
330
1E9
100
AcDbEntity
  8
0
100
AcDbVertex
100
AcDb2dVertex
 10
12.0310255671
 20
5.179322829599999
 30
0.0
  0
VERTEX
  5
245
330
1E9
100
AcDbEntity
  8
0
100
AcDbVertex
100
AcDb2dVertex
 10
12.0836888095
 20
5.1122245329
 30
0.0
  0
VERTEX
  5
246
330
1E9
100
AcDbEntity
  8
0
100
AcDbVertex
100
AcDb2dVertex
 10
12.1438411181
 20
5.047258274399999
 30
0.0
  0
VERTEX
  5
247
330
1E9
100
AcDbEntity
  8
0
100
AcDbVertex
100
AcDb2dVertex
 10
12.2112249115
 20
4.9847022497
 30
0.0
  0
VERTEX
  5
248
330
1E9
100
AcDbEntity
  8
0
100
AcDbVertex
100
AcDb2dVertex
 10
12.2855516419
 20
4.9248243332
 30
0.0
  0
VERTEX
  5
249
330
1E9
100
AcDbEntity
  8
0
100
AcDbVertex
100
AcDb2dVertex
 10
12.3665030309
 20
4.8678809314
 30
0.0
  0
VERTEX
  5
24A
330
1E9
100
AcDbEntity
  8
0
100
AcDbVertex
100
AcDb2dVertex
 10
12.4537324322
 20
4.8141158847
 30
0.0
  0
SEQEND
  5
24B
330
1E9
100
AcDbEntity
  8
0
  0
POLYLINE
  5
24C
330
A
100
AcDbEntity
  8
0
  6
Continuous
 62
     7
100
AcDb2dPolyline
 66
     1
 10
0.0
 20
0.0
 30
0.0
 70
   128
 40
0.0017716535
 41
0.0017716535
  0
VERTEX
  5
24D
330
24C
100
AcDbEntity
  8
0
100
AcDbVertex
100
AcDb2dVertex
 10
8.6440532272
 20
8.329854957
 30
0.0
  0
VERTEX
  5
24E
330
24C
100
AcDbEntity
  8
0
100
AcDbVertex
100
AcDb2dVertex
 10
8.6843242432
 20
8.309999321099999
 30
0.0
  0
VERTEX
  5
24F
330
24C
100
AcDbEntity
  8
0
100
AcDbVertex
100
AcDb2dVertex
 10
8.7294799722
 20
8.2940249236
 30
0.0
  0
VERTEX
  5
250
330
24C
100
AcDbEntity
  8
0
100
AcDbVertex
100
AcDb2dVertex
 10
8.7784085303
 20
8.2823251072
 30
0.0
  0
VERTEX
  5
251
330
24C
100
AcDbEntity
  8
0
100
AcDbVertex
100
AcDb2dVertex
 10
8.8299051339
 20
8.2751879603
 30
0.0
  0
VERTEX
  5
252
330
24C
100
AcDbEntity
  8
0
100
AcDbVertex
100
AcDb2dVertex
 10
8.8827017659
 20
8.272789223
 30
0.0
  0
VERTEX
  5
253
330
24C
100
AcDbEntity
  8
0
100
AcDbVertex
100
AcDb2dVertex
 10
8.935498397799999
 20
8.2751879603
 30
0.0
  0
VERTEX
  5
254
330
24C
100
AcDbEntity
  8
0
100
AcDbVertex
100
AcDb2dVertex
 10
8.9869950015
 20
8.2823251072
 30
0.0
  0
VERTEX
  5
255
330
24C
100
AcDbEntity
  8
0
100
AcDbVertex
100
AcDb2dVertex
 10
9.0359235595
 20
8.2940249236
 30
0.0
  0
VERTEX
  5
256
330
24C
100
AcDbEntity
  8
0
100
AcDbVertex
100
AcDb2dVertex
 10
9.081079288499999
 20
8.309999321099999
 30
0.0
  0
VERTEX
  5
257
330
24C
100
AcDbEntity
  8
0
100
AcDbVertex
100
AcDb2dVertex
 10
9.121350304499999
 20
8.329854957
 30
0.0
  0
VERTEX
  5
258
330
24C
100
AcDbEntity
  8
0
100
AcDbVertex
100
AcDb2dVertex
 10
9.155745001499999
 20
8.353102919699999
 30
0.0
  0
VERTEX
  5
259
330
24C
100
AcDbEntity
  8
0
100
AcDbVertex
100
AcDb2dVertex
 10
9.183416467799998
 20
8.379170767199999
 30
0.0
  0
VERTEX
  5
25A
330
24C
100
AcDbEntity
  8
0
100
AcDbVertex
100
AcDb2dVertex
 10
9.203683340099999
 20
8.407416622499999
 30
0.0
  0
VERTEX
  5
25B
330
24C
100
AcDbEntity
  8
0
100
AcDbVertex
100
AcDb2dVertex
 10
9.2160465808
 20
8.437144978999999
 30
0.0
  0
VERTEX
  5
25C
330
24C
100
AcDbEntity
  8
0
100
AcDbVertex
100
AcDb2dVertex
 10
9.2202017659
 20
8.4676238259
 30
0.0
  0
VERTEX
  5
25D
330
24C
100
AcDbEntity
  8
0
100
AcDbVertex
100
AcDb2dVertex
 10
9.2160465808
 20
8.498102672699999
 30
0.0
  0
VERTEX
  5
25E
330
24C
100
AcDbEntity
  8
0
100
AcDbVertex
100
AcDb2dVertex
 10
9.203683340099999
 20
8.527831029199999
 30
0.0
  0
VERTEX
  5
25F
330
24C
100
AcDbEntity
  8
0
100
AcDbVertex
100
AcDb2dVertex
 10
9.183416467799998
 20
8.556076884600001
 30
0.0
  0
VERTEX
  5
260
330
24C
100
AcDbEntity
  8
0
100
AcDbVertex
100
AcDb2dVertex
 10
9.155745001499999
 20
8.582144731999999
 30
0.0
  0
VERTEX
  5
261
330
24C
100
AcDbEntity
  8
0
100
AcDbVertex
100
AcDb2dVertex
 10
9.121350304499999
 20
8.6053926947
 30
0.0
  0
VERTEX
  5
262
330
24C
100
AcDbEntity
  8
0
100
AcDbVertex
100
AcDb2dVertex
 10
9.081079288499999
 20
8.625248330699999
 30
0.0
  0
VERTEX
  5
263
330
24C
100
AcDbEntity
  8
0
100
AcDbVertex
100
AcDb2dVertex
 10
9.0359235595
 20
8.641222728099998
 30
0.0
  0
VERTEX
  5
264
330
24C
100
AcDbEntity
  8
0
100
AcDbVertex
100
AcDb2dVertex
 10
8.9869950015
 20
8.6529225445
 30
0.0
  0
VERTEX
  5
265
330
24C
100
AcDbEntity
  8
0
100
AcDbVertex
100
AcDb2dVertex
 10
8.935498397799999
 20
8.660059691399998
 30
0.0
  0
VERTEX
  5
266
330
24C
100
AcDbEntity
  8
0
100
AcDbVertex
100
AcDb2dVertex
 10
8.8827017659
 20
8.6624584287
 30
0.0
  0
VERTEX
  5
267
330
24C
100
AcDbEntity
  8
0
100
AcDbVertex
100
AcDb2dVertex
 10
8.8299051339
 20
8.660059691399998
 30
0.0
  0
VERTEX
  5
268
330
24C
100
AcDbEntity
  8
0
100
AcDbVertex
100
AcDb2dVertex
 10
8.7784085303
 20
8.6529225445
 30
0.0
  0
VERTEX
  5
269
330
24C
100
AcDbEntity
  8
0
100
AcDbVertex
100
AcDb2dVertex
 10
8.7294799722
 20
8.641222728099998
 30
0.0
  0
VERTEX
  5
26A
330
24C
100
AcDbEntity
  8
0
100
AcDbVertex
100
AcDb2dVertex
 10
8.6843242432
 20
8.625248330699999
 30
0.0
  0
VERTEX
  5
26B
330
24C
100
AcDbEntity
  8
0
100
AcDbVertex
100
AcDb2dVertex
 10
8.6440532272
 20
8.6053926947
 30
0.0
  0
VERTEX
  5
26C
330
24C
100
AcDbEntity
  8
0
100
AcDbVertex
100
AcDb2dVertex
 10
8.609658530299999
 20
8.582144731999999
 30
0.0
  0
VERTEX
  5
26D
330
24C
100
AcDbEntity
  8
0
100
AcDbVertex
100
AcDb2dVertex
 10
8.581987063899999
 20
8.556076884600001
 30
0.0
  0
VERTEX
  5
26E
330
24C
100
AcDbEntity
  8
0
100
AcDbVertex
100
AcDb2dVertex
 10
8.561720191599999
 20
8.527831029199999
 30
0.0
  0
VERTEX
  5
26F
330
24C
100
AcDbEntity
  8
0
100
AcDbVertex
100
AcDb2dVertex
 10
8.5493569509
 20
8.498102672699999
 30
0.0
  0
VERTEX
  5
270
330
24C
100
AcDbEntity
  8
0
100
AcDbVertex
100
AcDb2dVertex
 10
8.545201765899999
 20
8.4676238259
 30
0.0
  0
VERTEX
  5
271
330
24C
100
AcDbEntity
  8
0
100
AcDbVertex
100
AcDb2dVertex
 10
8.5493569509
 20
8.437144978999999
 30
0.0
  0
VERTEX
  5
272
330
24C
100
AcDbEntity
  8
0
100
AcDbVertex
100
AcDb2dVertex
 10
8.561720191599999
 20
8.407416622499999
 30
0.0
  0
VERTEX
  5
273
330
24C
100
AcDbEntity
  8
0
100
AcDbVertex
100
AcDb2dVertex
 10
8.581987063899999
 20
8.379170767199999
 30
0.0
  0
VERTEX
  5
274
330
24C
100
AcDbEntity
  8
0
100
AcDbVertex
100
AcDb2dVertex
 10
8.609658530299999
 20
8.353102919699999
 30
0.0
  0
VERTEX
  5
275
330
24C
100
AcDbEntity
  8
0
100
AcDbVertex
100
AcDb2dVertex
 10
8.6440532272
 20
8.329854957
 30
0.0
  0
SEQEND
  5
276
330
24C
100
AcDbEntity
  8
0
  0
LINE
  5
277
330
A
100
AcDbEntity
  8
0
  6
Continuous
 62
     7
370
    15
100
AcDbLine
 10
11.71127031199999
 20
4.0180582606
 30
0.0
 11
11.71127031199999
 21
4.385501625899999
 31
0.0
  0
POLYLINE
  5
278
330
A
100
AcDbEntity
  8
0
  6
Continuous
 62
     7
100
AcDb2dPolyline
 66
     1
 10
0.0
 20
0.0
 30
0.0
 70
   128
 40
0.0017716535
 41
0.0017716535
  0
VERTEX
  5
279
330
278
100
AcDbEntity
  8
0
100
AcDbVertex
100
AcDb2dVertex
 10
11.71127031199999
 20
4.0180582606
 30
0.0
  0
VERTEX
  5
27A
330
278
100
AcDbEntity
  8
0
100
AcDbVertex
100
AcDb2dVertex
 10
11.82717815069999
 20
3.954617385799999
 30
0.0
  0
VERTEX
  5
27B
330
278
100
AcDbEntity
  8
0
100
AcDbVertex
100
AcDb2dVertex
 10
11.948770549
 20
3.8948276373
 30
0.0
  0
VERTEX
  5
27C
330
278
100
AcDbEntity
  8
0
100
AcDbVertex
100
AcDb2dVertex
 10
12.07570284009999
 20
3.838858495699999
 30
0.0
  0
VERTEX
  5
27D
330
278
100
AcDbEntity
  8
0
100
AcDbVertex
100
AcDb2dVertex
 10
12.2076152206
 20
3.786868611399999
 30
0.0
  0
VERTEX
  5
27E
330
278
100
AcDbEntity
  8
0
100
AcDbVertex
100
AcDb2dVertex
 10
12.3441337705
 20
3.739005355599999
 30
0.0
  0
VERTEX
  5
27F
330
278
100
AcDbEntity
  8
0
100
AcDbVertex
100
AcDb2dVertex
 10
12.48487151319999
 20
3.695404401799999
 30
0.0
  0
VERTEX
  5
280
330
278
100
AcDbEntity
  8
0
100
AcDbVertex
100
AcDb2dVertex
 10
12.6294295122
 20
3.6561893417
 30
0.0
  0
VERTEX
  5
281
330
278
100
AcDbEntity
  8
0
100
AcDbVertex
100
AcDb2dVertex
 10
12.77739800219999
 20
3.621471334599999
 30
0.0
  0
VERTEX
  5
282
330
278
100
AcDbEntity
  8
0
100
AcDbVertex
100
AcDb2dVertex
 10
12.9283575504
 20
3.5913487924
 30
0.0
  0
VERTEX
  5
283
330
278
100
AcDbEntity
  8
0
100
AcDbVertex
100
AcDb2dVertex
 10
13.08188024559999
 20
3.565907100899999
 30
0.0
  0
VERTEX
  5
284
330
278
100
AcDbEntity
  8
0
100
AcDbVertex
100
AcDb2dVertex
 10
13.23753091099999
 20
3.545218377099999
 30
0.0
  0
VERTEX
  5
285
330
278
100
AcDbEntity
  8
0
100
AcDbVertex
100
AcDb2dVertex
 10
13.3948683379
 20
3.529341265599999
 30
0.0
  0
VERTEX
  5
286
330
278
100
AcDbEntity
  8
0
100
AcDbVertex
100
AcDb2dVertex
 10
13.5534465362
 20
3.5183207718
 30
0.0
  0
VERTEX
  5
287
330
278
100
AcDbEntity
  8
0
100
AcDbVertex
100
AcDb2dVertex
 10
13.7128159989
 20
3.5121881344
 30
0.0
  0
VERTEX
  5
288
330
278
100
AcDbEntity
  8
0
100
AcDbVertex
100
AcDb2dVertex
 10
13.8725249759
 20
3.5109607371
 30
0.0
  0
VERTEX
  5
289
330
278
100
AcDbEntity
  8
0
100
AcDbVertex
100
AcDb2dVertex
 10
14.0321207547
 20
3.5146420591
 30
0.0
  0
VERTEX
  5
28A
330
278
100
AcDbEntity
  8
0
100
AcDbVertex
100
AcDb2dVertex
 10
14.1911509438
 20
3.523221665199999
 30
0.0
  0
VERTEX
  5
28B
330
278
100
AcDbEntity
  8
0
100
AcDbVertex
100
AcDb2dVertex
 10
14.3491647547
 20
3.536675235699999
 30
0.0
  0
VERTEX
  5
28C
330
278
100
AcDbEntity
  8
0
100
AcDbVertex
100
AcDb2dVertex
 10
14.50571428029999
 20
3.5549646348
 30
0.0
  0
VERTEX
  5
28D
330
278
100
AcDbEntity
  8
0
100
AcDbVertex
100
AcDb2dVertex
 10
14.6603557638
 20
3.5780380194
 30
0.0
  0
VERTEX
  5
28E
330
278
100
AcDbEntity
  8
0
100
AcDbVertex
100
AcDb2dVertex
 10
14.8126508572
 20
3.6058299855
 30
0.0
  0
VERTEX
  5
28F
330
278
100
AcDbEntity
  8
0
100
AcDbVertex
100
AcDb2dVertex
 10
14.96216786339999
 20
3.6382617536
 30
0.0
  0
VERTEX
  5
290
330
278
100
AcDbEntity
  8
0
100
AcDbVertex
100
AcDb2dVertex
 10
15.10848296039999
 20
3.6752413924
 30
0.0
  0
VERTEX
  5
291
330
278
100
AcDbEntity
  8
0
100
AcDbVertex
100
AcDb2dVertex
 10
15.251181402
 20
3.7166640791
 30
0.0
  0
VERTEX
  5
292
330
278
100
AcDbEntity
  8
0
100
AcDbVertex
100
AcDb2dVertex
 10
15.3898586939
 20
3.762412396499999
 30
0.0
  0
VERTEX
  5
293
330
278
100
AcDbEntity
  8
0
100
AcDbVertex
100
AcDb2dVertex
 10
15.5241217405
 20
3.812356666299999
 30
0.0
  0
VERTEX
  5
294
330
278
100
AcDbEntity
  8
0
100
AcDbVertex
100
AcDb2dVertex
 10
15.6535899584
 20
3.866355315699999
 30
0.0
  0
VERTEX
  5
295
330
278
100
AcDbEntity
  8
0
100
AcDbVertex
100
AcDb2dVertex
 10
15.7778963559
 20
3.9242552799
 30
0.0
  0
VERTEX
  5
296
330
278
100
AcDbEntity
  8
0
100
AcDbVertex
100
AcDb2dVertex
 10
15.89668857309999
 20
3.985892435099999
 30
0.0
  0
VERTEX
  5
297
330
278
100
AcDbEntity
  8
0
100
AcDbVertex
100
AcDb2dVertex
 10
16.0096298804
 20
4.051092063999999
 30
0.0
  0
VERTEX
  5
298
330
278
100
AcDbEntity
  8
0
100
AcDbVertex
100
AcDb2dVertex
 10
16.11640013359999
 20
4.119669351299999
 30
0.0
  0
VERTEX
  5
299
330
278
100
AcDbEntity
  8
0
100
AcDbVertex
100
AcDb2dVertex
 10
16.2166966806
 20
4.191429907099999
 30
0.0
  0
VERTEX
  5
29A
330
278
100
AcDbEntity
  8
0
100
AcDbVertex
100
AcDb2dVertex
 10
16.3102352201
 20
4.266170318399999
 30
0.0
  0
VERTEX
  5
29B
330
278
100
AcDbEntity
  8
0
100
AcDbVertex
100
AcDb2dVertex
 10
16.3967506069
 20
4.343678725299999
 30
0.0
  0
VERTEX
  5
29C
330
278
100
AcDbEntity
  8
0
100
AcDbVertex
100
AcDb2dVertex
 10
16.4759976038
 20
4.4237354219
 30
0.0
  0
VERTEX
  5
29D
330
278
100
AcDbEntity
  8
0
100
AcDbVertex
100
AcDb2dVertex
 10
16.5477515764
 20
4.506113478799999
 30
0.0
  0
VERTEX
  5
29E
330
278
100
AcDbEntity
  8
0
100
AcDbVertex
100
AcDb2dVertex
 10
16.6118091304
 20
4.590579386299999
 30
0.0
  0
VERTEX
  5
29F
330
278
100
AcDbEntity
  8
0
100
AcDbVertex
100
AcDb2dVertex
 10
16.66798868769999
 20
4.6768937168
 30
0.0
  0
VERTEX
  5
2A0
330
278
100
AcDbEntity
  8
0
100
AcDbVertex
100
AcDb2dVertex
 10
16.7161310013
 20
4.764811802799999
 30
0.0
  0
VERTEX
  5
2A1
330
278
100
AcDbEntity
  8
0
100
AcDbVertex
100
AcDb2dVertex
 10
16.7560996064
 20
4.854084431
 30
0.0
  0
VERTEX
  5
2A2
330
278
100
AcDbEntity
  8
0
100
AcDbVertex
100
AcDb2dVertex
 10
16.7877812077
 20
4.9444585485
 30
0.0
  0
VERTEX
  5
2A3
330
278
100
AcDbEntity
  8
0
100
AcDbVertex
100
AcDb2dVertex
 10
16.81108600039999
 20
5.035677979899999
 30
0.0
  0
VERTEX
  5
2A4
330
278
100
AcDbEntity
  8
0
100
AcDbVertex
100
AcDb2dVertex
 10
16.82594792449999
 20
5.1274841539
 30
0.0
  0
VERTEX
  5
2A5
330
278
100
AcDbEntity
  8
0
100
AcDbVertex
100
AcDb2dVertex
 10
16.8323248521
 20
5.2196168359
 30
0.0
  0
VERTEX
  5
2A6
330
278
100
AcDbEntity
  8
0
100
AcDbVertex
100
AcDb2dVertex
 10
16.83259065549999
 20
5.242670428299999
 30
0.0
  0
SEQEND
  5
2A7
330
278
100
AcDbEntity
  8
0
  0
POLYLINE
  5
2A8
330
A
100
AcDbEntity
  8
0
  6
Continuous
 62
     7
100
AcDb2dPolyline
 66
     1
 10
0.0
 20
0.0
 30
0.0
 70
   128
 40
0.0017716535
 41
0.0017716535
  0
VERTEX
  5
2A9
330
2A8
100
AcDbEntity
  8
0
100
AcDbVertex
100
AcDb2dVertex
 10
15.7564454013
 20
5.426392111
 30
0.0
  0
VERTEX
  5
2AA
330
2A8
100
AcDbEntity
  8
0
100
AcDbVertex
100
AcDb2dVertex
 10
15.7451219523
 20
5.4622857573
 30
0.0
  0
VERTEX
  5
2AB
330
2A8
100
AcDbEntity
  8
0
100
AcDbVertex
100
AcDb2dVertex
 10
15.7161460168
 20
5.5340258844
 30
0.0
  0
VERTEX
  5
2AC
330
2A8
100
AcDbEntity
  8
0
100
AcDbVertex
100
AcDb2dVertex
 10
15.67910440799999
 20
5.6045183827
 30
0.0
  0
VERTEX
  5
2AD
330
2A8
100
AcDbEntity
  8
0
100
AcDbVertex
100
AcDb2dVertex
 10
15.6341557439
 20
5.6734613924
 30
0.0
  0
VERTEX
  5
2AE
330
2A8
100
AcDbEntity
  8
0
100
AcDbVertex
100
AcDb2dVertex
 10
15.5814925015
 20
5.740559689099999
 30
0.0
  0
VERTEX
  5
2AF
330
2A8
100
AcDbEntity
  8
0
100
AcDbVertex
100
AcDb2dVertex
 10
15.5213401929
 20
5.805525947599999
 30
0.0
  0
VERTEX
  5
2B0
330
2A8
100
AcDbEntity
  8
0
100
AcDbVertex
100
AcDb2dVertex
 10
15.4539563995
 20
5.8680819723
 30
0.0
  0
VERTEX
  5
2B1
330
2A8
100
AcDbEntity
  8
0
100
AcDbVertex
100
AcDb2dVertex
 10
15.3796296691
 20
5.9279598888
 30
0.0
  0
VERTEX
  5
2B2
330
2A8
100
AcDbEntity
  8
0
100
AcDbVertex
100
AcDb2dVertex
 10
15.2986782801
 20
5.984903290599999
 30
0.0
  0
VERTEX
  5
2B3
330
2A8
100
AcDbEntity
  8
0
100
AcDbVertex
100
AcDb2dVertex
 10
15.2114488788
 20
6.038668337399999
 30
0.0
  0
VERTEX
  5
2B4
330
2A8
100
AcDbEntity
  8
0
100
AcDbVertex
100
AcDb2dVertex
 10
15.118314995
 20
6.089024798799999
 30
0.0
  0
VERTEX
  5
2B5
330
2A8
100
AcDbEntity
  8
0
100
AcDbVertex
100
AcDb2dVertex
 10
15.0196754421
 20
6.135757041
 30
0.0
  0
VERTEX
  5
2B6
330
2A8
100
AcDbEntity
  8
0
100
AcDbVertex
100
AcDb2dVertex
 10
14.9159526099
 20
6.178664949099999
 30
0.0
  0
VERTEX
  5
2B7
330
2A8
100
AcDbEntity
  8
0
100
AcDbVertex
100
AcDb2dVertex
 10
14.8075906555
 20
6.217564785099999
 30
0.0
  0
VERTEX
  5
2B8
330
2A8
100
AcDbEntity
  8
0
100
AcDbVertex
100
AcDb2dVertex
 10
14.6950536014
 20
6.252289973699999
 30
0.0
  0
VERTEX
  5
2B9
330
2A8
100
AcDbEntity
  8
0
100
AcDbVertex
100
AcDb2dVertex
 10
14.57882334859999
 20
6.282691816399999
 30
0.0
  0
VERTEX
  5
2BA
330
2A8
100
AcDbEntity
  8
0
100
AcDbVertex
100
AcDb2dVertex
 10
14.4593976129
 20
6.308640127899999
 30
0.0
  0
VERTEX
  5
2BB
330
2A8
100
AcDbEntity
  8
0
100
AcDbVertex
100
AcDb2dVertex
 10
14.33728779349999
 20
6.3300237934
 30
0.0
  0
VERTEX
  5
2BC
330
2A8
100
AcDbEntity
  8
0
100
AcDbVertex
100
AcDb2dVertex
 10
14.21301678339999
 20
6.3467512449
 30
0.0
  0
VERTEX
  5
2BD
330
2A8
100
AcDbEntity
  8
0
100
AcDbVertex
100
AcDb2dVertex
 10
14.0871167303
 20
6.358750852899999
 30
0.0
  0
VERTEX
  5
2BE
330
2A8
100
AcDbEntity
  8
0
100
AcDbVertex
100
AcDb2dVertex
 10
13.96012675749999
 20
6.3659712332
 30
0.0
  0
VERTEX
  5
2BF
330
2A8
100
AcDbEntity
  8
0
100
AcDbVertex
100
AcDb2dVertex
 10
13.83259065549999
 20
6.3683814669
 30
0.0
  0
VERTEX
  5
2C0
330
2A8
100
AcDbEntity
  8
0
100
AcDbVertex
100
AcDb2dVertex
 10
13.7050545535
 20
6.3659712332
 30
0.0
  0
VERTEX
  5
2C1
330
2A8
100
AcDbEntity
  8
0
100
AcDbVertex
100
AcDb2dVertex
 10
13.57806458069999
 20
6.358750852899999
 30
0.0
  0
VERTEX
  5
2C2
330
2A8
100
AcDbEntity
  8
0
100
AcDbVertex
100
AcDb2dVertex
 10
13.45216452759999
 20
6.3467512449
 30
0.0
  0
VERTEX
  5
2C3
330
2A8
100
AcDbEntity
  8
0
100
AcDbVertex
100
AcDb2dVertex
 10
13.3278935176
 20
6.3300237934
 30
0.0
  0
VERTEX
  5
2C4
330
2A8
100
AcDbEntity
  8
0
100
AcDbVertex
100
AcDb2dVertex
 10
13.20578369819999
 20
6.308640127899999
 30
0.0
  0
VERTEX
  5
2C5
330
2A8
100
AcDbEntity
  8
0
100
AcDbVertex
100
AcDb2dVertex
 10
13.08635796239999
 20
6.282691816399999
 30
0.0
  0
VERTEX
  5
2C6
330
2A8
100
AcDbEntity
  8
0
100
AcDbVertex
100
AcDb2dVertex
 10
12.9701277096
 20
6.252289973699999
 30
0.0
  0
VERTEX
  5
2C7
330
2A8
100
AcDbEntity
  8
0
100
AcDbVertex
100
AcDb2dVertex
 10
12.85759065549999
 20
6.217564785099999
 30
0.0
  0
VERTEX
  5
2C8
330
2A8
100
AcDbEntity
  8
0
100
AcDbVertex
100
AcDb2dVertex
 10
12.7492287011
 20
6.178664949099999
 30
0.0
  0
VERTEX
  5
2C9
330
2A8
100
AcDbEntity
  8
0
100
AcDbVertex
100
AcDb2dVertex
 10
12.6455058689
 20
6.135757041
 30
0.0
  0
VERTEX
  5
2CA
330
2A8
100
AcDbEntity
  8
0
100
AcDbVertex
100
AcDb2dVertex
 10
12.5468663161
 20
6.089024798799999
 30
0.0
  0
VERTEX
  5
2CB
330
2A8
100
AcDbEntity
  8
0
100
AcDbVertex
100
AcDb2dVertex
 10
12.4537324322
 20
6.038668337399999
 30
0.0
  0
VERTEX
  5
2CC
330
2A8
100
AcDbEntity
  8
0
100
AcDbVertex
100
AcDb2dVertex
 10
12.3665030309
 20
5.984903290599999
 30
0.0
  0
VERTEX
  5
2CD
330
2A8
100
AcDbEntity
  8
0
100
AcDbVertex
100
AcDb2dVertex
 10
12.2855516419
 20
5.9279598888
 30
0.0
  0
VERTEX
  5
2CE
330
2A8
100
AcDbEntity
  8
0
100
AcDbVertex
100
AcDb2dVertex
 10
12.2112249115
 20
5.8680819723
 30
0.0
  0
VERTEX
  5
2CF
330
2A8
100
AcDbEntity
  8
0
100
AcDbVertex
100
AcDb2dVertex
 10
12.1438411181
 20
5.805525947599999
 30
0.0
  0
VERTEX
  5
2D0
330
2A8
100
AcDbEntity
  8
0
100
AcDbVertex
100
AcDb2dVertex
 10
12.0836888095
 20
5.740559689099999
 30
0.0
  0
VERTEX
  5
2D1
330
2A8
100
AcDbEntity
  8
0
100
AcDbVertex
100
AcDb2dVertex
 10
12.0310255671
 20
5.6734613924
 30
0.0
  0
VERTEX
  5
2D2
330
2A8
100
AcDbEntity
  8
0
100
AcDbVertex
100
AcDb2dVertex
 10
11.986076903
 20
5.6045183827
 30
0.0
  0
VERTEX
  5
2D3
330
2A8
100
AcDbEntity
  8
0
100
AcDbVertex
100
AcDb2dVertex
 10
11.9490352943
 20
5.5340258844
 30
0.0
  0
VERTEX
  5
2D4
330
2A8
100
AcDbEntity
  8
0
100
AcDbVertex
100
AcDb2dVertex
 10
11.92005935869999
 20
5.4622857573
 30
0.0
  0
VERTEX
  5
2D5
330
2A8
100
AcDbEntity
  8
0
100
AcDbVertex
100
AcDb2dVertex
 10
11.9087359098
 20
5.426392111
 30
0.0
  0
SEQEND
  5
2D6
330
2A8
100
AcDbEntity
  8
0
  0
LINE
  5
2D7
330
A
100
AcDbEntity
  8
0
  6
Continuous
 62
     7
370
    15
100
AcDbLine
 10
9.722320357799999
 20
5.166254629099999
 30
0.0
 11
9.722320357799999
 21
5.5336979944
 31
0.0
  0
LINE
  5
2D8
330
A
100
AcDbEntity
  8
0
  6
Continuous
 62
     7
370
    15
100
AcDbLine
 10
9.722320357799999
 20
5.166254629099999
 30
0.0
 11
11.71127031199999
 21
4.0180582606
 31
0.0
  0
LINE
  5
2D9
330
A
100
AcDbEntity
  8
0
  6
Continuous
 62
     7
370
    15
100
AcDbLine
 10
5.866891547
 20
7.0921440846
 30
0.0
 11
5.866891547
 21
6.724700719199999
 31
0.0
  0
LINE
  5
2DA
330
A
100
AcDbEntity
  8
0
  6
Continuous
 62
     7
370
    15
100
AcDbLine
 10
5.866891547
 20
6.724700719199999
 30
0.0
 11
9.722320357799999
 21
5.166254629099999
 31
0.0
  0
POLYLINE
  5
2DB
330
A
100
AcDbEntity
  8
0
  6
Continuous
 62
     7
100
AcDb2dPolyline
 66
     1
 10
0.0
 20
0.0
 30
0.0
 70
   128
 40
0.0017716535
 41
0.0017716535
  0
VERTEX
  5
2DC
330
2DB
100
AcDbEntity
  8
0
100
AcDbVertex
100
AcDb2dVertex
 10
5.866891547
 20
6.724700719199999
 30
0.0
  0
VERTEX
  5
2DD
330
2DB
100
AcDbEntity
  8
0
100
AcDbVertex
100
AcDb2dVertex
 10
5.826832443599999
 20
6.744105425299999
 30
0.0
  0
VERTEX
  5
2DE
330
2DB
100
AcDbEntity
  8
0
100
AcDbVertex
100
AcDb2dVertex
 10
5.7932188646
 20
6.7672310535
 30
0.0
  0
VERTEX
  5
2DF
330
2DB
100
AcDbEntity
  8
0
100
AcDbVertex
100
AcDb2dVertex
 10
5.767072141799999
 20
6.7933749433
 30
0.0
  0
VERTEX
  5
2E0
330
2DB
100
AcDbEntity
  8
0
100
AcDbVertex
100
AcDb2dVertex
 10
5.749186729999999
 20
6.8217427258
 30
0.0
  0
VERTEX
  5
2E1
330
2DB
100
AcDbEntity
  8
0
100
AcDbVertex
100
AcDb2dVertex
 10
5.7401060685
 20
6.8514724603
 30
0.0
  0
VERTEX
  5
2E2
330
2DB
100
AcDbEntity
  8
0
100
AcDbVertex
100
AcDb2dVertex
 10
5.738964477899999
 20
6.8665666421
 30
0.0
  0
SEQEND
  5
2E3
330
2DB
100
AcDbEntity
  8
0
  0
POLYLINE
  5
2E4
330
A
100
AcDbEntity
  8
0
  6
Continuous
 62
     7
100
AcDb2dPolyline
 66
     1
 10
0.0
 20
0.0
 30
0.0
 70
   128
 40
0.0017716535
 41
0.0017716535
  0
VERTEX
  5
2E5
330
2E4
100
AcDbEntity
  8
0
100
AcDbVertex
100
AcDb2dVertex
 10
8.995055371499999
 20
8.2839021432
 30
0.0
  0
VERTEX
  5
2E6
330
2E4
100
AcDbEntity
  8
0
100
AcDbVertex
100
AcDb2dVertex
 10
8.9869950015
 20
8.285479179099999
 30
0.0
  0
VERTEX
  5
2E7
330
2E4
100
AcDbEntity
  8
0
100
AcDbVertex
100
AcDb2dVertex
 10
8.935498397799999
 20
8.2926163261
 30
0.0
  0
VERTEX
  5
2E8
330
2E4
100
AcDbEntity
  8
0
100
AcDbVertex
100
AcDb2dVertex
 10
8.8827017659
 20
8.295015063400001
 30
0.0
  0
VERTEX
  5
2E9
330
2E4
100
AcDbEntity
  8
0
100
AcDbVertex
100
AcDb2dVertex
 10
8.8299051339
 20
8.2926163261
 30
0.0
  0
VERTEX
  5
2EA
330
2E4
100
AcDbEntity
  8
0
100
AcDbVertex
100
AcDb2dVertex
 10
8.7784085303
 20
8.285479179099999
 30
0.0
  0
VERTEX
  5
2EB
330
2E4
100
AcDbEntity
  8
0
100
AcDbVertex
100
AcDb2dVertex
 10
8.770348160199999
 20
8.2839021432
 30
0.0
  0
SEQEND
  5
2EC
330
2E4
100
AcDbEntity
  8
0
  0
LEADER
  5
2ED
330
A
100
AcDbEntity
  8
0
 62
     1
100
AcDbLeader
  3
SLDDIMSTYLE5
 73
     0
 76
     3
 10
16.83259065549999
 20
5.6101137937
 30
0.0
 10
18.71060790079999
 20
7.234709717
 30
0.0
 10
19.46060790079999
 20
7.234709717
 30
0.0
340
2EF
213
0.0
223
-0.2251595814251681
233
0.0
  0
MTEXT
  5
2EF
102
{ACAD_REACTORS
330
2ED
102
}
330
A
100
AcDbEntity
  8
0
 62
     1
100
AcDbMText
 10
19.5199393662
 20
7.4598692984
 30
0.0
 40
0.3
 41
0.0
 71
     1
 72
     1
  1
RADIUS EXPOSED EDGES AND HOLE EDGE 1/32 TO 1/16 BOTH SIDE\PEXCEPT BACK EGDES HIDDEN INSIDE LEG1 1/8"1 1/8"
  7
SLDTEXTSTYLE0
 73
     1
 44
1.0
  0
ENDSEC
  0
SECTION
  2
OBJECTS
  0
DICTIONARY
  5
19
330
0
100
AcDbDictionary
281
     1
  3
ACAD_GROUP
350
1A
  3
ACAD_LAYOUT
350
1E
  3
ACAD_MLINESTYLE
350
1B
  3
ACAD_PLOTSETTINGS
350
22
  3
ACAD_PLOTSTYLENAME
350
1F
  3
ACAD_WIPEOUT_VARS
350
23
  0
DICTIONARY
  5
1A
102
{ACAD_REACTORS
330
19
102
}
330
19
100
AcDbDictionary
281
     1
  0
DICTIONARY
  5
1E
102
{ACAD_REACTORS
330
19
102
}
330
19
100
AcDbDictionary
281
     1
  3
Layout1
350
21
  3
Model
350
20
  0
DICTIONARY
  5
1B
102
{ACAD_REACTORS
330
19
102
}
330
19
100
AcDbDictionary
281
     1
  3
Standard
350
1C
  0
DICTIONARY
  5
22
102
{ACAD_REACTORS
330
19
102
}
330
19
100
AcDbDictionary
281
     1
  0
ACDBDICTIONARYWDFLT
  5
1F
102
{ACAD_REACTORS
330
19
102
}
330
19
100
AcDbDictionary
281
     1
  3
Normal
350
1D
100
AcDbDictionaryWithDefault
340
1D
  0
WIPEOUTVARIABLES
  5
23
330
19
100
AcDbWipeoutVariables
 70
     1
  0
LAYOUT
  5
21
102
{ACAD_REACTORS
330
1E
102
}
330
1E
100
AcDbPlotSettings
  1

  2

  4

  6

 40
0.0
 41
0.0
 42
0.0
 43
0.0
 44
0.0
 45
0.0
 46
0.0
 47
0.0
 48
0.0
 49
0.0
140
0.0
141
0.0
142
1.0
143
1.0
 70
     0
 72
     0
 73
     0
 74
     0
  7

 75
     0
147
1.0
148
0.0
149
0.0
100
AcDbLayout
  1
Layout1
 70
     1
 71
     1
 10
0.0
 20
0.0
 11
12.0
 21
9.0
 12
0.0
 22
0.0
 32
0.0
 14
1.000000000000000E+20
 24
1.000000000000000E+20
 34
1.000000000000000E+20
 15
-1.000000000000000E+20
 25
-1.000000000000000E+20
 35
-1.000000000000000E+20
146
0.0
 13
0.0
 23
0.0
 33
0.0
 16
1.0
 26
0.0
 36
0.0
 17
0.0
 27
1.0
 37
0.0
 76
     0
330
B
  0
LAYOUT
  5
20
102
{ACAD_REACTORS
330
1E
102
}
330
1E
100
AcDbPlotSettings
  1

  2

  4

  6

 40
0.0
 41
0.0
 42
0.0
 43
0.0
 44
0.0
 45
0.0
 46
0.0
 47
0.0
 48
0.0
 49
0.0
140
0.0
141
0.0
142
1.0
143
1.0
 70
  1024
 72
     0
 73
     0
 74
     0
  7

 75
     0
147
1.0
148
0.0
149
0.0
100
AcDbLayout
  1
Model
 70
     0
 71
     0
 10
0.0
 20
0.0
 11
0.0
 21
0.0
 12
0.0
 22
0.0
 32
0.0
 14
0.0
 24
0.0
 34
0.0
 15
0.0
 25
0.0
 35
0.0
146
0.0
 13
0.0
 23
0.0
 33
0.0
 16
0.0
 26
0.0
 36
0.0
 17
0.0
 27
0.0
 37
0.0
 76
     0
330
A
  0
MLINESTYLE
  5
1C
102
{ACAD_REACTORS
330
1B
102
}
330
1B
100
AcDbMlineStyle
  2
STANDARD
 70
     0
  3

 62
     0
 51
90.0
 52
90.0
 71
     2
 49
0.5
 62
   256
  6
BYLAYER
 49
-0.5
 62
   256
  6
BYLAYER
  0
ACDBPLACEHOLDER
  5
1D
102
{ACAD_REACTORS
330
1F
102
}
330
1F
  0
ENDSEC
  0
EOF
