  0
SECTION
  2
HEADER
  9
$ACADVER
  1
AC1015
  9
$ACADMAINTVER
 70
    10
  9
$DWGCODEPAGE
  3
ANSI_1252
  9
$INSBASE
 10
0.0
 20
0.0
 30
0.0
  9
$EXTMIN
 10
3.204808887937499
 20
-1.483354911066666
 30
0.0
  9
$EXTMAX
 10
134.0821606362999
 20
86.46951697049999
 30
0.0
  9
$LIMMIN
 10
0.0
 20
0.0
  9
$LIMMAX
 10
0.0
 20
0.0
  9
$ORTHOMODE
 70
     0
  9
$REGENMODE
 70
     1
  9
$FILLMODE
 70
     1
  9
$QTEXTMODE
 70
     0
  9
$MIRRTEXT
 70
     1
  9
$LTSCALE
 40
1.0
  9
$ATTMODE
 70
     1
  9
$TEXTSIZE
 40
0.0
  9
$TRACEWID
 40
0.05
  9
$TEXTSTYLE
  7
Standard
  9
$CLAYER
  8
0
  9
$CELTYPE
  6
Continuous
  9
$CECOLOR
 62
   256
  9
$CELTSCALE
 40
1.0
  9
$DISPSILH
 70
     0
  9
$DIMSCALE
 40
1.0
  9
$DIMASZ
 40
0.0
  9
$DIMEXO
 40
0.0
  9
$DIMDLI
 40
0.38
  9
$DIMRND
 40
0.0
  9
$DIMDLE
 40
0.0
  9
$DIMEXE
 40
0.18
  9
$DIMTP
 40
0.0
  9
$DIMTM
 40
0.0
  9
$DIMTXT
 40
0.8
  9
$DIMCEN
 40
0.09
  9
$DIMTSZ
 40
0.0
  9
$DIMTOL
 70
     0
  9
$DIMLIM
 70
     0
  9
$DIMTIH
 70
     1
  9
$DIMTOH
 70
     1
  9
$DIMSE1
 70
     0
  9
$DIMSE2
 70
     0
  9
$DIMTAD
 70
     0
  9
$DIMZIN
 70
     0
  9
$DIMBLK
  1

  9
$DIMASO
 70
     1
  9
$DIMSHO
 70
     1
  9
$DIMPOST
  1

  9
$DIMAPOST
  1

  9
$DIMALT
 70
     0
  9
$DIMALTD
 70
     2
  9
$DIMALTF
 40
25.4
  9
$DIMLFAC
 40
1.0
  9
$DIMTOFL
 70
     0
  9
$DIMTVP
 40
0.0
  9
$DIMTIX
 70
     0
  9
$DIMSOXD
 70
     0
  9
$DIMSAH
 70
     0
  9
$DIMBLK1
  1

  9
$DIMBLK2
  1

  9
$DIMSTYLE
  2
Standard
  9
$DIMCLRD
 70
     0
  9
$DIMCLRE
 70
     0
  9
$DIMCLRT
 70
     0
  9
$DIMTFAC
 40
1.0
  9
$DIMGAP
 40
0.0
  9
$DIMJUST
 70
     0
  9
$DIMSD1
 70
     0
  9
$DIMSD2
 70
     0
  9
$DIMTOLJ
 70
     1
  9
$DIMTZIN
 70
     0
  9
$DIMALTZ
 70
     0
  9
$DIMALTTZ
 70
     0
  9
$DIMUPT
 70
     0
  9
$DIMDEC
 70
     4
  9
$DIMTDEC
 70
     4
  9
$DIMALTU
 70
     2
  9
$DIMALTTD
 70
     2
  9
$DIMTXSTY
  7
Standard
  9
$DIMAUNIT
 70
     0
  9
$DIMADEC
 70
     0
  9
$DIMALTRND
 40
0.0
  9
$DIMAZIN
 70
     0
  9
$DIMDSEP
 70
     0
  9
$DIMATFIT
 70
     3
  9
$DIMFRAC
 70
     0
  9
$DIMLDRBLK
  1

  9
$DIMLUNIT
 70
     2
  9
$DIMLWD
 70
     0
  9
$DIMLWE
 70
     0
  9
$DIMTMOVE
 70
     0
  9
$LUNITS
 70
     2
  9
$LUPREC
 70
     3
  9
$SKETCHINC
 40
0.1
  9
$FILLETRAD
 40
0.0
  9
$AUNITS
 70
     0
  9
$AUPREC
 70
     2
  9
$MENU
  1
acad
  9
$ELEVATION
 40
0.0
  9
$PELEVATION
 40
0.0
  9
$THICKNESS
 40
0.0
  9
$LIMCHECK
 70
     0
  9
$CHAMFERA
 40
0.0
  9
$CHAMFERB
 40
0.0
  9
$CHAMFERC
 40
0.0
  9
$CHAMFERD
 40
0.0
  9
$SKPOLY
 70
     0
  9
$TDCREATE
 40
2453398.555929896
  9
$TDUCREATE
 40
2453398.889263229
  9
$TDUPDATE
 40
2453398.557003935
  9
$TDUUPDATE
 40
2453398.890337268
  9
$TDINDWG
 40
0.0010798148
  9
$TDUSRTIMER
 40
0.0010798148
  9
$USRTIMER
 70
     1
  9
$ANGBASE
 50
0.0
  9
$ANGDIR
 70
     0
  9
$PDMODE
 70
     0
  9
$PDSIZE
 40
-1.0
  9
$PLINEWID
 40
0.0
  9
$SPLFRAME
 70
     0
  9
$SPLINETYPE
 70
     6
  9
$SPLINESEGS
 70
     8
  9
$HANDSEED
  5
26A
  9
$SURFTAB1
 70
     6
  9
$SURFTAB2
 70
     6
  9
$SURFTYPE
 70
     6
  9
$SURFU
 70
     6
  9
$SURFV
 70
     6
  9
$UCSBASE
  2

  9
$UCSNAME
  2

  9
$UCSORG
 10
0.0
 20
0.0
 30
0.0
  9
$UCSXDIR
 10
1.0
 20
0.0
 30
0.0
  9
$UCSYDIR
 10
0.0
 20
1.0
 30
0.0
  9
$UCSORTHOREF
  2

  9
$UCSORTHOVIEW
 70
     0
  9
$UCSORGTOP
 10
0.0
 20
0.0
 30
0.0
  9
$UCSORGBOTTOM
 10
0.0
 20
0.0
 30
0.0
  9
$UCSORGLEFT
 10
0.0
 20
0.0
 30
0.0
  9
$UCSORGRIGHT
 10
0.0
 20
0.0
 30
0.0
  9
$UCSORGFRONT
 10
0.0
 20
0.0
 30
0.0
  9
$UCSORGBACK
 10
0.0
 20
0.0
 30
0.0
  9
$PUCSBASE
  2

  9
$PUCSNAME
  2

  9
$PUCSORG
 10
0.0
 20
0.0
 30
0.0
  9
$PUCSXDIR
 10
1.0
 20
0.0
 30
0.0
  9
$PUCSYDIR
 10
0.0
 20
1.0
 30
0.0
  9
$PUCSORTHOREF
  2

  9
$PUCSORTHOVIEW
 70
     0
  9
$PUCSORGTOP
 10
0.0
 20
0.0
 30
0.0
  9
$PUCSORGBOTTOM
 10
0.0
 20
0.0
 30
0.0
  9
$PUCSORGLEFT
 10
0.0
 20
0.0
 30
0.0
  9
$PUCSORGRIGHT
 10
0.0
 20
0.0
 30
0.0
  9
$PUCSORGFRONT
 10
0.0
 20
0.0
 30
0.0
  9
$PUCSORGBACK
 10
0.0
 20
0.0
 30
0.0
  9
$USERI1
 70
     0
  9
$USERI2
 70
     0
  9
$USERI3
 70
     0
  9
$USERI4
 70
     0
  9
$USERI5
 70
     0
  9
$USERR1
 40
0.0
  9
$USERR2
 40
0.0
  9
$USERR3
 40
0.0
  9
$USERR4
 40
0.0
  9
$USERR5
 40
0.0
  9
$WORLDVIEW
 70
     1
  9
$SHADEDGE
 70
     3
  9
$SHADEDIF
 70
    70
  9
$TILEMODE
 70
     1
  9
$MAXACTVP
 70
    16
  9
$PINSBASE
 10
0.0
 20
0.0
 30
0.0
  9
$PLIMCHECK
 70
     0
  9
$PEXTMIN
 10
1.000000000000000E+20
 20
1.000000000000000E+20
 30
1.000000000000000E+20
  9
$PEXTMAX
 10
-1.000000000000000E+20
 20
-1.000000000000000E+20
 30
-1.000000000000000E+20
  9
$PLIMMIN
 10
0.0
 20
0.0
  9
$PLIMMAX
 10
12.0
 20
9.0
  9
$UNITMODE
 70
     0
  9
$VISRETAIN
 70
     0
  9
$PLINEGEN
 70
     1
  9
$PSLTSCALE
 70
     1
  9
$TREEDEPTH
 70
  3020
  9
$CMLSTYLE
  2
Standard
  9
$CMLJUST
 70
     0
  9
$CMLSCALE
 40
1.0
  9
$PROXYGRAPHICS
 70
     0
  9
$MEASUREMENT
 70
     0
  9
$CELWEIGHT
370
     0
  9
$ENDCAPS
280
     0
  9
$JOINSTYLE
280
     0
  9
$LWDISPLAY
290
     1
  9
$INSUNITS
 70
     0
  9
$HYPERLINKBASE
  1

  9
$STYLESHEET
  1

  9
$XEDIT
290
     1
  9
$CEPSNTYPE
380
     0
  9
$PSTYLEMODE
290
     1
  9
$FINGERPRINTGUID
  2

  9
$VERSIONGUID
  2
{B88F0484-5035-49BE-A7E5-B638FE0E8B14}
  9
$EXTNAMES
290
     1
  9
$PSVPSCALE
 40
0.0
  9
$OLESTARTUP
290
     0
  0
ENDSEC
  0
SECTION
  2
CLASSES
  0
CLASS
  1
LWPOLYLINE
  2
AcDbPolyline
  3
AutoCAD 2000
 90
    32768
280
     0
281
     1
  0
CLASS
  1
IMAGE
  2
AcDbRasterImage
  3
ISM
 90
    32895
280
     0
281
     1
  0
CLASS
  1
OLE2FRAME
  2
AcDbOle2Frame
  3
AutoCAD 2000
 90
    32768
280
     0
281
     1
  0
CLASS
  1
HATCH
  2
AcDbHatch
  3
AutoCAD 2000
 90
    32768
280
     0
281
     1
  0
CLASS
  1
DICTIONARYVAR
  2
AcDbDictionaryVar
  3
AutoCAD 2000
 90
    32768
280
     0
281
     0
  0
CLASS
  1
RASTERVARIABLES
  2
AcDbRasterVariables
  3
ISM
 90
    32768
280
     0
281
     0
  0
CLASS
  1
IMAGEDEF
  2
AcDbRasterImageDef
  3
ISM
 90
    32768
280
     0
281
     0
  0
CLASS
  1
IMAGEDEF_REACTOR
  2
AcDbRasterImageDefReactor
  3
ISM
 90
    32769
280
     0
281
     0
  0
CLASS
  1
IDBUFFER
  2
AcDbIdBuffer
  3
AutoCAD 2000
 90
    32768
280
     0
281
     0
  0
CLASS
  1
SPATIAL_FILTER
  2
AcDbSpatialFilter
  3
AutoCAD 2000
 90
    32768
280
     0
281
     0
  0
CLASS
  1
XRECORD
  2
AcDbXrecord
  3
AutoCAD 2000
 90
    32768
280
     0
281
     0
  0
CLASS
  1
SORTENTSTABLE
  2
AcDbSortentsTable
  3
AutoCAD 2000
 90
    32768
280
     0
281
     0
  0
CLASS
  1
LAYER_INDEX
  2
AcDbLayerIndex
  3
AutoCAD 2000
 90
    32768
280
     0
281
     0
  0
CLASS
  1
SPATIAL_INDEX
  2
AcDbSpatialIndex
  3
AutoCAD 2000
 90
    32768
280
     0
281
     0
  0
CLASS
  1
OBJECT_PTR
  2
CAseDLPNTableRecord
  3
"ASE-LPNTableRecord"
 90
    32769
280
     0
281
     0
  0
CLASS
  1
LAYOUT
  2
AcDbLayout
  3
AutoCAD 2000
 90
        0
280
     0
281
     0
  0
CLASS
  1
PLOTSETTINGS
  2
AcDbPlotSettings
  3
AutoCAD 2000
 90
    32768
280
     0
281
     0
  0
CLASS
  1
ACDBDICTIONARYWDFLT
  2
AcDbDictionaryWithDefault
  3
AutoCAD 2000
 90
        0
280
     0
281
     0
  0
CLASS
  1
ACDBPLACEHOLDER
  2
AcDbPlaceHolder
  3
AutoCAD 2000
 90
        0
280
     0
281
     0
  0
CLASS
  1
VBA_PROJECT
  2
AcDbVbaProject
  3
acadvba
 90
    32768
280
     0
281
     0
  0
CLASS
  1
WIPEOUT
  2
AcDbWipeout
  3
WipeOut|AutoCAD Express Tool|expresstools@autodesk.com
 90
    32895
280
     0
281
     1
  0
CLASS
  1
WIPEOUTVARIABLES
  2
AcDbWipeoutVariables
  3
WipeOut|AutoCAD Express Tool|expresstools@autodesk.com
 90
        0
280
     0
281
     0
  0
CLASS
  1
RTEXT
  2
RText
  3
RText|AutoCAD Express Tool|expresstools@autodesk.com
 90
    32768
280
     0
281
     1
  0
CLASS
  1
ARCALIGNEDTEXT
  2
AcDbArcAlignedText
  3
ATEXT|AutoCAD Express Tool|expresstools@autodesk.com
 90
    32768
280
     0
281
     1
  0
ENDSEC
  0
SECTION
  2
TABLES
  0
TABLE
  2
VPORT
  5
7
330
0
100
AcDbSymbolTable
 70
     5
  0
VPORT
  5
269
330
7
100
AcDbSymbolTableRecord
100
AcDbViewportTableRecord
  2
*Active
 70
     0
 10
0.0
 20
0.0
 11
1.0
 21
1.0
 12
69.88941811692104
 22
37.84000110135529
 13
0.0
 23
0.0
 14
1.0
 24
1.0
 15
0.0
 25
0.0
 16
0.0
 26
0.0
 36
1.0
 17
0.0
 27
0.0
 37
0.0
 40
87.99999997502542
 41
1.5
 42
50.0
 43
0.0
 44
0.0
 50
0.0
 51
0.0
 71
     0
 72
  2000
 73
     1
 74
     1
 75
     0
 76
     0
 77
     0
 78
     0
281
     0
 65
     0
110
0.0
120
0.0
130
0.0
111
1.0
121
0.0
131
0.0
112
0.0
122
1.0
132
0.0
 79
     0
146
0.0
  0
ENDTAB
  0
TABLE
  2
LTYPE
  5
4
330
0
100
AcDbSymbolTable
 70
     6
  0
LTYPE
  5
11
330
4
100
AcDbSymbolTableRecord
100
AcDbLinetypeTableRecord
  2
ByBlock
 70
     0
  3

 72
    65
 73
     0
 40
0.0
  0
LTYPE
  5
12
330
4
100
AcDbSymbolTableRecord
100
AcDbLinetypeTableRecord
  2
ByLayer
 70
     0
  3

 72
    65
 73
     0
 40
0.0
  0
LTYPE
  5
13
330
4
100
AcDbSymbolTableRecord
100
AcDbLinetypeTableRecord
  2
Continuous
 70
     0
  3
Solid line
 72
    65
 73
     0
 40
0.0
  0
LTYPE
  5
24
330
4
100
AcDbSymbolTableRecord
100
AcDbLinetypeTableRecord
  2
HIDDEN
 70
     0
  3
Hidden __ __ __ __ __ __ __ __ __ __ __ __ __ __
 72
    65
 73
     2
 40
0.075
 49
0.05
 74
     0
 49
-0.025
 74
     0
  0
LTYPE
  5
25
330
4
100
AcDbSymbolTableRecord
100
AcDbLinetypeTableRecord
  2
PHANTOM
 70
     0
  3
Phantom ______  __  __  ______  __  __  ______
 72
    65
 73
     6
 40
0.5
 49
0.25
 74
     0
 49
-0.05
 74
     0
 49
0.05
 74
     0
 49
-0.05
 74
     0
 49
0.05
 74
     0
 49
-0.05
 74
     0
  0
LTYPE
  5
26
330
4
100
AcDbSymbolTableRecord
100
AcDbLinetypeTableRecord
  2
CENTER
 70
     0
  3
Center ____ _ ____ _ ____ _ ____ _ ____ _ ____
 72
    65
 73
     4
 40
0.4
 49
0.25
 74
     0
 49
-0.05
 74
     0
 49
0.05
 74
     0
 49
-0.05
 74
     0
  0
LTYPE
  5
27
330
4
100
AcDbSymbolTableRecord
100
AcDbLinetypeTableRecord
  2
CENTERX2
 70
     0
  3
Center (2x) ________  __  ________  __  _____
 72
    65
 73
     4
 40
0.8
 49
0.5
 74
     0
 49
-0.1
 74
     0
 49
0.1
 74
     0
 49
-0.1
 74
     0
  0
LTYPE
  5
28
330
4
100
AcDbSymbolTableRecord
100
AcDbLinetypeTableRecord
  2
DOT2
 70
     0
  3
Dot (.5x) ........................................
 72
    65
 73
     2
 40
0.025
 49
0.0
 74
     0
 49
-0.025
 74
     0
  0
ENDTAB
  0
TABLE
  2
LAYER
  5
2
330
0
100
AcDbSymbolTable
 70
     1
  0
LAYER
  5
14
330
2
100
AcDbSymbolTableRecord
100
AcDbLayerTableRecord
  2
0
 70
     0
 62
     7
  6
Continuous
370
    -3
390
1D
  0
ENDTAB
  0
TABLE
  2
STYLE
  5
3
330
0
100
AcDbSymbolTable
 70
     2
  0
STYLE
  5
17
330
3
100
AcDbSymbolTableRecord
100
AcDbTextStyleTableRecord
  2
Standard
 70
     0
 40
0.0
 41
1.0
 50
0.0
 71
     0
 42
0.0
  3
txt
  4

  0
STYLE
  5
75
330
3
100
AcDbSymbolTableRecord
100
AcDbTextStyleTableRecord
  2
SLDTEXTSTYLE0
 70
     0
 40
0.0
 41
0.75
 50
0.0
 71
     0
 42
0.0
  3
txt
  4

  0
ENDTAB
  0
TABLE
  2
VIEW
  5
5
330
0
100
AcDbSymbolTable
 70
     0
  0
ENDTAB
  0
TABLE
  2
UCS
  5
6
330
0
100
AcDbSymbolTable
 70
     0
  0
ENDTAB
  0
TABLE
  2
APPID
  5
8
330
0
100
AcDbSymbolTable
 70
     1
  0
APPID
  5
16
330
8
100
AcDbSymbolTableRecord
100
AcDbRegAppTableRecord
  2
ACAD
 70
     0
  0
ENDTAB
  0
TABLE
  2
DIMSTYLE
  5
9
330
0
100
AcDbSymbolTable
 70
     6
100
AcDbDimStyleTable
 71
     1
340
18
  0
DIMSTYLE
105
18
330
9
100
AcDbSymbolTableRecord
100
AcDbDimStyleTableRecord
  2
Standard
 70
     0
340
17
  0
DIMSTYLE
105
D6
102
{ACAD_REACTORS
330
DA
330
E7
330
113
330
120
330
12F
330
13E
330
14B
330
158
330
1B7
330
1C4
330
1D1
102
}
330
9
100
AcDbSymbolTableRecord
100
AcDbDimStyleTableRecord
  2
SLDDIMSTYLE0
 70
     0
 41
1.5
 44
0.9599999999999999
 78
    12
140
0.8
147
0.2
173
     1
176
     1
177
     1
178
     1
271
     3
284
    12
340
17
  0
DIMSTYLE
105
F0
102
{ACAD_REACTORS
330
F6
330
104
102
}
330
9
100
AcDbSymbolTableRecord
100
AcDbDimStyleTableRecord
  2
SLDDIMSTYLE1
 70
     0
 41
1.5
 44
0.9599999999999999
 78
    12
140
0.8
147
0.2
173
     1
176
     1
177
     1
178
     1
271
     0
284
    12
340
17
  0
DIMSTYLE
105
162
102
{ACAD_REACTORS
330
166
330
173
330
180
330
18D
330
19A
330
1DE
102
}
330
9
100
AcDbSymbolTableRecord
100
AcDbDimStyleTableRecord
  2
SLDDIMSTYLE2
 70
     0
 41
1.5
 44
0.9599999999999999
 78
     4
140
0.8
147
0.2
173
     1
176
     1
177
     1
178
     1
271
     3
284
    12
340
17
  0
DIMSTYLE
105
1A5
102
{ACAD_REACTORS
330
1A9
102
}
330
9
100
AcDbSymbolTableRecord
100
AcDbDimStyleTableRecord
  2
SLDDIMSTYLE3
 70
     0
 41
1.5
 44
0.9599999999999999
 78
    12
140
0.8
147
0.2
172
     1
173
     1
176
     1
177
     1
178
     1
271
     3
284
    12
340
17
  0
DIMSTYLE
105
25D
102
{ACAD_REACTORS
330
261
102
}
330
9
100
AcDbSymbolTableRecord
100
AcDbDimStyleTableRecord
  2
SLDDIMSTYLE4
 70
     0
 41
1.5
 44
0.9599999999999999
 78
    12
140
0.8
144
1.25
147
0.2
173
     1
176
     1
177
     1
178
     1
271
     3
284
    12
340
17
  0
ENDTAB
  0
TABLE
  2
BLOCK_RECORD
  5
1
330
0
100
AcDbSymbolTable
 70
    22
  0
BLOCK_RECORD
  5
A
330
1
100
AcDbSymbolTableRecord
100
AcDbBlockTableRecord
  2
*MODEL_SPACE
340
20
  0
BLOCK_RECORD
  5
B
330
1
100
AcDbSymbolTableRecord
100
AcDbBlockTableRecord
  2
*PAPER_SPACE
340
21
  0
BLOCK_RECORD
  5
A8
330
1
100
AcDbSymbolTableRecord
100
AcDbBlockTableRecord
  2
NOTE50
340
0
102
{BLKREFS
331
AE
102
}
  0
BLOCK_RECORD
  5
CD
330
1
100
AcDbSymbolTableRecord
100
AcDbBlockTableRecord
  2
*D1
340
0
  0
BLOCK_RECORD
  5
DB
330
1
100
AcDbSymbolTableRecord
100
AcDbBlockTableRecord
  2
*D2
340
0
  0
BLOCK_RECORD
  5
E8
330
1
100
AcDbSymbolTableRecord
100
AcDbBlockTableRecord
  2
*D3
340
0
  0
BLOCK_RECORD
  5
F7
330
1
100
AcDbSymbolTableRecord
100
AcDbBlockTableRecord
  2
*D4
340
0
  0
BLOCK_RECORD
  5
105
330
1
100
AcDbSymbolTableRecord
100
AcDbBlockTableRecord
  2
*D5
340
0
  0
BLOCK_RECORD
  5
114
330
1
100
AcDbSymbolTableRecord
100
AcDbBlockTableRecord
  2
*D6
340
0
  0
BLOCK_RECORD
  5
121
330
1
100
AcDbSymbolTableRecord
100
AcDbBlockTableRecord
  2
*D7
340
0
  0
BLOCK_RECORD
  5
130
330
1
100
AcDbSymbolTableRecord
100
AcDbBlockTableRecord
  2
*D8
340
0
  0
BLOCK_RECORD
  5
13F
330
1
100
AcDbSymbolTableRecord
100
AcDbBlockTableRecord
  2
*D9
340
0
  0
BLOCK_RECORD
  5
14C
330
1
100
AcDbSymbolTableRecord
100
AcDbBlockTableRecord
  2
*D10
340
0
  0
BLOCK_RECORD
  5
159
330
1
100
AcDbSymbolTableRecord
100
AcDbBlockTableRecord
  2
*D11
340
0
  0
BLOCK_RECORD
  5
167
330
1
100
AcDbSymbolTableRecord
100
AcDbBlockTableRecord
  2
*D12
340
0
  0
BLOCK_RECORD
  5
174
330
1
100
AcDbSymbolTableRecord
100
AcDbBlockTableRecord
  2
*D13
340
0
  0
BLOCK_RECORD
  5
181
330
1
100
AcDbSymbolTableRecord
100
AcDbBlockTableRecord
  2
*D14
340
0
  0
BLOCK_RECORD
  5
18E
330
1
100
AcDbSymbolTableRecord
100
AcDbBlockTableRecord
  2
*D15
340
0
  0
BLOCK_RECORD
  5
19B
330
1
100
AcDbSymbolTableRecord
100
AcDbBlockTableRecord
  2
*D16
340
0
  0
BLOCK_RECORD
  5
1AA
330
1
100
AcDbSymbolTableRecord
100
AcDbBlockTableRecord
  2
*D17
340
0
  0
BLOCK_RECORD
  5
1B8
330
1
100
AcDbSymbolTableRecord
100
AcDbBlockTableRecord
  2
*D18
340
0
  0
BLOCK_RECORD
  5
1C5
330
1
100
AcDbSymbolTableRecord
100
AcDbBlockTableRecord
  2
*D19
340
0
  0
BLOCK_RECORD
  5
1D2
330
1
100
AcDbSymbolTableRecord
100
AcDbBlockTableRecord
  2
*D20
340
0
  0
BLOCK_RECORD
  5
256
330
1
100
AcDbSymbolTableRecord
100
AcDbBlockTableRecord
  2
*D21
340
0
  0
ENDTAB
  0
ENDSEC
  0
SECTION
  2
BLOCKS
  0
BLOCK
  5
D
330
A
100
AcDbEntity
  8
0
100
AcDbBlockBegin
  2
*MODEL_SPACE
 70
     0
 10
0.0
 20
0.0
 30
0.0
  3
*MODEL_SPACE
  1

  0
ENDBLK
  5
E
330
A
100
AcDbEntity
  8
0
100
AcDbBlockEnd
  0
BLOCK
  5
F
330
B
100
AcDbEntity
 67
     1
  8
0
100
AcDbBlockBegin
  2
*PAPER_SPACE
 70
     0
 10
0.0
 20
0.0
 30
0.0
  3
*PAPER_SPACE
  1

  0
ENDBLK
  5
10
330
B
100
AcDbEntity
 67
     1
  8
0
100
AcDbBlockEnd
  0
BLOCK
  5
A9
330
A8
100
AcDbEntity
  8
0
 62
     0
100
AcDbBlockBegin
  2
NOTE50
 70
     0
 10
0.0
 20
0.0
 30
0.0
  3
NOTE50
  1

  0
MTEXT
  5
AA
330
A8
100
AcDbEntity
  8
0
 62
     7
100
AcDbMText
 10
0.0
 20
0.0
 30
0.0
 40
0.72
 41
0.0
 71
     1
 72
     1
  1
BREAK SHARP EDGES 0.010 RAD %%p 0.003
  7
SLDTEXTSTYLE0
 73
     1
 44
1.0
  0
MTEXT
  5
AB
330
A8
100
AcDbEntity
  8
0
 62
     7
100
AcDbMText
 10
0.0
 20
-1.08
 30
0.0
 40
0.72
 41
0.0
 71
     1
 72
     1
  1
MACHINED SURF FINISH  
  7
SLDTEXTSTYLE0
 73
     1
 44
1.0
  0
MTEXT
  5
AC
330
A8
100
AcDbEntity
  8
0
 62
     7
100
AcDbMText
 10
11.088
 20
-1.08
 30
0.0
 40
0.72
 41
0.0
 71
     1
 72
     1
  1
< 125 MICROINCH
  7
SLDTEXTSTYLE0
 73
     1
 44
1.0
  0
ENDBLK
  5
AD
330
A8
100
AcDbEntity
  8
0
100
AcDbBlockEnd
  0
BLOCK
  5
CE
330
CD
100
AcDbEntity
  8
0
 62
     1
100
AcDbBlockBegin
  2
*D1
 70
     1
 10
0.0
 20
0.0
 30
0.0
  3
*D1
  1

  0
MTEXT
  5
CF
330
CD
100
AcDbEntity
  8
0
100
AcDbMText
 10
19.4129411321
 20
44.7791731496
 30
0.0
 40
0.8
 41
0.0
 71
     7
 72
     1
  1
46"
  7
SLDTEXTSTYLE0
 73
     1
 44
1.0
  0
LINE
  5
D0
330
CD
100
AcDbEntity
  8
0
100
AcDbLine
 10
37.5336731634
 20
68.13886145149999
 30
0.0
 11
19.2931132075
 21
68.13886145149999
 31
0.0
  0
LINE
  5
D1
330
CD
100
AcDbEntity
  8
0
100
AcDbLine
 10
37.5336731634
 20
22.1388614515
 30
0.0
 11
19.2931132075
 21
22.1388614515
 31
0.0
  0
LINE
  5
D2
330
CD
100
AcDbEntity
  8
0
100
AcDbLine
 10
20.2531132075
 20
68.13886145149999
 30
0.0
 11
20.2531132075
 21
45.89854975329999
 31
0.0
  0
LINE
  5
D3
330
CD
100
AcDbEntity
  8
0
100
AcDbLine
 10
20.2531132075
 20
22.1388614515
 30
0.0
 11
20.2531132075
 21
44.37917314959999
 31
0.0
  0
SOLID
  5
D4
330
CD
100
AcDbEntity
  8
0
100
AcDbTrace
 10
20.2531132075
 20
68.13886145149999
 30
0.0
 11
20.0031132075
 21
66.63886145149999
 31
0.0
 12
20.5031132075
 22
66.63886145149999
 32
0.0
 13
20.5031132075
 23
66.63886145149999
 33
0.0
  0
SOLID
  5
D5
330
CD
100
AcDbEntity
  8
0
100
AcDbTrace
 10
20.2531132075
 20
22.1388614515
 30
0.0
 11
20.5031132075
 21
23.6388614515
 31
0.0
 12
20.0031132075
 22
23.6388614515
 32
0.0
 13
20.0031132075
 23
23.6388614515
 33
0.0
  0
POINT
  5
D7
330
CD
100
AcDbEntity
  8
0
100
AcDbPoint
 10
37.8536731634
 20
68.13886145149999
 30
0.0
  0
POINT
  5
D8
330
CD
100
AcDbEntity
  8
0
100
AcDbPoint
 10
37.8536731634
 20
22.1388614515
 30
0.0
  0
ENDBLK
  5
D9
330
CD
100
AcDbEntity
  8
0
 62
     1
100
AcDbBlockEnd
  0
BLOCK
  5
DC
330
DB
100
AcDbEntity
  8
0
 62
     1
100
AcDbBlockBegin
  2
*D2
 70
     1
 10
0.0
 20
0.0
 30
0.0
  3
*D2
  1

  0
MTEXT
  5
DD
330
DB
100
AcDbEntity
  8
0
100
AcDbMText
 10
31.6398029567
 20
72.36582113209999
 30
0.0
 40
0.8
 41
0.0
 71
     7
 72
     1
  1
1"
  7
SLDTEXTSTYLE0
 73
     1
 44
1.0
  0
LINE
  5
DE
330
DB
100
AcDbEntity
  8
0
100
AcDbLine
 10
38.9156731634
 20
68.4588614515
 30
0.0
 11
38.9156731634
 21
73.68550943399999
 31
0.0
  0
LINE
  5
DF
330
DB
100
AcDbEntity
  8
0
100
AcDbLine
 10
37.8536731634
 20
68.4588614515
 30
0.0
 11
37.8536731634
 21
73.68550943399999
 31
0.0
  0
LINE
  5
E0
330
DB
100
AcDbEntity
  8
0
100
AcDbLine
 10
38.9156731634
 20
72.725509434
 30
0.0
 11
42.9156731634
 21
72.725509434
 31
0.0
  0
LINE
  5
E1
330
DB
100
AcDbEntity
  8
0
100
AcDbLine
 10
37.8536731634
 20
72.725509434
 30
0.0
 11
33.0205440887
 21
72.725509434
 31
0.0
  0
SOLID
  5
E2
330
DB
100
AcDbEntity
  8
0
100
AcDbTrace
 10
38.9156731634
 20
72.725509434
 30
0.0
 11
40.4156731634
 21
72.475509434
 31
0.0
 12
40.4156731634
 22
72.975509434
 32
0.0
 13
40.4156731634
 23
72.975509434
 33
0.0
  0
SOLID
  5
E3
330
DB
100
AcDbEntity
  8
0
100
AcDbTrace
 10
37.8536731634
 20
72.725509434
 30
0.0
 11
36.3536731634
 21
72.975509434
 31
0.0
 12
36.3536731634
 22
72.475509434
 32
0.0
 13
36.3536731634
 23
72.475509434
 33
0.0
  0
POINT
  5
E4
330
DB
100
AcDbEntity
  8
0
100
AcDbPoint
 10
38.9156731634
 20
68.13886145149999
 30
0.0
  0
POINT
  5
E5
330
DB
100
AcDbEntity
  8
0
100
AcDbPoint
 10
37.8536731634
 20
68.13886145149999
 30
0.0
  0
ENDBLK
  5
E6
330
DB
100
AcDbEntity
  8
0
 62
     1
100
AcDbBlockEnd
  0
BLOCK
  5
E9
330
E8
100
AcDbEntity
  8
0
 62
     1
100
AcDbBlockBegin
  2
*D3
 70
     1
 10
0.0
 20
0.0
 30
0.0
  3
*D3
  1

  0
MTEXT
  5
EA
330
E8
100
AcDbEntity
  8
0
 62
     7
100
AcDbMText
 10
53.3586119109
 20
61.5550416868
 30
0.0
 40
0.8
 41
0.0
 71
     7
 72
     1
  1
44%%d
  7
SLDTEXTSTYLE0
 73
     1
 44
1.0
  0
LINE
  5
EB
330
E8
100
AcDbEntity
  8
0
 62
     7
100
AcDbLine
 10
39.2356731634
 20
68.13886145149999
 30
0.0
 11
56.414564425
 21
68.13886145149999
 31
0.0
  0
ARC
  5
EC
330
E8
100
AcDbEntity
  8
0
 62
     7
100
AcDbCircle
 10
38.9156731634
 20
68.13886145149999
 30
0.0
 40
16.5388912616
100
AcDbArc
 50
315.7865445677999
 51
335.0222358337
  0
ARC
  5
ED
330
E8
100
AcDbEntity
  8
0
 62
     7
100
AcDbCircle
 10
38.9156731634
 20
68.13886145149999
 30
0.0
 40
16.5388912616
100
AcDbArc
 50
340.7069682477999
 51
0.0
  0
SOLID
  5
EE
330
E8
100
AcDbEntity
  8
0
 62
     7
100
AcDbTrace
 10
50.76987161779999
 20
56.6057394471
 30
0.0
 11
51.95308259319999
 21
57.5609942758
 31
0.0
 12
51.5793128663
 22
57.8931029798
 32
0.0
 13
51.5793128663
 23
57.8931029798
 33
0.0
  0
SOLID
  5
EF
330
E8
100
AcDbEntity
  8
0
 62
     7
100
AcDbTrace
 10
55.454564425
 20
68.13886145149999
 30
0.0
 11
55.1370072559
 21
66.6516972224
 31
0.0
 12
55.636496042
 22
66.6290929637
 32
0.0
 13
55.636496042
 23
66.6290929637
 33
0.0
  0
POINT
  5
F1
330
E8
100
AcDbEntity
  8
0
 62
     7
100
AcDbPoint
 10
37.8536731634
 20
68.13886145149999
 30
0.0
  0
POINT
  5
F2
330
E8
100
AcDbEntity
  8
0
 62
     7
100
AcDbPoint
 10
38.9156731634
 20
68.13886145149999
 30
0.0
  0
POINT
  5
F3
330
E8
100
AcDbEntity
  8
0
 62
     7
100
AcDbPoint
 10
63.7286731634
 20
43.99793303729999
 30
0.0
  0
POINT
  5
F4
330
E8
100
AcDbEntity
  8
0
 62
     7
100
AcDbPoint
 10
38.9156731634
 20
68.13886145149999
 30
0.0
  0
ENDBLK
  5
F5
330
E8
100
AcDbEntity
  8
0
100
AcDbBlockEnd
  0
BLOCK
  5
F8
330
F7
100
AcDbEntity
  8
0
 62
     1
100
AcDbBlockBegin
  2
*D4
 70
     1
 10
0.0
 20
0.0
 30
0.0
  3
*D4
  1

  0
MTEXT
  5
F9
330
F7
100
AcDbEntity
  8
0
 62
     7
100
AcDbMText
 10
60.4974284935
 20
24.5012574504
 30
0.0
 40
0.8
 41
0.0
 71
     7
 72
     1
  1
14%%d
  7
SLDTEXTSTYLE0
 73
     1
 44
1.0
  0
LINE
  5
FA
330
F7
100
AcDbEntity
  8
0
 62
     7
100
AcDbLine
 10
38.8606731634
 20
22.1388614515
 30
0.0
 11
62.3802772507
 21
22.1388614515
 31
0.0
  0
ARC
  5
FB
330
F7
100
AcDbEntity
  8
0
 62
     7
100
AcDbCircle
 10
38.5406731634
 20
22.1388614515
 30
0.0
 40
22.8796040873
100
AcDbArc
 50
0.0
 51
4.9203353859
  0
ARC
  5
FC
330
F7
100
AcDbEntity
  8
0
 62
     7
100
AcDbCircle
 10
38.5406731634
 20
22.1388614515
 30
0.0
 40
22.8796040873
100
AcDbArc
 50
8.7531665387
 51
13.665817529
  0
SOLID
  5
FD
330
F7
100
AcDbEntity
  8
0
 62
     7
100
AcDbTrace
 10
61.4202772507
 20
22.1388614515
 30
0.0
 11
61.6210519313
 21
23.64623981389999
 31
0.0
 12
61.12131977699999
 22
23.6298760151
 32
0.0
 13
61.12131977699999
 23
23.6298760151
 33
0.0
  0
SOLID
  5
FE
330
F7
100
AcDbEntity
  8
0
 62
     7
100
AcDbTrace
 10
60.7725612402
 20
27.54436195869999
 30
0.0
 11
60.83433201550001
 21
26.0249264151
 31
0.0
 12
61.32378296069999
 22
26.12709183099999
 32
0.0
 13
61.32378296069999
 23
26.12709183099999
 33
0.0
  0
POINT
  5
FF
330
F7
100
AcDbEntity
  8
0
 62
     7
100
AcDbPoint
 10
37.8536731634
 20
22.1388614515
 30
0.0
  0
POINT
  5
100
330
F7
100
AcDbEntity
  8
0
 62
     7
100
AcDbPoint
 10
38.5406731634
 20
22.1388614515
 30
0.0
  0
POINT
  5
101
330
F7
100
AcDbEntity
  8
0
 62
     7
100
AcDbPoint
 10
68.1036731634
 20
29.3268614515
 30
0.0
  0
POINT
  5
102
330
F7
100
AcDbEntity
  8
0
 62
     7
100
AcDbPoint
 10
38.5406731634
 20
22.1388614515
 30
0.0
  0
ENDBLK
  5
103
330
F7
100
AcDbEntity
  8
0
100
AcDbBlockEnd
  0
BLOCK
  5
106
330
105
100
AcDbEntity
  8
0
 62
     1
100
AcDbBlockBegin
  2
*D5
 70
     1
 10
0.0
 20
0.0
 30
0.0
  3
*D5
  1

  0
MTEXT
  5
107
330
105
100
AcDbEntity
  8
0
100
AcDbMText
 10
88.36744000000001
 20
37.11154975329999
 30
0.0
 40
0.8
 41
0.0
 71
     7
 72
     1
  1
12"
  7
SLDTEXTSTYLE0
 73
     1
 44
1.0
  0
MTEXT
  5
108
330
105
100
AcDbEntity
  8
0
100
AcDbMText
 10
86.4528633962
 20
35.5921731496
 30
0.0
 40
0.8
 41
0.0
 71
     7
 72
     1
  1
TO MATCH 
  7
SLDTEXTSTYLE0
 73
     1
 44
1.0
  0
MTEXT
  5
109
330
105
100
AcDbEntity
  8
0
100
AcDbMText
 10
83.2524883019
 20
34.07279654579999
 30
0.0
 40
0.8
 41
0.0
 71
     7
 72
     1
  1
24-09-251 LIFTING TUBE
  7
SLDTEXTSTYLE0
 73
     1
 44
1.0
  0
LINE
  5
10A
330
105
100
AcDbEntity
  8
0
100
AcDbLine
 10
79.4236731634
 20
29.9518614515
 30
0.0
 11
90.04786792450001
 21
29.9518614515
 31
0.0
  0
LINE
  5
10B
330
105
100
AcDbEntity
  8
0
100
AcDbLine
 10
79.4236731634
 20
41.9518614515
 30
0.0
 11
90.04786792450001
 21
41.9518614515
 31
0.0
  0
LINE
  5
10C
330
105
100
AcDbEntity
  8
0
100
AcDbLine
 10
89.08786792449999
 20
29.9518614515
 30
0.0
 11
89.08786792449999
 21
33.67279654579999
 31
0.0
  0
LINE
  5
10D
330
105
100
AcDbEntity
  8
0
100
AcDbLine
 10
89.08786792449999
 20
41.9518614515
 30
0.0
 11
89.08786792449999
 21
38.2309263571
 31
0.0
  0
SOLID
  5
10E
330
105
100
AcDbEntity
  8
0
100
AcDbTrace
 10
89.08786792449999
 20
29.9518614515
 30
0.0
 11
89.3378679245
 21
31.4518614515
 31
0.0
 12
88.83786792450001
 22
31.4518614515
 32
0.0
 13
88.83786792450001
 23
31.4518614515
 33
0.0
  0
SOLID
  5
10F
330
105
100
AcDbEntity
  8
0
100
AcDbTrace
 10
89.08786792449999
 20
41.9518614515
 30
0.0
 11
88.83786792450001
 21
40.4518614515
 31
0.0
 12
89.3378679245
 22
40.4518614515
 32
0.0
 13
89.3378679245
 23
40.4518614515
 33
0.0
  0
POINT
  5
110
330
105
100
AcDbEntity
  8
0
100
AcDbPoint
 10
79.1036731634
 20
29.9518614515
 30
0.0
  0
POINT
  5
111
330
105
100
AcDbEntity
  8
0
100
AcDbPoint
 10
79.1036731634
 20
41.9518614515
 30
0.0
  0
ENDBLK
  5
112
330
105
100
AcDbEntity
  8
0
 62
     1
100
AcDbBlockEnd
  0
BLOCK
  5
115
330
114
100
AcDbEntity
  8
0
 62
     1
100
AcDbBlockBegin
  2
*D6
 70
     1
 10
0.0
 20
0.0
 30
0.0
  3
*D6
  1

  0
MTEXT
  5
116
330
114
100
AcDbEntity
  8
0
100
AcDbMText
 10
87.27389735850001
 20
25.6856731496
 30
0.0
 40
0.8
 41
0.0
 71
     7
 72
     1
  1
7 13/16"
  7
SLDTEXTSTYLE0
 73
     1
 44
1.0
  0
LINE
  5
117
330
114
100
AcDbEntity
  8
0
100
AcDbLine
 10
38.8606731634
 20
22.1388614515
 30
0.0
 11
90.2348679245
 21
22.1388614515
 31
0.0
  0
LINE
  5
118
330
114
100
AcDbEntity
  8
0
100
AcDbLine
 10
79.4236731634
 20
29.9518614515
 30
0.0
 11
90.2348679245
 21
29.9518614515
 31
0.0
  0
LINE
  5
119
330
114
100
AcDbEntity
  8
0
100
AcDbLine
 10
89.2748679245
 20
22.1388614515
 30
0.0
 11
89.2748679245
 21
25.2856731496
 31
0.0
  0
LINE
  5
11A
330
114
100
AcDbEntity
  8
0
100
AcDbLine
 10
89.2748679245
 20
29.9518614515
 30
0.0
 11
89.2748679245
 21
26.8050497533
 31
0.0
  0
SOLID
  5
11B
330
114
100
AcDbEntity
  8
0
100
AcDbTrace
 10
89.2748679245
 20
22.1388614515
 30
0.0
 11
89.52486792450001
 21
23.6388614515
 31
0.0
 12
89.0248679245
 22
23.6388614515
 32
0.0
 13
89.0248679245
 23
23.6388614515
 33
0.0
  0
SOLID
  5
11C
330
114
100
AcDbEntity
  8
0
100
AcDbTrace
 10
89.2748679245
 20
29.9518614515
 30
0.0
 11
89.0248679245
 21
28.4518614515
 31
0.0
 12
89.52486792450001
 22
28.4518614515
 32
0.0
 13
89.52486792450001
 23
28.4518614515
 33
0.0
  0
POINT
  5
11D
330
114
100
AcDbEntity
  8
0
100
AcDbPoint
 10
38.5406731634
 20
22.1388614515
 30
0.0
  0
POINT
  5
11E
330
114
100
AcDbEntity
  8
0
100
AcDbPoint
 10
79.1036731634
 20
29.9518614515
 30
0.0
  0
ENDBLK
  5
11F
330
114
100
AcDbEntity
  8
0
 62
     1
100
AcDbBlockEnd
  0
BLOCK
  5
122
330
121
100
AcDbEntity
  8
0
 62
     1
100
AcDbBlockBegin
  2
*D7
 70
     1
 10
0.0
 20
0.0
 30
0.0
  3
*D7
  1

  0
MTEXT
  5
123
330
121
100
AcDbEntity
  8
0
100
AcDbMText
 10
87.0690679245
 20
54.6856731496
 30
0.0
 40
0.8
 41
0.0
 71
     7
 72
     1
  1
26 3/16"
  7
SLDTEXTSTYLE0
 73
     1
 44
1.0
  0
LINE
  5
124
330
121
100
AcDbEntity
  8
0
100
AcDbLine
 10
39.2356731634
 20
68.13886145149999
 30
0.0
 11
90.10986792450001
 21
68.13886145149999
 31
0.0
  0
LINE
  5
125
330
121
100
AcDbEntity
  8
0
100
AcDbLine
 10
79.4236731634
 20
41.9518614515
 30
0.0
 11
90.10986792450001
 21
41.9518614515
 31
0.0
  0
LINE
  5
126
330
121
100
AcDbEntity
  8
0
100
AcDbLine
 10
89.14986792449999
 20
68.13886145149999
 30
0.0
 11
89.14986792449999
 21
55.8050497533
 31
0.0
  0
LINE
  5
127
330
121
100
AcDbEntity
  8
0
100
AcDbLine
 10
89.14986792449999
 20
41.9518614515
 30
0.0
 11
89.14986792449999
 21
54.2856731496
 31
0.0
  0
ARC
  5
128
330
121
100
AcDbEntity
  8
0
100
AcDbCircle
 10
88.08844452829999
 20
55.04536145149999
 30
0.0
 40
1.6987146847
100
AcDbArc
 50
153.4349488229
 51
206.5650511771
  0
ARC
  5
129
330
121
100
AcDbEntity
  8
0
100
AcDbCircle
 10
90.2112913208
 20
55.04536145149999
 30
0.0
 40
1.6987146847
100
AcDbArc
 50
333.4349488229
 51
26.5650511771
  0
SOLID
  5
12A
330
121
100
AcDbEntity
  8
0
100
AcDbTrace
 10
89.14986792449999
 20
68.13886145149999
 30
0.0
 11
88.89986792450001
 21
66.63886145149999
 31
0.0
 12
89.3998679245
 22
66.63886145149999
 32
0.0
 13
89.3998679245
 23
66.63886145149999
 33
0.0
  0
SOLID
  5
12B
330
121
100
AcDbEntity
  8
0
100
AcDbTrace
 10
89.14986792449999
 20
41.9518614515
 30
0.0
 11
89.3998679245
 21
43.45186145149999
 31
0.0
 12
88.89986792450001
 22
43.45186145149999
 32
0.0
 13
88.89986792450001
 23
43.45186145149999
 33
0.0
  0
POINT
  5
12C
330
121
100
AcDbEntity
  8
0
100
AcDbPoint
 10
38.9156731634
 20
68.13886145149999
 30
0.0
  0
POINT
  5
12D
330
121
100
AcDbEntity
  8
0
100
AcDbPoint
 10
79.1036731634
 20
41.9518614515
 30
0.0
  0
ENDBLK
  5
12E
330
121
100
AcDbEntity
  8
0
 62
     1
100
AcDbBlockEnd
  0
BLOCK
  5
131
330
130
100
AcDbEntity
  8
0
 62
     1
100
AcDbBlockBegin
  2
*D8
 70
     1
 10
0.0
 20
0.0
 30
0.0
  3
*D8
  1

  0
MTEXT
  5
132
330
130
100
AcDbEntity
  8
0
100
AcDbMText
 10
49.27114222
 20
76.8115953927
 30
0.0
 40
0.8
 41
0.0
 71
     7
 72
     1
  1
25.875
  7
SLDTEXTSTYLE0
 73
     1
 44
1.0
  0
LINE
  5
133
330
130
100
AcDbEntity
  8
0
100
AcDbLine
 10
37.8536731634
 20
68.4588614515
 30
0.0
 11
37.8536731634
 21
78.1312836946
 31
0.0
  0
LINE
  5
134
330
130
100
AcDbEntity
  8
0
100
AcDbLine
 10
63.7286731634
 20
44.31793303729999
 30
0.0
 11
63.7286731634
 21
78.1312836946
 31
0.0
  0
LINE
  5
135
330
130
100
AcDbEntity
  8
0
100
AcDbLine
 10
37.8536731634
 20
77.17128369460001
 30
0.0
 11
48.27114222
 21
77.17128369460001
 31
0.0
  0
LINE
  5
136
330
130
100
AcDbEntity
  8
0
100
AcDbLine
 10
63.7286731634
 20
77.17128369460001
 30
0.0
 11
53.3112041068
 21
77.17128369460001
 31
0.0
  0
ARC
  5
137
330
130
100
AcDbEntity
  8
0
100
AcDbCircle
 10
50.2905188238
 20
77.17128369460001
 30
0.0
 40
1.6987146847
100
AcDbArc
 50
153.4349488229
 51
206.5650511771
  0
ARC
  5
138
330
130
100
AcDbEntity
  8
0
100
AcDbCircle
 10
51.2918275031
 20
77.17128369460001
 30
0.0
 40
1.6987146847
100
AcDbArc
 50
333.4349488229
 51
26.5650511771
  0
SOLID
  5
139
330
130
100
AcDbEntity
  8
0
100
AcDbTrace
 10
37.8536731634
 20
77.17128369460001
 30
0.0
 11
39.3536731634
 21
76.9212836946
 31
0.0
 12
39.3536731634
 22
77.42128369460001
 32
0.0
 13
39.3536731634
 23
77.42128369460001
 33
0.0
  0
SOLID
  5
13A
330
130
100
AcDbEntity
  8
0
100
AcDbTrace
 10
63.7286731634
 20
77.17128369460001
 30
0.0
 11
62.2286731634
 21
77.42128369460001
 31
0.0
 12
62.2286731634
 22
76.9212836946
 32
0.0
 13
62.2286731634
 23
76.9212836946
 33
0.0
  0
POINT
  5
13B
330
130
100
AcDbEntity
  8
0
100
AcDbPoint
 10
37.8536731634
 20
68.13886145149999
 30
0.0
  0
POINT
  5
13C
330
130
100
AcDbEntity
  8
0
100
AcDbPoint
 10
63.7286731634
 20
43.99793303729999
 30
0.0
  0
ENDBLK
  5
13D
330
130
100
AcDbEntity
  8
0
 62
     1
100
AcDbBlockEnd
  0
BLOCK
  5
140
330
13F
100
AcDbEntity
  8
0
 62
     1
100
AcDbBlockBegin
  2
*D9
 70
     1
 10
0.0
 20
0.0
 30
0.0
  3
*D9
  1

  0
MTEXT
  5
141
330
13F
100
AcDbEntity
  8
0
100
AcDbMText
 10
56.67793052189999
 20
80.7339328103
 30
0.0
 40
0.8
 41
0.0
 71
     7
 72
     1
  1
41 1/4"
  7
SLDTEXTSTYLE0
 73
     1
 44
1.0
  0
LINE
  5
142
330
13F
100
AcDbEntity
  8
0
100
AcDbLine
 10
37.8536731634
 20
68.4588614515
 30
0.0
 11
37.8536731634
 21
82.05362111220001
 31
0.0
  0
LINE
  5
143
330
13F
100
AcDbEntity
  8
0
100
AcDbLine
 10
79.1036731634
 20
42.2718614515
 30
0.0
 11
79.1036731634
 21
82.05362111220001
 31
0.0
  0
LINE
  5
144
330
13F
100
AcDbEntity
  8
0
100
AcDbLine
 10
37.8536731634
 20
81.09362111219999
 30
0.0
 11
56.17793052189999
 21
81.09362111219999
 31
0.0
  0
LINE
  5
145
330
13F
100
AcDbEntity
  8
0
100
AcDbLine
 10
79.1036731634
 20
81.09362111219999
 30
0.0
 11
60.779415805
 21
81.09362111219999
 31
0.0
  0
SOLID
  5
146
330
13F
100
AcDbEntity
  8
0
100
AcDbTrace
 10
37.8536731634
 20
81.09362111219999
 30
0.0
 11
39.3536731634
 21
80.8436211122
 31
0.0
 12
39.3536731634
 22
81.34362111219999
 32
0.0
 13
39.3536731634
 23
81.34362111219999
 33
0.0
  0
SOLID
  5
147
330
13F
100
AcDbEntity
  8
0
100
AcDbTrace
 10
79.1036731634
 20
81.09362111219999
 30
0.0
 11
77.6036731634
 21
81.34362111219999
 31
0.0
 12
77.6036731634
 22
80.8436211122
 32
0.0
 13
77.6036731634
 23
80.8436211122
 33
0.0
  0
POINT
  5
148
330
13F
100
AcDbEntity
  8
0
100
AcDbPoint
 10
37.8536731634
 20
68.13886145149999
 30
0.0
  0
POINT
  5
149
330
13F
100
AcDbEntity
  8
0
100
AcDbPoint
 10
79.1036731634
 20
41.9518614515
 30
0.0
  0
ENDBLK
  5
14A
330
13F
100
AcDbEntity
  8
0
 62
     1
100
AcDbBlockEnd
  0
BLOCK
  5
14D
330
14C
100
AcDbEntity
  8
0
 62
     1
100
AcDbBlockBegin
  2
*D10
 70
     1
 10
0.0
 20
0.0
 30
0.0
  3
*D10
  1

  0
MTEXT
  5
14E
330
14C
100
AcDbEntity
  8
0
100
AcDbMText
 10
70.3934733519
 20
52.50048593869999
 30
0.0
 40
0.8
 41
0.0
 71
     7
 72
     1
  1
2 1/16"
  7
SLDTEXTSTYLE0
 73
     1
 44
1.0
  0
LINE
  5
14F
330
14C
100
AcDbEntity
  8
0
100
AcDbLine
 10
64.04867316339999
 20
43.99793303729999
 30
0.0
 11
69.85347335189999
 21
43.99793303729999
 31
0.0
  0
LINE
  5
150
330
14C
100
AcDbEntity
  8
0
100
AcDbLine
 10
69.8934733519
 20
52.8601742406
 30
0.0
 11
68.8934733519
 21
52.8601742406
 31
0.0
  0
LINE
  5
151
330
14C
100
AcDbEntity
  8
0
100
AcDbLine
 10
68.8934733519
 20
52.8601742406
 30
0.0
 11
68.8934733519
 21
43.99793303729999
 31
0.0
  0
LINE
  5
152
330
14C
100
AcDbEntity
  8
0
100
AcDbLine
 10
68.8934733519
 20
41.9518614515
 30
0.0
 11
68.8934733519
 21
37.9518614515
 31
0.0
  0
SOLID
  5
153
330
14C
100
AcDbEntity
  8
0
100
AcDbTrace
 10
68.8934733519
 20
43.99793303729999
 30
0.0
 11
69.1434733519
 21
45.49793303729999
 31
0.0
 12
68.6434733519
 22
45.49793303729999
 32
0.0
 13
68.6434733519
 23
45.49793303729999
 33
0.0
  0
SOLID
  5
154
330
14C
100
AcDbEntity
  8
0
100
AcDbTrace
 10
68.8934733519
 20
41.9518614515
 30
0.0
 11
68.6434733519
 21
40.4518614515
 31
0.0
 12
69.1434733519
 22
40.4518614515
 32
0.0
 13
69.1434733519
 23
40.4518614515
 33
0.0
  0
POINT
  5
155
330
14C
100
AcDbEntity
  8
0
100
AcDbPoint
 10
63.7286731634
 20
43.99793303729999
 30
0.0
  0
POINT
  5
156
330
14C
100
AcDbEntity
  8
0
100
AcDbPoint
 10
63.7286731634
 20
41.9518614515
 30
0.0
  0
ENDBLK
  5
157
330
14C
100
AcDbEntity
  8
0
 62
     1
100
AcDbBlockEnd
  0
BLOCK
  5
15A
330
159
100
AcDbEntity
  8
0
 62
     1
100
AcDbBlockBegin
  2
*D11
 70
     1
 10
0.0
 20
0.0
 30
0.0
  3
*D11
  1

  0
MTEXT
  5
15B
330
159
100
AcDbEntity
  8
0
100
AcDbMText
 10
46.33364221999999
 20
10.6419793435
 30
0.0
 40
0.8
 41
0.0
 71
     7
 72
     1
  1
20.000
  7
SLDTEXTSTYLE0
 73
     1
 44
1.0
  0
LINE
  5
15C
330
159
100
AcDbEntity
  8
0
100
AcDbLine
 10
37.8536731634
 20
21.8188614515
 30
0.0
 11
37.8536731634
 21
10.0416676454
 31
0.0
  0
LINE
  5
15D
330
159
100
AcDbEntity
  8
0
100
AcDbLine
 10
57.8536731634
 20
44.81886145149999
 30
0.0
 11
57.8536731634
 21
10.0416676454
 31
0.0
  0
LINE
  5
15E
330
159
100
AcDbEntity
  8
0
100
AcDbLine
 10
37.8536731634
 20
11.00166764539999
 30
0.0
 11
45.83364222
 21
11.00166764539999
 31
0.0
  0
LINE
  5
15F
330
159
100
AcDbEntity
  8
0
100
AcDbLine
 10
57.8536731634
 20
11.00166764539999
 30
0.0
 11
49.8737041068
 21
11.00166764539999
 31
0.0
  0
SOLID
  5
160
330
159
100
AcDbEntity
  8
0
100
AcDbTrace
 10
37.8536731634
 20
11.00166764539999
 30
0.0
 11
39.3536731634
 21
10.7516676454
 31
0.0
 12
39.3536731634
 22
11.2516676454
 32
0.0
 13
39.3536731634
 23
11.2516676454
 33
0.0
  0
SOLID
  5
161
330
159
100
AcDbEntity
  8
0
100
AcDbTrace
 10
57.8536731634
 20
11.00166764539999
 30
0.0
 11
56.3536731634
 21
11.2516676454
 31
0.0
 12
56.3536731634
 22
10.7516676454
 32
0.0
 13
56.3536731634
 23
10.7516676454
 33
0.0
  0
POINT
  5
163
330
159
100
AcDbEntity
  8
0
100
AcDbPoint
 10
37.8536731634
 20
22.1388614515
 30
0.0
  0
POINT
  5
164
330
159
100
AcDbEntity
  8
0
100
AcDbPoint
 10
57.8536731634
 20
45.13886145149999
 30
0.0
  0
ENDBLK
  5
165
330
159
100
AcDbEntity
  8
0
 62
     1
100
AcDbBlockEnd
  0
BLOCK
  5
168
330
167
100
AcDbEntity
  8
0
 62
     1
100
AcDbBlockBegin
  2
*D12
 70
     1
 10
0.0
 20
0.0
 30
0.0
  3
*D12
  1

  0
MTEXT
  5
169
330
167
100
AcDbEntity
  8
0
100
AcDbMText
 10
40.6136995785
 20
14.80256887329999
 30
0.0
 40
0.8
 41
0.0
 71
     7
 72
     1
  1
8.000
  7
SLDTEXTSTYLE0
 73
     1
 44
1.0
  0
LINE
  5
16A
330
167
100
AcDbEntity
  8
0
100
AcDbLine
 10
37.8536731634
 20
21.8188614515
 30
0.0
 11
37.8536731634
 21
14.2022571752
 31
0.0
  0
LINE
  5
16B
330
167
100
AcDbEntity
  8
0
100
AcDbLine
 10
45.8536731634
 20
58.8188614515
 30
0.0
 11
45.8536731634
 21
14.2022571752
 31
0.0
  0
LINE
  5
16C
330
167
100
AcDbEntity
  8
0
100
AcDbLine
 10
37.8536731634
 20
15.1622571752
 30
0.0
 11
40.11369957849999
 21
15.1622571752
 31
0.0
  0
LINE
  5
16D
330
167
100
AcDbEntity
  8
0
100
AcDbLine
 10
45.8536731634
 20
15.1622571752
 30
0.0
 11
43.59364674840001
 21
15.1622571752
 31
0.0
  0
SOLID
  5
16E
330
167
100
AcDbEntity
  8
0
100
AcDbTrace
 10
37.8536731634
 20
15.1622571752
 30
0.0
 11
39.3536731634
 21
14.9122571752
 31
0.0
 12
39.3536731634
 22
15.4122571752
 32
0.0
 13
39.3536731634
 23
15.4122571752
 33
0.0
  0
SOLID
  5
16F
330
167
100
AcDbEntity
  8
0
100
AcDbTrace
 10
45.8536731634
 20
15.1622571752
 30
0.0
 11
44.3536731634
 21
15.4122571752
 31
0.0
 12
44.3536731634
 22
14.9122571752
 32
0.0
 13
44.3536731634
 23
14.9122571752
 33
0.0
  0
POINT
  5
170
330
167
100
AcDbEntity
  8
0
100
AcDbPoint
 10
37.8536731634
 20
22.1388614515
 30
0.0
  0
POINT
  5
171
330
167
100
AcDbEntity
  8
0
100
AcDbPoint
 10
45.8536731634
 20
59.1388614515
 30
0.0
  0
ENDBLK
  5
172
330
167
100
AcDbEntity
  8
0
 62
     1
100
AcDbBlockEnd
  0
BLOCK
  5
175
330
174
100
AcDbEntity
  8
0
 62
     1
100
AcDbBlockBegin
  2
*D13
 70
     1
 10
0.0
 20
0.0
 30
0.0
  3
*D13
  1

  0
MTEXT
  5
176
330
174
100
AcDbEntity
  8
0
100
AcDbMText
 10
30.3728701723
 20
26.2791731496
 30
0.0
 40
0.8
 41
0.0
 71
     7
 72
     1
  1
9.000
  7
SLDTEXTSTYLE0
 73
     1
 44
1.0
  0
LINE
  5
177
330
174
100
AcDbEntity
  8
0
100
AcDbLine
 10
37.5336731634
 20
22.1388614515
 30
0.0
 11
30.6528437572
 21
22.1388614515
 31
0.0
  0
LINE
  5
178
330
174
100
AcDbEntity
  8
0
100
AcDbLine
 10
57.5336731634
 20
31.1388614515
 30
0.0
 11
30.6528437572
 21
31.1388614515
 31
0.0
  0
LINE
  5
179
330
174
100
AcDbEntity
  8
0
100
AcDbLine
 10
31.61284375719999
 20
22.1388614515
 30
0.0
 11
31.61284375719999
 21
25.8791731496
 31
0.0
  0
LINE
  5
17A
330
174
100
AcDbEntity
  8
0
100
AcDbLine
 10
31.61284375719999
 20
31.1388614515
 30
0.0
 11
31.61284375719999
 21
27.3985497533
 31
0.0
  0
SOLID
  5
17B
330
174
100
AcDbEntity
  8
0
100
AcDbTrace
 10
31.61284375719999
 20
22.1388614515
 30
0.0
 11
31.86284375719999
 21
23.6388614515
 31
0.0
 12
31.36284375719999
 22
23.6388614515
 32
0.0
 13
31.36284375719999
 23
23.6388614515
 33
0.0
  0
SOLID
  5
17C
330
174
100
AcDbEntity
  8
0
100
AcDbTrace
 10
31.61284375719999
 20
31.1388614515
 30
0.0
 11
31.36284375719999
 21
29.6388614515
 31
0.0
 12
31.86284375719999
 22
29.6388614515
 32
0.0
 13
31.86284375719999
 23
29.6388614515
 33
0.0
  0
POINT
  5
17D
330
174
100
AcDbEntity
  8
0
100
AcDbPoint
 10
37.8536731634
 20
22.1388614515
 30
0.0
  0
POINT
  5
17E
330
174
100
AcDbEntity
  8
0
100
AcDbPoint
 10
57.8536731634
 20
31.1388614515
 30
0.0
  0
ENDBLK
  5
17F
330
174
100
AcDbEntity
  8
0
 62
     1
100
AcDbBlockEnd
  0
BLOCK
  5
182
330
181
100
AcDbEntity
  8
0
 62
     1
100
AcDbBlockBegin
  2
*D14
 70
     1
 10
0.0
 20
0.0
 30
0.0
  3
*D14
  1

  0
MTEXT
  5
183
330
181
100
AcDbEntity
  8
0
100
AcDbMText
 10
28.00089952449999
 20
56.2791731496
 30
0.0
 40
0.8
 41
0.0
 71
     7
 72
     1
  1
23.000
  7
SLDTEXTSTYLE0
 73
     1
 44
1.0
  0
LINE
  5
184
330
181
100
AcDbEntity
  8
0
100
AcDbLine
 10
37.5336731634
 20
68.13886145149999
 30
0.0
 11
28.5609304679
 21
68.13886145149999
 31
0.0
  0
LINE
  5
185
330
181
100
AcDbEntity
  8
0
100
AcDbLine
 10
57.5336731634
 20
45.13886145149999
 30
0.0
 11
28.5609304679
 21
45.13886145149999
 31
0.0
  0
LINE
  5
186
330
181
100
AcDbEntity
  8
0
100
AcDbLine
 10
29.5209304679
 20
68.13886145149999
 30
0.0
 11
29.5209304679
 21
57.3985497533
 31
0.0
  0
LINE
  5
187
330
181
100
AcDbEntity
  8
0
100
AcDbLine
 10
29.5209304679
 20
45.13886145149999
 30
0.0
 11
29.5209304679
 21
55.8791731496
 31
0.0
  0
SOLID
  5
188
330
181
100
AcDbEntity
  8
0
100
AcDbTrace
 10
29.5209304679
 20
68.13886145149999
 30
0.0
 11
29.2709304679
 21
66.63886145149999
 31
0.0
 12
29.7709304679
 22
66.63886145149999
 32
0.0
 13
29.7709304679
 23
66.63886145149999
 33
0.0
  0
SOLID
  5
189
330
181
100
AcDbEntity
  8
0
100
AcDbTrace
 10
29.5209304679
 20
45.13886145149999
 30
0.0
 11
29.7709304679
 21
46.6388614515
 31
0.0
 12
29.2709304679
 22
46.6388614515
 32
0.0
 13
29.2709304679
 23
46.6388614515
 33
0.0
  0
POINT
  5
18A
330
181
100
AcDbEntity
  8
0
100
AcDbPoint
 10
37.8536731634
 20
68.13886145149999
 30
0.0
  0
POINT
  5
18B
330
181
100
AcDbEntity
  8
0
100
AcDbPoint
 10
57.8536731634
 20
45.13886145149999
 30
0.0
  0
ENDBLK
  5
18C
330
181
100
AcDbEntity
  8
0
 62
     1
100
AcDbBlockEnd
  0
BLOCK
  5
18F
330
18E
100
AcDbEntity
  8
0
 62
     1
100
AcDbBlockBegin
  2
*D15
 70
     1
 10
0.0
 20
0.0
 30
0.0
  3
*D15
  1

  0
MTEXT
  5
190
330
18E
100
AcDbEntity
  8
0
100
AcDbMText
 10
32.4647834617
 20
63.2791731496
 30
0.0
 40
0.8
 41
0.0
 71
     7
 72
     1
  1
9.000
  7
SLDTEXTSTYLE0
 73
     1
 44
1.0
  0
LINE
  5
191
330
18E
100
AcDbEntity
  8
0
100
AcDbLine
 10
37.5336731634
 20
68.13886145149999
 30
0.0
 11
32.7447570466
 21
68.13886145149999
 31
0.0
  0
LINE
  5
192
330
18E
100
AcDbEntity
  8
0
100
AcDbLine
 10
45.5336731634
 20
59.1388614515
 30
0.0
 11
32.7447570466
 21
59.1388614515
 31
0.0
  0
LINE
  5
193
330
18E
100
AcDbEntity
  8
0
100
AcDbLine
 10
33.7047570466
 20
68.13886145149999
 30
0.0
 11
33.7047570466
 21
64.3985497533
 31
0.0
  0
LINE
  5
194
330
18E
100
AcDbEntity
  8
0
100
AcDbLine
 10
33.7047570466
 20
59.1388614515
 30
0.0
 11
33.7047570466
 21
62.8791731496
 31
0.0
  0
SOLID
  5
195
330
18E
100
AcDbEntity
  8
0
100
AcDbTrace
 10
33.7047570466
 20
68.13886145149999
 30
0.0
 11
33.4547570466
 21
66.63886145149999
 31
0.0
 12
33.9547570466
 22
66.63886145149999
 32
0.0
 13
33.9547570466
 23
66.63886145149999
 33
0.0
  0
SOLID
  5
196
330
18E
100
AcDbEntity
  8
0
100
AcDbTrace
 10
33.7047570466
 20
59.1388614515
 30
0.0
 11
33.9547570466
 21
60.6388614515
 31
0.0
 12
33.4547570466
 22
60.6388614515
 32
0.0
 13
33.4547570466
 23
60.6388614515
 33
0.0
  0
POINT
  5
197
330
18E
100
AcDbEntity
  8
0
100
AcDbPoint
 10
37.8536731634
 20
68.13886145149999
 30
0.0
  0
POINT
  5
198
330
18E
100
AcDbEntity
  8
0
100
AcDbPoint
 10
45.8536731634
 20
59.1388614515
 30
0.0
  0
ENDBLK
  5
199
330
18E
100
AcDbEntity
  8
0
 62
     1
100
AcDbBlockEnd
  0
BLOCK
  5
19C
330
19B
100
AcDbEntity
  8
0
 62
     1
100
AcDbBlockBegin
  2
*D16
 70
     1
 10
0.0
 20
0.0
 30
0.0
  3
*D16
  1

  0
MTEXT
  5
19D
330
19B
100
AcDbEntity
  8
0
 62
     7
100
AcDbMText
 10
23.353330017
 20
40.0641179457
 30
0.0
 40
0.8
 41
0.0
 71
     7
 72
     1
  1
%%c
  7
SLDTEXTSTYLE0
 73
     1
 44
1.0
  0
MTEXT
  5
19E
330
19B
100
AcDbEntity
  8
0
 62
     7
100
AcDbMText
 10
24.71959114909999
 20
40.0641179457
 30
0.0
 40
0.8
 41
0.0
 71
     7
 72
     1
  1
5/16"
  7
SLDTEXTSTYLE0
 73
     1
 44
1.0
  0
MTEXT
  5
19F
330
19B
100
AcDbEntity
  8
0
 62
     7
100
AcDbMText
 10
27.2806764321
 20
40.0641179457
 30
0.0
 40
0.8
 41
0.0
 71
     7
 72
     1
  1
 DRILL THRU
  7
SLDTEXTSTYLE0
 73
     1
 44
1.0
  0
MTEXT
  5
1A0
330
19B
100
AcDbEntity
  8
0
 62
     7
100
AcDbMText
 10
26.12186209249999
 20
38.5447413419
 30
0.0
 40
0.8
 41
0.0
 71
     7
 72
     1
  1
4 PLACES
  7
SLDTEXTSTYLE0
 73
     1
 44
1.0
  0
MTEXT
  5
1A1
330
19B
100
AcDbEntity
  8
0
 62
     7
100
AcDbMText
 10
26.6420620925
 20
35.5059881344
 30
0.0
 40
0.8
 41
0.0
 71
     7
 72
     1
  1
DEBURR
  7
SLDTEXTSTYLE0
 73
     1
 44
1.0
  0
LINE
  5
1A2
330
19B
100
AcDbEntity
  8
0
 62
     7
100
AcDbLine
 10
45.7258689629
 20
31.2291849607
 30
0.0
 11
35.94062963969999
 21
38.1447413419
 31
0.0
  0
LINE
  5
1A3
330
19B
100
AcDbEntity
  8
0
 62
     7
100
AcDbLine
 10
35.94062963969999
 20
38.1447413419
 30
0.0
 11
33.9406296397
 21
38.1447413419
 31
0.0
  0
SOLID
  5
1A4
330
19B
100
AcDbEntity
  8
0
 62
     7
100
AcDbTrace
 10
45.7258689629
 20
31.2291849607
 30
0.0
 11
44.64519533029999
 21
32.2990655615
 31
0.0
 12
44.35662181829999
 22
31.890745432
 32
0.0
 13
44.35662181829999
 23
31.890745432
 33
0.0
  0
POINT
  5
1A6
330
19B
100
AcDbEntity
  8
0
 62
     7
100
AcDbPoint
 10
45.7258689629
 20
31.2291849607
 30
0.0
  0
POINT
  5
1A7
330
19B
100
AcDbEntity
  8
0
 62
     7
100
AcDbPoint
 10
45.98147736399999
 20
31.0485379422
 30
0.0
  0
ENDBLK
  5
1A8
330
19B
100
AcDbEntity
  8
0
100
AcDbBlockEnd
  0
BLOCK
  5
1AB
330
1AA
100
AcDbEntity
  8
0
 62
     1
100
AcDbBlockBegin
  2
*D17
 70
     1
 10
0.0
 20
0.0
 30
0.0
  3
*D17
  1

  0
MTEXT
  5
1AC
330
1AA
100
AcDbEntity
  8
0
100
AcDbMText
 10
74.86537846569999
 20
22.8198518179
 30
0.0
 40
0.8
 41
0.0
 71
     7
 72
     1
  1
.625
  7
SLDTEXTSTYLE0
 73
     1
 44
1.0
  0
LINE
  5
1AD
330
1AA
100
AcDbEntity
  8
0
100
AcDbLine
 10
68.42367316339999
 20
29.3268614515
 30
0.0
 11
74.32537846569999
 21
29.3268614515
 31
0.0
  0
LINE
  5
1AE
330
1AA
100
AcDbEntity
  8
0
100
AcDbLine
 10
68.42367316339999
 20
29.9518614515
 30
0.0
 11
74.32537846569999
 21
29.9518614515
 31
0.0
  0
LINE
  5
1AF
330
1AA
100
AcDbEntity
  8
0
100
AcDbLine
 10
74.36537846569999
 20
23.17954011979999
 30
0.0
 11
73.36537846569999
 21
23.17954011979999
 31
0.0
  0
LINE
  5
1B0
330
1AA
100
AcDbEntity
  8
0
100
AcDbLine
 10
73.36537846569999
 20
23.17954011979999
 30
0.0
 11
73.36537846569999
 21
29.3268614515
 31
0.0
  0
LINE
  5
1B1
330
1AA
100
AcDbEntity
  8
0
100
AcDbLine
 10
73.36537846569999
 20
29.9518614515
 30
0.0
 11
73.36537846569999
 21
33.9518614515
 31
0.0
  0
SOLID
  5
1B2
330
1AA
100
AcDbEntity
  8
0
100
AcDbTrace
 10
73.36537846569999
 20
29.3268614515
 30
0.0
 11
73.11537846569999
 21
27.8268614515
 31
0.0
 12
73.61537846569999
 22
27.8268614515
 32
0.0
 13
73.61537846569999
 23
27.8268614515
 33
0.0
  0
SOLID
  5
1B3
330
1AA
100
AcDbEntity
  8
0
100
AcDbTrace
 10
73.36537846569999
 20
29.9518614515
 30
0.0
 11
73.61537846569999
 21
31.4518614515
 31
0.0
 12
73.11537846569999
 22
31.4518614515
 32
0.0
 13
73.11537846569999
 23
31.4518614515
 33
0.0
  0
POINT
  5
1B4
330
1AA
100
AcDbEntity
  8
0
100
AcDbPoint
 10
68.1036731634
 20
29.3268614515
 30
0.0
  0
POINT
  5
1B5
330
1AA
100
AcDbEntity
  8
0
100
AcDbPoint
 10
68.1036731634
 20
29.9518614515
 30
0.0
  0
ENDBLK
  5
1B6
330
1AA
100
AcDbEntity
  8
0
 62
     1
100
AcDbBlockEnd
  0
BLOCK
  5
1B9
330
1B8
100
AcDbEntity
  8
0
 62
     1
100
AcDbBlockBegin
  2
*D18
 70
     1
 10
0.0
 20
0.0
 30
0.0
  3
*D18
  1

  0
MTEXT
  5
1BA
330
1B8
100
AcDbEntity
  8
0
100
AcDbMText
 10
29.28577481139999
 20
18.3613139564
 30
0.0
 40
0.8
 41
0.0
 71
     7
 72
     1
  1
5/8"
  7
SLDTEXTSTYLE0
 73
     1
 44
1.0
  0
LINE
  5
1BB
330
1B8
100
AcDbEntity
  8
0
100
AcDbLine
 10
37.8536731634
 20
21.8188614515
 30
0.0
 11
37.8536731634
 21
17.7610022583
 31
0.0
  0
LINE
  5
1BC
330
1B8
100
AcDbEntity
  8
0
100
AcDbLine
 10
38.5406731634
 20
21.8188614515
 30
0.0
 11
38.5406731634
 21
17.7610022583
 31
0.0
  0
LINE
  5
1BD
330
1B8
100
AcDbEntity
  8
0
100
AcDbLine
 10
37.8536731634
 20
18.7210022583
 30
0.0
 11
31.9464042453
 21
18.7210022583
 31
0.0
  0
LINE
  5
1BE
330
1B8
100
AcDbEntity
  8
0
100
AcDbLine
 10
38.5406731634
 20
18.7210022583
 30
0.0
 11
42.5406731634
 21
18.7210022583
 31
0.0
  0
SOLID
  5
1BF
330
1B8
100
AcDbEntity
  8
0
100
AcDbTrace
 10
37.8536731634
 20
18.7210022583
 30
0.0
 11
36.3536731634
 21
18.9710022583
 31
0.0
 12
36.3536731634
 22
18.4710022583
 32
0.0
 13
36.3536731634
 23
18.4710022583
 33
0.0
  0
SOLID
  5
1C0
330
1B8
100
AcDbEntity
  8
0
100
AcDbTrace
 10
38.5406731634
 20
18.7210022583
 30
0.0
 11
40.0406731634
 21
18.4710022583
 31
0.0
 12
40.0406731634
 22
18.9710022583
 32
0.0
 13
40.0406731634
 23
18.9710022583
 33
0.0
  0
POINT
  5
1C1
330
1B8
100
AcDbEntity
  8
0
100
AcDbPoint
 10
37.8536731634
 20
22.1388614515
 30
0.0
  0
POINT
  5
1C2
330
1B8
100
AcDbEntity
  8
0
100
AcDbPoint
 10
38.5406731634
 20
22.1388614515
 30
0.0
  0
ENDBLK
  5
1C3
330
1B8
100
AcDbEntity
  8
0
 62
     1
100
AcDbBlockEnd
  0
BLOCK
  5
1C6
330
1C5
100
AcDbEntity
  8
0
 62
     7
100
AcDbBlockBegin
  2
*D19
 70
     1
 10
0.0
 20
0.0
 30
0.0
  3
*D19
  1

  0
MTEXT
  5
1C7
330
1C5
100
AcDbEntity
  8
0
 62
     7
100
AcDbMText
 10
69.967316508
 20
63.3078698275
 30
0.0
 40
0.8
 41
0.0
 71
     7
 72
     1
  1
15.375
  7
SLDTEXTSTYLE0
 73
     1
 44
1.0
  0
LINE
  5
1C8
330
1C5
100
AcDbEntity
  8
0
 62
     7
100
AcDbLine
 10
79.1036731634
 20
42.2718614515
 30
0.0
 11
79.1036731634
 21
64.6275581294
 31
0.0
  0
LINE
  5
1C9
330
1C5
100
AcDbEntity
  8
0
 62
     7
100
AcDbLine
 10
63.7286731634
 20
44.31793303729999
 30
0.0
 11
63.7286731634
 21
64.6275581294
 31
0.0
  0
LINE
  5
1CA
330
1C5
100
AcDbEntity
  8
0
 62
     7
100
AcDbLine
 10
79.1036731634
 20
63.66755812939999
 30
0.0
 11
73.34771952689999
 21
63.66755812939999
 31
0.0
  0
LINE
  5
1CB
330
1C5
100
AcDbEntity
  8
0
 62
     7
100
AcDbLine
 10
63.7286731634
 20
63.66755812939999
 30
0.0
 11
69.467316508
 21
63.66755812939999
 31
0.0
  0
SOLID
  5
1CC
330
1C5
100
AcDbEntity
  8
0
 62
     7
100
AcDbTrace
 10
79.1036731634
 20
63.66755812939999
 30
0.0
 11
77.6036731634
 21
63.91755812939999
 31
0.0
 12
77.6036731634
 22
63.41755812939999
 32
0.0
 13
77.6036731634
 23
63.41755812939999
 33
0.0
  0
SOLID
  5
1CD
330
1C5
100
AcDbEntity
  8
0
 62
     7
100
AcDbTrace
 10
63.7286731634
 20
63.66755812939999
 30
0.0
 11
65.22867316340001
 21
63.41755812939999
 31
0.0
 12
65.22867316340001
 22
63.91755812939999
 32
0.0
 13
65.22867316340001
 23
63.91755812939999
 33
0.0
  0
POINT
  5
1CE
330
1C5
100
AcDbEntity
  8
0
 62
     7
100
AcDbPoint
 10
79.1036731634
 20
41.9518614515
 30
0.0
  0
POINT
  5
1CF
330
1C5
100
AcDbEntity
  8
0
 62
     7
100
AcDbPoint
 10
63.7286731634
 20
43.99793303729999
 30
0.0
  0
ENDBLK
  5
1D0
330
1C5
100
AcDbEntity
  8
0
 62
     7
100
AcDbBlockEnd
  0
BLOCK
  5
1D3
330
1D2
100
AcDbEntity
  8
0
 62
     7
100
AcDbBlockBegin
  2
*D20
 70
     1
 10
0.0
 20
0.0
 30
0.0
  3
*D20
  1

  0
MTEXT
  5
1D4
330
1D2
100
AcDbEntity
  8
0
 62
     7
100
AcDbMText
 10
71.59935208569999
 20
19.1719603896
 30
0.0
 40
0.8
 41
0.0
 71
     7
 72
     1
  1
11.000
  7
SLDTEXTSTYLE0
 73
     1
 44
1.0
  0
LINE
  5
1D5
330
1D2
100
AcDbEntity
  8
0
 62
     7
100
AcDbLine
 10
79.1036731634
 20
29.6318614515
 30
0.0
 11
79.1036731634
 21
18.5716486915
 31
0.0
  0
LINE
  5
1D6
330
1D2
100
AcDbEntity
  8
0
 62
     7
100
AcDbLine
 10
68.1036731634
 20
29.0068614515
 30
0.0
 11
68.1036731634
 21
18.5716486915
 31
0.0
  0
LINE
  5
1D7
330
1D2
100
AcDbEntity
  8
0
 62
     7
100
AcDbLine
 10
79.1036731634
 20
19.5316486915
 30
0.0
 11
74.82009623669999
 21
19.5316486915
 31
0.0
  0
LINE
  5
1D8
330
1D2
100
AcDbEntity
  8
0
 62
     7
100
AcDbLine
 10
68.1036731634
 20
19.5316486915
 30
0.0
 11
71.09935208569999
 21
19.5316486915
 31
0.0
  0
SOLID
  5
1D9
330
1D2
100
AcDbEntity
  8
0
 62
     7
100
AcDbTrace
 10
79.1036731634
 20
19.5316486915
 30
0.0
 11
77.6036731634
 21
19.7816486915
 31
0.0
 12
77.6036731634
 22
19.2816486915
 32
0.0
 13
77.6036731634
 23
19.2816486915
 33
0.0
  0
SOLID
  5
1DA
330
1D2
100
AcDbEntity
  8
0
 62
     7
100
AcDbTrace
 10
68.1036731634
 20
19.5316486915
 30
0.0
 11
69.60367316340001
 21
19.2816486915
 31
0.0
 12
69.60367316340001
 22
19.7816486915
 32
0.0
 13
69.60367316340001
 23
19.7816486915
 33
0.0
  0
POINT
  5
1DB
330
1D2
100
AcDbEntity
  8
0
 62
     7
100
AcDbPoint
 10
79.1036731634
 20
29.9518614515
 30
0.0
  0
POINT
  5
1DC
330
1D2
100
AcDbEntity
  8
0
 62
     7
100
AcDbPoint
 10
68.1036731634
 20
29.3268614515
 30
0.0
  0
ENDBLK
  5
1DD
330
1D2
100
AcDbEntity
  8
0
 62
     7
100
AcDbBlockEnd
  0
BLOCK
  5
257
330
256
100
AcDbEntity
  8
0
 62
     1
100
AcDbBlockBegin
  2
*D21
 70
     1
 10
0.0
 20
0.0
 30
0.0
  3
*D21
  1

  0
MTEXT
  5
258
330
256
100
AcDbEntity
  8
0
100
AcDbMText
 10
124.2806062145999
 20
48.60650161409999
 30
0.0
 40
0.8
 41
0.0
 71
     7
 72
     1
  1
3/8"
  7
SLDTEXTSTYLE0
 73
     1
 44
1.0
  0
LINE
  5
259
330
256
100
AcDbEntity
  8
0
100
AcDbLine
 10
115.3049947334
 20
43.1610272881
 30
0.0
 11
112.4765676087
 21
41.5282110644
 31
0.0
  0
LINE
  5
25A
330
256
100
AcDbEntity
  8
0
100
AcDbLine
 10
115.5171267678
 20
43.2834885049
 30
0.0
 11
124.0449596077
 21
48.2065016141
 31
0.0
  0
SOLID
  5
25B
330
256
100
AcDbEntity
  8
0
100
AcDbTrace
 10
115.3049947334
 20
43.1610272881
 30
0.0
 11
114.1193447201
 21
42.76523341979999
 31
0.0
 12
114.3693244032
 22
42.33220898859999
 32
0.0
 13
114.3693244032
 23
42.33220898859999
 33
0.0
  0
SOLID
  5
25C
330
256
100
AcDbEntity
  8
0
100
AcDbTrace
 10
115.5171267678
 20
43.2834885049
 30
0.0
 11
116.7027767811
 21
43.6792823731
 31
0.0
 12
116.4527970979999
 22
44.1123068043
 32
0.0
 13
116.4527970979999
 23
44.1123068043
 33
0.0
  0
POINT
  5
25E
330
256
100
AcDbEntity
  8
0
100
AcDbPoint
 10
122.2315492958
 20
39.1624124521
 30
0.0
  0
POINT
  5
25F
330
256
100
AcDbEntity
  8
0
100
AcDbPoint
 10
122.4436813301
 20
39.28487366889999
 30
0.0
  0
ENDBLK
  5
260
330
256
100
AcDbEntity
  8
0
 62
     1
100
AcDbBlockEnd
  0
ENDSEC
  0
SECTION
  2
ENTITIES
  0
LINE
  5
2A
330
A
100
AcDbEntity
  8
0
  6
Continuous
 62
     7
370
     0
100
AcDbLine
 10
27.0
 20
85.0
 30
0.0
 11
12.0
 21
85.0
 31
0.0
  0
LINE
  5
2B
330
A
100
AcDbEntity
  8
0
  6
Continuous
 62
     7
370
     0
100
AcDbLine
 10
42.0
 20
85.0
 30
0.0
 11
27.0
 21
85.0
 31
0.0
  0
LINE
  5
2C
330
A
100
AcDbEntity
  8
0
  6
Continuous
 62
     7
370
     0
100
AcDbLine
 10
132.0
 20
3.0
 30
0.0
 11
117.0
 21
3.0
 31
0.0
  0
LINE
  5
2D
330
A
100
AcDbEntity
  8
0
  6
Continuous
 62
     7
370
     0
100
AcDbLine
 10
132.0
 20
3.0
 30
0.0
 11
132.0
 21
23.5
 31
0.0
  0
LINE
  5
2E
330
A
100
AcDbEntity
  8
0
  6
Continuous
 62
     7
370
     0
100
AcDbLine
 10
132.0
 20
64.5
 30
0.0
 11
133.0
 21
64.5
 31
0.0
  0
LINE
  5
2F
330
A
100
AcDbEntity
  8
0
  6
Continuous
 62
     7
370
     0
100
AcDbLine
 10
132.0
 20
44.0
 30
0.0
 11
133.0
 21
44.0
 31
0.0
  0
LINE
  5
30
330
A
100
AcDbEntity
  8
0
  6
Continuous
 62
     7
370
     0
100
AcDbLine
 10
57.0
 20
85.0
 30
0.0
 11
42.0
 21
85.0
 31
0.0
  0
LINE
  5
31
330
A
100
AcDbEntity
  8
0
  6
Continuous
 62
     7
370
     0
100
AcDbLine
 10
72.0
 20
85.0
 30
0.0
 11
57.0
 21
85.0
 31
0.0
  0
LINE
  5
32
330
A
100
AcDbEntity
  8
0
  6
Continuous
 62
     7
370
     0
100
AcDbLine
 10
87.0
 20
85.0
 30
0.0
 11
72.0
 21
85.0
 31
0.0
  0
LINE
  5
33
330
A
100
AcDbEntity
  8
0
  6
Continuous
 62
     7
370
     0
100
AcDbLine
 10
102.0
 20
85.0
 30
0.0
 11
87.0
 21
85.0
 31
0.0
  0
LINE
  5
34
330
A
100
AcDbEntity
  8
0
  6
Continuous
 62
     7
370
     0
100
AcDbLine
 10
117.0
 20
85.0
 30
0.0
 11
102.0
 21
85.0
 31
0.0
  0
LINE
  5
35
330
A
100
AcDbEntity
  8
0
  6
Continuous
 62
     7
370
     0
100
AcDbLine
 10
132.0
 20
23.5
 30
0.0
 11
133.0
 21
23.5
 31
0.0
  0
LINE
  5
36
330
A
100
AcDbEntity
  8
0
  6
Continuous
 62
     7
370
     0
100
AcDbLine
 10
132.0
 20
85.0
 30
0.0
 11
117.0
 21
85.0
 31
0.0
  0
LINE
  5
37
330
A
100
AcDbEntity
  8
0
  6
Continuous
 62
     7
370
     0
100
AcDbLine
 10
117.0
 20
85.0
 30
0.0
 11
117.0
 21
86.0
 31
0.0
  0
LINE
  5
38
330
A
100
AcDbEntity
  8
0
  6
Continuous
 62
     7
370
     0
100
AcDbLine
 10
102.0
 20
85.0
 30
0.0
 11
102.0
 21
86.0
 31
0.0
  0
LINE
  5
39
330
A
100
AcDbEntity
  8
0
  6
Continuous
 62
     7
370
     0
100
AcDbLine
 10
87.0
 20
85.0
 30
0.0
 11
87.0
 21
86.0
 31
0.0
  0
LINE
  5
3A
330
A
100
AcDbEntity
  8
0
  6
Continuous
 62
     7
370
     0
100
AcDbLine
 10
72.0
 20
85.0
 30
0.0
 11
72.0
 21
86.0
 31
0.0
  0
LINE
  5
3B
330
A
100
AcDbEntity
  8
0
  6
Continuous
 62
     7
370
     0
100
AcDbLine
 10
57.0
 20
85.0
 30
0.0
 11
57.0
 21
86.0
 31
0.0
  0
LINE
  5
3C
330
A
100
AcDbEntity
  8
0
  6
Continuous
 62
     7
370
     0
100
AcDbLine
 10
42.0
 20
85.0
 30
0.0
 11
42.0
 21
86.0
 31
0.0
  0
LINE
  5
3D
330
A
100
AcDbEntity
  8
0
  6
Continuous
 62
     7
370
     0
100
AcDbLine
 10
27.0
 20
85.0
 30
0.0
 11
27.0
 21
86.0
 31
0.0
  0
LINE
  5
3E
330
A
100
AcDbEntity
  8
0
  6
Continuous
 62
     7
370
     0
100
AcDbLine
 10
70.0
 20
13.52
 30
0.0
 11
70.0
 21
3.008
 31
0.0
  0
LINE
  5
3F
330
A
100
AcDbEntity
  8
0
  6
Continuous
 62
     7
370
     0
100
AcDbLine
 10
88.0
 20
19.0
 30
0.0
 11
132.0
 21
19.0
 31
0.0
  0
LINE
  5
40
330
A
100
AcDbEntity
  8
0
  6
Continuous
 62
     7
370
     0
100
AcDbLine
 10
88.0
 20
19.0
 30
0.0
 11
88.0
 21
3.0
 31
0.0
  0
LINE
  5
41
330
A
100
AcDbEntity
  8
0
  6
Continuous
 62
     7
370
     0
100
AcDbLine
 10
108.0
 20
19.0
 30
0.0
 11
108.0
 21
3.0
 31
0.0
  0
LINE
  5
42
330
A
100
AcDbEntity
  8
0
  6
Continuous
 62
     7
370
     0
100
AcDbLine
 10
108.0
 20
4.503999999999999
 30
0.0
 11
132.0
 21
4.503999999999999
 31
0.0
  0
LINE
  5
43
330
A
100
AcDbEntity
  8
0
  6
Continuous
 62
     7
370
     0
100
AcDbLine
 10
108.0
 20
7.503999999999999
 30
0.0
 11
132.0
 21
7.503999999999999
 31
0.0
  0
LINE
  5
44
330
A
100
AcDbEntity
  8
0
  6
Continuous
 62
     7
370
     0
100
AcDbLine
 10
108.0
 20
13.504
 30
0.0
 11
132.0
 21
13.504
 31
0.0
  0
LINE
  5
45
330
A
100
AcDbEntity
  8
0
  6
Continuous
 62
     7
370
     0
100
AcDbLine
 10
111.0
 20
7.503999999999999
 30
0.0
 11
111.0
 21
3.0
 31
0.0
  0
LINE
  5
46
330
A
100
AcDbEntity
  8
0
  6
Continuous
 62
     7
370
     0
100
AcDbLine
 10
70.0
 20
6.007999999999999
 30
0.0
 11
108.0
 21
6.007999999999999
 31
0.0
  0
LINE
  5
47
330
A
100
AcDbEntity
  8
0
  6
Continuous
 62
     7
370
     0
100
AcDbLine
 10
129.0
 20
7.503999999999999
 30
0.0
 11
129.0
 21
3.0
 31
0.0
  0
LINE
  5
48
330
A
100
AcDbEntity
  8
0
  6
Continuous
 62
     7
370
     0
100
AcDbLine
 10
108.0
 20
16.0
 30
0.0
 11
88.0
 21
16.0
 31
0.0
  0
LINE
  5
49
330
A
100
AcDbEntity
  8
0
  6
Continuous
 62
     7
370
     0
100
AcDbLine
 10
88.0
 20
9.496
 30
0.0
 11
108.0
 21
9.496
 31
0.0
  0
LINE
  5
4A
330
A
100
AcDbEntity
  8
0
  6
Continuous
 62
     7
370
     0
100
AcDbLine
 10
88.0
 20
4.503999999999999
 30
0.0
 11
108.0
 21
4.503999999999999
 31
0.0
  0
LINE
  5
4B
330
A
100
AcDbEntity
  8
0
  6
Continuous
 62
     7
370
     0
100
AcDbLine
 10
70.0
 20
10.512
 30
0.0
 11
88.0
 21
10.512
 31
0.0
  0
LINE
  5
4C
330
A
100
AcDbEntity
  8
0
  6
Continuous
 62
     7
370
     0
100
AcDbLine
 10
132.0
 20
23.5
 30
0.0
 11
132.0
 21
44.0
 31
0.0
  0
LINE
  5
4D
330
A
100
AcDbEntity
  8
0
  6
Continuous
 62
     7
370
     0
100
AcDbLine
 10
132.0
 20
44.0
 30
0.0
 11
132.0
 21
64.5
 31
0.0
  0
LINE
  5
4E
330
A
100
AcDbEntity
  8
0
  6
Continuous
 62
     7
370
     0
100
AcDbLine
 10
132.0
 20
64.5
 30
0.0
 11
132.0
 21
85.0
 31
0.0
  0
LINE
  5
4F
330
A
100
AcDbEntity
  8
0
  6
Continuous
 62
     7
370
     0
100
AcDbLine
 10
117.0
 20
3.0
 30
0.0
 11
102.0
 21
3.0
 31
0.0
  0
LINE
  5
50
330
A
100
AcDbEntity
  8
0
  6
Continuous
 62
     7
370
     0
100
AcDbLine
 10
102.0
 20
3.0
 30
0.0
 11
87.0
 21
3.0
 31
0.0
  0
LINE
  5
51
330
A
100
AcDbEntity
  8
0
  6
Continuous
 62
     7
370
     0
100
AcDbLine
 10
70.0
 20
12.016
 30
0.0
 11
88.0
 21
12.016
 31
0.0
  0
LINE
  5
52
330
A
100
AcDbEntity
  8
0
  6
Continuous
 62
     7
370
     0
100
AcDbLine
 10
70.0
 20
7.5
 30
0.0
 11
40.0
 21
7.5
 31
0.0
  0
LINE
  5
53
330
A
100
AcDbEntity
  8
0
  6
Continuous
 62
     7
370
     0
100
AcDbLine
 10
88.0
 20
13.52
 30
0.0
 11
70.0
 21
13.52
 31
0.0
  0
LINE
  5
54
330
A
100
AcDbEntity
  8
0
  6
Continuous
 62
     7
370
     0
100
AcDbLine
 10
82.0
 20
13.52
 30
0.0
 11
82.0
 21
9.007999999999999
 31
0.0
  0
LINE
  5
55
330
A
100
AcDbEntity
  8
0
  6
Continuous
 62
     7
370
     0
100
AcDbLine
 10
88.0
 20
14.496
 30
0.0
 11
108.0
 21
14.496
 31
0.0
  0
LINE
  5
56
330
A
100
AcDbEntity
  8
0
  6
Continuous
 62
     7
370
     0
100
AcDbLine
 10
70.0
 20
9.007999999999999
 30
0.0
 11
88.0
 21
9.007999999999999
 31
0.0
  0
LINE
  5
57
330
A
100
AcDbEntity
  8
0
  6
Continuous
 62
     7
370
     0
100
AcDbLine
 10
98.0
 20
16.0
 30
0.0
 11
98.0
 21
9.496
 31
0.0
  0
LINE
  5
58
330
A
100
AcDbEntity
  8
0
  6
Continuous
 62
     7
370
     0
100
AcDbLine
 10
87.0
 20
3.0
 30
0.0
 11
72.0
 21
3.0
 31
0.0
  0
LINE
  5
59
330
A
100
AcDbEntity
  8
0
  6
Continuous
 62
     7
370
     0
100
AcDbLine
 10
72.0
 20
3.0
 30
0.0
 11
57.0
 21
3.0
 31
0.0
  0
LINE
  5
5A
330
A
100
AcDbEntity
  8
0
  6
Continuous
 62
     7
370
     0
100
AcDbLine
 10
57.0
 20
3.0
 30
0.0
 11
42.0
 21
3.0
 31
0.0
  0
LINE
  5
5B
330
A
100
AcDbEntity
  8
0
  6
Continuous
 62
     7
370
     0
100
AcDbLine
 10
42.0
 20
3.0
 30
0.0
 11
27.0
 21
3.0
 31
0.0
  0
LINE
  5
5C
330
A
100
AcDbEntity
  8
0
  6
Continuous
 62
     7
370
     0
100
AcDbLine
 10
103.0
 20
16.0
 30
0.0
 11
103.0
 21
9.496
 31
0.0
  0
LINE
  5
5D
330
A
100
AcDbEntity
  8
0
  6
Continuous
 62
     7
370
     0
100
AcDbLine
 10
27.0
 20
3.0
 30
0.0
 11
12.0
 21
3.0
 31
0.0
  0
LINE
  5
5E
330
A
100
AcDbEntity
  8
0
  6
Continuous
 62
     7
370
     0
100
AcDbLine
 10
6.0
 20
85.0
 30
0.0
 11
6.0
 21
3.0
 31
0.0
  0
LINE
  5
5F
330
A
100
AcDbEntity
  8
0
  6
Continuous
 62
     7
370
     0
100
AcDbLine
 10
12.0
 20
23.5
 30
0.0
 11
12.0
 21
44.0
 31
0.0
  0
LINE
  5
60
330
A
100
AcDbEntity
  8
0
  6
Continuous
 62
     7
370
     0
100
AcDbLine
 10
12.0
 20
44.0
 30
0.0
 11
12.0
 21
64.5
 31
0.0
  0
LINE
  5
61
330
A
100
AcDbEntity
  8
0
  6
Continuous
 62
     7
370
     0
100
AcDbLine
 10
12.0
 20
64.5
 30
0.0
 11
12.0
 21
85.0
 31
0.0
  0
LINE
  5
62
330
A
100
AcDbEntity
  8
0
  6
Continuous
 62
     7
370
     0
100
AcDbLine
 10
12.0
 20
64.5
 30
0.0
 11
11.0
 21
64.5
 31
0.0
  0
LINE
  5
63
330
A
100
AcDbEntity
  8
0
  6
Continuous
 62
     7
370
     0
100
AcDbLine
 10
117.0
 20
3.0
 30
0.0
 11
117.0
 21
2.0
 31
0.0
  0
LINE
  5
64
330
A
100
AcDbEntity
  8
0
  6
Continuous
 62
     7
370
     0
100
AcDbLine
 10
102.0
 20
3.0
 30
0.0
 11
102.0
 21
2.0
 31
0.0
  0
LINE
  5
65
330
A
100
AcDbEntity
  8
0
  6
Continuous
 62
     7
370
     0
100
AcDbLine
 10
87.0
 20
3.0
 30
0.0
 11
87.0
 21
2.0
 31
0.0
  0
LINE
  5
66
330
A
100
AcDbEntity
  8
0
  6
CENTERX2
 62
     7
370
     0
100
AcDbLine
 10
72.0
 20
3.0
 30
0.0
 11
72.0
 21
2.0
 31
0.0
  0
LINE
  5
67
330
A
100
AcDbEntity
  8
0
  6
Continuous
 62
     7
370
     0
100
AcDbLine
 10
57.0
 20
3.0
 30
0.0
 11
57.0
 21
2.0
 31
0.0
  0
LINE
  5
68
330
A
100
AcDbEntity
  8
0
  6
Continuous
 62
     7
370
     0
100
AcDbLine
 10
42.0
 20
3.0
 30
0.0
 11
42.0
 21
2.0
 31
0.0
  0
LINE
  5
69
330
A
100
AcDbEntity
  8
0
  6
Continuous
 62
     7
370
     0
100
AcDbLine
 10
27.0
 20
3.0
 30
0.0
 11
27.0
 21
2.0
 31
0.0
  0
LINE
  5
6A
330
A
100
AcDbEntity
  8
0
  6
Continuous
 62
     7
370
     0
100
AcDbLine
 10
12.0
 20
44.0
 30
0.0
 11
11.0
 21
44.0
 31
0.0
  0
LINE
  5
6B
330
A
100
AcDbEntity
  8
0
  6
Continuous
 62
     7
370
     0
100
AcDbLine
 10
12.0
 20
23.5
 30
0.0
 11
11.0
 21
23.5
 31
0.0
  0
LINE
  5
6C
330
A
100
AcDbEntity
  8
0
  6
Continuous
 62
     7
370
     0
100
AcDbLine
 10
12.0
 20
3.0
 30
0.0
 11
12.0
 21
23.5
 31
0.0
  0
LINE
  5
6D
330
A
100
AcDbEntity
  8
0
  6
Continuous
 62
     7
370
     0
100
AcDbLine
 10
40.0
 20
7.5
 30
0.0
 11
40.0
 21
3.0
 31
0.0
  0
LINE
  5
6E
330
A
100
AcDbEntity
  8
0
  6
Continuous
 62
     7
370
     0
100
AcDbLine
 10
132.0
 20
83.496
 30
0.0
 11
100.0
 21
83.496
 31
0.0
  0
LINE
  5
6F
330
A
100
AcDbEntity
  8
0
  6
Continuous
 62
     7
370
     0
100
AcDbLine
 10
132.0
 20
81.99200000000001
 30
0.0
 11
100.0
 21
81.99200000000001
 31
0.0
  0
LINE
  5
70
330
A
100
AcDbEntity
  8
0
  6
Continuous
 62
     7
370
     0
100
AcDbLine
 10
132.0
 20
80.48799999999999
 30
0.0
 11
100.0
 21
80.48799999999999
 31
0.0
  0
LINE
  5
71
330
A
100
AcDbEntity
  8
0
  6
Continuous
 62
     7
370
     0
100
AcDbLine
 10
100.0
 20
85.0
 30
0.0
 11
100.0
 21
80.48799999999999
 31
0.0
  0
LINE
  5
72
330
A
100
AcDbEntity
  8
0
  6
Continuous
 62
     7
370
     0
100
AcDbLine
 10
103.0
 20
83.496
 30
0.0
 11
103.0
 21
80.48799999999999
 31
0.0
  0
LINE
  5
73
330
A
100
AcDbEntity
  8
0
  6
Continuous
 62
     7
370
     0
100
AcDbLine
 10
126.0
 20
83.496
 30
0.0
 11
126.0
 21
80.48799999999999
 31
0.0
  0
LINE
  5
74
330
A
100
AcDbEntity
  8
0
  6
Continuous
 62
     7
370
     0
100
AcDbLine
 10
121.0
 20
83.496
 30
0.0
 11
121.0
 21
80.48799999999999
 31
0.0
  0
MTEXT
  5
76
330
A
100
AcDbEntity
  8
0
 62
     1
100
AcDbMText
 10
70.6412910857052
 20
7.274610571650754
 30
0.0
 40
0.8
 41
0.0
 71
     1
 72
     1
  1
STEEL A-36, 3/8" THICK BURNED
  7
SLDTEXTSTYLE0
 73
     1
 44
1.0
  0
MTEXT
  5
77
330
A
100
AcDbEntity
  8
0
 62
     1
100
AcDbMText
 10
93.01510987536977
 20
5.578378283614968
 30
0.0
 40
0.8
 41
0.0
 71
     1
 72
     1
  1
106.45 lbs
  7
SLDTEXTSTYLE0
 73
     1
 44
1.0
  0
MTEXT
  5
78
330
A
100
AcDbEntity
  8
0
 62
     1
100
AcDbMText
 10
118.6134160999032
 20
25.26513887300206
 30
0.0
 40
1.333333333299999
 41
0.0
 71
     2
 72
     1
  1
8 REQUIRED\PPER BASE ASSEM
  7
SLDTEXTSTYLE0
 73
     1
 44
1.0
  0
MTEXT
  5
79
330
A
100
AcDbEntity
  8
0
 62
     7
100
AcDbMText
 10
133.7071606362999
 20
72.7093023403
 30
0.0
 40
0.75
 41
0.0
 71
     1
 72
     1
  1
D
  7
SLDTEXTSTYLE0
 73
     1
 44
1.0
  0
MTEXT
  5
7A
330
A
100
AcDbEntity
  8
0
 62
     7
100
AcDbMText
 10
133.5608467974999
 20
52.369691798
 30
0.0
 40
0.75
 41
0.0
 71
     1
 72
     1
  1
C
  7
SLDTEXTSTYLE0
 73
     1
 44
1.0
  0
MTEXT
  5
7B
330
A
100
AcDbEntity
  8
0
 62
     7
100
AcDbMText
 10
133.6489664012
 20
33.7505212773
 30
0.0
 40
0.75
 41
0.0
 71
     1
 72
     1
  1
B
  7
SLDTEXTSTYLE0
 73
     1
 44
1.0
  0
MTEXT
  5
7C
330
A
100
AcDbEntity
  8
0
 62
     7
100
AcDbMText
 10
133.6444132807999
 20
13.7101456663
 30
0.0
 40
0.75
 41
0.0
 71
     1
 72
     1
  1
A
  7
SLDTEXTSTYLE0
 73
     1
 44
1.0
  0
MTEXT
  5
7D
330
A
100
AcDbEntity
  8
0
 62
     7
100
AcDbMText
 10
7.7148207894
 20
13.54731494839999
 30
0.0
 40
0.75
 41
0.0
 71
     1
 72
     1
  1
A
  7
SLDTEXTSTYLE0
 73
     1
 44
1.0
  0
MTEXT
  5
7E
330
A
100
AcDbEntity
  8
0
 62
     7
100
AcDbMText
 10
7.6892760513
 20
34.2223622451
 30
0.0
 40
0.75
 41
0.0
 71
     1
 72
     1
  1
B
  7
SLDTEXTSTYLE0
 73
     1
 44
1.0
  0
MTEXT
  5
7F
330
A
100
AcDbEntity
  8
0
 62
     7
100
AcDbMText
 10
7.5906232435
 20
54.9939200527
 30
0.0
 40
0.75
 41
0.0
 71
     1
 72
     1
  1
C
  7
SLDTEXTSTYLE0
 73
     1
 44
1.0
  0
MTEXT
  5
80
330
A
100
AcDbEntity
  8
0
 62
     7
100
AcDbMText
 10
7.564391697
 20
74.4517470685
 30
0.0
 40
0.75
 41
0.0
 71
     1
 72
     1
  1
D
  7
SLDTEXTSTYLE0
 73
     1
 44
1.0
  0
MTEXT
  5
81
330
A
100
AcDbEntity
  8
0
 62
     7
100
AcDbMText
 10
129.4864464922999
 20
4.1574284717
 30
0.0
 40
0.72
 41
0.0
 71
     1
 72
     1
  1
REV.
  7
SLDTEXTSTYLE0
 73
     1
 44
1.0
  0
MTEXT
  5
82
330
A
100
AcDbEntity
  8
0
 62
     7
100
AcDbMText
 10
98.79261609469999
 20
14.0695277957
 30
0.0
 40
0.72
 41
0.0
 71
     1
 72
     1
  1
%%p\P%%p\P%%p\P%%p
  7
SLDTEXTSTYLE0
 73
     1
 44
1.0
  0
MTEXT
  5
83
330
A
100
AcDbEntity
  8
0
 62
     7
100
AcDbMText
 10
70.4955321987
 20
8.7798767997
 30
0.0
 40
0.72
 41
0.0
 71
     1
 72
     1
  1
MATERIAL
  7
SLDTEXTSTYLE0
 73
     1
 44
1.0
  0
MTEXT
  5
84
330
A
100
AcDbEntity
  8
0
 62
     7
100
AcDbMText
 10
70.4772272517
 20
5.853390455
 30
0.0
 40
0.72
 41
0.0
 71
     1
 72
     1
  1
FINISH
  7
SLDTEXTSTYLE0
 73
     1
 44
1.0
  0
MTEXT
  5
85
330
A
100
AcDbEntity
  8
0
 62
     7
100
AcDbMText
 10
126.4034640266
 20
2.574147047799999
 30
0.0
 40
0.75
 41
0.0
 71
     1
 72
     1
  1
1
  7
SLDTEXTSTYLE0
 73
     1
 44
1.0
  0
MTEXT
  5
86
330
A
100
AcDbEntity
  8
0
 62
     7
100
AcDbMText
 10
108.7550900321999
 20
2.6520863584
 30
0.0
 40
0.75
 41
0.0
 71
     1
 72
     1
  1
2
  7
SLDTEXTSTYLE0
 73
     1
 44
1.0
  0
MTEXT
  5
87
330
A
100
AcDbEntity
  8
0
 62
     7
100
AcDbMText
 10
92.29017344739999
 20
2.6780661286
 30
0.0
 40
0.75
 41
0.0
 71
     1
 72
     1
  1
3
  7
SLDTEXTSTYLE0
 73
     1
 44
1.0
  0
MTEXT
  5
88
330
A
100
AcDbEntity
  8
0
 62
     7
100
AcDbMText
 10
77.45342064589999
 20
2.6939590187
 30
0.0
 40
0.75
 41
0.0
 71
     1
 72
     1
  1
4
  7
SLDTEXTSTYLE0
 73
     1
 44
1.0
  0
MTEXT
  5
89
330
A
100
AcDbEntity
  8
0
 62
     7
100
AcDbMText
 10
61.8501173481
 20
2.719938788999999
 30
0.0
 40
0.75
 41
0.0
 71
     1
 72
     1
  1
5
  7
SLDTEXTSTYLE0
 73
     1
 44
1.0
  0
MTEXT
  5
8A
330
A
100
AcDbEntity
  8
0
 62
     7
100
AcDbMText
 10
47.2817239888
 20
2.590039937899999
 30
0.0
 40
0.75
 41
0.0
 71
     1
 72
     1
  1
6
  7
SLDTEXTSTYLE0
 73
     1
 44
1.0
  0
MTEXT
  5
8B
330
A
100
AcDbEntity
  8
0
 62
     7
100
AcDbMText
 10
31.4418470291
 20
2.7040458988
 30
0.0
 40
0.75
 41
0.0
 71
     1
 72
     1
  1
7
  7
SLDTEXTSTYLE0
 73
     1
 44
1.0
  0
MTEXT
  5
8C
330
A
100
AcDbEntity
  8
0
 62
     7
100
AcDbMText
 10
17.18521091239999
 20
2.719938788999999
 30
0.0
 40
0.75
 41
0.0
 71
     1
 72
     1
  1
8
  7
SLDTEXTSTYLE0
 73
     1
 44
1.0
  0
MTEXT
  5
8D
330
A
100
AcDbEntity
  8
0
 62
     7
100
AcDbMText
 10
16.9382316246
 20
86.46951697049999
 30
0.0
 40
0.75
 41
0.0
 71
     1
 72
     1
  1
8
  7
SLDTEXTSTYLE0
 73
     1
 44
1.0
  0
MTEXT
  5
8E
330
A
100
AcDbEntity
  8
0
 62
     7
100
AcDbMText
 10
32.5636559821
 20
86.29121875
 30
0.0
 40
0.75
 41
0.0
 71
     1
 72
     1
  1
7
  7
SLDTEXTSTYLE0
 73
     1
 44
1.0
  0
MTEXT
  5
8F
330
A
100
AcDbEntity
  8
0
 62
     7
100
AcDbMText
 10
47.61371791770001
 20
86.23894965279999
 30
0.0
 40
0.75
 41
0.0
 71
     1
 72
     1
  1
6
  7
SLDTEXTSTYLE0
 73
     1
 44
1.0
  0
MTEXT
  5
90
330
A
100
AcDbEntity
  8
0
 62
     7
100
AcDbMText
 10
63.2495534472
 20
86.1440871961
 30
0.0
 40
0.75
 41
0.0
 71
     1
 72
     1
  1
5
  7
SLDTEXTSTYLE0
 73
     1
 44
1.0
  0
MTEXT
  5
91
330
A
100
AcDbEntity
  8
0
 62
     7
100
AcDbMText
 10
78.7905265201
 20
86.37465451389999
 30
0.0
 40
0.75
 41
0.0
 71
     1
 72
     1
  1
4
  7
SLDTEXTSTYLE0
 73
     1
 44
1.0
  0
MTEXT
  5
92
330
A
100
AcDbEntity
  8
0
 62
     7
100
AcDbMText
 10
94.41041792629999
 20
86.20917315099999
 30
0.0
 40
0.75
 41
0.0
 71
     1
 72
     1
  1
3
  7
SLDTEXTSTYLE0
 73
     1
 44
1.0
  0
MTEXT
  5
93
330
A
100
AcDbEntity
  8
0
 62
     7
100
AcDbMText
 10
109.3683838808999
 20
86.3068020833
 30
0.0
 40
0.75
 41
0.0
 71
     1
 72
     1
  1
2
  7
SLDTEXTSTYLE0
 73
     1
 44
1.0
  0
MTEXT
  5
94
330
A
100
AcDbEntity
  8
0
 62
     7
100
AcDbMText
 10
125.3351821362
 20
86.17386369790001
 30
0.0
 40
0.75
 41
0.0
 71
     1
 72
     1
  1
1
  7
SLDTEXTSTYLE0
 73
     1
 44
1.0
  0
MTEXT
  5
95
330
A
100
AcDbEntity
  8
0
 62
     7
100
AcDbMText
 10
109.243472093
 20
18.4057390878
 30
0.0
 40
1.333333333299999
 41
0.0
 71
     1
 72
     1
  1
RADIO  ASTRONOMY  LAB
  7
SLDTEXTSTYLE0
 73
     1
 44
1.0
  0
MTEXT
  5
96
330
A
100
AcDbEntity
  8
0
 62
     7
100
AcDbMText
 10
120.1820630037
 20
16.1563928723
 30
0.0
 40
0.8
 41
0.0
 71
     2
 72
     1
  1
University of California - Berkeley\PTel: 510-642-5040    Fax: 510-642-3411
  7
SLDTEXTSTYLE0
 73
     1
 44
1.0
  0
MTEXT
  5
97
330
A
100
AcDbEntity
  8
0
 62
     7
100
AcDbMText
 10
75.0718795251
 20
13.1020750892
 30
0.0
 40
0.72
 41
0.0
 71
     1
 72
     1
  1
NAME
  7
SLDTEXTSTYLE0
 73
     1
 44
1.0
  0
MTEXT
  5
98
330
A
100
AcDbEntity
  8
0
 62
     7
100
AcDbMText
 10
83.93551378839999
 20
13.0666274159
 30
0.0
 40
0.72
 41
0.0
 71
     1
 72
     1
  1
DATE
  7
SLDTEXTSTYLE0
 73
     1
 44
1.0
  0
MTEXT
  5
99
330
A
100
AcDbEntity
  8
0
 62
     7
100
AcDbMText
 10
108.6346434591
 20
4.193222905599999
 30
0.0
 40
0.72
 41
0.0
 71
     1
 72
     1
  1
SIZE
  7
SLDTEXTSTYLE0
 73
     1
 44
1.0
  0
MTEXT
  5
9A
330
A
100
AcDbEntity
  8
0
 62
     7
100
AcDbMText
 10
109.0759990447
 20
6.753055737999999
 30
0.0
 40
1.5
 41
0.0
 71
     1
 72
     1
  1
B
  7
SLDTEXTSTYLE0
 73
     1
 44
1.0
  0
MTEXT
  5
9B
330
A
100
AcDbEntity
  8
0
 62
     7
100
AcDbMText
 10
88.6337028089
 20
4.1029293655
 30
0.0
 40
0.72
 41
0.0
 71
     1
 72
     1
  1
SCALE:
  7
SLDTEXTSTYLE0
 73
     1
 44
1.0
  0
MTEXT
  5
9C
330
A
100
AcDbEntity
  8
0
 62
     7
100
AcDbMText
 10
111.3951246244
 20
4.160002249499999
 30
0.0
 40
0.72
 41
0.0
 71
     1
 72
     1
  1
DWG NUM:      SHEET             OF
  7
SLDTEXTSTYLE0
 73
     1
 44
1.0
  0
MTEXT
  5
9D
330
A
100
AcDbEntity
  8
0
 62
     7
100
AcDbMText
 10
127.9902518354
 20
83.0824214821
 30
0.0
 40
0.72
 41
0.0
 71
     1
 72
     1
  1
DATE
  7
SLDTEXTSTYLE0
 73
     1
 44
1.0
  0
MTEXT
  5
9E
330
A
100
AcDbEntity
  8
0
 62
     7
100
AcDbMText
 10
122.4199086342
 20
83.07899648279999
 30
0.0
 40
0.72
 41
0.0
 71
     1
 72
     1
  1
NAME
  7
SLDTEXTSTYLE0
 73
     1
 44
1.0
  0
MTEXT
  5
9F
330
A
100
AcDbEntity
  8
0
 62
     7
100
AcDbMText
 10
112.2645908059999
 20
84.57571736549999
 30
0.0
 40
0.72
 41
0.0
 71
     1
 72
     1
  1
REVISIONS
  7
SLDTEXTSTYLE0
 73
     1
 44
1.0
  0
MTEXT
  5
A0
330
A
100
AcDbEntity
  8
0
 62
     7
100
AcDbMText
 10
100.6575886950999
 20
83.06746593200001
 30
0.0
 40
0.72
 41
0.0
 71
     1
 72
     1
  1
REV
  7
SLDTEXTSTYLE0
 73
     1
 44
1.0
  0
MTEXT
  5
A1
330
A
100
AcDbEntity
  8
0
 62
     7
100
AcDbMText
 10
103.6996455327
 20
83.063125402
 30
0.0
 40
0.72
 41
0.0
 71
     1
 72
     1
  1
DESCRIPTION
  7
SLDTEXTSTYLE0
 73
     1
 44
1.0
  0
MTEXT
  5
A2
330
A
100
AcDbEntity
  8
0
 62
     7
100
AcDbMText
 10
88.59215742209999
 20
5.5875665187
 30
0.0
 40
0.72
 41
0.0
 71
     1
 72
     1
  1
WEIGHT:
  7
SLDTEXTSTYLE0
 73
     1
 44
1.0
  0
MTEXT
  5
A3
330
A
100
AcDbEntity
  8
0
 62
     7
100
AcDbMText
 10
70.486112941
 20
11.580355705
 30
0.0
 40
0.72
 41
0.0
 71
     1
 72
     1
  1
DRAWN
  7
SLDTEXTSTYLE0
 73
     1
 44
1.0
  0
MTEXT
  5
A4
330
A
100
AcDbEntity
  8
0
 62
     7
100
AcDbMText
 10
70.4842936054
 20
10.0906433909
 30
0.0
 40
0.72
 41
0.0
 71
     1
 72
     1
  1
CHECKED
  7
SLDTEXTSTYLE0
 73
     1
 44
1.0
  0
MTEXT
  5
A5
330
A
100
AcDbEntity
  8
0
 62
     7
100
AcDbMText
 10
97.32223433940001
 20
14.03136407759999
 30
0.0
 40
0.72
 41
0.0
 71
     3
 72
     1
  1
WHOLE & FRACTION\PDECIMAL   X.X\PDECIMAL   X.XX\PDECIMAL   X.XXX
  7
SLDTEXTSTYLE0
 73
     1
 44
1.0
  0
MTEXT
  5
A6
330
A
100
AcDbEntity
  8
0
 62
     7
100
AcDbMText
 10
100.6983805621999
 20
15.7178882085
 30
0.0
 40
0.72
 41
0.0
 71
     2
 72
     1
  1
LINEAR
  7
SLDTEXTSTYLE0
 73
     1
 44
1.0
  0
MTEXT
  5
A7
330
A
100
AcDbEntity
  8
0
 62
     7
100
AcDbMText
 10
105.342436411
 20
15.7660301251
 30
0.0
 40
0.72
 41
0.0
 71
     2
 72
     1
  1
ANGLE
  7
SLDTEXTSTYLE0
 73
     1
 44
1.0
  0
INSERT
  5
AE
330
A
100
AcDbEntity
  8
0
100
AcDbBlockReference
  2
NOTE50
 10
89.3359734859
 20
8.7523580209
 30
0.0
  0
MTEXT
  5
AF
330
A
100
AcDbEntity
  8
0
 62
     7
100
AcDbMText
 10
97.9900279047
 20
18.47122277249999
 30
0.0
 40
0.72
 41
0.0
 71
     2
 72
     1
  1
UNLESS OTHERWISE SPECIFIED\PDIMENSIONS ARE INCHES & DEGREES
  7
SLDTEXTSTYLE0
 73
     1
 44
1.0
  0
MTEXT
  5
B0
330
A
100
AcDbEntity
  8
0
 62
     7
100
AcDbMText
 10
89.61040087200002
 20
15.6669476239
 30
0.0
 40
0.72
 41
0.0
 71
     1
 72
     1
  1
TOLERANCES:
  7
SLDTEXTSTYLE0
 73
     1
 44
1.0
  0
MTEXT
  5
B1
330
A
100
AcDbEntity
  8
0
 62
     7
100
AcDbMText
 10
103.6436948099999
 20
14.0624973421
 30
0.0
 40
0.72
 41
0.0
 71
     1
 72
     1
  1
%%p\P%%p\P%%p\P%%p
  7
SLDTEXTSTYLE0
 73
     1
 44
1.0
  0
MTEXT
  5
B2
330
A
100
AcDbEntity
  8
0
 62
     7
100
AcDbMText
 10
117.3072023482999
 20
83.0898114823
 30
0.0
 40
0.72
 41
0.0
 71
     1
 72
     1
  1
ZONE
  7
SLDTEXTSTYLE0
 73
     1
 44
1.0
  0
MTEXT
  5
B3
330
A
100
AcDbEntity
  8
0
 62
     7
100
AcDbMText
 10
40.7617414555
 20
6.916533337399999
 30
0.0
 40
0.6400000000000001
 41
0.0
 71
     1
 72
     1
  1
THIS DRAWING IS THE PROPERTY OF AND CONTAINS CONFIDENTIAL\PINFORMATION PROPRIETARY TO THE UNIVERSITY OF CALIFORNIA AND\PSHALL BE USED ONLY FOR THE PURPOSE FOR WHICH IT WAS PROVIDED\PAND SHALL NOT BE REPRODUCED OR DISCLOSED TO OTHERS.
  7
SLDTEXTSTYLE0
 73
     1
 44
1.0
  0
MTEXT
  5
B4
330
A
100
AcDbEntity
  8
0
 62
     7
100
AcDbMText
 10
101.1116689033999
 20
81.63919340879999
 30
0.0
 40
0.72
 41
0.0
 71
     1
 72
     1
  1
A
  7
SLDTEXTSTYLE0
 73
     1
 44
1.0
  0
MTEXT
  5
B5
330
A
100
AcDbEntity
  8
0
 62
     7
100
AcDbMText
 10
103.8239673112999
 20
81.637212067
 30
0.0
 40
0.72
 41
0.0
 71
     1
 72
     1
  1
RELEASED
  7
SLDTEXTSTYLE0
 73
     1
 44
1.0
  0
MTEXT
  5
B6
330
A
100
AcDbEntity
  8
0
 62
     7
100
AcDbMText
 10
74.9533933852
 20
11.6810151146
 30
0.0
 40
0.8333333333
 41
0.0
 71
     1
 72
     1
  1
M. C. FLEMING
  7
SLDTEXTSTYLE0
 73
     1
 44
1.0
  0
MTEXT
  5
B7
330
A
100
AcDbEntity
  8
0
 62
     7
100
AcDbMText
 10
130.0168351041999
 20
6.6165635824
 30
0.0
 40
1.5
 41
0.0
 71
     1
 72
     1
  1
A
  7
SLDTEXTSTYLE0
 73
     1
 44
1.0
  0
MTEXT
  5
B8
330
A
100
AcDbEntity
  8
0
 62
     7
100
AcDbMText
 10
82.5771222158
 20
11.6672334094
 30
0.0
 40
0.8333333333
 41
0.0
 71
     1
 72
     1
  1
2005-01-16
  7
SLDTEXTSTYLE0
 73
     1
 44
1.0
  0
MTEXT
  5
B9
330
A
100
AcDbEntity
  8
0
 62
     7
100
AcDbMText
 10
100.099287306
 20
14.0786137913
 30
0.0
 40
0.72
 41
0.0
 71
     1
 72
     1
  1
1/16\P0.1\P0.01\P0.005
  7
SLDTEXTSTYLE0
 73
     1
 44
1.0
  0
MTEXT
  5
BA
330
A
100
AcDbEntity
  8
0
 62
     7
100
AcDbMText
 10
104.8198737557999
 20
14.06300081799999
 30
0.0
 40
0.72
 41
0.0
 71
     1
 72
     1
  1
1%%d\P0.1%%d\P0.01%%d\P0.001%%d
  7
SLDTEXTSTYLE0
 73
     1
 44
1.0
  0
MTEXT
  5
BB
330
A
100
AcDbEntity
  8
0
 62
     7
100
AcDbMText
 10
112.5922981023
 20
6.7612960901
 30
0.0
 40
1.5
 41
0.0
 71
     1
 72
     1
  1
24-09-254    1 of 1
  7
SLDTEXTSTYLE0
 73
     1
 44
1.0
  0
MTEXT
  5
BC
330
A
100
AcDbEntity
  8
0
 62
     7
100
AcDbMText
 10
122.3678259955
 20
81.6406892064
 30
0.0
 40
0.8333333333
 41
0.0
 71
     1
 72
     1
  1
M.C.F.
  7
SLDTEXTSTYLE0
 73
     1
 44
1.0
  0
MTEXT
  5
BD
330
A
100
AcDbEntity
  8
0
 62
     7
100
AcDbMText
 10
126.7357920780999
 20
81.63321917180001
 30
0.0
 40
0.8333333333
 41
0.0
 71
     1
 72
     1
  1
2005-01-16
  7
SLDTEXTSTYLE0
 73
     1
 44
1.0
  0
MTEXT
  5
BE
330
A
100
AcDbEntity
  8
0
 62
     7
100
AcDbMText
 10
119.509435212
 20
12.2606905871
 30
0.0
 40
1.5
 41
0.0
 71
     2
 72
     1
  1
CARMA 6m Base,\PArm, Side Plate
  7
SLDTEXTSTYLE0
 73
     1
 44
1.0
  0
CIRCLE
  5
BF
330
A
100
AcDbEntity
  8
0
  6
Continuous
 62
     7
370
    15
100
AcDbCircle
 10
45.8536731634
 20
59.1388614515
 30
0.0
 40
0.1565
  0
CIRCLE
  5
C0
330
A
100
AcDbEntity
  8
0
  6
Continuous
 62
     7
370
    15
100
AcDbCircle
 10
45.8536731634
 20
31.1388614515
 30
0.0
 40
0.1565
  0
CIRCLE
  5
C1
330
A
100
AcDbEntity
  8
0
  6
Continuous
 62
     7
370
    15
100
AcDbCircle
 10
57.8536731634
 20
45.13886145149999
 30
0.0
 40
0.1565
  0
CIRCLE
  5
C2
330
A
100
AcDbEntity
  8
0
  6
Continuous
 62
     7
370
    15
100
AcDbCircle
 10
57.8536731634
 20
31.1388614515
 30
0.0
 40
0.1565
  0
LINE
  5
C3
330
A
100
AcDbEntity
  8
0
  6
Continuous
 62
     7
370
    15
100
AcDbLine
 10
79.10367329839999
 20
41.9518614515
 30
0.0
 11
63.7286733651
 21
41.9518614515
 31
0.0
  0
LINE
  5
C4
330
A
100
AcDbEntity
  8
0
  6
Continuous
 62
     7
370
    15
100
AcDbLine
 10
63.7286733651
 20
41.9518614515
 30
0.0
 11
63.7286733651
 21
43.99793300169999
 31
0.0
  0
LINE
  5
C5
330
A
100
AcDbEntity
  8
0
  6
Continuous
 62
     7
370
    15
100
AcDbLine
 10
63.7286733651
 20
43.99793300169999
 30
0.0
 11
38.9156751003
 21
68.13886176369999
 31
0.0
  0
LINE
  5
C6
330
A
100
AcDbEntity
  8
0
  6
Continuous
 62
     7
370
    15
100
AcDbLine
 10
38.9156751003
 20
68.13886176369999
 30
0.0
 11
37.8536752086
 21
68.13886176369999
 31
0.0
  0
LINE
  5
C7
330
A
100
AcDbEntity
  8
0
  6
Continuous
 62
     7
370
    15
100
AcDbLine
 10
37.8536752086
 20
68.13886176369999
 30
0.0
 11
37.8536752086
 21
22.13886217289999
 31
0.0
  0
LINE
  5
C8
330
A
100
AcDbEntity
  8
0
  6
Continuous
 62
     7
370
    15
100
AcDbLine
 10
37.8536752086
 20
22.13886217289999
 30
0.0
 11
38.5406727123
 21
22.13886217289999
 31
0.0
  0
LINE
  5
C9
330
A
100
AcDbEntity
  8
0
  6
Continuous
 62
     7
370
    15
100
AcDbLine
 10
38.5406727123
 20
22.13886217289999
 30
0.0
 11
68.1036730647
 21
29.3268620165
 31
0.0
  0
LINE
  5
CA
330
A
100
AcDbEntity
  8
0
  6
Continuous
 62
     7
370
    15
100
AcDbLine
 10
68.1036730647
 20
29.3268620165
 30
0.0
 11
68.1036730647
 21
29.9518613032
 31
0.0
  0
LINE
  5
CB
330
A
100
AcDbEntity
  8
0
  6
Continuous
 62
     7
370
    15
100
AcDbLine
 10
68.1036730647
 20
29.9518613032
 30
0.0
 11
79.10367329839999
 21
29.9518613032
 31
0.0
  0
LINE
  5
CC
330
A
100
AcDbEntity
  8
0
  6
Continuous
 62
     7
370
    15
100
AcDbLine
 10
79.10367329839999
 20
29.9518613032
 30
0.0
 11
79.10367329839999
 21
41.9518614515
 31
0.0
  0
DIMENSION
  5
DA
330
A
100
AcDbEntity
  8
0
100
AcDbDimension
  2
*D1
 10
20.2531132075
 20
22.1388614515
 30
0.0
 11
20.2531132075
 21
45.13886145149999
 31
0.0
 70
   160
 71
     5
 42
0.0
  3
SLDDIMSTYLE0
100
AcDbAlignedDimension
 13
37.8536731634
 23
68.13886145149999
 33
0.0
 14
37.8536731634
 24
22.1388614515
 34
0.0
 50
90.0
100
AcDbRotatedDimension
  0
DIMENSION
  5
E7
330
A
100
AcDbEntity
  8
0
100
AcDbDimension
  2
*D2
 10
37.8536731634
 20
72.725509434
 30
0.0
 11
32.0801735227
 21
72.725509434
 31
0.0
 70
   160
 71
     5
 42
0.0
  3
SLDDIMSTYLE0
100
AcDbAlignedDimension
 13
38.9156731634
 23
68.13886145149999
 33
0.0
 14
37.8536731634
 24
68.13886145149999
 34
0.0
100
AcDbRotatedDimension
  0
DIMENSION
  5
F6
330
A
100
AcDbEntity
  8
0
100
AcDbDimension
  2
*D3
 10
63.7286731634
 20
43.99793303729999
 30
0.0
 11
54.2386987033
 21
61.9147299887
 31
0.0
 70
   162
 71
     5
 42
0.0
  3
SLDDIMSTYLE1
100
AcDb2LineAngularDimension
 13
37.8536731634
 23
68.13886145149999
 33
0.0
 14
38.9156731634
 24
68.13886145149999
 34
0.0
 15
38.9156731634
 25
68.13886145149999
 35
0.0
 16
52.7611316662
 26
59.0924144687
 36
0.0
  0
DIMENSION
  5
104
330
A
100
AcDbEntity
  8
0
100
AcDbDimension
  2
*D4
 10
68.1036731634
 20
29.3268614515
 30
0.0
 11
61.25777113499999
 21
24.8609457523
 31
0.0
 70
   162
 71
     5
 42
0.0
  3
SLDDIMSTYLE1
100
AcDb2LineAngularDimension
 13
37.8536731634
 23
22.1388614515
 33
0.0
 14
38.5406731634
 24
22.1388614515
 34
0.0
 15
38.5406731634
 25
22.1388614515
 35
0.0
 16
61.3796145881
 26
23.5023268139
 36
0.0
  0
DIMENSION
  5
113
330
A
100
AcDbEntity
  8
0
100
AcDbDimension
  2
*D5
 10
89.08786792449999
 20
41.9518614515
 30
0.0
 11
89.08786792449999
 21
35.9518614515
 31
0.0
 70
   160
  1
<>\PTO MATCH \P24-09-251 LIFTING TUBE
 71
     5
 42
0.0
  3
SLDDIMSTYLE0
100
AcDbAlignedDimension
 13
79.1036731634
 23
29.9518614515
 33
0.0
 14
79.1036731634
 24
41.9518614515
 34
0.0
 50
90.0
100
AcDbRotatedDimension
  0
DIMENSION
  5
120
330
A
100
AcDbEntity
  8
0
100
AcDbDimension
  2
*D6
 10
89.2748679245
 20
29.9518614515
 30
0.0
 11
89.2748679245
 21
26.04536145149999
 31
0.0
 70
   160
 71
     5
 42
0.0
  3
SLDDIMSTYLE0
100
AcDbAlignedDimension
 13
38.5406731634
 23
22.1388614515
 33
0.0
 14
79.1036731634
 24
29.9518614515
 34
0.0
 50
90.0
100
AcDbRotatedDimension
  0
DIMENSION
  5
12F
330
A
100
AcDbEntity
  8
0
100
AcDbDimension
  2
*D7
 10
89.14986792449999
 20
41.9518614515
 30
0.0
 11
89.14986792449999
 21
55.04536145149999
 31
0.0
 70
   160
  1
(<>)
 71
     5
 42
0.0
  3
SLDDIMSTYLE0
100
AcDbAlignedDimension
 13
38.9156731634
 23
68.13886145149999
 33
0.0
 14
79.1036731634
 24
41.9518614515
 34
0.0
 50
90.0
100
AcDbRotatedDimension
  0
DIMENSION
  5
13E
330
A
100
AcDbEntity
  8
0
100
AcDbDimension
  2
*D8
 10
63.7286731634
 20
77.17128369460001
 30
0.0
 11
50.7911731634
 21
77.17128369460001
 31
0.0
 70
   160
  1
(<>)
 71
     5
 42
0.0
  3
SLDDIMSTYLE0
100
AcDbAlignedDimension
 13
37.8536731634
 23
68.13886145149999
 33
0.0
 14
63.7286731634
 24
43.99793303729999
 34
0.0
100
AcDbRotatedDimension
  0
DIMENSION
  5
14B
330
A
100
AcDbEntity
  8
0
100
AcDbDimension
  2
*D9
 10
79.1036731634
 20
81.09362111219999
 30
0.0
 11
58.4786731634
 21
81.09362111219999
 31
0.0
 70
   160
 71
     5
 42
0.0
  3
SLDDIMSTYLE0
100
AcDbAlignedDimension
 13
37.8536731634
 23
68.13886145149999
 33
0.0
 14
79.1036731634
 24
41.9518614515
 34
0.0
100
AcDbRotatedDimension
  0
DIMENSION
  5
158
330
A
100
AcDbEntity
  8
0
100
AcDbDimension
  2
*D10
 10
68.8934733519
 20
41.9518614515
 30
0.0
 11
68.8934733519
 21
52.8601742406
 31
0.0
 70
   160
 71
     5
 42
0.0
  3
SLDDIMSTYLE0
100
AcDbAlignedDimension
 13
63.7286731634
 23
43.99793303729999
 33
0.0
 14
63.7286731634
 24
41.9518614515
 34
0.0
 50
90.0
100
AcDbRotatedDimension
  0
DIMENSION
  5
166
330
A
100
AcDbEntity
  8
0
100
AcDbDimension
  2
*D11
 10
57.8536731634
 20
11.00166764539999
 30
0.0
 11
47.8536731634
 21
11.00166764539999
 31
0.0
 70
   160
 71
     5
 42
0.0
  3
SLDDIMSTYLE2
100
AcDbAlignedDimension
 13
37.8536731634
 23
22.1388614515
 33
0.0
 14
57.8536731634
 24
45.13886145149999
 34
0.0
100
AcDbRotatedDimension
  0
DIMENSION
  5
173
330
A
100
AcDbEntity
  8
0
100
AcDbDimension
  2
*D12
 10
45.8536731634
 20
15.1622571752
 30
0.0
 11
41.8536731634
 21
15.1622571752
 31
0.0
 70
   160
 71
     5
 42
0.0
  3
SLDDIMSTYLE2
100
AcDbAlignedDimension
 13
37.8536731634
 23
22.1388614515
 33
0.0
 14
45.8536731634
 24
59.1388614515
 34
0.0
100
AcDbRotatedDimension
  0
DIMENSION
  5
180
330
A
100
AcDbEntity
  8
0
100
AcDbDimension
  2
*D13
 10
31.61284375719999
 20
31.1388614515
 30
0.0
 11
31.61284375719999
 21
26.6388614515
 31
0.0
 70
   160
 71
     5
 42
0.0
  3
SLDDIMSTYLE2
100
AcDbAlignedDimension
 13
37.8536731634
 23
22.1388614515
 33
0.0
 14
57.8536731634
 24
31.1388614515
 34
0.0
 50
90.0
100
AcDbRotatedDimension
  0
DIMENSION
  5
18D
330
A
100
AcDbEntity
  8
0
100
AcDbDimension
  2
*D14
 10
29.5209304679
 20
45.13886145149999
 30
0.0
 11
29.5209304679
 21
56.6388614515
 31
0.0
 70
   160
 71
     5
 42
0.0
  3
SLDDIMSTYLE2
100
AcDbAlignedDimension
 13
37.8536731634
 23
68.13886145149999
 33
0.0
 14
57.8536731634
 24
45.13886145149999
 34
0.0
 50
90.0
100
AcDbRotatedDimension
  0
DIMENSION
  5
19A
330
A
100
AcDbEntity
  8
0
100
AcDbDimension
  2
*D15
 10
33.7047570466
 20
59.1388614515
 30
0.0
 11
33.7047570466
 21
63.6388614515
 31
0.0
 70
   160
 71
     5
 42
0.0
  3
SLDDIMSTYLE2
100
AcDbAlignedDimension
 13
37.8536731634
 23
68.13886145149999
 33
0.0
 14
45.8536731634
 24
59.1388614515
 34
0.0
 50
90.0
100
AcDbRotatedDimension
  0
DIMENSION
  5
1A9
330
A
100
AcDbEntity
  8
0
100
AcDbDimension
  2
*D16
 10
45.98147736399999
 20
31.0485379422
 30
0.0
 11
28.3969798284
 21
38.1447413419
 31
0.0
 70
   163
  1
<> DRILL THRU\P4 PLACES\P\PDEBURR
 71
     5
 42
0.0
  3
SLDDIMSTYLE3
100
AcDbDiametricDimension
 15
45.7258689629
 25
31.2291849607
 35
0.0
 40
0.0
  0
DIMENSION
  5
1B7
330
A
100
AcDbEntity
  8
0
100
AcDbDimension
  2
*D17
 10
73.36537846569999
 20
29.9518614515
 30
0.0
 11
73.36537846569999
 21
23.17954011979999
 31
0.0
 70
   160
 71
     5
 42
0.0
  3
SLDDIMSTYLE0
100
AcDbAlignedDimension
 13
68.1036731634
 23
29.3268614515
 33
0.0
 14
68.1036731634
 24
29.9518614515
 34
0.0
 50
90.0
100
AcDbRotatedDimension
  0
DIMENSION
  5
1C4
330
A
100
AcDbEntity
  8
0
100
AcDbDimension
  2
*D18
 10
38.5406731634
 20
18.7210022583
 30
0.0
 11
30.36608952839999
 21
18.7210022583
 31
0.0
 70
   160
 71
     5
 42
0.0
  3
SLDDIMSTYLE0
100
AcDbAlignedDimension
 13
37.8536731634
 23
22.1388614515
 33
0.0
 14
38.5406731634
 24
22.1388614515
 34
0.0
100
AcDbRotatedDimension
  0
DIMENSION
  5
1D1
330
A
100
AcDbEntity
  8
0
 62
     7
100
AcDbDimension
  2
*D19
 10
63.7286731634
 20
63.66755812939999
 30
0.0
 11
71.40751801739999
 21
63.66755812939999
 31
0.0
 70
   160
 71
     5
 42
0.0
  3
SLDDIMSTYLE0
100
AcDbAlignedDimension
 13
79.1036731634
 23
41.9518614515
 33
0.0
 14
63.7286731634
 24
43.99793303729999
 34
0.0
100
AcDbRotatedDimension
  0
DIMENSION
  5
1DE
330
A
100
AcDbEntity
  8
0
 62
     7
100
AcDbDimension
  2
*D20
 10
68.1036731634
 20
19.5316486915
 30
0.0
 11
72.9597241612
 21
19.5316486915
 31
0.0
 70
   160
 71
     5
 42
0.0
  3
SLDDIMSTYLE2
100
AcDbAlignedDimension
 13
79.1036731634
 23
29.9518614515
 33
0.0
 14
68.1036731634
 24
29.3268614515
 34
0.0
100
AcDbRotatedDimension
  0
LINE
  5
1DF
330
A
100
AcDbEntity
  8
0
  6
Continuous
 62
     7
370
    15
100
AcDbLine
 10
116.0090096213
 20
34.9158163501
 30
0.0
 11
122.2315492958
 21
31.323620658
 31
0.0
  0
LINE
  5
1E0
330
A
100
AcDbEntity
  8
0
  6
Continuous
 62
     7
370
    15
100
AcDbLine
 10
116.0090096213
 20
34.50754594409999
 30
0.0
 11
116.0090096213
 21
34.9158163501
 31
0.0
  0
LINE
  5
1E1
330
A
100
AcDbEntity
  8
0
  6
Continuous
 62
     7
370
    15
100
AcDbLine
 10
99.28565140359999
 20
39.4662988634
 30
0.0
 11
116.0090096213
 21
34.50754594409999
 31
0.0
  0
LINE
  5
1E2
330
A
100
AcDbEntity
  8
0
  6
Continuous
 62
     7
370
    15
100
AcDbLine
 10
98.89702551660001
 20
39.6906478125
 30
0.0
 11
99.28565140359999
 21
39.4662988634
 31
0.0
  0
LINE
  5
1E3
330
A
100
AcDbEntity
  8
0
  6
Continuous
 62
     7
370
    15
100
AcDbLine
 10
98.89702551660001
 20
69.7393496899
 30
0.0
 11
98.89702551660001
 21
39.6906478125
 31
0.0
  0
LINE
  5
1E4
330
A
100
AcDbEntity
  8
0
  6
Continuous
 62
     7
370
    15
100
AcDbLine
 10
99.49778343790001
 20
69.392539524
 30
0.0
 11
98.89702551660001
 21
69.7393496899
 31
0.0
  0
LINE
  5
1E5
330
A
100
AcDbEntity
  8
0
  6
Continuous
 62
     7
370
    15
100
AcDbLine
 10
113.5341358872
 20
45.51988310289999
 30
0.0
 11
99.49778343790001
 21
69.392539524
 31
0.0
  0
LINE
  5
1E6
330
A
100
AcDbEntity
  8
0
  6
Continuous
 62
     7
370
    15
100
AcDbLine
 10
113.5341358872
 20
44.18332233989999
 30
0.0
 11
113.5341358872
 21
45.51988310289999
 31
0.0
  0
LINE
  5
1E7
330
A
100
AcDbEntity
  8
0
  6
Continuous
 62
     7
370
    15
100
AcDbLine
 10
122.2315492958
 20
39.1624124521
 30
0.0
 11
113.5341358872
 21
44.18332233989999
 31
0.0
  0
LINE
  5
1E8
330
A
100
AcDbEntity
  8
0
  6
Continuous
 62
     7
370
    15
100
AcDbLine
 10
122.2315492958
 20
31.323620658
 30
0.0
 11
122.2315492958
 21
39.1624124521
 31
0.0
  0
POLYLINE
  5
1E9
330
A
100
AcDbEntity
  8
0
  6
Continuous
 62
     7
100
AcDb2dPolyline
 66
     1
 10
0.0
 20
0.0
 30
0.0
 70
   128
 40
0.0472440945
 41
0.0472440945
  0
VERTEX
  5
1EA
330
1E9
100
AcDbEntity
  8
0
100
AcDbVertex
100
AcDb2dVertex
 10
103.5110386852
 20
61.1966427387
 30
0.0
  0
VERTEX
  5
1EB
330
1E9
100
AcDbEntity
  8
0
100
AcDbVertex
100
AcDb2dVertex
 10
103.507105556
 20
61.2290463755
 30
0.0
  0
VERTEX
  5
1EC
330
1E9
100
AcDbEntity
  8
0
100
AcDbVertex
100
AcDb2dVertex
 10
103.4956556440999
 20
61.2631119013
 30
0.0
  0
VERTEX
  5
1ED
330
1E9
100
AcDbEntity
  8
0
100
AcDbVertex
100
AcDb2dVertex
 10
103.4777063244
 20
61.2958124447
 30
0.0
  0
VERTEX
  5
1EE
330
1E9
100
AcDbEntity
  8
0
100
AcDbVertex
100
AcDb2dVertex
 10
103.4548524727
 20
61.3242424189
 30
0.0
  0
VERTEX
  5
1EF
330
1E9
100
AcDbEntity
  8
0
100
AcDbVertex
100
AcDb2dVertex
 10
103.4291247540999
 20
61.34587569579999
 30
0.0
  0
VERTEX
  5
1F0
330
1E9
100
AcDbEntity
  8
0
100
AcDbVertex
100
AcDb2dVertex
 10
103.4028091893
 20
61.3587900641
 30
0.0
  0
VERTEX
  5
1F1
330
1E9
100
AcDbEntity
  8
0
100
AcDbVertex
100
AcDb2dVertex
 10
103.3782440317
 20
61.36183802520001
 30
0.0
  0
VERTEX
  5
1F2
330
1E9
100
AcDbEntity
  8
0
100
AcDbVertex
100
AcDb2dVertex
 10
103.3576120033
 20
61.3547487545
 30
0.0
  0
VERTEX
  5
1F3
330
1E9
100
AcDbEntity
  8
0
100
AcDbVertex
100
AcDb2dVertex
 10
103.3427463505
 20
61.33815216489999
 30
0.0
  0
VERTEX
  5
1F4
330
1E9
100
AcDbEntity
  8
0
100
AcDbVertex
100
AcDb2dVertex
 10
103.3349679515999
 20
61.3135229361
 30
0.0
  0
VERTEX
  5
1F5
330
1E9
100
AcDbEntity
  8
0
100
AcDbVertex
100
AcDb2dVertex
 10
103.3349679515999
 20
61.2830494832
 30
0.0
  0
VERTEX
  5
1F6
330
1E9
100
AcDbEntity
  8
0
100
AcDbVertex
100
AcDb2dVertex
 10
103.3427463505
 20
61.2494395063
 30
0.0
  0
VERTEX
  5
1F7
330
1E9
100
AcDbEntity
  8
0
100
AcDbVertex
100
AcDb2dVertex
 10
103.3576120033
 20
61.2156793991
 30
0.0
  0
VERTEX
  5
1F8
330
1E9
100
AcDbEntity
  8
0
100
AcDbVertex
100
AcDb2dVertex
 10
103.3782440317
 20
61.1847688956
 30
0.0
  0
VERTEX
  5
1F9
330
1E9
100
AcDbEntity
  8
0
100
AcDbVertex
100
AcDb2dVertex
 10
103.4028091893
 20
61.1594545294
 30
0.0
  0
VERTEX
  5
1FA
330
1E9
100
AcDbEntity
  8
0
100
AcDbVertex
100
AcDb2dVertex
 10
103.4291247540999
 20
61.1419855933
 30
0.0
  0
VERTEX
  5
1FB
330
1E9
100
AcDbEntity
  8
0
100
AcDbVertex
100
AcDb2dVertex
 10
103.4548524727
 20
61.13391427869999
 30
0.0
  0
VERTEX
  5
1FC
330
1E9
100
AcDbEntity
  8
0
100
AcDbVertex
100
AcDb2dVertex
 10
103.4777063244
 20
61.1359577574
 30
0.0
  0
VERTEX
  5
1FD
330
1E9
100
AcDbEntity
  8
0
100
AcDbVertex
100
AcDb2dVertex
 10
103.4956556440999
 20
61.1479344574
 30
0.0
  0
VERTEX
  5
1FE
330
1E9
100
AcDbEntity
  8
0
100
AcDbVertex
100
AcDb2dVertex
 10
103.507105556
 20
61.1687801963
 30
0.0
  0
VERTEX
  5
1FF
330
1E9
100
AcDbEntity
  8
0
100
AcDbVertex
100
AcDb2dVertex
 10
103.5110386852
 20
61.1966427387
 30
0.0
  0
SEQEND
  5
200
330
1E9
100
AcDbEntity
  8
0
  0
POLYLINE
  5
201
330
A
100
AcDbEntity
  8
0
  6
Continuous
 62
     7
100
AcDb2dPolyline
 66
     1
 10
0.0
 20
0.0
 30
0.0
 70
   128
 40
0.0472440945
 41
0.0472440945
  0
VERTEX
  5
202
330
201
100
AcDbEntity
  8
0
100
AcDbVertex
100
AcDb2dVertex
 10
103.5110386852
 20
42.9061285524
 30
0.0
  0
VERTEX
  5
203
330
201
100
AcDbEntity
  8
0
100
AcDbVertex
100
AcDb2dVertex
 10
103.507105556
 20
42.9385321892
 30
0.0
  0
VERTEX
  5
204
330
201
100
AcDbEntity
  8
0
100
AcDbVertex
100
AcDb2dVertex
 10
103.4956556440999
 20
42.9725977151
 30
0.0
  0
VERTEX
  5
205
330
201
100
AcDbEntity
  8
0
100
AcDbVertex
100
AcDb2dVertex
 10
103.4777063244
 20
43.0052982584
 30
0.0
  0
VERTEX
  5
206
330
201
100
AcDbEntity
  8
0
100
AcDbVertex
100
AcDb2dVertex
 10
103.4548524727
 20
43.03372823260001
 30
0.0
  0
VERTEX
  5
207
330
201
100
AcDbEntity
  8
0
100
AcDbVertex
100
AcDb2dVertex
 10
103.4291247540999
 20
43.0553615096
 30
0.0
  0
VERTEX
  5
208
330
201
100
AcDbEntity
  8
0
100
AcDbVertex
100
AcDb2dVertex
 10
103.4028091893
 20
43.06827587779999
 30
0.0
  0
VERTEX
  5
209
330
201
100
AcDbEntity
  8
0
100
AcDbVertex
100
AcDb2dVertex
 10
103.3782440317
 20
43.07132383899999
 30
0.0
  0
VERTEX
  5
20A
330
201
100
AcDbEntity
  8
0
100
AcDbVertex
100
AcDb2dVertex
 10
103.3576120033
 20
43.0642345683
 30
0.0
  0
VERTEX
  5
20B
330
201
100
AcDbEntity
  8
0
100
AcDbVertex
100
AcDb2dVertex
 10
103.3427463505
 20
43.04763797869999
 30
0.0
  0
VERTEX
  5
20C
330
201
100
AcDbEntity
  8
0
100
AcDbVertex
100
AcDb2dVertex
 10
103.3349679515999
 20
43.0230087499
 30
0.0
  0
VERTEX
  5
20D
330
201
100
AcDbEntity
  8
0
100
AcDbVertex
100
AcDb2dVertex
 10
103.3349679515999
 20
42.99253529699999
 30
0.0
  0
VERTEX
  5
20E
330
201
100
AcDbEntity
  8
0
100
AcDbVertex
100
AcDb2dVertex
 10
103.3427463505
 20
42.95892531999999
 30
0.0
  0
VERTEX
  5
20F
330
201
100
AcDbEntity
  8
0
100
AcDbVertex
100
AcDb2dVertex
 10
103.3576120033
 20
42.92516521289999
 30
0.0
  0
VERTEX
  5
210
330
201
100
AcDbEntity
  8
0
100
AcDbVertex
100
AcDb2dVertex
 10
103.3782440317
 20
42.8942547093
 30
0.0
  0
VERTEX
  5
211
330
201
100
AcDbEntity
  8
0
100
AcDbVertex
100
AcDb2dVertex
 10
103.4028091893
 20
42.8689403432
 30
0.0
  0
VERTEX
  5
212
330
201
100
AcDbEntity
  8
0
100
AcDbVertex
100
AcDb2dVertex
 10
103.4291247540999
 20
42.851471407
 30
0.0
  0
VERTEX
  5
213
330
201
100
AcDbEntity
  8
0
100
AcDbVertex
100
AcDb2dVertex
 10
103.4548524727
 20
42.8434000924
 30
0.0
  0
VERTEX
  5
214
330
201
100
AcDbEntity
  8
0
100
AcDbVertex
100
AcDb2dVertex
 10
103.4777063244
 20
42.8454435712
 30
0.0
  0
VERTEX
  5
215
330
201
100
AcDbEntity
  8
0
100
AcDbVertex
100
AcDb2dVertex
 10
103.4956556440999
 20
42.8574202711
 30
0.0
  0
VERTEX
  5
216
330
201
100
AcDbEntity
  8
0
100
AcDbVertex
100
AcDb2dVertex
 10
103.507105556
 20
42.87826600999999
 30
0.0
  0
VERTEX
  5
217
330
201
100
AcDbEntity
  8
0
100
AcDbVertex
100
AcDb2dVertex
 10
103.5110386852
 20
42.9061285524
 30
0.0
  0
SEQEND
  5
218
330
201
100
AcDbEntity
  8
0
  0
POLYLINE
  5
219
330
A
100
AcDbEntity
  8
0
  6
Continuous
 62
     7
100
AcDb2dPolyline
 66
     1
 10
0.0
 20
0.0
 30
0.0
 70
   128
 40
0.0472440945
 41
0.0472440945
  0
VERTEX
  5
21A
330
219
100
AcDbEntity
  8
0
100
AcDbVertex
100
AcDb2dVertex
 10
110.2992637845999
 20
38.9873696157
 30
0.0
  0
VERTEX
  5
21B
330
219
100
AcDbEntity
  8
0
100
AcDbVertex
100
AcDb2dVertex
 10
110.2953306554
 20
39.0197732525
 30
0.0
  0
VERTEX
  5
21C
330
219
100
AcDbEntity
  8
0
100
AcDbVertex
100
AcDb2dVertex
 10
110.2838807434
 20
39.05383877829999
 30
0.0
  0
VERTEX
  5
21D
330
219
100
AcDbEntity
  8
0
100
AcDbVertex
100
AcDb2dVertex
 10
110.2659314237
 20
39.0865393217
 30
0.0
  0
VERTEX
  5
21E
330
219
100
AcDbEntity
  8
0
100
AcDbVertex
100
AcDb2dVertex
 10
110.2430775720999
 20
39.1149692959
 30
0.0
  0
VERTEX
  5
21F
330
219
100
AcDbEntity
  8
0
100
AcDbVertex
100
AcDb2dVertex
 10
110.2173498535
 20
39.1366025729
 30
0.0
  0
VERTEX
  5
220
330
219
100
AcDbEntity
  8
0
100
AcDbVertex
100
AcDb2dVertex
 10
110.1910342887
 20
39.1495169411
 30
0.0
  0
VERTEX
  5
221
330
219
100
AcDbEntity
  8
0
100
AcDbVertex
100
AcDb2dVertex
 10
110.1664691310999
 20
39.15256490219999
 30
0.0
  0
VERTEX
  5
222
330
219
100
AcDbEntity
  8
0
100
AcDbVertex
100
AcDb2dVertex
 10
110.1458371027
 20
39.1454756316
 30
0.0
  0
VERTEX
  5
223
330
219
100
AcDbEntity
  8
0
100
AcDbVertex
100
AcDb2dVertex
 10
110.1309714499
 20
39.1288790419
 30
0.0
  0
VERTEX
  5
224
330
219
100
AcDbEntity
  8
0
100
AcDbVertex
100
AcDb2dVertex
 10
110.123193051
 20
39.10424981309999
 30
0.0
  0
VERTEX
  5
225
330
219
100
AcDbEntity
  8
0
100
AcDbVertex
100
AcDb2dVertex
 10
110.123193051
 20
39.0737763602
 30
0.0
  0
VERTEX
  5
226
330
219
100
AcDbEntity
  8
0
100
AcDbVertex
100
AcDb2dVertex
 10
110.1309714499
 20
39.04016638329999
 30
0.0
  0
VERTEX
  5
227
330
219
100
AcDbEntity
  8
0
100
AcDbVertex
100
AcDb2dVertex
 10
110.1458371027
 20
39.00640627619999
 30
0.0
  0
VERTEX
  5
228
330
219
100
AcDbEntity
  8
0
100
AcDbVertex
100
AcDb2dVertex
 10
110.1664691310999
 20
38.9754957726
 30
0.0
  0
VERTEX
  5
229
330
219
100
AcDbEntity
  8
0
100
AcDbVertex
100
AcDb2dVertex
 10
110.1910342887
 20
38.9501814065
 30
0.0
  0
VERTEX
  5
22A
330
219
100
AcDbEntity
  8
0
100
AcDbVertex
100
AcDb2dVertex
 10
110.2173498535
 20
38.9327124703
 30
0.0
  0
VERTEX
  5
22B
330
219
100
AcDbEntity
  8
0
100
AcDbVertex
100
AcDb2dVertex
 10
110.2430775720999
 20
38.9246411557
 30
0.0
  0
VERTEX
  5
22C
330
219
100
AcDbEntity
  8
0
100
AcDbVertex
100
AcDb2dVertex
 10
110.2659314237
 20
38.92668463439999
 30
0.0
  0
VERTEX
  5
22D
330
219
100
AcDbEntity
  8
0
100
AcDbVertex
100
AcDb2dVertex
 10
110.2838807434
 20
38.9386613344
 30
0.0
  0
VERTEX
  5
22E
330
219
100
AcDbEntity
  8
0
100
AcDbVertex
100
AcDb2dVertex
 10
110.2953306554
 20
38.95950707329999
 30
0.0
  0
VERTEX
  5
22F
330
219
100
AcDbEntity
  8
0
100
AcDbVertex
100
AcDb2dVertex
 10
110.2992637845999
 20
38.9873696157
 30
0.0
  0
SEQEND
  5
230
330
219
100
AcDbEntity
  8
0
  0
POLYLINE
  5
231
330
A
100
AcDbEntity
  8
0
  6
Continuous
 62
     7
100
AcDb2dPolyline
 66
     1
 10
0.0
 20
0.0
 30
0.0
 70
   128
 40
0.0472440945
 41
0.0472440945
  0
VERTEX
  5
232
330
231
100
AcDbEntity
  8
0
100
AcDbVertex
100
AcDb2dVertex
 10
110.2992637845999
 20
48.1326267088
 30
0.0
  0
VERTEX
  5
233
330
231
100
AcDbEntity
  8
0
100
AcDbVertex
100
AcDb2dVertex
 10
110.2953306554
 20
48.1650303456
 30
0.0
  0
VERTEX
  5
234
330
231
100
AcDbEntity
  8
0
100
AcDbVertex
100
AcDb2dVertex
 10
110.2838807434
 20
48.1990958714
 30
0.0
  0
VERTEX
  5
235
330
231
100
AcDbEntity
  8
0
100
AcDbVertex
100
AcDb2dVertex
 10
110.2659314237
 20
48.23179641479999
 30
0.0
  0
VERTEX
  5
236
330
231
100
AcDbEntity
  8
0
100
AcDbVertex
100
AcDb2dVertex
 10
110.2430775720999
 20
48.26022638899999
 30
0.0
  0
VERTEX
  5
237
330
231
100
AcDbEntity
  8
0
100
AcDbVertex
100
AcDb2dVertex
 10
110.2173498535
 20
48.281859666
 30
0.0
  0
VERTEX
  5
238
330
231
100
AcDbEntity
  8
0
100
AcDbVertex
100
AcDb2dVertex
 10
110.1910342887
 20
48.2947740342
 30
0.0
  0
VERTEX
  5
239
330
231
100
AcDbEntity
  8
0
100
AcDbVertex
100
AcDb2dVertex
 10
110.1664691310999
 20
48.2978219953
 30
0.0
  0
VERTEX
  5
23A
330
231
100
AcDbEntity
  8
0
100
AcDbVertex
100
AcDb2dVertex
 10
110.1458371027
 20
48.2907327247
 30
0.0
  0
VERTEX
  5
23B
330
231
100
AcDbEntity
  8
0
100
AcDbVertex
100
AcDb2dVertex
 10
110.1309714499
 20
48.274136135
 30
0.0
  0
VERTEX
  5
23C
330
231
100
AcDbEntity
  8
0
100
AcDbVertex
100
AcDb2dVertex
 10
110.123193051
 20
48.2495069063
 30
0.0
  0
VERTEX
  5
23D
330
231
100
AcDbEntity
  8
0
100
AcDbVertex
100
AcDb2dVertex
 10
110.123193051
 20
48.2190334534
 30
0.0
  0
VERTEX
  5
23E
330
231
100
AcDbEntity
  8
0
100
AcDbVertex
100
AcDb2dVertex
 10
110.1309714499
 20
48.18542347640001
 30
0.0
  0
VERTEX
  5
23F
330
231
100
AcDbEntity
  8
0
100
AcDbVertex
100
AcDb2dVertex
 10
110.1458371027
 20
48.1516633693
 30
0.0
  0
VERTEX
  5
240
330
231
100
AcDbEntity
  8
0
100
AcDbVertex
100
AcDb2dVertex
 10
110.1664691310999
 20
48.12075286569999
 30
0.0
  0
VERTEX
  5
241
330
231
100
AcDbEntity
  8
0
100
AcDbVertex
100
AcDb2dVertex
 10
110.1910342887
 20
48.0954384996
 30
0.0
  0
VERTEX
  5
242
330
231
100
AcDbEntity
  8
0
100
AcDbVertex
100
AcDb2dVertex
 10
110.2173498535
 20
48.0779695634
 30
0.0
  0
VERTEX
  5
243
330
231
100
AcDbEntity
  8
0
100
AcDbVertex
100
AcDb2dVertex
 10
110.2430775720999
 20
48.0698982488
 30
0.0
  0
VERTEX
  5
244
330
231
100
AcDbEntity
  8
0
100
AcDbVertex
100
AcDb2dVertex
 10
110.2659314237
 20
48.0719417275
 30
0.0
  0
VERTEX
  5
245
330
231
100
AcDbEntity
  8
0
100
AcDbVertex
100
AcDb2dVertex
 10
110.2838807434
 20
48.0839184275
 30
0.0
  0
VERTEX
  5
246
330
231
100
AcDbEntity
  8
0
100
AcDbVertex
100
AcDb2dVertex
 10
110.2953306554
 20
48.1047641664
 30
0.0
  0
VERTEX
  5
247
330
231
100
AcDbEntity
  8
0
100
AcDbVertex
100
AcDb2dVertex
 10
110.2992637845999
 20
48.1326267088
 30
0.0
  0
SEQEND
  5
248
330
231
100
AcDbEntity
  8
0
  0
LINE
  5
249
330
A
100
AcDbEntity
  8
0
  6
Continuous
 62
     7
370
    15
100
AcDbLine
 10
99.70991547229999
 20
69.51500074080001
 30
0.0
 11
99.49778343790001
 21
69.392539524
 31
0.0
  0
LINE
  5
24A
330
A
100
AcDbEntity
  8
0
  6
Continuous
 62
     7
370
    15
100
AcDbLine
 10
113.7462679214999
 20
45.6423443197
 30
0.0
 11
113.5341358872
 21
45.51988310289999
 31
0.0
  0
LINE
  5
24B
330
A
100
AcDbEntity
  8
0
  6
Continuous
 62
     7
370
    15
100
AcDbLine
 10
113.7462679214999
 20
45.6423443197
 30
0.0
 11
99.70991547229999
 21
69.51500074080001
 31
0.0
  0
LINE
  5
24C
330
A
100
AcDbEntity
  8
0
  6
Continuous
 62
     7
370
    15
100
AcDbLine
 10
122.4436813301
 20
39.28487366889999
 30
0.0
 11
122.2315492958
 21
39.1624124521
 31
0.0
  0
LINE
  5
24D
330
A
100
AcDbEntity
  8
0
  6
Continuous
 62
     7
370
    15
100
AcDbLine
 10
122.4436813301
 20
31.4460818748
 30
0.0
 11
122.2315492958
 21
31.323620658
 31
0.0
  0
LINE
  5
24E
330
A
100
AcDbEntity
  8
0
  6
Continuous
 62
     7
370
    15
100
AcDbLine
 10
122.4436813301
 20
31.4460818748
 30
0.0
 11
122.4436813301
 21
39.28487366889999
 31
0.0
  0
LINE
  5
24F
330
A
100
AcDbEntity
  8
0
  6
Continuous
 62
     7
370
    15
100
AcDbLine
 10
113.7462679214999
 20
44.30578355659999
 30
0.0
 11
113.5341358872
 21
44.18332233989999
 31
0.0
  0
LINE
  5
250
330
A
100
AcDbEntity
  8
0
  6
Continuous
 62
     7
370
    15
100
AcDbLine
 10
122.4436813301
 20
39.28487366889999
 30
0.0
 11
113.7462679214999
 21
44.30578355659999
 31
0.0
  0
LINE
  5
251
330
A
100
AcDbEntity
  8
0
  6
Continuous
 62
     7
370
    15
100
AcDbLine
 10
113.7462679214999
 20
44.30578355659999
 30
0.0
 11
113.7462679214999
 21
45.6423443197
 31
0.0
  0
LINE
  5
252
330
A
100
AcDbEntity
  8
0
  6
Continuous
 62
     7
370
    15
100
AcDbLine
 10
99.10915755100001
 20
69.8618109067
 30
0.0
 11
98.89702551660001
 21
69.7393496899
 31
0.0
  0
LINE
  5
253
330
A
100
AcDbEntity
  8
0
  6
Continuous
 62
     7
370
    15
100
AcDbLine
 10
99.70991547229999
 20
69.51500074080001
 30
0.0
 11
99.10915755100001
 21
69.8618109067
 31
0.0
  0
LINE
  5
254
330
A
100
AcDbEntity
  8
0
  6
Continuous
 62
     7
370
    15
100
AcDbLine
 10
116.2211416556999
 20
34.6300071609
 30
0.0
 11
116.0090096213
 21
34.50754594409999
 31
0.0
  0
LINE
  5
255
330
A
100
AcDbEntity
  8
0
  6
Continuous
 62
     7
370
    15
100
AcDbLine
 10
116.2211416556999
 20
34.6300071609
 30
0.0
 11
116.2211416556999
 21
34.79335513329999
 31
0.0
  0
DIMENSION
  5
261
330
A
100
AcDbEntity
  8
0
100
AcDbDimension
  2
*D21
 10
121.1078486778
 20
40.05603344449999
 30
0.0
 11
125.3609209315999
 21
48.9661899159
 31
0.0
 70
   160
 71
     5
 42
0.0
  3
SLDDIMSTYLE4
100
AcDbAlignedDimension
 13
122.2315492958
 23
39.1624124521
 33
0.0
 14
122.4436813301
 24
39.28487366889999
 34
0.0
 50
49.105837034
100
AcDbRotatedDimension
  0
ENDSEC
  0
SECTION
  2
OBJECTS
  0
DICTIONARY
  5
19
330
0
100
AcDbDictionary
281
     1
  3
ACAD_GROUP
350
1A
  3
ACAD_LAYOUT
350
1E
  3
ACAD_MLINESTYLE
350
1B
  3
ACAD_PLOTSETTINGS
350
22
  3
ACAD_PLOTSTYLENAME
350
1F
  3
ACAD_WIPEOUT_VARS
350
23
  0
DICTIONARY
  5
1A
102
{ACAD_REACTORS
330
19
102
}
330
19
100
AcDbDictionary
281
     1
  0
DICTIONARY
  5
1E
102
{ACAD_REACTORS
330
19
102
}
330
19
100
AcDbDictionary
281
     1
  3
Layout1
350
21
  3
Model
350
20
  0
DICTIONARY
  5
1B
102
{ACAD_REACTORS
330
19
102
}
330
19
100
AcDbDictionary
281
     1
  3
Standard
350
1C
  0
DICTIONARY
  5
22
102
{ACAD_REACTORS
330
19
102
}
330
19
100
AcDbDictionary
281
     1
  0
ACDBDICTIONARYWDFLT
  5
1F
102
{ACAD_REACTORS
330
19
102
}
330
19
100
AcDbDictionary
281
     1
  3
Normal
350
1D
100
AcDbDictionaryWithDefault
340
1D
  0
WIPEOUTVARIABLES
  5
23
330
19
100
AcDbWipeoutVariables
 70
     1
  0
LAYOUT
  5
21
102
{ACAD_REACTORS
330
1E
102
}
330
1E
100
AcDbPlotSettings
  1

  2

  4

  6

 40
0.0
 41
0.0
 42
0.0
 43
0.0
 44
0.0
 45
0.0
 46
0.0
 47
0.0
 48
0.0
 49
0.0
140
0.0
141
0.0
142
1.0
143
1.0
 70
     0
 72
     0
 73
     0
 74
     0
  7

 75
     0
147
1.0
148
0.0
149
0.0
100
AcDbLayout
  1
Layout1
 70
     1
 71
     1
 10
0.0
 20
0.0
 11
12.0
 21
9.0
 12
0.0
 22
0.0
 32
0.0
 14
1.000000000000000E+20
 24
1.000000000000000E+20
 34
1.000000000000000E+20
 15
-1.000000000000000E+20
 25
-1.000000000000000E+20
 35
-1.000000000000000E+20
146
0.0
 13
0.0
 23
0.0
 33
0.0
 16
1.0
 26
0.0
 36
0.0
 17
0.0
 27
1.0
 37
0.0
 76
     0
330
B
  0
LAYOUT
  5
20
102
{ACAD_REACTORS
330
1E
102
}
330
1E
100
AcDbPlotSettings
  1

  2

  4

  6

 40
0.0
 41
0.0
 42
0.0
 43
0.0
 44
0.0
 45
0.0
 46
0.0
 47
0.0
 48
0.0
 49
0.0
140
0.0
141
0.0
142
1.0
143
1.0
 70
  1024
 72
     0
 73
     0
 74
     0
  7

 75
     0
147
1.0
148
0.0
149
0.0
100
AcDbLayout
  1
Model
 70
     0
 71
     0
 10
0.0
 20
0.0
 11
0.0
 21
0.0
 12
0.0
 22
0.0
 32
0.0
 14
0.0
 24
0.0
 34
0.0
 15
0.0
 25
0.0
 35
0.0
146
0.0
 13
0.0
 23
0.0
 33
0.0
 16
0.0
 26
0.0
 36
0.0
 17
0.0
 27
0.0
 37
0.0
 76
     0
330
A
  0
MLINESTYLE
  5
1C
102
{ACAD_REACTORS
330
1B
102
}
330
1B
100
AcDbMlineStyle
  2
STANDARD
 70
     0
  3

 62
     0
 51
90.0
 52
90.0
 71
     2
 49
0.5
 62
   256
  6
BYLAYER
 49
-0.5
 62
   256
  6
BYLAYER
  0
ACDBPLACEHOLDER
  5
1D
102
{ACAD_REACTORS
330
1F
102
}
330
1F
  0
ENDSEC
  0
EOF
