  0
SECTION
  2
HEADER
  9
$ACADVER
  1
AC1015
  9
$ACADMAINTVER
 70
    10
  9
$DWGCODEPAGE
  3
ANSI_1252
  9
$INSBASE
 10
0.0
 20
0.0
 30
0.0
  9
$EXTMIN
 10
3.745727741329147
 20
1.139679084461732
 30
-0.0015258207003583
  9
$EXTMAX
 10
83.80287190061398
 20
54.04495251952315
 30
0.0000000349246037
  9
$LIMMIN
 10
0.0
 20
0.0
  9
$LIMMAX
 10
0.0
 20
0.0
  9
$ORTHOMODE
 70
     0
  9
$REGENMODE
 70
     1
  9
$FILLMODE
 70
     1
  9
$QTEXTMODE
 70
     0
  9
$MIRRTEXT
 70
     1
  9
$LTSCALE
 40
1.0
  9
$ATTMODE
 70
     1
  9
$TEXTSIZE
 40
0.0
  9
$TRACEWID
 40
0.05
  9
$TEXTSTYLE
  7
Standard
  9
$CLAYER
  8
0
  9
$CELTYPE
  6
Continuous
  9
$CECOLOR
 62
   256
  9
$CELTSCALE
 40
1.0
  9
$DISPSILH
 70
     0
  9
$DIMSCALE
 40
1.0
  9
$DIMASZ
 40
0.0
  9
$DIMEXO
 40
0.0
  9
$DIMDLI
 40
0.38
  9
$DIMRND
 40
0.0
  9
$DIMDLE
 40
0.0
  9
$DIMEXE
 40
0.18
  9
$DIMTP
 40
0.0
  9
$DIMTM
 40
0.0
  9
$DIMTXT
 40
0.5
  9
$DIMCEN
 40
0.09
  9
$DIMTSZ
 40
0.0
  9
$DIMTOL
 70
     0
  9
$DIMLIM
 70
     0
  9
$DIMTIH
 70
     1
  9
$DIMTOH
 70
     1
  9
$DIMSE1
 70
     0
  9
$DIMSE2
 70
     0
  9
$DIMTAD
 70
     0
  9
$DIMZIN
 70
     0
  9
$DIMBLK
  1

  9
$DIMASO
 70
     1
  9
$DIMSHO
 70
     1
  9
$DIMPOST
  1

  9
$DIMAPOST
  1

  9
$DIMALT
 70
     0
  9
$DIMALTD
 70
     2
  9
$DIMALTF
 40
25.4
  9
$DIMLFAC
 40
1.0
  9
$DIMTOFL
 70
     0
  9
$DIMTVP
 40
0.0
  9
$DIMTIX
 70
     0
  9
$DIMSOXD
 70
     0
  9
$DIMSAH
 70
     0
  9
$DIMBLK1
  1

  9
$DIMBLK2
  1

  9
$DIMSTYLE
  2
Standard
  9
$DIMCLRD
 70
     0
  9
$DIMCLRE
 70
     0
  9
$DIMCLRT
 70
     0
  9
$DIMTFAC
 40
1.0
  9
$DIMGAP
 40
0.0
  9
$DIMJUST
 70
     0
  9
$DIMSD1
 70
     0
  9
$DIMSD2
 70
     0
  9
$DIMTOLJ
 70
     1
  9
$DIMTZIN
 70
     0
  9
$DIMALTZ
 70
     0
  9
$DIMALTTZ
 70
     0
  9
$DIMUPT
 70
     0
  9
$DIMDEC
 70
     4
  9
$DIMTDEC
 70
     4
  9
$DIMALTU
 70
     2
  9
$DIMALTTD
 70
     2
  9
$DIMTXSTY
  7
Standard
  9
$DIMAUNIT
 70
     0
  9
$DIMADEC
 70
     0
  9
$DIMALTRND
 40
0.0
  9
$DIMAZIN
 70
     0
  9
$DIMDSEP
 70
     0
  9
$DIMATFIT
 70
     3
  9
$DIMFRAC
 70
     0
  9
$DIMLDRBLK
  1

  9
$DIMLUNIT
 70
     2
  9
$DIMLWD
 70
     0
  9
$DIMLWE
 70
     0
  9
$DIMTMOVE
 70
     0
  9
$LUNITS
 70
     2
  9
$LUPREC
 70
     3
  9
$SKETCHINC
 40
0.1
  9
$FILLETRAD
 40
0.0
  9
$AUNITS
 70
     0
  9
$AUPREC
 70
     2
  9
$MENU
  1
acad
  9
$ELEVATION
 40
0.0
  9
$PELEVATION
 40
0.0
  9
$THICKNESS
 40
0.0
  9
$LIMCHECK
 70
     0
  9
$CHAMFERA
 40
0.0
  9
$CHAMFERB
 40
0.0
  9
$CHAMFERC
 40
0.0
  9
$CHAMFERD
 40
0.0
  9
$SKPOLY
 70
     0
  9
$TDCREATE
 40
2453398.557094178
  9
$TDUCREATE
 40
2453398.890427511
  9
$TDUPDATE
 40
2453398.557887002
  9
$TDUUPDATE
 40
2453398.891220335
  9
$TDINDWG
 40
0.0007977083
  9
$TDUSRTIMER
 40
0.0007977083
  9
$USRTIMER
 70
     1
  9
$ANGBASE
 50
0.0
  9
$ANGDIR
 70
     0
  9
$PDMODE
 70
     0
  9
$PDSIZE
 40
-1.0
  9
$PLINEWID
 40
0.0
  9
$SPLFRAME
 70
     0
  9
$SPLINETYPE
 70
     6
  9
$SPLINESEGS
 70
     8
  9
$HANDSEED
  5
141
  9
$SURFTAB1
 70
     6
  9
$SURFTAB2
 70
     6
  9
$SURFTYPE
 70
     6
  9
$SURFU
 70
     6
  9
$SURFV
 70
     6
  9
$UCSBASE
  2

  9
$UCSNAME
  2

  9
$UCSORG
 10
0.0
 20
0.0
 30
0.0
  9
$UCSXDIR
 10
1.0
 20
0.0
 30
0.0
  9
$UCSYDIR
 10
0.0
 20
1.0
 30
0.0
  9
$UCSORTHOREF
  2

  9
$UCSORTHOVIEW
 70
     0
  9
$UCSORGTOP
 10
0.0
 20
0.0
 30
0.0
  9
$UCSORGBOTTOM
 10
0.0
 20
0.0
 30
0.0
  9
$UCSORGLEFT
 10
0.0
 20
0.0
 30
0.0
  9
$UCSORGRIGHT
 10
0.0
 20
0.0
 30
0.0
  9
$UCSORGFRONT
 10
0.0
 20
0.0
 30
0.0
  9
$UCSORGBACK
 10
0.0
 20
0.0
 30
0.0
  9
$PUCSBASE
  2

  9
$PUCSNAME
  2

  9
$PUCSORG
 10
0.0
 20
0.0
 30
0.0
  9
$PUCSXDIR
 10
1.0
 20
0.0
 30
0.0
  9
$PUCSYDIR
 10
0.0
 20
1.0
 30
0.0
  9
$PUCSORTHOREF
  2

  9
$PUCSORTHOVIEW
 70
     0
  9
$PUCSORGTOP
 10
0.0
 20
0.0
 30
0.0
  9
$PUCSORGBOTTOM
 10
0.0
 20
0.0
 30
0.0
  9
$PUCSORGLEFT
 10
0.0
 20
0.0
 30
0.0
  9
$PUCSORGRIGHT
 10
0.0
 20
0.0
 30
0.0
  9
$PUCSORGFRONT
 10
0.0
 20
0.0
 30
0.0
  9
$PUCSORGBACK
 10
0.0
 20
0.0
 30
0.0
  9
$USERI1
 70
     0
  9
$USERI2
 70
     0
  9
$USERI3
 70
     0
  9
$USERI4
 70
     0
  9
$USERI5
 70
     0
  9
$USERR1
 40
0.0
  9
$USERR2
 40
0.0
  9
$USERR3
 40
0.0
  9
$USERR4
 40
0.0
  9
$USERR5
 40
0.0
  9
$WORLDVIEW
 70
     1
  9
$SHADEDGE
 70
     3
  9
$SHADEDIF
 70
    70
  9
$TILEMODE
 70
     1
  9
$MAXACTVP
 70
    16
  9
$PINSBASE
 10
0.0
 20
0.0
 30
0.0
  9
$PLIMCHECK
 70
     0
  9
$PEXTMIN
 10
1.000000000000000E+20
 20
1.000000000000000E+20
 30
1.000000000000000E+20
  9
$PEXTMAX
 10
-1.000000000000000E+20
 20
-1.000000000000000E+20
 30
-1.000000000000000E+20
  9
$PLIMMIN
 10
0.0
 20
0.0
  9
$PLIMMAX
 10
12.0
 20
9.0
  9
$UNITMODE
 70
     0
  9
$VISRETAIN
 70
     0
  9
$PLINEGEN
 70
     1
  9
$PSLTSCALE
 70
     1
  9
$TREEDEPTH
 70
  3020
  9
$CMLSTYLE
  2
Standard
  9
$CMLJUST
 70
     0
  9
$CMLSCALE
 40
1.0
  9
$PROXYGRAPHICS
 70
     0
  9
$MEASUREMENT
 70
     0
  9
$CELWEIGHT
370
     0
  9
$ENDCAPS
280
     0
  9
$JOINSTYLE
280
     0
  9
$LWDISPLAY
290
     1
  9
$INSUNITS
 70
     0
  9
$HYPERLINKBASE
  1

  9
$STYLESHEET
  1

  9
$XEDIT
290
     1
  9
$CEPSNTYPE
380
     0
  9
$PSTYLEMODE
290
     1
  9
$FINGERPRINTGUID
  2

  9
$VERSIONGUID
  2
{76FD255E-96E7-49BD-892C-685AEA2E8237}
  9
$EXTNAMES
290
     1
  9
$PSVPSCALE
 40
0.0
  9
$OLESTARTUP
290
     0
  0
ENDSEC
  0
SECTION
  2
CLASSES
  0
CLASS
  1
LWPOLYLINE
  2
AcDbPolyline
  3
AutoCAD 2000
 90
    32768
280
     0
281
     1
  0
CLASS
  1
IMAGE
  2
AcDbRasterImage
  3
ISM
 90
    32895
280
     0
281
     1
  0
CLASS
  1
OLE2FRAME
  2
AcDbOle2Frame
  3
AutoCAD 2000
 90
    32768
280
     0
281
     1
  0
CLASS
  1
HATCH
  2
AcDbHatch
  3
AutoCAD 2000
 90
    32768
280
     0
281
     1
  0
CLASS
  1
DICTIONARYVAR
  2
AcDbDictionaryVar
  3
AutoCAD 2000
 90
    32768
280
     0
281
     0
  0
CLASS
  1
RASTERVARIABLES
  2
AcDbRasterVariables
  3
ISM
 90
    32768
280
     0
281
     0
  0
CLASS
  1
IMAGEDEF
  2
AcDbRasterImageDef
  3
ISM
 90
    32768
280
     0
281
     0
  0
CLASS
  1
IMAGEDEF_REACTOR
  2
AcDbRasterImageDefReactor
  3
ISM
 90
    32769
280
     0
281
     0
  0
CLASS
  1
IDBUFFER
  2
AcDbIdBuffer
  3
AutoCAD 2000
 90
    32768
280
     0
281
     0
  0
CLASS
  1
SPATIAL_FILTER
  2
AcDbSpatialFilter
  3
AutoCAD 2000
 90
    32768
280
     0
281
     0
  0
CLASS
  1
XRECORD
  2
AcDbXrecord
  3
AutoCAD 2000
 90
    32768
280
     0
281
     0
  0
CLASS
  1
SORTENTSTABLE
  2
AcDbSortentsTable
  3
AutoCAD 2000
 90
    32768
280
     0
281
     0
  0
CLASS
  1
LAYER_INDEX
  2
AcDbLayerIndex
  3
AutoCAD 2000
 90
    32768
280
     0
281
     0
  0
CLASS
  1
SPATIAL_INDEX
  2
AcDbSpatialIndex
  3
AutoCAD 2000
 90
    32768
280
     0
281
     0
  0
CLASS
  1
OBJECT_PTR
  2
CAseDLPNTableRecord
  3
"ASE-LPNTableRecord"
 90
    32769
280
     0
281
     0
  0
CLASS
  1
LAYOUT
  2
AcDbLayout
  3
AutoCAD 2000
 90
        0
280
     0
281
     0
  0
CLASS
  1
PLOTSETTINGS
  2
AcDbPlotSettings
  3
AutoCAD 2000
 90
    32768
280
     0
281
     0
  0
CLASS
  1
ACDBDICTIONARYWDFLT
  2
AcDbDictionaryWithDefault
  3
AutoCAD 2000
 90
        0
280
     0
281
     0
  0
CLASS
  1
ACDBPLACEHOLDER
  2
AcDbPlaceHolder
  3
AutoCAD 2000
 90
        0
280
     0
281
     0
  0
CLASS
  1
VBA_PROJECT
  2
AcDbVbaProject
  3
acadvba
 90
    32768
280
     0
281
     0
  0
CLASS
  1
WIPEOUT
  2
AcDbWipeout
  3
WipeOut|AutoCAD Express Tool|expresstools@autodesk.com
 90
    32895
280
     0
281
     1
  0
CLASS
  1
WIPEOUTVARIABLES
  2
AcDbWipeoutVariables
  3
WipeOut|AutoCAD Express Tool|expresstools@autodesk.com
 90
        0
280
     0
281
     0
  0
CLASS
  1
RTEXT
  2
RText
  3
RText|AutoCAD Express Tool|expresstools@autodesk.com
 90
    32768
280
     0
281
     1
  0
CLASS
  1
ARCALIGNEDTEXT
  2
AcDbArcAlignedText
  3
ATEXT|AutoCAD Express Tool|expresstools@autodesk.com
 90
    32768
280
     0
281
     1
  0
ENDSEC
  0
SECTION
  2
TABLES
  0
TABLE
  2
VPORT
  5
7
330
0
100
AcDbSymbolTable
 70
     6
  0
VPORT
  5
140
330
7
100
AcDbSymbolTableRecord
100
AcDbViewportTableRecord
  2
*Active
 70
     0
 10
0.0
 20
0.0
 11
1.0
 21
1.0
 12
43.77429982097155
 22
27.59231580199244
 13
0.0
 23
0.0
 14
1.0
 24
1.0
 15
0.0
 25
0.0
 16
0.0
 26
0.0
 36
1.0
 17
0.0
 27
0.0
 37
0.0
 40
53.64064219836066
 41
1.5
 42
50.0
 43
0.0
 44
0.0
 50
0.0
 51
0.0
 71
     0
 72
  2000
 73
     1
 74
     1
 75
     0
 76
     0
 77
     0
 78
     0
281
     0
 65
     0
110
0.0
120
0.0
130
0.0
111
1.0
121
0.0
131
0.0
112
0.0
122
1.0
132
0.0
 79
     0
146
0.0
  0
ENDTAB
  0
TABLE
  2
LTYPE
  5
4
330
0
100
AcDbSymbolTable
 70
     6
  0
LTYPE
  5
11
330
4
100
AcDbSymbolTableRecord
100
AcDbLinetypeTableRecord
  2
ByBlock
 70
     0
  3

 72
    65
 73
     0
 40
0.0
  0
LTYPE
  5
12
330
4
100
AcDbSymbolTableRecord
100
AcDbLinetypeTableRecord
  2
ByLayer
 70
     0
  3

 72
    65
 73
     0
 40
0.0
  0
LTYPE
  5
13
330
4
100
AcDbSymbolTableRecord
100
AcDbLinetypeTableRecord
  2
Continuous
 70
     0
  3
Solid line
 72
    65
 73
     0
 40
0.0
  0
LTYPE
  5
24
330
4
100
AcDbSymbolTableRecord
100
AcDbLinetypeTableRecord
  2
HIDDEN
 70
     0
  3
Hidden __ __ __ __ __ __ __ __ __ __ __ __ __ __
 72
    65
 73
     2
 40
0.075
 49
0.05
 74
     0
 49
-0.025
 74
     0
  0
LTYPE
  5
25
330
4
100
AcDbSymbolTableRecord
100
AcDbLinetypeTableRecord
  2
PHANTOM
 70
     0
  3
Phantom ______  __  __  ______  __  __  ______
 72
    65
 73
     6
 40
0.5
 49
0.25
 74
     0
 49
-0.05
 74
     0
 49
0.05
 74
     0
 49
-0.05
 74
     0
 49
0.05
 74
     0
 49
-0.05
 74
     0
  0
LTYPE
  5
26
330
4
100
AcDbSymbolTableRecord
100
AcDbLinetypeTableRecord
  2
CENTER
 70
     0
  3
Center ____ _ ____ _ ____ _ ____ _ ____ _ ____
 72
    65
 73
     4
 40
0.4
 49
0.25
 74
     0
 49
-0.05
 74
     0
 49
0.05
 74
     0
 49
-0.05
 74
     0
  0
LTYPE
  5
27
330
4
100
AcDbSymbolTableRecord
100
AcDbLinetypeTableRecord
  2
CENTERX2
 70
     0
  3
Center (2x) ________  __  ________  __  _____
 72
    65
 73
     4
 40
0.8
 49
0.5
 74
     0
 49
-0.1
 74
     0
 49
0.1
 74
     0
 49
-0.1
 74
     0
  0
LTYPE
  5
28
330
4
100
AcDbSymbolTableRecord
100
AcDbLinetypeTableRecord
  2
DOT2
 70
     0
  3
Dot (.5x) ........................................
 72
    65
 73
     2
 40
0.025
 49
0.0
 74
     0
 49
-0.025
 74
     0
  0
ENDTAB
  0
TABLE
  2
LAYER
  5
2
330
0
100
AcDbSymbolTable
 70
     1
  0
LAYER
  5
14
330
2
100
AcDbSymbolTableRecord
100
AcDbLayerTableRecord
  2
0
 70
     0
 62
     7
  6
Continuous
370
    -3
390
1D
  0
ENDTAB
  0
TABLE
  2
STYLE
  5
3
330
0
100
AcDbSymbolTable
 70
     2
  0
STYLE
  5
17
330
3
100
AcDbSymbolTableRecord
100
AcDbTextStyleTableRecord
  2
Standard
 70
     0
 40
0.0
 41
1.0
 50
0.0
 71
     0
 42
0.0
  3
txt
  4

  0
STYLE
  5
75
330
3
100
AcDbSymbolTableRecord
100
AcDbTextStyleTableRecord
  2
SLDTEXTSTYLE0
 70
     0
 40
0.0
 41
0.75
 50
0.0
 71
     0
 42
0.0
  3
txt
  4

  0
ENDTAB
  0
TABLE
  2
VIEW
  5
5
330
0
100
AcDbSymbolTable
 70
     0
  0
ENDTAB
  0
TABLE
  2
UCS
  5
6
330
0
100
AcDbSymbolTable
 70
     0
  0
ENDTAB
  0
TABLE
  2
APPID
  5
8
330
0
100
AcDbSymbolTable
 70
     1
  0
APPID
  5
16
330
8
100
AcDbSymbolTableRecord
100
AcDbRegAppTableRecord
  2
ACAD
 70
     0
  0
ENDTAB
  0
TABLE
  2
DIMSTYLE
  5
9
330
0
100
AcDbSymbolTable
 70
     5
100
AcDbDimStyleTable
 71
     1
340
18
  0
DIMSTYLE
105
18
330
9
100
AcDbSymbolTableRecord
100
AcDbDimStyleTableRecord
  2
Standard
 70
     0
340
17
  0
DIMSTYLE
105
CC
102
{ACAD_REACTORS
330
D2
330
E1
102
}
330
9
100
AcDbSymbolTableRecord
100
AcDbDimStyleTableRecord
  2
SLDDIMSTYLE0
 70
     0
 41
0.9375
 44
0.6
 78
    12
140
0.5
147
0.125
173
     1
176
     1
177
     1
178
     1
271
     0
284
    12
340
17
  0
DIMSTYLE
105
EB
102
{ACAD_REACTORS
330
EF
330
FC
330
109
330
120
102
}
330
9
100
AcDbSymbolTableRecord
100
AcDbDimStyleTableRecord
  2
SLDDIMSTYLE1
 70
     0
 41
0.9375
 44
0.6
 78
    12
140
0.5
147
0.125
173
     1
176
     1
177
     1
178
     1
271
     3
284
    12
340
17
  0
DIMSTYLE
105
133
330
9
100
AcDbSymbolTableRecord
100
AcDbDimStyleTableRecord
  2
SLDDIMSTYLE2
 70
     0
 41
0.3125
 44
0.0
140
0.9375
147
0.234375
173
     1
271
     0
272
     0
340
17
341
12B
343
12B
344
12B
  0
DIMSTYLE
105
135
330
9
100
AcDbSymbolTableRecord
100
AcDbDimStyleTableRecord
  2
SLDDIMSTYLE3
 70
     0
 41
0.9375
 44
0.0
140
0.9375
147
0.234375
173
     1
271
     0
272
     0
340
17
  0
ENDTAB
  0
TABLE
  2
BLOCK_RECORD
  5
1
330
0
100
AcDbSymbolTable
 70
     9
  0
BLOCK_RECORD
  5
A
330
1
100
AcDbSymbolTableRecord
100
AcDbBlockTableRecord
  2
*MODEL_SPACE
340
20
  0
BLOCK_RECORD
  5
B
330
1
100
AcDbSymbolTableRecord
100
AcDbBlockTableRecord
  2
*PAPER_SPACE
340
21
  0
BLOCK_RECORD
  5
A8
330
1
100
AcDbSymbolTableRecord
100
AcDbBlockTableRecord
  2
NOTE50
340
0
102
{BLKREFS
331
AE
102
}
  0
BLOCK_RECORD
  5
C3
330
1
100
AcDbSymbolTableRecord
100
AcDbBlockTableRecord
  2
*D1
340
0
  0
BLOCK_RECORD
  5
D3
330
1
100
AcDbSymbolTableRecord
100
AcDbBlockTableRecord
  2
*D2
340
0
  0
BLOCK_RECORD
  5
E2
330
1
100
AcDbSymbolTableRecord
100
AcDbBlockTableRecord
  2
*D3
340
0
  0
BLOCK_RECORD
  5
F0
330
1
100
AcDbSymbolTableRecord
100
AcDbBlockTableRecord
  2
*D4
340
0
  0
BLOCK_RECORD
  5
FD
330
1
100
AcDbSymbolTableRecord
100
AcDbBlockTableRecord
  2
*D5
340
0
  0
BLOCK_RECORD
  5
10A
330
1
100
AcDbSymbolTableRecord
100
AcDbBlockTableRecord
  2
NOTE67
340
0
102
{BLKREFS
331
10E
102
}
  0
BLOCK_RECORD
  5
114
330
1
100
AcDbSymbolTableRecord
100
AcDbBlockTableRecord
  2
*D7
340
0
  0
BLOCK_RECORD
  5
12B
330
1
100
AcDbSymbolTableRecord
100
AcDbBlockTableRecord
  2
_DOT
340
0
  0
ENDTAB
  0
ENDSEC
  0
SECTION
  2
BLOCKS
  0
BLOCK
  5
D
330
A
100
AcDbEntity
  8
0
100
AcDbBlockBegin
  2
*MODEL_SPACE
 70
     0
 10
0.0
 20
0.0
 30
0.0
  3
*MODEL_SPACE
  1

  0
ENDBLK
  5
E
330
A
100
AcDbEntity
  8
0
100
AcDbBlockEnd
  0
BLOCK
  5
F
330
B
100
AcDbEntity
 67
     1
  8
0
100
AcDbBlockBegin
  2
*PAPER_SPACE
 70
     0
 10
0.0
 20
0.0
 30
0.0
  3
*PAPER_SPACE
  1

  0
ENDBLK
  5
10
330
B
100
AcDbEntity
 67
     1
  8
0
100
AcDbBlockEnd
  0
BLOCK
  5
A9
330
A8
100
AcDbEntity
  8
0
 62
     0
100
AcDbBlockBegin
  2
NOTE50
 70
     0
 10
0.0
 20
0.0
 30
0.0
  3
NOTE50
  1

  0
MTEXT
  5
AA
330
A8
100
AcDbEntity
  8
0
 62
     7
100
AcDbMText
 10
0.0
 20
0.0
 30
0.0
 40
0.45
 41
0.0
 71
     1
 72
     1
  1
BREAK SHARP EDGES 0.010 RAD %%p 0.003
  7
SLDTEXTSTYLE0
 73
     1
 44
1.0
  0
MTEXT
  5
AB
330
A8
100
AcDbEntity
  8
0
 62
     7
100
AcDbMText
 10
0.0
 20
-0.675
 30
0.0
 40
0.45
 41
0.0
 71
     1
 72
     1
  1
MACHINED SURF FINISH  
  7
SLDTEXTSTYLE0
 73
     1
 44
1.0
  0
MTEXT
  5
AC
330
A8
100
AcDbEntity
  8
0
 62
     7
100
AcDbMText
 10
6.929999999999999
 20
-0.675
 30
0.0
 40
0.45
 41
0.0
 71
     1
 72
     1
  1
< 125 MICROINCH
  7
SLDTEXTSTYLE0
 73
     1
 44
1.0
  0
ENDBLK
  5
AD
330
A8
100
AcDbEntity
  8
0
100
AcDbBlockEnd
  0
BLOCK
  5
C4
330
C3
100
AcDbEntity
  8
0
 62
     1
100
AcDbBlockBegin
  2
*D1
 70
     1
 10
0.0
 20
0.0
 30
0.0
  3
*D1
  1

  0
MTEXT
  5
C5
330
C3
100
AcDbEntity
  8
0
 62
     7
100
AcDbMText
 10
36.7981932672
 20
35.12349954519999
 30
0.0
 40
0.5
 41
0.0
 71
     7
 72
     1
  1
7%%d
  7
SLDTEXTSTYLE0
 73
     1
 44
1.0
  0
ARC
  5
C6
330
C3
100
AcDbEntity
  8
0
 62
     7
100
AcDbCircle
 10
37.43530364449999
 20
35.3483047339
 30
0.0
 40
1.061696677999999
100
AcDbArc
 50
153.4349488229
 51
206.5650511771
  0
ARC
  5
C7
330
C3
100
AcDbEntity
  8
0
 62
     7
100
AcDbCircle
 10
36.81133288979999
 20
35.3483047339
 30
0.0
 40
1.061696677999999
100
AcDbArc
 50
333.4349488229
 51
26.5650511771
  0
ARC
  5
C8
330
C3
100
AcDbEntity
  8
0
 62
     7
100
AcDbCircle
 10
123.6110894304999
 20
29.99231856739999
 30
0.0
 40
86.65345433739998
100
AcDbArc
 50
172.9126625466999
 51
176.1417307727
  0
ARC
  5
C9
330
C3
100
AcDbEntity
  8
0
 62
     7
100
AcDbCircle
 10
123.6110894304999
 20
29.99231856739999
 30
0.0
 40
86.65345433739998
100
AcDbArc
 50
176.7708248343999
 51
180.0
  0
SOLID
  5
CA
330
C3
100
AcDbEntity
  8
0
 62
     7
100
AcDbTrace
 10
37.61973421039999
 20
40.68380939059999
 30
0.0
 11
37.3539393956
 21
39.7712999776
 31
0.0
 12
37.66425568169999
 22
39.734421087
 32
0.0
 13
37.66425568169999
 23
39.734421087
 33
0.0
  0
SOLID
  5
CB
330
C3
100
AcDbEntity
  8
0
 62
     7
100
AcDbTrace
 10
36.957635093
 20
29.99231856739999
 30
0.0
 11
37.11895397059999
 21
30.9289596578
 31
0.0
 12
36.8064585425
 22
30.9306500456
 32
0.0
 13
36.8064585425
 23
30.9306500456
 33
0.0
  0
POINT
  5
CD
330
C3
100
AcDbEntity
  8
0
 62
     7
100
AcDbPoint
 10
29.08603773579999
 20
29.99231856739999
 30
0.0
  0
POINT
  5
CE
330
C3
100
AcDbEntity
  8
0
 62
     7
100
AcDbPoint
 10
68.34641509429999
 20
29.99231856739999
 30
0.0
  0
POINT
  5
CF
330
C3
100
AcDbEntity
  8
0
 62
     7
100
AcDbPoint
 10
66.30491800189999
 20
37.1173185674
 30
0.0
  0
POINT
  5
D0
330
C3
100
AcDbEntity
  8
0
 62
     7
100
AcDbPoint
 10
31.1169180019
 20
41.4923185674
 30
0.0
  0
ENDBLK
  5
D1
330
C3
100
AcDbEntity
  8
0
100
AcDbBlockEnd
  0
BLOCK
  5
D4
330
D3
100
AcDbEntity
  8
0
 62
     1
100
AcDbBlockBegin
  2
*D2
 70
     1
 10
0.0
 20
0.0
 30
0.0
  3
*D2
  1

  0
MTEXT
  5
D5
330
D3
100
AcDbEntity
  8
0
 62
     7
100
AcDbMText
 10
36.796305493
 20
24.4114103067
 30
0.0
 40
0.5
 41
0.0
 71
     7
 72
     1
  1
7%%d
  7
SLDTEXTSTYLE0
 73
     1
 44
1.0
  0
ARC
  5
D6
330
D3
100
AcDbEntity
  8
0
 62
     7
100
AcDbCircle
 10
37.43341587039999
 20
24.6362154954
 30
0.0
 40
1.061696677999999
100
AcDbArc
 50
153.4349488229
 51
206.5650511771
  0
ARC
  5
D7
330
D3
100
AcDbEntity
  8
0
 62
     7
100
AcDbCircle
 10
36.8094451157
 20
24.6362154954
 30
0.0
 40
1.061696677999999
100
AcDbArc
 50
333.4349488229
 51
26.5650511771
  0
ARC
  5
D8
330
D3
100
AcDbEntity
  8
0
 62
     7
100
AcDbCircle
 10
123.6110894304999
 20
29.99231856739999
 30
0.0
 40
86.65534572790001
100
AcDbArc
 50
180.0
 51
183.2291820288
  0
ARC
  5
D9
330
D3
100
AcDbEntity
  8
0
 62
     7
100
AcDbCircle
 10
123.6110894304999
 20
29.99231856739999
 30
0.0
 40
86.65534572790001
100
AcDbArc
 50
183.8582623595
 51
187.0873374533
  0
SOLID
  5
DA
330
D3
100
AcDbEntity
  8
0
 62
     7
100
AcDbTrace
 10
36.9557437025
 20
29.99231856739999
 30
0.0
 11
36.8045670412
 21
29.053987107
 31
0.0
 12
37.11706246949999
 22
29.05567745789999
 32
0.0
 13
37.11706246949999
 23
29.05567745789999
 33
0.0
  0
SOLID
  5
DB
330
D3
100
AcDbEntity
  8
0
 62
     7
100
AcDbTrace
 10
37.6178572716
 20
19.30059438029999
 30
0.0
 11
37.6623786308
 21
20.2499826892
 31
0.0
 12
37.352062349
 22
20.213103762
 32
0.0
 13
37.352062349
 23
20.213103762
 33
0.0
  0
POINT
  5
DC
330
D3
100
AcDbEntity
  8
0
 62
     7
100
AcDbPoint
 10
31.1169180019
 20
18.4923185674
 30
0.0
  0
POINT
  5
DD
330
D3
100
AcDbEntity
  8
0
 62
     7
100
AcDbPoint
 10
66.30491800189999
 20
22.86731856739999
 30
0.0
  0
POINT
  5
DE
330
D3
100
AcDbEntity
  8
0
 62
     7
100
AcDbPoint
 10
29.08603773579999
 20
29.99231856739999
 30
0.0
  0
POINT
  5
DF
330
D3
100
AcDbEntity
  8
0
 62
     7
100
AcDbPoint
 10
68.34641509429999
 20
29.99231856739999
 30
0.0
  0
ENDBLK
  5
E0
330
D3
100
AcDbEntity
  8
0
100
AcDbBlockEnd
  0
BLOCK
  5
E3
330
E2
100
AcDbEntity
  8
0
 62
     1
100
AcDbBlockBegin
  2
*D3
 70
     1
 10
0.0
 20
0.0
 30
0.0
  3
*D3
  1

  0
MTEXT
  5
E4
330
E2
100
AcDbEntity
  8
0
100
AcDbMText
 10
47.56050715279999
 20
46.35573204029999
 30
0.0
 40
0.5
 41
0.0
 71
     7
 72
     1
  1
35 1/4"
  7
SLDTEXTSTYLE0
 73
     1
 44
1.0
  0
LINE
  5
E5
330
E2
100
AcDbEntity
  8
0
100
AcDbLine
 10
31.1169180019
 20
41.6923185674
 30
0.0
 11
31.1169180019
 21
47.18053722899999
 31
0.0
  0
LINE
  5
E6
330
E2
100
AcDbEntity
  8
0
100
AcDbLine
 10
66.30491800189999
 20
37.3173185674
 30
0.0
 11
66.30491800189999
 21
47.18053722899999
 31
0.0
  0
LINE
  5
E7
330
E2
100
AcDbEntity
  8
0
100
AcDbLine
 10
31.1169180019
 20
46.58053722899999
 30
0.0
 11
47.24800715279999
 21
46.58053722899999
 31
0.0
  0
LINE
  5
E8
330
E2
100
AcDbEntity
  8
0
100
AcDbLine
 10
66.30491800189999
 20
46.58053722899999
 30
0.0
 11
50.1738288509
 21
46.58053722899999
 31
0.0
  0
SOLID
  5
E9
330
E2
100
AcDbEntity
  8
0
100
AcDbTrace
 10
31.1169180019
 20
46.58053722899999
 30
0.0
 11
32.0544180019
 21
46.42428722899999
 31
0.0
 12
32.0544180019
 22
46.73678722899999
 32
0.0
 13
32.0544180019
 23
46.73678722899999
 33
0.0
  0
SOLID
  5
EA
330
E2
100
AcDbEntity
  8
0
100
AcDbTrace
 10
66.30491800189999
 20
46.58053722899999
 30
0.0
 11
65.36741800189999
 21
46.73678722899999
 31
0.0
 12
65.36741800189999
 22
46.42428722899999
 32
0.0
 13
65.36741800189999
 23
46.42428722899999
 33
0.0
  0
POINT
  5
EC
330
E2
100
AcDbEntity
  8
0
100
AcDbPoint
 10
31.1169180019
 20
41.4923185674
 30
0.0
  0
POINT
  5
ED
330
E2
100
AcDbEntity
  8
0
100
AcDbPoint
 10
66.30491800189999
 20
37.1173185674
 30
0.0
  0
ENDBLK
  5
EE
330
E2
100
AcDbEntity
  8
0
 62
     1
100
AcDbBlockEnd
  0
BLOCK
  5
F1
330
F0
100
AcDbEntity
  8
0
 62
     1
100
AcDbBlockBegin
  2
*D4
 70
     1
 10
0.0
 20
0.0
 30
0.0
  3
*D4
  1

  0
MTEXT
  5
F2
330
F0
100
AcDbEntity
  8
0
100
AcDbMText
 10
25.0688014151
 20
29.7675133787
 30
0.0
 40
0.5
 41
0.0
 71
     7
 72
     1
  1
23"
  7
SLDTEXTSTYLE0
 73
     1
 44
1.0
  0
LINE
  5
F3
330
F0
100
AcDbEntity
  8
0
100
AcDbLine
 10
30.9169180019
 20
41.4923185674
 30
0.0
 11
24.9689622642
 21
41.4923185674
 31
0.0
  0
LINE
  5
F4
330
F0
100
AcDbEntity
  8
0
100
AcDbLine
 10
30.9169180019
 20
18.4923185674
 30
0.0
 11
24.9689622642
 21
18.4923185674
 31
0.0
  0
LINE
  5
F5
330
F0
100
AcDbEntity
  8
0
100
AcDbLine
 10
25.5689622642
 20
41.4923185674
 30
0.0
 11
25.5689622642
 21
30.4671237561
 31
0.0
  0
LINE
  5
F6
330
F0
100
AcDbEntity
  8
0
100
AcDbLine
 10
25.5689622642
 20
18.4923185674
 30
0.0
 11
25.5689622642
 21
29.5175133787
 31
0.0
  0
SOLID
  5
F7
330
F0
100
AcDbEntity
  8
0
100
AcDbTrace
 10
25.5689622642
 20
41.4923185674
 30
0.0
 11
25.4127122642
 21
40.5548185674
 31
0.0
 12
25.7252122642
 22
40.5548185674
 32
0.0
 13
25.7252122642
 23
40.5548185674
 33
0.0
  0
SOLID
  5
F8
330
F0
100
AcDbEntity
  8
0
100
AcDbTrace
 10
25.5689622642
 20
18.4923185674
 30
0.0
 11
25.7252122642
 21
19.4298185674
 31
0.0
 12
25.4127122642
 22
19.4298185674
 32
0.0
 13
25.4127122642
 23
19.4298185674
 33
0.0
  0
POINT
  5
F9
330
F0
100
AcDbEntity
  8
0
100
AcDbPoint
 10
31.1169180019
 20
41.4923185674
 30
0.0
  0
POINT
  5
FA
330
F0
100
AcDbEntity
  8
0
100
AcDbPoint
 10
31.1169180019
 20
18.4923185674
 30
0.0
  0
ENDBLK
  5
FB
330
F0
100
AcDbEntity
  8
0
 62
     1
100
AcDbBlockEnd
  0
BLOCK
  5
FE
330
FD
100
AcDbEntity
  8
0
 62
     1
100
AcDbBlockBegin
  2
*D5
 70
     1
 10
0.0
 20
0.0
 30
0.0
  3
*D5
  1

  0
MTEXT
  5
FF
330
FD
100
AcDbEntity
  8
0
100
AcDbMText
 10
72.2901773585
 20
29.7675133787
 30
0.0
 40
0.5
 41
0.0
 71
     7
 72
     1
  1
14 1/4"
  7
SLDTEXTSTYLE0
 73
     1
 44
1.0
  0
LINE
  5
100
330
FD
100
AcDbEntity
  8
0
100
AcDbLine
 10
66.5049180019
 20
22.86731856739999
 30
0.0
 11
74.0156415094
 21
22.86731856739999
 31
0.0
  0
LINE
  5
101
330
FD
100
AcDbEntity
  8
0
100
AcDbLine
 10
66.5049180019
 20
37.1173185674
 30
0.0
 11
74.0156415094
 21
37.1173185674
 31
0.0
  0
LINE
  5
102
330
FD
100
AcDbEntity
  8
0
100
AcDbLine
 10
73.41564150939999
 20
22.86731856739999
 30
0.0
 11
73.41564150939999
 21
29.5175133787
 31
0.0
  0
LINE
  5
103
330
FD
100
AcDbEntity
  8
0
100
AcDbLine
 10
73.41564150939999
 20
37.1173185674
 30
0.0
 11
73.41564150939999
 21
30.4671237561
 31
0.0
  0
SOLID
  5
104
330
FD
100
AcDbEntity
  8
0
100
AcDbTrace
 10
73.41564150939999
 20
22.86731856739999
 30
0.0
 11
73.57189150939999
 21
23.80481856739999
 31
0.0
 12
73.25939150939999
 22
23.80481856739999
 32
0.0
 13
73.25939150939999
 23
23.80481856739999
 33
0.0
  0
SOLID
  5
105
330
FD
100
AcDbEntity
  8
0
100
AcDbTrace
 10
73.41564150939999
 20
37.1173185674
 30
0.0
 11
73.25939150939999
 21
36.1798185674
 31
0.0
 12
73.57189150939999
 22
36.1798185674
 32
0.0
 13
73.57189150939999
 23
36.1798185674
 33
0.0
  0
POINT
  5
106
330
FD
100
AcDbEntity
  8
0
100
AcDbPoint
 10
66.30491800189999
 20
22.86731856739999
 30
0.0
  0
POINT
  5
107
330
FD
100
AcDbEntity
  8
0
100
AcDbPoint
 10
66.30491800189999
 20
37.1173185674
 30
0.0
  0
ENDBLK
  5
108
330
FD
100
AcDbEntity
  8
0
 62
     1
100
AcDbBlockEnd
  0
BLOCK
  5
10B
330
10A
100
AcDbEntity
  8
0
 62
     0
100
AcDbBlockBegin
  2
NOTE67
 70
     0
 10
0.0
 20
0.0
 30
0.0
  3
NOTE67
  1

  0
MTEXT
  5
10C
330
10A
100
AcDbEntity
  8
0
 62
     1
100
AcDbMText
 10
0.0
 20
0.0
 30
0.0
 40
0.9375
 41
0.0
 71
     1
 72
     1
  1
{\Fgdt;q}
  7
SLDTEXTSTYLE0
 73
     1
 44
1.0
  0
ENDBLK
  5
10D
330
10A
100
AcDbEntity
  8
0
100
AcDbBlockEnd
  0
BLOCK
  5
115
330
114
100
AcDbEntity
  8
0
 62
     1
100
AcDbBlockBegin
  2
*D7
 70
     1
 10
0.0
 20
0.0
 30
0.0
  3
*D7
  1

  0
MTEXT
  5
116
330
114
100
AcDbEntity
  8
0
100
AcDbMText
 10
17.2401472015
 20
43.3574097651
 30
0.0
 40
0.5
 41
0.0
 71
     7
 72
     1
  1
3/8"
  7
SLDTEXTSTYLE0
 73
     1
 44
1.0
  0
LINE
  5
117
330
114
100
AcDbEntity
  8
0
100
AcDbLine
 10
13.6712653157
 20
41.6923185674
 30
0.0
 11
13.6712653157
 21
44.1822149538
 31
0.0
  0
LINE
  5
118
330
114
100
AcDbEntity
  8
0
100
AcDbLine
 10
14.04626531569999
 20
41.6923185674
 30
0.0
 11
14.04626531569999
 21
44.1822149538
 31
0.0
  0
LINE
  5
119
330
114
100
AcDbEntity
  8
0
100
AcDbLine
 10
13.6712653157
 20
43.58221495379999
 30
0.0
 11
11.1712653157
 21
43.58221495379999
 31
0.0
  0
LINE
  5
11A
330
114
100
AcDbEntity
  8
0
100
AcDbLine
 10
14.04626531569999
 20
43.58221495379999
 30
0.0
 11
16.9276472015
 21
43.58221495379999
 31
0.0
  0
SOLID
  5
11B
330
114
100
AcDbEntity
  8
0
100
AcDbTrace
 10
13.6712653157
 20
43.58221495379999
 30
0.0
 11
12.7337653157
 21
43.73846495379999
 31
0.0
 12
12.7337653157
 22
43.42596495379999
 32
0.0
 13
12.7337653157
 23
43.42596495379999
 33
0.0
  0
SOLID
  5
11C
330
114
100
AcDbEntity
  8
0
100
AcDbTrace
 10
14.04626531569999
 20
43.58221495379999
 30
0.0
 11
14.98376531569999
 21
43.42596495379999
 31
0.0
 12
14.98376531569999
 22
43.73846495379999
 32
0.0
 13
14.98376531569999
 23
43.73846495379999
 33
0.0
  0
POINT
  5
11D
330
114
100
AcDbEntity
  8
0
100
AcDbPoint
 10
13.6712653157
 20
41.4923185674
 30
0.0
  0
POINT
  5
11E
330
114
100
AcDbEntity
  8
0
100
AcDbPoint
 10
14.04626531569999
 20
41.4923185674
 30
0.0
  0
ENDBLK
  5
11F
330
114
100
AcDbEntity
  8
0
 62
     1
100
AcDbBlockEnd
  0
BLOCK
  5
12C
330
12B
100
AcDbEntity
  8
0
100
AcDbBlockBegin
  2
_DOT
 70
     0
 10
0.0
 20
0.0
 30
0.0
  3
_DOT
  1

  0
POLYLINE
  5
12D
330
12B
100
AcDbEntity
  8
0
  6
ByBlock
 62
     0
370
    -2
100
AcDb2dPolyline
 66
     1
 10
0.0
 20
0.0
 30
0.0
 70
     1
 40
0.5
 41
0.5
  0
VERTEX
  5
12E
330
12D
100
AcDbEntity
  8
0
  6
ByBlock
 62
     0
370
    -2
100
AcDbVertex
100
AcDb2dVertex
 10
-0.25
 20
0.0
 30
0.0
 42
1.0
  0
VERTEX
  5
12F
330
12D
100
AcDbEntity
  8
0
  6
ByBlock
 62
     0
370
    -2
100
AcDbVertex
100
AcDb2dVertex
 10
0.25
 20
0.0
 30
0.0
 42
1.0
  0
SEQEND
  5
130
330
12D
100
AcDbEntity
  8
0
  0
LINE
  5
131
330
12B
100
AcDbEntity
  8
0
  6
ByBlock
 62
     0
370
    -2
100
AcDbLine
 10
-0.5
 20
0.0
 30
0.0
 11
-1.0
 21
0.0
 31
0.0
  0
ENDBLK
  5
132
330
12B
100
AcDbEntity
  8
0
100
AcDbBlockEnd
  0
ENDSEC
  0
SECTION
  2
ENTITIES
  0
LINE
  5
2A
330
A
100
AcDbEntity
  8
0
  6
Continuous
 62
     7
370
     0
100
AcDbLine
 10
16.875
 20
53.125
 30
0.0
 11
7.5
 21
53.125
 31
0.0
  0
LINE
  5
2B
330
A
100
AcDbEntity
  8
0
  6
Continuous
 62
     7
370
     0
100
AcDbLine
 10
26.25
 20
53.125
 30
0.0
 11
16.875
 21
53.125
 31
0.0
  0
LINE
  5
2C
330
A
100
AcDbEntity
  8
0
  6
Continuous
 62
     7
370
     0
100
AcDbLine
 10
82.5
 20
1.875
 30
0.0
 11
73.125
 21
1.875
 31
0.0
  0
LINE
  5
2D
330
A
100
AcDbEntity
  8
0
  6
Continuous
 62
     7
370
     0
100
AcDbLine
 10
82.5
 20
1.875
 30
0.0
 11
82.5
 21
14.6875
 31
0.0
  0
LINE
  5
2E
330
A
100
AcDbEntity
  8
0
  6
Continuous
 62
     7
370
     0
100
AcDbLine
 10
82.5
 20
40.3125
 30
0.0
 11
83.125
 21
40.3125
 31
0.0
  0
LINE
  5
2F
330
A
100
AcDbEntity
  8
0
  6
Continuous
 62
     7
370
     0
100
AcDbLine
 10
82.5
 20
27.5
 30
0.0
 11
83.125
 21
27.5
 31
0.0
  0
LINE
  5
30
330
A
100
AcDbEntity
  8
0
  6
Continuous
 62
     7
370
     0
100
AcDbLine
 10
35.625
 20
53.125
 30
0.0
 11
26.25
 21
53.125
 31
0.0
  0
LINE
  5
31
330
A
100
AcDbEntity
  8
0
  6
Continuous
 62
     7
370
     0
100
AcDbLine
 10
45.0
 20
53.125
 30
0.0
 11
35.625
 21
53.125
 31
0.0
  0
LINE
  5
32
330
A
100
AcDbEntity
  8
0
  6
Continuous
 62
     7
370
     0
100
AcDbLine
 10
54.375
 20
53.125
 30
0.0
 11
45.0
 21
53.125
 31
0.0
  0
LINE
  5
33
330
A
100
AcDbEntity
  8
0
  6
Continuous
 62
     7
370
     0
100
AcDbLine
 10
63.75
 20
53.125
 30
0.0
 11
54.375
 21
53.125
 31
0.0
  0
LINE
  5
34
330
A
100
AcDbEntity
  8
0
  6
Continuous
 62
     7
370
     0
100
AcDbLine
 10
73.125
 20
53.125
 30
0.0
 11
63.75
 21
53.125
 31
0.0
  0
LINE
  5
35
330
A
100
AcDbEntity
  8
0
  6
Continuous
 62
     7
370
     0
100
AcDbLine
 10
82.5
 20
14.6875
 30
0.0
 11
83.125
 21
14.6875
 31
0.0
  0
LINE
  5
36
330
A
100
AcDbEntity
  8
0
  6
Continuous
 62
     7
370
     0
100
AcDbLine
 10
82.5
 20
53.125
 30
0.0
 11
73.125
 21
53.125
 31
0.0
  0
LINE
  5
37
330
A
100
AcDbEntity
  8
0
  6
Continuous
 62
     7
370
     0
100
AcDbLine
 10
73.125
 20
53.125
 30
0.0
 11
73.125
 21
53.75
 31
0.0
  0
LINE
  5
38
330
A
100
AcDbEntity
  8
0
  6
Continuous
 62
     7
370
     0
100
AcDbLine
 10
63.75
 20
53.125
 30
0.0
 11
63.75
 21
53.75
 31
0.0
  0
LINE
  5
39
330
A
100
AcDbEntity
  8
0
  6
Continuous
 62
     7
370
     0
100
AcDbLine
 10
54.375
 20
53.125
 30
0.0
 11
54.375
 21
53.75
 31
0.0
  0
LINE
  5
3A
330
A
100
AcDbEntity
  8
0
  6
Continuous
 62
     7
370
     0
100
AcDbLine
 10
45.0
 20
53.125
 30
0.0
 11
45.0
 21
53.75
 31
0.0
  0
LINE
  5
3B
330
A
100
AcDbEntity
  8
0
  6
Continuous
 62
     7
370
     0
100
AcDbLine
 10
35.625
 20
53.125
 30
0.0
 11
35.625
 21
53.75
 31
0.0
  0
LINE
  5
3C
330
A
100
AcDbEntity
  8
0
  6
Continuous
 62
     7
370
     0
100
AcDbLine
 10
26.25
 20
53.125
 30
0.0
 11
26.25
 21
53.75
 31
0.0
  0
LINE
  5
3D
330
A
100
AcDbEntity
  8
0
  6
Continuous
 62
     7
370
     0
100
AcDbLine
 10
16.875
 20
53.125
 30
0.0
 11
16.875
 21
53.75
 31
0.0
  0
LINE
  5
3E
330
A
100
AcDbEntity
  8
0
  6
Continuous
 62
     7
370
     0
100
AcDbLine
 10
43.75
 20
8.449999999999999
 30
0.0
 11
43.75
 21
1.879999999999999
 31
0.0
  0
LINE
  5
3F
330
A
100
AcDbEntity
  8
0
  6
Continuous
 62
     7
370
     0
100
AcDbLine
 10
55.0
 20
11.875
 30
0.0
 11
82.5
 21
11.875
 31
0.0
  0
LINE
  5
40
330
A
100
AcDbEntity
  8
0
  6
Continuous
 62
     7
370
     0
100
AcDbLine
 10
55.0
 20
11.875
 30
0.0
 11
55.0
 21
1.875
 31
0.0
  0
LINE
  5
41
330
A
100
AcDbEntity
  8
0
  6
Continuous
 62
     7
370
     0
100
AcDbLine
 10
67.5
 20
11.875
 30
0.0
 11
67.5
 21
1.875
 31
0.0
  0
LINE
  5
42
330
A
100
AcDbEntity
  8
0
  6
Continuous
 62
     7
370
     0
100
AcDbLine
 10
67.5
 20
2.814999999999999
 30
0.0
 11
82.5
 21
2.814999999999999
 31
0.0
  0
LINE
  5
43
330
A
100
AcDbEntity
  8
0
  6
Continuous
 62
     7
370
     0
100
AcDbLine
 10
67.5
 20
4.69
 30
0.0
 11
82.5
 21
4.69
 31
0.0
  0
LINE
  5
44
330
A
100
AcDbEntity
  8
0
  6
Continuous
 62
     7
370
     0
100
AcDbLine
 10
67.5
 20
8.439999999999999
 30
0.0
 11
82.5
 21
8.439999999999999
 31
0.0
  0
LINE
  5
45
330
A
100
AcDbEntity
  8
0
  6
Continuous
 62
     7
370
     0
100
AcDbLine
 10
69.375
 20
4.69
 30
0.0
 11
69.375
 21
1.875
 31
0.0
  0
LINE
  5
46
330
A
100
AcDbEntity
  8
0
  6
Continuous
 62
     7
370
     0
100
AcDbLine
 10
43.75
 20
3.754999999999999
 30
0.0
 11
67.5
 21
3.754999999999999
 31
0.0
  0
LINE
  5
47
330
A
100
AcDbEntity
  8
0
  6
Continuous
 62
     7
370
     0
100
AcDbLine
 10
80.625
 20
4.69
 30
0.0
 11
80.625
 21
1.875
 31
0.0
  0
LINE
  5
48
330
A
100
AcDbEntity
  8
0
  6
Continuous
 62
     7
370
     0
100
AcDbLine
 10
67.5
 20
10.0
 30
0.0
 11
55.0
 21
10.0
 31
0.0
  0
LINE
  5
49
330
A
100
AcDbEntity
  8
0
  6
Continuous
 62
     7
370
     0
100
AcDbLine
 10
55.0
 20
5.934999999999999
 30
0.0
 11
67.5
 21
5.934999999999999
 31
0.0
  0
LINE
  5
4A
330
A
100
AcDbEntity
  8
0
  6
Continuous
 62
     7
370
     0
100
AcDbLine
 10
55.0
 20
2.814999999999999
 30
0.0
 11
67.5
 21
2.814999999999999
 31
0.0
  0
LINE
  5
4B
330
A
100
AcDbEntity
  8
0
  6
Continuous
 62
     7
370
     0
100
AcDbLine
 10
43.75
 20
6.57
 30
0.0
 11
55.0
 21
6.57
 31
0.0
  0
LINE
  5
4C
330
A
100
AcDbEntity
  8
0
  6
Continuous
 62
     7
370
     0
100
AcDbLine
 10
82.5
 20
14.6875
 30
0.0
 11
82.5
 21
27.5
 31
0.0
  0
LINE
  5
4D
330
A
100
AcDbEntity
  8
0
  6
Continuous
 62
     7
370
     0
100
AcDbLine
 10
82.5
 20
27.5
 30
0.0
 11
82.5
 21
40.3125
 31
0.0
  0
LINE
  5
4E
330
A
100
AcDbEntity
  8
0
  6
Continuous
 62
     7
370
     0
100
AcDbLine
 10
82.5
 20
40.3125
 30
0.0
 11
82.5
 21
53.125
 31
0.0
  0
LINE
  5
4F
330
A
100
AcDbEntity
  8
0
  6
Continuous
 62
     7
370
     0
100
AcDbLine
 10
73.125
 20
1.875
 30
0.0
 11
63.75
 21
1.875
 31
0.0
  0
LINE
  5
50
330
A
100
AcDbEntity
  8
0
  6
Continuous
 62
     7
370
     0
100
AcDbLine
 10
63.75
 20
1.875
 30
0.0
 11
54.375
 21
1.875
 31
0.0
  0
LINE
  5
51
330
A
100
AcDbEntity
  8
0
  6
Continuous
 62
     7
370
     0
100
AcDbLine
 10
43.75
 20
7.509999999999999
 30
0.0
 11
55.0
 21
7.509999999999999
 31
0.0
  0
LINE
  5
52
330
A
100
AcDbEntity
  8
0
  6
Continuous
 62
     7
370
     0
100
AcDbLine
 10
43.75
 20
4.6875
 30
0.0
 11
25.0
 21
4.6875
 31
0.0
  0
LINE
  5
53
330
A
100
AcDbEntity
  8
0
  6
Continuous
 62
     7
370
     0
100
AcDbLine
 10
55.0
 20
8.449999999999999
 30
0.0
 11
43.75
 21
8.449999999999999
 31
0.0
  0
LINE
  5
54
330
A
100
AcDbEntity
  8
0
  6
Continuous
 62
     7
370
     0
100
AcDbLine
 10
51.25
 20
8.449999999999999
 30
0.0
 11
51.25
 21
5.629999999999999
 31
0.0
  0
LINE
  5
55
330
A
100
AcDbEntity
  8
0
  6
Continuous
 62
     7
370
     0
100
AcDbLine
 10
55.0
 20
9.06
 30
0.0
 11
67.5
 21
9.06
 31
0.0
  0
LINE
  5
56
330
A
100
AcDbEntity
  8
0
  6
Continuous
 62
     7
370
     0
100
AcDbLine
 10
43.75
 20
5.629999999999999
 30
0.0
 11
55.0
 21
5.629999999999999
 31
0.0
  0
LINE
  5
57
330
A
100
AcDbEntity
  8
0
  6
Continuous
 62
     7
370
     0
100
AcDbLine
 10
61.25
 20
10.0
 30
0.0
 11
61.25
 21
5.934999999999999
 31
0.0
  0
LINE
  5
58
330
A
100
AcDbEntity
  8
0
  6
Continuous
 62
     7
370
     0
100
AcDbLine
 10
54.375
 20
1.875
 30
0.0
 11
45.0
 21
1.875
 31
0.0
  0
LINE
  5
59
330
A
100
AcDbEntity
  8
0
  6
Continuous
 62
     7
370
     0
100
AcDbLine
 10
45.0
 20
1.875
 30
0.0
 11
35.625
 21
1.875
 31
0.0
  0
LINE
  5
5A
330
A
100
AcDbEntity
  8
0
  6
Continuous
 62
     7
370
     0
100
AcDbLine
 10
35.625
 20
1.875
 30
0.0
 11
26.25
 21
1.875
 31
0.0
  0
LINE
  5
5B
330
A
100
AcDbEntity
  8
0
  6
Continuous
 62
     7
370
     0
100
AcDbLine
 10
26.25
 20
1.875
 30
0.0
 11
16.875
 21
1.875
 31
0.0
  0
LINE
  5
5C
330
A
100
AcDbEntity
  8
0
  6
Continuous
 62
     7
370
     0
100
AcDbLine
 10
64.375
 20
10.0
 30
0.0
 11
64.375
 21
5.934999999999999
 31
0.0
  0
LINE
  5
5D
330
A
100
AcDbEntity
  8
0
  6
Continuous
 62
     7
370
     0
100
AcDbLine
 10
16.875
 20
1.875
 30
0.0
 11
7.5
 21
1.875
 31
0.0
  0
LINE
  5
5E
330
A
100
AcDbEntity
  8
0
  6
Continuous
 62
     7
370
     0
100
AcDbLine
 10
3.75
 20
53.125
 30
0.0
 11
3.75
 21
1.875
 31
0.0
  0
LINE
  5
5F
330
A
100
AcDbEntity
  8
0
  6
Continuous
 62
     7
370
     0
100
AcDbLine
 10
7.5
 20
14.6875
 30
0.0
 11
7.5
 21
27.5
 31
0.0
  0
LINE
  5
60
330
A
100
AcDbEntity
  8
0
  6
Continuous
 62
     7
370
     0
100
AcDbLine
 10
7.5
 20
27.5
 30
0.0
 11
7.5
 21
40.3125
 31
0.0
  0
LINE
  5
61
330
A
100
AcDbEntity
  8
0
  6
Continuous
 62
     7
370
     0
100
AcDbLine
 10
7.5
 20
40.3125
 30
0.0
 11
7.5
 21
53.125
 31
0.0
  0
LINE
  5
62
330
A
100
AcDbEntity
  8
0
  6
Continuous
 62
     7
370
     0
100
AcDbLine
 10
7.5
 20
40.3125
 30
0.0
 11
6.875
 21
40.3125
 31
0.0
  0
LINE
  5
63
330
A
100
AcDbEntity
  8
0
  6
Continuous
 62
     7
370
     0
100
AcDbLine
 10
73.125
 20
1.875
 30
0.0
 11
73.125
 21
1.25
 31
0.0
  0
LINE
  5
64
330
A
100
AcDbEntity
  8
0
  6
Continuous
 62
     7
370
     0
100
AcDbLine
 10
63.75
 20
1.875
 30
0.0
 11
63.75
 21
1.25
 31
0.0
  0
LINE
  5
65
330
A
100
AcDbEntity
  8
0
  6
Continuous
 62
     7
370
     0
100
AcDbLine
 10
54.375
 20
1.875
 30
0.0
 11
54.375
 21
1.25
 31
0.0
  0
LINE
  5
66
330
A
100
AcDbEntity
  8
0
  6
CENTERX2
 62
     7
370
     0
100
AcDbLine
 10
45.0
 20
1.875
 30
0.0
 11
45.0
 21
1.25
 31
0.0
  0
LINE
  5
67
330
A
100
AcDbEntity
  8
0
  6
Continuous
 62
     7
370
     0
100
AcDbLine
 10
35.625
 20
1.875
 30
0.0
 11
35.625
 21
1.25
 31
0.0
  0
LINE
  5
68
330
A
100
AcDbEntity
  8
0
  6
Continuous
 62
     7
370
     0
100
AcDbLine
 10
26.25
 20
1.875
 30
0.0
 11
26.25
 21
1.25
 31
0.0
  0
LINE
  5
69
330
A
100
AcDbEntity
  8
0
  6
Continuous
 62
     7
370
     0
100
AcDbLine
 10
16.875
 20
1.875
 30
0.0
 11
16.875
 21
1.25
 31
0.0
  0
LINE
  5
6A
330
A
100
AcDbEntity
  8
0
  6
Continuous
 62
     7
370
     0
100
AcDbLine
 10
7.5
 20
27.5
 30
0.0
 11
6.875
 21
27.5
 31
0.0
  0
LINE
  5
6B
330
A
100
AcDbEntity
  8
0
  6
Continuous
 62
     7
370
     0
100
AcDbLine
 10
7.5
 20
14.6875
 30
0.0
 11
6.875
 21
14.6875
 31
0.0
  0
LINE
  5
6C
330
A
100
AcDbEntity
  8
0
  6
Continuous
 62
     7
370
     0
100
AcDbLine
 10
7.5
 20
1.875
 30
0.0
 11
7.5
 21
14.6875
 31
0.0
  0
LINE
  5
6D
330
A
100
AcDbEntity
  8
0
  6
Continuous
 62
     7
370
     0
100
AcDbLine
 10
25.0
 20
4.6875
 30
0.0
 11
25.0
 21
1.875
 31
0.0
  0
LINE
  5
6E
330
A
100
AcDbEntity
  8
0
  6
Continuous
 62
     7
370
     0
100
AcDbLine
 10
82.5
 20
52.185
 30
0.0
 11
62.5
 21
52.185
 31
0.0
  0
LINE
  5
6F
330
A
100
AcDbEntity
  8
0
  6
Continuous
 62
     7
370
     0
100
AcDbLine
 10
82.5
 20
51.245
 30
0.0
 11
62.5
 21
51.245
 31
0.0
  0
LINE
  5
70
330
A
100
AcDbEntity
  8
0
  6
Continuous
 62
     7
370
     0
100
AcDbLine
 10
82.5
 20
50.30499999999999
 30
0.0
 11
62.5
 21
50.30499999999999
 31
0.0
  0
LINE
  5
71
330
A
100
AcDbEntity
  8
0
  6
Continuous
 62
     7
370
     0
100
AcDbLine
 10
62.5
 20
53.125
 30
0.0
 11
62.5
 21
50.30499999999999
 31
0.0
  0
LINE
  5
72
330
A
100
AcDbEntity
  8
0
  6
Continuous
 62
     7
370
     0
100
AcDbLine
 10
64.375
 20
52.185
 30
0.0
 11
64.375
 21
50.30499999999999
 31
0.0
  0
LINE
  5
73
330
A
100
AcDbEntity
  8
0
  6
Continuous
 62
     7
370
     0
100
AcDbLine
 10
78.75
 20
52.185
 30
0.0
 11
78.75
 21
50.30499999999999
 31
0.0
  0
LINE
  5
74
330
A
100
AcDbEntity
  8
0
  6
Continuous
 62
     7
370
     0
100
AcDbLine
 10
75.625
 20
52.185
 30
0.0
 11
75.625
 21
50.30499999999999
 31
0.0
  0
MTEXT
  5
76
330
A
100
AcDbEntity
  8
0
 62
     1
100
AcDbMText
 10
44.14051479805086
 20
4.606818178228538
 30
0.0
 40
0.5
 41
0.0
 71
     1
 72
     1
  1
STEEL A-36, 3/8" THICK BURNED
  7
SLDTEXTSTYLE0
 73
     1
 44
1.0
  0
MTEXT
  5
77
330
A
100
AcDbEntity
  8
0
 62
     1
100
AcDbMText
 10
58.52125532298528
 20
3.434577976514366
 30
0.0
 40
0.5
 41
0.0
 71
     1
 72
     1
  1
69.6 lbs
  7
SLDTEXTSTYLE0
 73
     1
 44
1.0
  0
MTEXT
  5
78
330
A
100
AcDbEntity
  8
0
 62
     1
100
AcDbMText
 10
75.08168296829336
 20
15.92237363366354
 30
0.0
 40
0.8333333333
 41
0.0
 71
     2
 72
     1
  1
4 REQUIRED\PPER BASE ASSEM
  7
SLDTEXTSTYLE0
 73
     1
 44
1.0
  0
MTEXT
  5
79
330
A
100
AcDbEntity
  8
0
 62
     7
100
AcDbMText
 10
83.56697539770001
 20
45.4433139627
 30
0.0
 40
0.46875
 41
0.0
 71
     1
 72
     1
  1
D
  7
SLDTEXTSTYLE0
 73
     1
 44
1.0
  0
MTEXT
  5
7A
330
A
100
AcDbEntity
  8
0
 62
     7
100
AcDbMText
 10
83.47552924850001
 20
32.73105737379999
 30
0.0
 40
0.46875
 41
0.0
 71
     1
 72
     1
  1
C
  7
SLDTEXTSTYLE0
 73
     1
 44
1.0
  0
MTEXT
  5
7B
330
A
100
AcDbEntity
  8
0
 62
     7
100
AcDbMText
 10
83.5306040008
 20
21.0940757983
 30
0.0
 40
0.46875
 41
0.0
 71
     1
 72
     1
  1
B
  7
SLDTEXTSTYLE0
 73
     1
 44
1.0
  0
MTEXT
  5
7C
330
A
100
AcDbEntity
  8
0
 62
     7
100
AcDbMText
 10
83.52775830049999
 20
8.5688410414
 30
0.0
 40
0.46875
 41
0.0
 71
     1
 72
     1
  1
A
  7
SLDTEXTSTYLE0
 73
     1
 44
1.0
  0
MTEXT
  5
7D
330
A
100
AcDbEntity
  8
0
 62
     7
100
AcDbMText
 10
4.8217629934
 20
8.467071842699999
 30
0.0
 40
0.46875
 41
0.0
 71
     1
 72
     1
  1
A
  7
SLDTEXTSTYLE0
 73
     1
 44
1.0
  0
MTEXT
  5
7E
330
A
100
AcDbEntity
  8
0
 62
     7
100
AcDbMText
 10
4.805797532099999
 20
21.3889764032
 30
0.0
 40
0.46875
 41
0.0
 71
     1
 72
     1
  1
B
  7
SLDTEXTSTYLE0
 73
     1
 44
1.0
  0
MTEXT
  5
7F
330
A
100
AcDbEntity
  8
0
 62
     7
100
AcDbMText
 10
4.7441395272
 20
34.371200033
 30
0.0
 40
0.46875
 41
0.0
 71
     1
 72
     1
  1
C
  7
SLDTEXTSTYLE0
 73
     1
 44
1.0
  0
MTEXT
  5
80
330
A
100
AcDbEntity
  8
0
 62
     7
100
AcDbMText
 10
4.727744810599999
 20
46.5323419178
 30
0.0
 40
0.46875
 41
0.0
 71
     1
 72
     1
  1
D
  7
SLDTEXTSTYLE0
 73
     1
 44
1.0
  0
MTEXT
  5
81
330
A
100
AcDbEntity
  8
0
 62
     7
100
AcDbMText
 10
80.92902905770001
 20
2.5983927948
 30
0.0
 40
0.45
 41
0.0
 71
     1
 72
     1
  1
REV.
  7
SLDTEXTSTYLE0
 73
     1
 44
1.0
  0
MTEXT
  5
82
330
A
100
AcDbEntity
  8
0
 62
     7
100
AcDbMText
 10
61.74538505920001
 20
8.793454872299999
 30
0.0
 40
0.45
 41
0.0
 71
     1
 72
     1
  1
%%p\P%%p\P%%p\P%%p
  7
SLDTEXTSTYLE0
 73
     1
 44
1.0
  0
MTEXT
  5
83
330
A
100
AcDbEntity
  8
0
 62
     7
100
AcDbMText
 10
44.05970762419999
 20
5.4874229998
 30
0.0
 40
0.45
 41
0.0
 71
     1
 72
     1
  1
MATERIAL
  7
SLDTEXTSTYLE0
 73
     1
 44
1.0
  0
MTEXT
  5
84
330
A
100
AcDbEntity
  8
0
 62
     7
100
AcDbMText
 10
44.04826703229999
 20
3.6583690343
 30
0.0
 40
0.45
 41
0.0
 71
     1
 72
     1
  1
FINISH
  7
SLDTEXTSTYLE0
 73
     1
 44
1.0
  0
MTEXT
  5
85
330
A
100
AcDbEntity
  8
0
 62
     7
100
AcDbMText
 10
79.00216501670001
 20
1.6088419049
 30
0.0
 40
0.46875
 41
0.0
 71
     1
 72
     1
  1
1
  7
SLDTEXTSTYLE0
 73
     1
 44
1.0
  0
MTEXT
  5
86
330
A
100
AcDbEntity
  8
0
 62
     7
100
AcDbMText
 10
67.9719312701
 20
1.657553973999999
 30
0.0
 40
0.46875
 41
0.0
 71
     1
 72
     1
  1
2
  7
SLDTEXTSTYLE0
 73
     1
 44
1.0
  0
MTEXT
  5
87
330
A
100
AcDbEntity
  8
0
 62
     7
100
AcDbMText
 10
57.6813584046
 20
1.673791330399999
 30
0.0
 40
0.46875
 41
0.0
 71
     1
 72
     1
  1
3
  7
SLDTEXTSTYLE0
 73
     1
 44
1.0
  0
MTEXT
  5
88
330
A
100
AcDbEntity
  8
0
 62
     7
100
AcDbMText
 10
48.4083879037
 20
1.683724386699999
 30
0.0
 40
0.46875
 41
0.0
 71
     1
 72
     1
  1
4
  7
SLDTEXTSTYLE0
 73
     1
 44
1.0
  0
MTEXT
  5
89
330
A
100
AcDbEntity
  8
0
 62
     7
100
AcDbMText
 10
38.6563233426
 20
1.6999617431
 30
0.0
 40
0.46875
 41
0.0
 71
     1
 72
     1
  1
5
  7
SLDTEXTSTYLE0
 73
     1
 44
1.0
  0
MTEXT
  5
8A
330
A
100
AcDbEntity
  8
0
 62
     7
100
AcDbMText
 10
29.551077493
 20
1.618774961199999
 30
0.0
 40
0.46875
 41
0.0
 71
     1
 72
     1
  1
6
  7
SLDTEXTSTYLE0
 73
     1
 44
1.0
  0
MTEXT
  5
8B
330
A
100
AcDbEntity
  8
0
 62
     7
100
AcDbMText
 10
19.65115439319999
 20
1.6900286868
 30
0.0
 40
0.46875
 41
0.0
 71
     1
 72
     1
  1
7
  7
SLDTEXTSTYLE0
 73
     1
 44
1.0
  0
MTEXT
  5
8C
330
A
100
AcDbEntity
  8
0
 62
     7
100
AcDbMText
 10
10.74075682019999
 20
1.6999617431
 30
0.0
 40
0.46875
 41
0.0
 71
     1
 72
     1
  1
8
  7
SLDTEXTSTYLE0
 73
     1
 44
1.0
  0
MTEXT
  5
8D
330
A
100
AcDbEntity
  8
0
 62
     7
100
AcDbMText
 10
10.5863947654
 20
54.04344810659999
 30
0.0
 40
0.46875
 41
0.0
 71
     1
 72
     1
  1
8
  7
SLDTEXTSTYLE0
 73
     1
 44
1.0
  0
MTEXT
  5
8E
330
A
100
AcDbEntity
  8
0
 62
     7
100
AcDbMText
 10
20.3522849888
 20
53.9320117187
 30
0.0
 40
0.46875
 41
0.0
 71
     1
 72
     1
  1
7
  7
SLDTEXTSTYLE0
 73
     1
 44
1.0
  0
MTEXT
  5
8F
330
A
100
AcDbEntity
  8
0
 62
     7
100
AcDbMText
 10
29.7585736986
 20
53.899343533
 30
0.0
 40
0.46875
 41
0.0
 71
     1
 72
     1
  1
6
  7
SLDTEXTSTYLE0
 73
     1
 44
1.0
  0
MTEXT
  5
90
330
A
100
AcDbEntity
  8
0
 62
     7
100
AcDbMText
 10
39.53097090449999
 20
53.8400544976
 30
0.0
 40
0.46875
 41
0.0
 71
     1
 72
     1
  1
5
  7
SLDTEXTSTYLE0
 73
     1
 44
1.0
  0
MTEXT
  5
91
330
A
100
AcDbEntity
  8
0
 62
     7
100
AcDbMText
 10
49.2440790751
 20
53.9841590712
 30
0.0
 40
0.46875
 41
0.0
 71
     1
 72
     1
  1
4
  7
SLDTEXTSTYLE0
 73
     1
 44
1.0
  0
MTEXT
  5
92
330
A
100
AcDbEntity
  8
0
 62
     7
100
AcDbMText
 10
59.0065112039
 20
53.88073321939999
 30
0.0
 40
0.46875
 41
0.0
 71
     1
 72
     1
  1
3
  7
SLDTEXTSTYLE0
 73
     1
 44
1.0
  0
MTEXT
  5
93
330
A
100
AcDbEntity
  8
0
 62
     7
100
AcDbMText
 10
68.3552399256
 20
53.9417513021
 30
0.0
 40
0.46875
 41
0.0
 71
     1
 72
     1
  1
2
  7
SLDTEXTSTYLE0
 73
     1
 44
1.0
  0
MTEXT
  5
94
330
A
100
AcDbEntity
  8
0
 62
     7
100
AcDbMText
 10
78.3344888351
 20
53.8586648112
 30
0.0
 40
0.46875
 41
0.0
 71
     1
 72
     1
  1
1
  7
SLDTEXTSTYLE0
 73
     1
 44
1.0
  0
MTEXT
  5
95
330
A
100
AcDbEntity
  8
0
 62
     7
100
AcDbMText
 10
68.2771700582
 20
11.5035869299
 30
0.0
 40
0.8333333333
 41
0.0
 71
     1
 72
     1
  1
RADIO  ASTRONOMY  LAB
  7
SLDTEXTSTYLE0
 73
     1
 44
1.0
  0
MTEXT
  5
96
330
A
100
AcDbEntity
  8
0
 62
     7
100
AcDbMText
 10
75.11378937729999
 20
10.0977455452
 30
0.0
 40
0.5
 41
0.0
 71
     2
 72
     1
  1
University of California - Berkeley\PTel: 510-642-5040    Fax: 510-642-3411
  7
SLDTEXTSTYLE0
 73
     1
 44
1.0
  0
MTEXT
  5
97
330
A
100
AcDbEntity
  8
0
 62
     7
100
AcDbMText
 10
46.91992470319999
 20
8.1887969308
 30
0.0
 40
0.45
 41
0.0
 71
     1
 72
     1
  1
NAME
  7
SLDTEXTSTYLE0
 73
     1
 44
1.0
  0
MTEXT
  5
98
330
A
100
AcDbEntity
  8
0
 62
     7
100
AcDbMText
 10
52.4596961177
 20
8.166642135
 30
0.0
 40
0.45
 41
0.0
 71
     1
 72
     1
  1
DATE
  7
SLDTEXTSTYLE0
 73
     1
 44
1.0
  0
MTEXT
  5
99
330
A
100
AcDbEntity
  8
0
 62
     7
100
AcDbMText
 10
67.89665216199999
 20
2.620764315999999
 30
0.0
 40
0.45
 41
0.0
 71
     1
 72
     1
  1
SIZE
  7
SLDTEXTSTYLE0
 73
     1
 44
1.0
  0
MTEXT
  5
9A
330
A
100
AcDbEntity
  8
0
 62
     7
100
AcDbMText
 10
68.1724994029
 20
4.2206598363
 30
0.0
 40
0.9375
 41
0.0
 71
     1
 72
     1
  1
B
  7
SLDTEXTSTYLE0
 73
     1
 44
1.0
  0
MTEXT
  5
9B
330
A
100
AcDbEntity
  8
0
 62
     7
100
AcDbMText
 10
55.3960642556
 20
2.564330853399999
 30
0.0
 40
0.45
 41
0.0
 71
     1
 72
     1
  1
SCALE:
  7
SLDTEXTSTYLE0
 73
     1
 44
1.0
  0
MTEXT
  5
9C
330
A
100
AcDbEntity
  8
0
 62
     7
100
AcDbMText
 10
69.62195289029999
 20
2.600001406
 30
0.0
 40
0.45
 41
0.0
 71
     1
 72
     1
  1
DWG NUM:      SHEET             OF
  7
SLDTEXTSTYLE0
 73
     1
 44
1.0
  0
MTEXT
  5
9D
330
A
100
AcDbEntity
  8
0
 62
     7
100
AcDbMText
 10
79.9939073971
 20
51.9265134263
 30
0.0
 40
0.45
 41
0.0
 71
     1
 72
     1
  1
DATE
  7
SLDTEXTSTYLE0
 73
     1
 44
1.0
  0
MTEXT
  5
9E
330
A
100
AcDbEntity
  8
0
 62
     7
100
AcDbMText
 10
76.51244289640001
 20
51.9243728017
 30
0.0
 40
0.45
 41
0.0
 71
     1
 72
     1
  1
NAME
  7
SLDTEXTSTYLE0
 73
     1
 44
1.0
  0
MTEXT
  5
9F
330
A
100
AcDbEntity
  8
0
 62
     7
100
AcDbMText
 10
70.16536925369999
 20
52.8598233534
 30
0.0
 40
0.45
 41
0.0
 71
     1
 72
     1
  1
REVISIONS
  7
SLDTEXTSTYLE0
 73
     1
 44
1.0
  0
MTEXT
  5
A0
330
A
100
AcDbEntity
  8
0
 62
     7
100
AcDbMText
 10
62.91099293439999
 20
51.9171662075
 30
0.0
 40
0.45
 41
0.0
 71
     1
 72
     1
  1
REV
  7
SLDTEXTSTYLE0
 73
     1
 44
1.0
  0
MTEXT
  5
A1
330
A
100
AcDbEntity
  8
0
 62
     7
100
AcDbMText
 10
64.81227845789999
 20
51.9144533763
 30
0.0
 40
0.45
 41
0.0
 71
     1
 72
     1
  1
DESCRIPTION
  7
SLDTEXTSTYLE0
 73
     1
 44
1.0
  0
MTEXT
  5
A2
330
A
100
AcDbEntity
  8
0
 62
     7
100
AcDbMText
 10
55.3700983888
 20
3.492229074199999
 30
0.0
 40
0.45
 41
0.0
 71
     1
 72
     1
  1
WEIGHT:
  7
SLDTEXTSTYLE0
 73
     1
 44
1.0
  0
MTEXT
  5
A3
330
A
100
AcDbEntity
  8
0
 62
     7
100
AcDbMText
 10
44.0538205881
 20
7.237722315599999
 30
0.0
 40
0.45
 41
0.0
 71
     1
 72
     1
  1
DRAWN
  7
SLDTEXTSTYLE0
 73
     1
 44
1.0
  0
MTEXT
  5
A4
330
A
100
AcDbEntity
  8
0
 62
     7
100
AcDbMText
 10
44.0526835034
 20
6.306652119299999
 30
0.0
 40
0.45
 41
0.0
 71
     1
 72
     1
  1
CHECKED
  7
SLDTEXTSTYLE0
 73
     1
 44
1.0
  0
MTEXT
  5
A5
330
A
100
AcDbEntity
  8
0
 62
     7
100
AcDbMText
 10
60.8263964621
 20
8.769602548499999
 30
0.0
 40
0.45
 41
0.0
 71
     3
 72
     1
  1
WHOLE & FRACTION\PDECIMAL   X.X\PDECIMAL   X.XX\PDECIMAL   X.XXX
  7
SLDTEXTSTYLE0
 73
     1
 44
1.0
  0
MTEXT
  5
A6
330
A
100
AcDbEntity
  8
0
 62
     7
100
AcDbMText
 10
62.9364878514
 20
9.823680130299999
 30
0.0
 40
0.45
 41
0.0
 71
     2
 72
     1
  1
LINEAR
  7
SLDTEXTSTYLE0
 73
     1
 44
1.0
  0
MTEXT
  5
A7
330
A
100
AcDbEntity
  8
0
 62
     7
100
AcDbMText
 10
65.83902275689999
 20
9.853768828199999
 30
0.0
 40
0.45
 41
0.0
 71
     2
 72
     1
  1
ANGLE
  7
SLDTEXTSTYLE0
 73
     1
 44
1.0
  0
INSERT
  5
AE
330
A
100
AcDbEntity
  8
0
100
AcDbBlockReference
  2
NOTE50
 10
55.8349834287
 20
5.470223762999999
 30
0.0
  0
MTEXT
  5
AF
330
A
100
AcDbEntity
  8
0
 62
     7
100
AcDbMText
 10
61.2437674405
 20
11.5445142328
 30
0.0
 40
0.45
 41
0.0
 71
     2
 72
     1
  1
UNLESS OTHERWISE SPECIFIED\PDIMENSIONS ARE INCHES & DEGREES
  7
SLDTEXTSTYLE0
 73
     1
 44
1.0
  0
MTEXT
  5
B0
330
A
100
AcDbEntity
  8
0
 62
     7
100
AcDbMText
 10
56.006500545
 20
9.791842264899999
 30
0.0
 40
0.45
 41
0.0
 71
     1
 72
     1
  1
TOLERANCES:
  7
SLDTEXTSTYLE0
 73
     1
 44
1.0
  0
MTEXT
  5
B1
330
A
100
AcDbEntity
  8
0
 62
     7
100
AcDbMText
 10
64.7773092562
 20
8.789060838799999
 30
0.0
 40
0.45
 41
0.0
 71
     1
 72
     1
  1
%%p\P%%p\P%%p\P%%p
  7
SLDTEXTSTYLE0
 73
     1
 44
1.0
  0
MTEXT
  5
B2
330
A
100
AcDbEntity
  8
0
 62
     7
100
AcDbMText
 10
73.31700146770001
 20
51.9311321764
 30
0.0
 40
0.45
 41
0.0
 71
     1
 72
     1
  1
ZONE
  7
SLDTEXTSTYLE0
 73
     1
 44
1.0
  0
MTEXT
  5
B3
330
A
100
AcDbEntity
  8
0
 62
     7
100
AcDbMText
 10
25.47608840969999
 20
4.322833335899999
 30
0.0
 40
0.4
 41
0.0
 71
     1
 72
     1
  1
THIS DRAWING IS THE PROPERTY OF AND CONTAINS CONFIDENTIAL\PINFORMATION PROPRIETARY TO THE UNIVERSITY OF CALIFORNIA AND\PSHALL BE USED ONLY FOR THE PURPOSE FOR WHICH IT WAS PROVIDED\PAND SHALL NOT BE REPRODUCED OR DISCLOSED TO OTHERS.
  7
SLDTEXTSTYLE0
 73
     1
 44
1.0
  0
MTEXT
  5
B4
330
A
100
AcDbEntity
  8
0
 62
     7
100
AcDbMText
 10
63.19479306459999
 20
51.0244958805
 30
0.0
 40
0.45
 41
0.0
 71
     1
 72
     1
  1
A
  7
SLDTEXTSTYLE0
 73
     1
 44
1.0
  0
MTEXT
  5
B5
330
A
100
AcDbEntity
  8
0
 62
     7
100
AcDbMText
 10
64.8899795696
 20
51.02325754189999
 30
0.0
 40
0.45
 41
0.0
 71
     1
 72
     1
  1
RELEASED
  7
SLDTEXTSTYLE0
 73
     1
 44
1.0
  0
MTEXT
  5
B6
330
A
100
AcDbEntity
  8
0
 62
     7
100
AcDbMText
 10
46.8458708658
 20
7.300634446599999
 30
0.0
 40
0.5208333333000001
 41
0.0
 71
     1
 72
     1
  1
M. C. FLEMING
  7
SLDTEXTSTYLE0
 73
     1
 44
1.0
  0
MTEXT
  5
B7
330
A
100
AcDbEntity
  8
0
 62
     7
100
AcDbMText
 10
81.2605219401
 20
4.135352238999999
 30
0.0
 40
0.9375
 41
0.0
 71
     1
 72
     1
  1
A
  7
SLDTEXTSTYLE0
 73
     1
 44
1.0
  0
MTEXT
  5
B8
330
A
100
AcDbEntity
  8
0
 62
     7
100
AcDbMText
 10
51.61070138479999
 20
7.2920208809
 30
0.0
 40
0.5208333333000001
 41
0.0
 71
     1
 72
     1
  1
2005-01-16
  7
SLDTEXTSTYLE0
 73
     1
 44
1.0
  0
MTEXT
  5
B9
330
A
100
AcDbEntity
  8
0
 62
     7
100
AcDbMText
 10
62.5620545663
 20
8.7991336196
 30
0.0
 40
0.45
 41
0.0
 71
     1
 72
     1
  1
1/16\P0.1\P0.01\P0.005
  7
SLDTEXTSTYLE0
 73
     1
 44
1.0
  0
MTEXT
  5
BA
330
A
100
AcDbEntity
  8
0
 62
     7
100
AcDbMText
 10
65.51242109739999
 20
8.789375511199999
 30
0.0
 40
0.45
 41
0.0
 71
     1
 72
     1
  1
1%%d\P0.1%%d\P0.01%%d\P0.001%%d
  7
SLDTEXTSTYLE0
 73
     1
 44
1.0
  0
MTEXT
  5
BB
330
A
100
AcDbEntity
  8
0
 62
     7
100
AcDbMText
 10
70.4085150551
 20
4.2258100563
 30
0.0
 40
0.9375
 41
0.0
 71
     1
 72
     1
  1
24-09-255   1 of 1
  7
SLDTEXTSTYLE0
 73
     1
 44
1.0
  0
MTEXT
  5
BC
330
A
100
AcDbEntity
  8
0
 62
     7
100
AcDbMText
 10
76.4798912472
 20
51.02543075399999
 30
0.0
 40
0.5208333333000001
 41
0.0
 71
     1
 72
     1
  1
M.C.F.
  7
SLDTEXTSTYLE0
 73
     1
 44
1.0
  0
MTEXT
  5
BD
330
A
100
AcDbEntity
  8
0
 62
     7
100
AcDbMText
 10
79.2098700488
 20
51.02076198239999
 30
0.0
 40
0.5208333333000001
 41
0.0
 71
     1
 72
     1
  1
2005-01-16
  7
SLDTEXTSTYLE0
 73
     1
 44
1.0
  0
MTEXT
  5
BE
330
A
100
AcDbEntity
  8
0
 62
     7
100
AcDbMText
 10
74.69339700749999
 20
7.6629316169
 30
0.0
 40
0.9375
 41
0.0
 71
     2
 72
     1
  1
CARMA 6m Base,\PArm, Top Flange
  7
SLDTEXTSTYLE0
 73
     1
 44
1.0
  0
LINE
  5
BF
330
A
100
AcDbEntity
  8
0
  6
Continuous
 62
     7
370
    15
100
AcDbLine
 10
66.3049189738
 20
22.8673183693
 30
0.0
 11
66.3049189738
 21
37.1173187654
 31
0.0
  0
LINE
  5
C0
330
A
100
AcDbEntity
  8
0
  6
Continuous
 62
     7
370
    15
100
AcDbLine
 10
31.1169180019
 20
18.492318083
 30
0.0
 11
66.3049189738
 21
22.8673183693
 31
0.0
  0
LINE
  5
C1
330
A
100
AcDbEntity
  8
0
  6
Continuous
 62
     7
370
    15
100
AcDbLine
 10
31.1169180019
 20
41.4923190517
 30
0.0
 11
31.1169180019
 21
18.492318083
 31
0.0
  0
LINE
  5
C2
330
A
100
AcDbEntity
  8
0
  6
Continuous
 62
     7
370
    15
100
AcDbLine
 10
66.3049189738
 20
37.1173187654
 30
0.0
 11
31.1169180019
 21
41.4923190517
 31
0.0
  0
DIMENSION
  5
D2
330
A
100
AcDbEntity
  8
0
100
AcDbDimension
  2
*D1
 10
66.30491800189999
 20
37.1173185674
 30
0.0
 11
37.12331826719999
 21
35.3483047339
 31
0.0
 70
   162
  1
(<>)
 71
     5
 42
0.0
  3
SLDDIMSTYLE0
100
AcDb2LineAngularDimension
 13
29.08603773579999
 23
29.99231856739999
 33
0.0
 14
68.34641509429999
 24
29.99231856739999
 34
0.0
 15
31.1169180019
 25
41.4923185674
 35
0.0
 16
37.33027370659999
 26
38.0198952024
 36
0.0
  0
DIMENSION
  5
E1
330
A
100
AcDbEntity
  8
0
100
AcDbDimension
  2
*D2
 10
29.08603773579999
 20
29.99231856739999
 30
0.0
 11
37.121430493
 21
24.6362154954
 31
0.0
 70
   162
  1
(<>)
 71
     5
 42
0.0
  3
SLDDIMSTYLE0
100
AcDb2LineAngularDimension
 13
31.1169180019
 23
18.4923185674
 33
0.0
 14
66.30491800189999
 24
22.86731856739999
 34
0.0
 15
68.34641509429999
 25
29.99231856739999
 35
0.0
 16
36.9971753048
 26
27.3129859905
 36
0.0
  0
DIMENSION
  5
EF
330
A
100
AcDbEntity
  8
0
100
AcDbDimension
  2
*D3
 10
66.30491800189999
 20
46.58053722899999
 30
0.0
 11
48.7109180019
 21
46.58053722899999
 31
0.0
 70
   160
 71
     5
 42
0.0
  3
SLDDIMSTYLE1
100
AcDbAlignedDimension
 13
31.1169180019
 23
41.4923185674
 33
0.0
 14
66.30491800189999
 24
37.1173185674
 34
0.0
100
AcDbRotatedDimension
  0
DIMENSION
  5
FC
330
A
100
AcDbEntity
  8
0
100
AcDbDimension
  2
*D4
 10
25.5689622642
 20
18.4923185674
 30
0.0
 11
25.5689622642
 21
29.99231856739999
 31
0.0
 70
   160
 71
     5
 42
0.0
  3
SLDDIMSTYLE1
100
AcDbAlignedDimension
 13
31.1169180019
 23
41.4923185674
 33
0.0
 14
31.1169180019
 24
18.4923185674
 34
0.0
 50
90.0
100
AcDbRotatedDimension
  0
DIMENSION
  5
109
330
A
100
AcDbEntity
  8
0
100
AcDbDimension
  2
*D5
 10
73.41564150939999
 20
37.1173185674
 30
0.0
 11
73.41564150939999
 21
29.99231856739999
 31
0.0
 70
   160
 71
     5
 42
0.0
  3
SLDDIMSTYLE1
100
AcDbAlignedDimension
 13
66.30491800189999
 23
22.86731856739999
 33
0.0
 14
66.30491800189999
 24
37.1173185674
 34
0.0
 50
90.0
100
AcDbRotatedDimension
  0
INSERT
  5
10E
330
A
100
AcDbEntity
  8
0
100
AcDbBlockReference
  2
NOTE67
 10
46.91679245279999
 20
31.4669339623
 30
0.0
  0
LINE
  5
10F
330
A
100
AcDbEntity
  8
0
  6
CENTERX2
 62
     7
370
     0
100
AcDbLine
 10
29.08603773579999
 20
29.99231856739999
 30
0.0
 11
68.34641509429999
 21
29.99231856739999
 31
0.0
  0
LINE
  5
110
330
A
100
AcDbEntity
  8
0
  6
Continuous
 62
     7
370
    15
100
AcDbLine
 10
14.04626532039999
 20
41.4923190517
 30
0.0
 11
14.04626532039999
 21
18.492318083
 31
0.0
  0
LINE
  5
111
330
A
100
AcDbEntity
  8
0
  6
Continuous
 62
     7
370
    15
100
AcDbLine
 10
14.04626532039999
 20
18.492318083
 30
0.0
 11
13.6712653157
 21
18.492318083
 31
0.0
  0
LINE
  5
112
330
A
100
AcDbEntity
  8
0
  6
Continuous
 62
     7
370
    15
100
AcDbLine
 10
13.6712653157
 20
41.4923190517
 30
0.0
 11
13.6712653157
 21
18.492318083
 31
0.0
  0
LINE
  5
113
330
A
100
AcDbEntity
  8
0
  6
Continuous
 62
     7
370
    15
100
AcDbLine
 10
14.04626532039999
 20
41.4923190517
 30
0.0
 11
13.6712653157
 21
41.4923190517
 31
0.0
  0
DIMENSION
  5
120
330
A
100
AcDbEntity
  8
0
100
AcDbDimension
  2
*D7
 10
14.04626531569999
 20
43.58221495379999
 30
0.0
 11
17.91534389959999
 21
43.58221495379999
 31
0.0
 70
   160
 71
     5
 42
0.0
  3
SLDDIMSTYLE1
100
AcDbAlignedDimension
 13
13.6712653157
 23
41.4923185674
 33
0.0
 14
14.04626531569999
 24
41.4923185674
 34
0.0
100
AcDbRotatedDimension
  0
LINE
  5
121
330
A
100
AcDbEntity
  8
0
  6
Continuous
 62
     7
370
    15
100
AcDbLine
 10
23.1268956828
 20
4.4979480018
 30
0.0
 11
28.1650314988
 21
7.406401900099999
 31
0.0
  0
LINE
  5
122
330
A
100
AcDbEntity
  8
0
  6
Continuous
 62
     7
370
    15
100
AcDbLine
 10
9.139262890800001
 20
10.7869437892
 30
0.0
 11
23.1268956828
 21
4.4979480018
 31
0.0
  0
LINE
  5
123
330
A
100
AcDbEntity
  8
0
  6
Continuous
 62
     7
370
    15
100
AcDbLine
 10
17.2709908744
 20
15.4812904322
 30
0.0
 11
9.139262890800001
 21
10.7869437892
 31
0.0
  0
LINE
  5
124
330
A
100
AcDbEntity
  8
0
  6
Continuous
 62
     7
370
    15
100
AcDbLine
 10
28.1650314988
 20
7.406401900099999
 30
0.0
 11
17.2709908744
 21
15.4812904322
 31
0.0
  0
LINE
  5
125
330
A
100
AcDbEntity
  8
0
  6
Continuous
 62
     7
370
    15
100
AcDbLine
 10
9.139262890800001
 20
10.7869437892
 30
0.0
 11
9.139262890800001
 21
10.633842387
 31
0.0
  0
LINE
  5
126
330
A
100
AcDbEntity
  8
0
  6
Continuous
 62
     7
370
    15
100
AcDbLine
 10
23.1268956828
 20
4.4979480018
 30
0.0
 11
23.1268956828
 21
4.344846599599999
 31
0.0
  0
LINE
  5
127
330
A
100
AcDbEntity
  8
0
  6
Continuous
 62
     7
370
    15
100
AcDbLine
 10
9.139262890800001
 20
10.633842387
 30
0.0
 11
23.1268956828
 21
4.344846599599999
 31
0.0
  0
LINE
  5
128
330
A
100
AcDbEntity
  8
0
  6
Continuous
 62
     7
370
    15
100
AcDbLine
 10
28.1650314988
 20
7.406401900099999
 30
0.0
 11
28.1650314988
 21
7.253300497899999
 31
0.0
  0
LINE
  5
129
330
A
100
AcDbEntity
  8
0
  6
Continuous
 62
     7
370
    15
100
AcDbLine
 10
23.1268956828
 20
4.344846599599999
 30
0.0
 11
28.1650314988
 21
7.253300497899999
 31
0.0
  0
LEADER
  5
12A
330
A
100
AcDbEntity
  8
0
 62
     1
100
AcDbLeader
  3
SLDDIMSTYLE2
 73
     0
 76
     3
 10
26.16103044219999
 20
8.801252598799999
 30
0.0
 10
28.7714691428
 20
11.744584434
 30
0.0
 10
30.0214691428
 20
11.744584434
 30
0.0
340
136
213
0.0
223
-0.3748695734802165
233
0.0
  0
LEADER
  5
134
330
A
100
AcDbEntity
  8
0
 62
     1
100
AcDbLeader
  3
SLDDIMSTYLE3
 73
     0
 76
     3
 10
17.45438360029999
 20
7.048372732
 30
0.0
 10
28.7714691428
 20
11.744584434
 30
0.0
 10
30.0214691428
 20
11.744584434
 30
0.0
340
136
213
0.0
223
-0.3748695734802165
233
0.0
  0
MTEXT
  5
136
102
{ACAD_REACTORS
330
12A
330
134
102
}
330
A
100
AcDbEntity
  8
0
 62
     1
100
AcDbMText
 10
30.119981848
 20
12.1194540074
 30
0.0
 40
0.5
 41
0.0
 71
     1
 72
     1
  1
RADIUS EDGES 1/32 TO 1/16 TOP & BOTTOM\PALONG BOTH SIDE EXPOSED EDGES
  7
SLDTEXTSTYLE0
 73
     1
 44
1.0
  0
ENDSEC
  0
SECTION
  2
OBJECTS
  0
DICTIONARY
  5
19
330
0
100
AcDbDictionary
281
     1
  3
ACAD_GROUP
350
1A
  3
ACAD_LAYOUT
350
1E
  3
ACAD_MLINESTYLE
350
1B
  3
ACAD_PLOTSETTINGS
350
22
  3
ACAD_PLOTSTYLENAME
350
1F
  3
ACAD_WIPEOUT_VARS
350
23
  0
DICTIONARY
  5
1A
102
{ACAD_REACTORS
330
19
102
}
330
19
100
AcDbDictionary
281
     1
  0
DICTIONARY
  5
1E
102
{ACAD_REACTORS
330
19
102
}
330
19
100
AcDbDictionary
281
     1
  3
Layout1
350
21
  3
Model
350
20
  0
DICTIONARY
  5
1B
102
{ACAD_REACTORS
330
19
102
}
330
19
100
AcDbDictionary
281
     1
  3
Standard
350
1C
  0
DICTIONARY
  5
22
102
{ACAD_REACTORS
330
19
102
}
330
19
100
AcDbDictionary
281
     1
  0
ACDBDICTIONARYWDFLT
  5
1F
102
{ACAD_REACTORS
330
19
102
}
330
19
100
AcDbDictionary
281
     1
  3
Normal
350
1D
100
AcDbDictionaryWithDefault
340
1D
  0
WIPEOUTVARIABLES
  5
23
330
19
100
AcDbWipeoutVariables
 70
     1
  0
LAYOUT
  5
21
102
{ACAD_REACTORS
330
1E
102
}
330
1E
100
AcDbPlotSettings
  1

  2

  4

  6

 40
0.0
 41
0.0
 42
0.0
 43
0.0
 44
0.0
 45
0.0
 46
0.0
 47
0.0
 48
0.0
 49
0.0
140
0.0
141
0.0
142
1.0
143
1.0
 70
     0
 72
     0
 73
     0
 74
     0
  7

 75
     0
147
1.0
148
0.0
149
0.0
100
AcDbLayout
  1
Layout1
 70
     1
 71
     1
 10
0.0
 20
0.0
 11
12.0
 21
9.0
 12
0.0
 22
0.0
 32
0.0
 14
1.000000000000000E+20
 24
1.000000000000000E+20
 34
1.000000000000000E+20
 15
-1.000000000000000E+20
 25
-1.000000000000000E+20
 35
-1.000000000000000E+20
146
0.0
 13
0.0
 23
0.0
 33
0.0
 16
1.0
 26
0.0
 36
0.0
 17
0.0
 27
1.0
 37
0.0
 76
     0
330
B
  0
LAYOUT
  5
20
102
{ACAD_REACTORS
330
1E
102
}
330
1E
100
AcDbPlotSettings
  1

  2

  4

  6

 40
0.0
 41
0.0
 42
0.0
 43
0.0
 44
0.0
 45
0.0
 46
0.0
 47
0.0
 48
0.0
 49
0.0
140
0.0
141
0.0
142
1.0
143
1.0
 70
  1024
 72
     0
 73
     0
 74
     0
  7

 75
     0
147
1.0
148
0.0
149
0.0
100
AcDbLayout
  1
Model
 70
     0
 71
     0
 10
0.0
 20
0.0
 11
0.0
 21
0.0
 12
0.0
 22
0.0
 32
0.0
 14
0.0
 24
0.0
 34
0.0
 15
0.0
 25
0.0
 35
0.0
146
0.0
 13
0.0
 23
0.0
 33
0.0
 16
0.0
 26
0.0
 36
0.0
 17
0.0
 27
0.0
 37
0.0
 76
     0
330
A
  0
MLINESTYLE
  5
1C
102
{ACAD_REACTORS
330
1B
102
}
330
1B
100
AcDbMlineStyle
  2
STANDARD
 70
     0
  3

 62
     0
 51
90.0
 52
90.0
 71
     2
 49
0.5
 62
   256
  6
BYLAYER
 49
-0.5
 62
   256
  6
BYLAYER
  0
ACDBPLACEHOLDER
  5
1D
102
{ACAD_REACTORS
330
1F
102
}
330
1F
  0
ENDSEC
  0
EOF
