  0
SECTION
  2
HEADER
  9
$ACADVER
  1
AC1015
  9
$ACADMAINTVER
 70
    10
  9
$DWGCODEPAGE
  3
ANSI_1252
  9
$INSBASE
 10
0.0
 20
0.0
 30
0.0
  9
$EXTMIN
 10
3.75
 20
-0.1775167482333339
 30
0.0
  9
$EXTMAX
 10
83.80135039770001
 20
54.04344810659999
 30
0.0
  9
$LIMMIN
 10
0.0
 20
0.0
  9
$LIMMAX
 10
0.0
 20
0.0
  9
$ORTHOMODE
 70
     0
  9
$REGENMODE
 70
     1
  9
$FILLMODE
 70
     1
  9
$QTEXTMODE
 70
     0
  9
$MIRRTEXT
 70
     1
  9
$LTSCALE
 40
1.0
  9
$ATTMODE
 70
     1
  9
$TEXTSIZE
 40
0.0
  9
$TRACEWID
 40
0.05
  9
$TEXTSTYLE
  7
Standard
  9
$CLAYER
  8
0
  9
$CELTYPE
  6
Continuous
  9
$CECOLOR
 62
   256
  9
$CELTSCALE
 40
1.0
  9
$DISPSILH
 70
     0
  9
$DIMSCALE
 40
1.0
  9
$DIMASZ
 40
0.0
  9
$DIMEXO
 40
0.0
  9
$DIMDLI
 40
0.38
  9
$DIMRND
 40
0.0
  9
$DIMDLE
 40
0.0
  9
$DIMEXE
 40
0.18
  9
$DIMTP
 40
0.0
  9
$DIMTM
 40
0.0
  9
$DIMTXT
 40
0.5
  9
$DIMCEN
 40
0.09
  9
$DIMTSZ
 40
0.0
  9
$DIMTOL
 70
     0
  9
$DIMLIM
 70
     0
  9
$DIMTIH
 70
     1
  9
$DIMTOH
 70
     1
  9
$DIMSE1
 70
     0
  9
$DIMSE2
 70
     0
  9
$DIMTAD
 70
     0
  9
$DIMZIN
 70
     0
  9
$DIMBLK
  1

  9
$DIMASO
 70
     1
  9
$DIMSHO
 70
     1
  9
$DIMPOST
  1

  9
$DIMAPOST
  1

  9
$DIMALT
 70
     0
  9
$DIMALTD
 70
     2
  9
$DIMALTF
 40
25.4
  9
$DIMLFAC
 40
1.0
  9
$DIMTOFL
 70
     0
  9
$DIMTVP
 40
0.0
  9
$DIMTIX
 70
     0
  9
$DIMSOXD
 70
     0
  9
$DIMSAH
 70
     0
  9
$DIMBLK1
  1

  9
$DIMBLK2
  1

  9
$DIMSTYLE
  2
Standard
  9
$DIMCLRD
 70
     0
  9
$DIMCLRE
 70
     0
  9
$DIMCLRT
 70
     0
  9
$DIMTFAC
 40
1.0
  9
$DIMGAP
 40
0.0
  9
$DIMJUST
 70
     0
  9
$DIMSD1
 70
     0
  9
$DIMSD2
 70
     0
  9
$DIMTOLJ
 70
     1
  9
$DIMTZIN
 70
     0
  9
$DIMALTZ
 70
     0
  9
$DIMALTTZ
 70
     0
  9
$DIMUPT
 70
     0
  9
$DIMDEC
 70
     4
  9
$DIMTDEC
 70
     4
  9
$DIMALTU
 70
     2
  9
$DIMALTTD
 70
     2
  9
$DIMTXSTY
  7
Standard
  9
$DIMAUNIT
 70
     0
  9
$DIMADEC
 70
     0
  9
$DIMALTRND
 40
0.0
  9
$DIMAZIN
 70
     0
  9
$DIMDSEP
 70
     0
  9
$DIMATFIT
 70
     3
  9
$DIMFRAC
 70
     0
  9
$DIMLDRBLK
  1

  9
$DIMLUNIT
 70
     2
  9
$DIMLWD
 70
     0
  9
$DIMLWE
 70
     0
  9
$DIMTMOVE
 70
     0
  9
$LUNITS
 70
     2
  9
$LUPREC
 70
     3
  9
$SKETCHINC
 40
0.1
  9
$FILLETRAD
 40
0.0
  9
$AUNITS
 70
     0
  9
$AUPREC
 70
     2
  9
$MENU
  1
acad
  9
$ELEVATION
 40
0.0
  9
$PELEVATION
 40
0.0
  9
$THICKNESS
 40
0.0
  9
$LIMCHECK
 70
     0
  9
$CHAMFERA
 40
0.0
  9
$CHAMFERB
 40
0.0
  9
$CHAMFERC
 40
0.0
  9
$CHAMFERD
 40
0.0
  9
$SKPOLY
 70
     0
  9
$TDCREATE
 40
2453398.557985382
  9
$TDUCREATE
 40
2453398.891318715
  9
$TDUPDATE
 40
2453398.559402488
  9
$TDUUPDATE
 40
2453398.892735821
  9
$TDINDWG
 40
0.0014227083
  9
$TDUSRTIMER
 40
0.0014227083
  9
$USRTIMER
 70
     1
  9
$ANGBASE
 50
0.0
  9
$ANGDIR
 70
     0
  9
$PDMODE
 70
     0
  9
$PDSIZE
 40
-1.0
  9
$PLINEWID
 40
0.0
  9
$SPLFRAME
 70
     0
  9
$SPLINETYPE
 70
     6
  9
$SPLINESEGS
 70
     8
  9
$HANDSEED
  5
135
  9
$SURFTAB1
 70
     6
  9
$SURFTAB2
 70
     6
  9
$SURFTYPE
 70
     6
  9
$SURFU
 70
     6
  9
$SURFV
 70
     6
  9
$UCSBASE
  2

  9
$UCSNAME
  2

  9
$UCSORG
 10
0.0
 20
0.0
 30
0.0
  9
$UCSXDIR
 10
1.0
 20
0.0
 30
0.0
  9
$UCSYDIR
 10
0.0
 20
1.0
 30
0.0
  9
$UCSORTHOREF
  2

  9
$UCSORTHOVIEW
 70
     0
  9
$UCSORGTOP
 10
0.0
 20
0.0
 30
0.0
  9
$UCSORGBOTTOM
 10
0.0
 20
0.0
 30
0.0
  9
$UCSORGLEFT
 10
0.0
 20
0.0
 30
0.0
  9
$UCSORGRIGHT
 10
0.0
 20
0.0
 30
0.0
  9
$UCSORGFRONT
 10
0.0
 20
0.0
 30
0.0
  9
$UCSORGBACK
 10
0.0
 20
0.0
 30
0.0
  9
$PUCSBASE
  2

  9
$PUCSNAME
  2

  9
$PUCSORG
 10
0.0
 20
0.0
 30
0.0
  9
$PUCSXDIR
 10
1.0
 20
0.0
 30
0.0
  9
$PUCSYDIR
 10
0.0
 20
1.0
 30
0.0
  9
$PUCSORTHOREF
  2

  9
$PUCSORTHOVIEW
 70
     0
  9
$PUCSORGTOP
 10
0.0
 20
0.0
 30
0.0
  9
$PUCSORGBOTTOM
 10
0.0
 20
0.0
 30
0.0
  9
$PUCSORGLEFT
 10
0.0
 20
0.0
 30
0.0
  9
$PUCSORGRIGHT
 10
0.0
 20
0.0
 30
0.0
  9
$PUCSORGFRONT
 10
0.0
 20
0.0
 30
0.0
  9
$PUCSORGBACK
 10
0.0
 20
0.0
 30
0.0
  9
$USERI1
 70
     0
  9
$USERI2
 70
     0
  9
$USERI3
 70
     0
  9
$USERI4
 70
     0
  9
$USERI5
 70
     0
  9
$USERR1
 40
0.0
  9
$USERR2
 40
0.0
  9
$USERR3
 40
0.0
  9
$USERR4
 40
0.0
  9
$USERR5
 40
0.0
  9
$WORLDVIEW
 70
     1
  9
$SHADEDGE
 70
     3
  9
$SHADEDIF
 70
    70
  9
$TILEMODE
 70
     1
  9
$MAXACTVP
 70
    16
  9
$PINSBASE
 10
0.0
 20
0.0
 30
0.0
  9
$PLIMCHECK
 70
     0
  9
$PEXTMIN
 10
1.000000000000000E+20
 20
1.000000000000000E+20
 30
1.000000000000000E+20
  9
$PEXTMAX
 10
-1.000000000000000E+20
 20
-1.000000000000000E+20
 30
-1.000000000000000E+20
  9
$PLIMMIN
 10
0.0
 20
0.0
  9
$PLIMMAX
 10
12.0
 20
9.0
  9
$UNITMODE
 70
     0
  9
$VISRETAIN
 70
     0
  9
$PLINEGEN
 70
     1
  9
$PSLTSCALE
 70
     1
  9
$TREEDEPTH
 70
  3020
  9
$CMLSTYLE
  2
Standard
  9
$CMLJUST
 70
     0
  9
$CMLSCALE
 40
1.0
  9
$PROXYGRAPHICS
 70
     0
  9
$MEASUREMENT
 70
     0
  9
$CELWEIGHT
370
     0
  9
$ENDCAPS
280
     0
  9
$JOINSTYLE
280
     0
  9
$LWDISPLAY
290
     1
  9
$INSUNITS
 70
     0
  9
$HYPERLINKBASE
  1

  9
$STYLESHEET
  1

  9
$XEDIT
290
     1
  9
$CEPSNTYPE
380
     0
  9
$PSTYLEMODE
290
     1
  9
$FINGERPRINTGUID
  2

  9
$VERSIONGUID
  2
{4CDF1D99-736B-40DE-B12C-8BE66AA0B491}
  9
$EXTNAMES
290
     1
  9
$PSVPSCALE
 40
0.0
  9
$OLESTARTUP
290
     0
  0
ENDSEC
  0
SECTION
  2
CLASSES
  0
CLASS
  1
LWPOLYLINE
  2
AcDbPolyline
  3
AutoCAD 2000
 90
    32768
280
     0
281
     1
  0
CLASS
  1
IMAGE
  2
AcDbRasterImage
  3
ISM
 90
    32895
280
     0
281
     1
  0
CLASS
  1
OLE2FRAME
  2
AcDbOle2Frame
  3
AutoCAD 2000
 90
    32768
280
     0
281
     1
  0
CLASS
  1
HATCH
  2
AcDbHatch
  3
AutoCAD 2000
 90
    32768
280
     0
281
     1
  0
CLASS
  1
DICTIONARYVAR
  2
AcDbDictionaryVar
  3
AutoCAD 2000
 90
    32768
280
     0
281
     0
  0
CLASS
  1
RASTERVARIABLES
  2
AcDbRasterVariables
  3
ISM
 90
    32768
280
     0
281
     0
  0
CLASS
  1
IMAGEDEF
  2
AcDbRasterImageDef
  3
ISM
 90
    32768
280
     0
281
     0
  0
CLASS
  1
IMAGEDEF_REACTOR
  2
AcDbRasterImageDefReactor
  3
ISM
 90
    32769
280
     0
281
     0
  0
CLASS
  1
IDBUFFER
  2
AcDbIdBuffer
  3
AutoCAD 2000
 90
    32768
280
     0
281
     0
  0
CLASS
  1
SPATIAL_FILTER
  2
AcDbSpatialFilter
  3
AutoCAD 2000
 90
    32768
280
     0
281
     0
  0
CLASS
  1
XRECORD
  2
AcDbXrecord
  3
AutoCAD 2000
 90
    32768
280
     0
281
     0
  0
CLASS
  1
SORTENTSTABLE
  2
AcDbSortentsTable
  3
AutoCAD 2000
 90
    32768
280
     0
281
     0
  0
CLASS
  1
LAYER_INDEX
  2
AcDbLayerIndex
  3
AutoCAD 2000
 90
    32768
280
     0
281
     0
  0
CLASS
  1
SPATIAL_INDEX
  2
AcDbSpatialIndex
  3
AutoCAD 2000
 90
    32768
280
     0
281
     0
  0
CLASS
  1
OBJECT_PTR
  2
CAseDLPNTableRecord
  3
"ASE-LPNTableRecord"
 90
    32769
280
     0
281
     0
  0
CLASS
  1
LAYOUT
  2
AcDbLayout
  3
AutoCAD 2000
 90
        0
280
     0
281
     0
  0
CLASS
  1
PLOTSETTINGS
  2
AcDbPlotSettings
  3
AutoCAD 2000
 90
    32768
280
     0
281
     0
  0
CLASS
  1
ACDBDICTIONARYWDFLT
  2
AcDbDictionaryWithDefault
  3
AutoCAD 2000
 90
        0
280
     0
281
     0
  0
CLASS
  1
ACDBPLACEHOLDER
  2
AcDbPlaceHolder
  3
AutoCAD 2000
 90
        0
280
     0
281
     0
  0
CLASS
  1
VBA_PROJECT
  2
AcDbVbaProject
  3
acadvba
 90
    32768
280
     0
281
     0
  0
CLASS
  1
WIPEOUT
  2
AcDbWipeout
  3
WipeOut|AutoCAD Express Tool|expresstools@autodesk.com
 90
    32895
280
     0
281
     1
  0
CLASS
  1
WIPEOUTVARIABLES
  2
AcDbWipeoutVariables
  3
WipeOut|AutoCAD Express Tool|expresstools@autodesk.com
 90
        0
280
     0
281
     0
  0
CLASS
  1
RTEXT
  2
RText
  3
RText|AutoCAD Express Tool|expresstools@autodesk.com
 90
    32768
280
     0
281
     1
  0
CLASS
  1
ARCALIGNEDTEXT
  2
AcDbArcAlignedText
  3
ATEXT|AutoCAD Express Tool|expresstools@autodesk.com
 90
    32768
280
     0
281
     1
  0
ENDSEC
  0
SECTION
  2
TABLES
  0
TABLE
  2
VPORT
  5
7
330
0
100
AcDbSymbolTable
 70
     5
  0
VPORT
  5
134
330
7
100
AcDbSymbolTableRecord
100
AcDbViewportTableRecord
  2
*Active
 70
     0
 10
0.0
 20
0.0
 11
1.0
 21
1.0
 12
38.73088720809329
 22
26.9092003156034
 13
0.0
 23
0.0
 14
1.0
 24
1.0
 15
0.0
 25
0.0
 16
0.0
 26
0.0
 36
1.0
 17
0.0
 27
0.0
 37
0.0
 40
54.99999998439088
 41
1.5
 42
50.0
 43
0.0
 44
0.0
 50
0.0
 51
0.0
 71
     0
 72
  2000
 73
     1
 74
     1
 75
     0
 76
     0
 77
     0
 78
     0
281
     0
 65
     0
110
0.0
120
0.0
130
0.0
111
1.0
121
0.0
131
0.0
112
0.0
122
1.0
132
0.0
 79
     0
146
0.0
  0
ENDTAB
  0
TABLE
  2
LTYPE
  5
4
330
0
100
AcDbSymbolTable
 70
     6
  0
LTYPE
  5
11
330
4
100
AcDbSymbolTableRecord
100
AcDbLinetypeTableRecord
  2
ByBlock
 70
     0
  3

 72
    65
 73
     0
 40
0.0
  0
LTYPE
  5
12
330
4
100
AcDbSymbolTableRecord
100
AcDbLinetypeTableRecord
  2
ByLayer
 70
     0
  3

 72
    65
 73
     0
 40
0.0
  0
LTYPE
  5
13
330
4
100
AcDbSymbolTableRecord
100
AcDbLinetypeTableRecord
  2
Continuous
 70
     0
  3
Solid line
 72
    65
 73
     0
 40
0.0
  0
LTYPE
  5
24
330
4
100
AcDbSymbolTableRecord
100
AcDbLinetypeTableRecord
  2
HIDDEN
 70
     0
  3
Hidden __ __ __ __ __ __ __ __ __ __ __ __ __ __
 72
    65
 73
     2
 40
0.075
 49
0.05
 74
     0
 49
-0.025
 74
     0
  0
LTYPE
  5
25
330
4
100
AcDbSymbolTableRecord
100
AcDbLinetypeTableRecord
  2
PHANTOM
 70
     0
  3
Phantom ______  __  __  ______  __  __  ______
 72
    65
 73
     6
 40
0.5
 49
0.25
 74
     0
 49
-0.05
 74
     0
 49
0.05
 74
     0
 49
-0.05
 74
     0
 49
0.05
 74
     0
 49
-0.05
 74
     0
  0
LTYPE
  5
26
330
4
100
AcDbSymbolTableRecord
100
AcDbLinetypeTableRecord
  2
CENTER
 70
     0
  3
Center ____ _ ____ _ ____ _ ____ _ ____ _ ____
 72
    65
 73
     4
 40
0.4
 49
0.25
 74
     0
 49
-0.05
 74
     0
 49
0.05
 74
     0
 49
-0.05
 74
     0
  0
LTYPE
  5
27
330
4
100
AcDbSymbolTableRecord
100
AcDbLinetypeTableRecord
  2
CENTERX2
 70
     0
  3
Center (2x) ________  __  ________  __  _____
 72
    65
 73
     4
 40
0.8
 49
0.5
 74
     0
 49
-0.1
 74
     0
 49
0.1
 74
     0
 49
-0.1
 74
     0
  0
LTYPE
  5
28
330
4
100
AcDbSymbolTableRecord
100
AcDbLinetypeTableRecord
  2
DOT2
 70
     0
  3
Dot (.5x) ........................................
 72
    65
 73
     2
 40
0.025
 49
0.0
 74
     0
 49
-0.025
 74
     0
  0
ENDTAB
  0
TABLE
  2
LAYER
  5
2
330
0
100
AcDbSymbolTable
 70
     1
  0
LAYER
  5
14
330
2
100
AcDbSymbolTableRecord
100
AcDbLayerTableRecord
  2
0
 70
     0
 62
     7
  6
Continuous
370
    -3
390
1D
  0
ENDTAB
  0
TABLE
  2
STYLE
  5
3
330
0
100
AcDbSymbolTable
 70
     2
  0
STYLE
  5
17
330
3
100
AcDbSymbolTableRecord
100
AcDbTextStyleTableRecord
  2
Standard
 70
     0
 40
0.0
 41
1.0
 50
0.0
 71
     0
 42
0.0
  3
txt
  4

  0
STYLE
  5
75
330
3
100
AcDbSymbolTableRecord
100
AcDbTextStyleTableRecord
  2
SLDTEXTSTYLE0
 70
     0
 40
0.0
 41
0.75
 50
0.0
 71
     0
 42
0.0
  3
txt
  4

  0
ENDTAB
  0
TABLE
  2
VIEW
  5
5
330
0
100
AcDbSymbolTable
 70
     0
  0
ENDTAB
  0
TABLE
  2
UCS
  5
6
330
0
100
AcDbSymbolTable
 70
     0
  0
ENDTAB
  0
TABLE
  2
APPID
  5
8
330
0
100
AcDbSymbolTable
 70
     1
  0
APPID
  5
16
330
8
100
AcDbSymbolTableRecord
100
AcDbRegAppTableRecord
  2
ACAD
 70
     0
  0
ENDTAB
  0
TABLE
  2
DIMSTYLE
  5
9
330
0
100
AcDbSymbolTable
 70
     4
100
AcDbDimStyleTable
 71
     1
340
18
  0
DIMSTYLE
105
18
330
9
100
AcDbSymbolTableRecord
100
AcDbDimStyleTableRecord
  2
Standard
 70
     0
340
17
  0
DIMSTYLE
105
CC
102
{ACAD_REACTORS
330
D0
330
FC
330
109
330
11E
102
}
330
9
100
AcDbSymbolTableRecord
100
AcDbDimStyleTableRecord
  2
SLDDIMSTYLE0
 70
     0
 41
0.9375
 44
0.6
 78
    12
140
0.5
147
0.125
173
     1
176
     1
177
     1
178
     1
271
     3
284
    12
340
17
  0
DIMSTYLE
105
DA
102
{ACAD_REACTORS
330
E0
330
EF
102
}
330
9
100
AcDbSymbolTableRecord
100
AcDbDimStyleTableRecord
  2
SLDDIMSTYLE1
 70
     0
 41
0.9375
 44
0.6
 78
    12
140
0.5
147
0.125
173
     1
176
     1
177
     1
178
     1
271
     0
284
    12
340
17
  0
DIMSTYLE
105
129
330
9
100
AcDbSymbolTableRecord
100
AcDbDimStyleTableRecord
  2
SLDDIMSTYLE2
 70
     0
 41
0.9375
 44
0.0
140
0.9375
147
0.234375
173
     1
271
     0
272
     0
340
17
  0
ENDTAB
  0
TABLE
  2
BLOCK_RECORD
  5
1
330
0
100
AcDbSymbolTable
 70
     8
  0
BLOCK_RECORD
  5
A
330
1
100
AcDbSymbolTableRecord
100
AcDbBlockTableRecord
  2
*MODEL_SPACE
340
20
  0
BLOCK_RECORD
  5
B
330
1
100
AcDbSymbolTableRecord
100
AcDbBlockTableRecord
  2
*PAPER_SPACE
340
21
  0
BLOCK_RECORD
  5
A8
330
1
100
AcDbSymbolTableRecord
100
AcDbBlockTableRecord
  2
NOTE50
340
0
102
{BLKREFS
331
AE
102
}
  0
BLOCK_RECORD
  5
C3
330
1
100
AcDbSymbolTableRecord
100
AcDbBlockTableRecord
  2
*D1
340
0
  0
BLOCK_RECORD
  5
D1
330
1
100
AcDbSymbolTableRecord
100
AcDbBlockTableRecord
  2
*D2
340
0
  0
BLOCK_RECORD
  5
E1
330
1
100
AcDbSymbolTableRecord
100
AcDbBlockTableRecord
  2
*D3
340
0
  0
BLOCK_RECORD
  5
F0
330
1
100
AcDbSymbolTableRecord
100
AcDbBlockTableRecord
  2
*D4
340
0
  0
BLOCK_RECORD
  5
FD
330
1
100
AcDbSymbolTableRecord
100
AcDbBlockTableRecord
  2
*D5
340
0
  0
BLOCK_RECORD
  5
10A
330
1
100
AcDbSymbolTableRecord
100
AcDbBlockTableRecord
  2
NOTE67
340
0
102
{BLKREFS
331
10E
102
}
  0
BLOCK_RECORD
  5
114
330
1
100
AcDbSymbolTableRecord
100
AcDbBlockTableRecord
  2
*D7
340
0
  0
ENDTAB
  0
ENDSEC
  0
SECTION
  2
BLOCKS
  0
BLOCK
  5
D
330
A
100
AcDbEntity
  8
0
100
AcDbBlockBegin
  2
*MODEL_SPACE
 70
     0
 10
0.0
 20
0.0
 30
0.0
  3
*MODEL_SPACE
  1

  0
ENDBLK
  5
E
330
A
100
AcDbEntity
  8
0
100
AcDbBlockEnd
  0
BLOCK
  5
F
330
B
100
AcDbEntity
 67
     1
  8
0
100
AcDbBlockBegin
  2
*PAPER_SPACE
 70
     0
 10
0.0
 20
0.0
 30
0.0
  3
*PAPER_SPACE
  1

  0
ENDBLK
  5
10
330
B
100
AcDbEntity
 67
     1
  8
0
100
AcDbBlockEnd
  0
BLOCK
  5
A9
330
A8
100
AcDbEntity
  8
0
 62
     0
100
AcDbBlockBegin
  2
NOTE50
 70
     0
 10
0.0
 20
0.0
 30
0.0
  3
NOTE50
  1

  0
MTEXT
  5
AA
330
A8
100
AcDbEntity
  8
0
 62
     7
100
AcDbMText
 10
0.0
 20
0.0
 30
0.0
 40
0.45
 41
0.0
 71
     1
 72
     1
  1
BREAK SHARP EDGES 0.010 RAD %%p 0.003
  7
SLDTEXTSTYLE0
 73
     1
 44
1.0
  0
MTEXT
  5
AB
330
A8
100
AcDbEntity
  8
0
 62
     7
100
AcDbMText
 10
0.0
 20
-0.675
 30
0.0
 40
0.45
 41
0.0
 71
     1
 72
     1
  1
MACHINED SURF FINISH  
  7
SLDTEXTSTYLE0
 73
     1
 44
1.0
  0
MTEXT
  5
AC
330
A8
100
AcDbEntity
  8
0
 62
     7
100
AcDbMText
 10
6.929999999999999
 20
-0.675
 30
0.0
 40
0.45
 41
0.0
 71
     1
 72
     1
  1
< 125 MICROINCH
  7
SLDTEXTSTYLE0
 73
     1
 44
1.0
  0
ENDBLK
  5
AD
330
A8
100
AcDbEntity
  8
0
100
AcDbBlockEnd
  0
BLOCK
  5
C4
330
C3
100
AcDbEntity
  8
0
 62
     1
100
AcDbBlockBegin
  2
*D1
 70
     1
 10
0.0
 20
0.0
 30
0.0
  3
*D1
  1

  0
MTEXT
  5
C5
330
C3
100
AcDbEntity
  8
0
100
AcDbMText
 10
48.1551056951
 20
45.5558080189
 30
0.0
 40
0.5
 41
0.0
 71
     7
 72
     1
  1
29 5/8"
  7
SLDTEXTSTYLE0
 73
     1
 44
1.0
  0
LINE
  5
C6
330
C3
100
AcDbEntity
  8
0
100
AcDbLine
 10
34.54896324219999
 20
42.91804901039999
 30
0.0
 11
34.54896324219999
 21
46.3806132075
 31
0.0
  0
LINE
  5
C7
330
C3
100
AcDbEntity
  8
0
100
AcDbLine
 10
64.1119632422
 20
37.8870490104
 30
0.0
 11
64.1119632422
 21
46.3806132075
 31
0.0
  0
LINE
  5
C8
330
C3
100
AcDbEntity
  8
0
100
AcDbLine
 10
34.54896324219999
 20
45.78061320749999
 30
0.0
 11
47.8426056951
 21
45.78061320749999
 31
0.0
  0
LINE
  5
C9
330
C3
100
AcDbEntity
  8
0
100
AcDbLine
 10
64.1119632422
 20
45.78061320749999
 30
0.0
 11
50.81832078939999
 21
45.78061320749999
 31
0.0
  0
SOLID
  5
CA
330
C3
100
AcDbEntity
  8
0
100
AcDbTrace
 10
34.54896324219999
 20
45.78061320749999
 30
0.0
 11
35.48646324219999
 21
45.62436320749999
 31
0.0
 12
35.48646324219999
 22
45.93686320749999
 32
0.0
 13
35.48646324219999
 23
45.93686320749999
 33
0.0
  0
SOLID
  5
CB
330
C3
100
AcDbEntity
  8
0
100
AcDbTrace
 10
64.1119632422
 20
45.78061320749999
 30
0.0
 11
63.1744632422
 21
45.93686320749999
 31
0.0
 12
63.1744632422
 22
45.62436320749999
 32
0.0
 13
63.1744632422
 23
45.62436320749999
 33
0.0
  0
POINT
  5
CD
330
C3
100
AcDbEntity
  8
0
100
AcDbPoint
 10
34.54896324219999
 20
42.7180490104
 30
0.0
  0
POINT
  5
CE
330
C3
100
AcDbEntity
  8
0
100
AcDbPoint
 10
64.1119632422
 20
37.6870490104
 30
0.0
  0
ENDBLK
  5
CF
330
C3
100
AcDbEntity
  8
0
 62
     1
100
AcDbBlockEnd
  0
BLOCK
  5
D2
330
D1
100
AcDbEntity
  8
0
 62
     1
100
AcDbBlockBegin
  2
*D2
 70
     1
 10
0.0
 20
0.0
 30
0.0
  3
*D2
  1

  0
MTEXT
  5
D3
330
D1
100
AcDbEntity
  8
0
 62
     7
100
AcDbMText
 10
40.64237173139999
 20
36.1493807932
 30
0.0
 40
0.5
 41
0.0
 71
     7
 72
     1
  1
10%%d
  7
SLDTEXTSTYLE0
 73
     1
 44
1.0
  0
ARC
  5
D4
330
D1
100
AcDbEntity
  8
0
 62
     7
100
AcDbCircle
 10
41.2794821088
 20
36.3741859819
 30
0.0
 40
1.061696677999999
100
AcDbArc
 50
153.4349488229
 51
206.5650511771
  0
ARC
  5
D5
330
D1
100
AcDbEntity
  8
0
 62
     7
100
AcDbCircle
 10
40.9057962598
 20
36.3741859819
 30
0.0
 40
1.061696677999999
100
AcDbArc
 50
333.4349488229
 51
26.5650511771
  0
ARC
  5
D6
330
D1
100
AcDbEntity
  8
0
 62
     7
100
AcDbCircle
 10
102.1248924808999
 20
31.21804901039999
 30
0.0
 40
61.2496668639
100
AcDbArc
 50
170.3419904528
 51
174.7251071513999
  0
ARC
  5
D7
330
D1
100
AcDbEntity
  8
0
 62
     7
100
AcDbCircle
 10
102.1248924808999
 20
31.21804901039999
 30
0.0
 40
61.2496668639
100
AcDbArc
 50
175.6165903337
 51
180.0
  0
SOLID
  5
D8
330
D1
100
AcDbEntity
  8
0
 62
     7
100
AcDbTrace
 10
41.7433364111
 20
41.49371821129999
 30
0.0
 11
41.438900475
 21
40.5933632406
 31
0.0
 12
41.74736348909999
 22
40.5432950976
 32
0.0
 13
41.74736348909999
 23
40.5432950976
 33
0.0
  0
SOLID
  5
D9
330
D1
100
AcDbEntity
  8
0
 62
     7
100
AcDbTrace
 10
40.8752256171
 20
31.21804901039999
 30
0.0
 11
41.0386451957
 21
32.1543258678
 31
0.0
 12
40.7261543458
 22
32.1567172524
 32
0.0
 13
40.7261543458
 23
32.1567172524
 33
0.0
  0
POINT
  5
DB
330
D1
100
AcDbEntity
  8
0
 62
     7
100
AcDbPoint
 10
64.1119632422
 20
37.6870490104
 30
0.0
  0
POINT
  5
DC
330
D1
100
AcDbEntity
  8
0
 62
     7
100
AcDbPoint
 10
34.54896324219999
 20
42.7180490104
 30
0.0
  0
POINT
  5
DD
330
D1
100
AcDbEntity
  8
0
 62
     7
100
AcDbPoint
 10
31.7544297832
 20
31.21804901039999
 30
0.0
  0
POINT
  5
DE
330
D1
100
AcDbEntity
  8
0
 62
     7
100
AcDbPoint
 10
66.79235849060001
 20
31.21804901039999
 30
0.0
  0
ENDBLK
  5
DF
330
D1
100
AcDbEntity
  8
0
100
AcDbBlockEnd
  0
BLOCK
  5
E2
330
E1
100
AcDbEntity
  8
0
 62
     1
100
AcDbBlockBegin
  2
*D3
 70
     1
 10
0.0
 20
0.0
 30
0.0
  3
*D3
  1

  0
MTEXT
  5
E3
330
E1
100
AcDbEntity
  8
0
 62
     7
100
AcDbMText
 10
40.6131667357
 20
25.8346395488
 30
0.0
 40
0.5
 41
0.0
 71
     7
 72
     1
  1
10%%d
  7
SLDTEXTSTYLE0
 73
     1
 44
1.0
  0
ARC
  5
E4
330
E1
100
AcDbEntity
  8
0
 62
     7
100
AcDbCircle
 10
41.250277113
 20
26.0594447375
 30
0.0
 40
1.061696677999999
100
AcDbArc
 50
153.4349488229
 51
206.5650511771
  0
ARC
  5
E5
330
E1
100
AcDbEntity
  8
0
 62
     7
100
AcDbCircle
 10
40.876591264
 20
26.0594447375
 30
0.0
 40
1.061696677999999
100
AcDbArc
 50
333.4349488229
 51
26.5650511771
  0
ARC
  5
E6
330
E1
100
AcDbEntity
  8
0
 62
     7
100
AcDbCircle
 10
102.1248924808999
 20
31.21804901039999
 30
0.0
 40
61.2789758958
100
AcDbArc
 50
180.0
 51
184.3836227237
  0
ARC
  5
E7
330
E1
100
AcDbEntity
  8
0
 62
     7
100
AcDbCircle
 10
102.1248924808999
 20
31.21804901039999
 30
0.0
 40
61.2789758958
100
AcDbArc
 50
185.2746795109999
 51
189.6580095472
  0
SOLID
  5
E8
330
E1
100
AcDbEntity
  8
0
 62
     7
100
AcDbTrace
 10
40.84591658509999
 20
31.21804901039999
 30
0.0
 11
40.6968418787
 21
30.2793813139
 31
0.0
 12
41.00933273739999
 22
30.28177155489999
 32
0.0
 13
41.00933273739999
 23
30.28177155489999
 33
0.0
  0
SOLID
  5
E9
330
E1
100
AcDbEntity
  8
0
 62
     7
100
AcDbTrace
 10
41.7144427853
 20
20.9374627228
 30
0.0
 11
41.7184663852
 21
21.8878858513
 31
0.0
 12
41.4100035543
 22
21.8378165794
 32
0.0
 13
41.4100035543
 23
21.8378165794
 33
0.0
  0
POINT
  5
EA
330
E1
100
AcDbEntity
  8
0
 62
     7
100
AcDbPoint
 10
34.54896324219999
 20
19.71804901039999
 30
0.0
  0
POINT
  5
EB
330
E1
100
AcDbEntity
  8
0
 62
     7
100
AcDbPoint
 10
64.1119632422
 20
24.7490490104
 30
0.0
  0
POINT
  5
EC
330
E1
100
AcDbEntity
  8
0
 62
     7
100
AcDbPoint
 10
31.7544297832
 20
31.21804901039999
 30
0.0
  0
POINT
  5
ED
330
E1
100
AcDbEntity
  8
0
 62
     7
100
AcDbPoint
 10
66.79235849060001
 20
31.21804901039999
 30
0.0
  0
ENDBLK
  5
EE
330
E1
100
AcDbEntity
  8
0
100
AcDbBlockEnd
  0
BLOCK
  5
F1
330
F0
100
AcDbEntity
  8
0
 62
     1
100
AcDbBlockBegin
  2
*D4
 70
     1
 10
0.0
 20
0.0
 30
0.0
  3
*D4
  1

  0
MTEXT
  5
F2
330
F0
100
AcDbEntity
  8
0
100
AcDbMText
 10
27.8222236938
 20
30.9932438217
 30
0.0
 40
0.5
 41
0.0
 71
     7
 72
     1
  1
23"
  7
SLDTEXTSTYLE0
 73
     1
 44
1.0
  0
LINE
  5
F3
330
F0
100
AcDbEntity
  8
0
100
AcDbLine
 10
34.3489632422
 20
42.7180490104
 30
0.0
 11
27.7223845429
 21
42.7180490104
 31
0.0
  0
LINE
  5
F4
330
F0
100
AcDbEntity
  8
0
100
AcDbLine
 10
34.3489632422
 20
19.71804901039999
 30
0.0
 11
27.7223845429
 21
19.71804901039999
 31
0.0
  0
LINE
  5
F5
330
F0
100
AcDbEntity
  8
0
100
AcDbLine
 10
28.3223845429
 20
42.7180490104
 30
0.0
 11
28.3223845429
 21
31.692854199
 31
0.0
  0
LINE
  5
F6
330
F0
100
AcDbEntity
  8
0
100
AcDbLine
 10
28.3223845429
 20
19.71804901039999
 30
0.0
 11
28.3223845429
 21
30.7432438217
 31
0.0
  0
SOLID
  5
F7
330
F0
100
AcDbEntity
  8
0
100
AcDbTrace
 10
28.3223845429
 20
42.7180490104
 30
0.0
 11
28.1661345429
 21
41.7805490104
 31
0.0
 12
28.4786345429
 22
41.7805490104
 32
0.0
 13
28.4786345429
 23
41.7805490104
 33
0.0
  0
SOLID
  5
F8
330
F0
100
AcDbEntity
  8
0
100
AcDbTrace
 10
28.3223845429
 20
19.71804901039999
 30
0.0
 11
28.4786345429
 21
20.6555490104
 31
0.0
 12
28.1661345429
 22
20.6555490104
 32
0.0
 13
28.1661345429
 23
20.6555490104
 33
0.0
  0
POINT
  5
F9
330
F0
100
AcDbEntity
  8
0
100
AcDbPoint
 10
34.54896324219999
 20
42.7180490104
 30
0.0
  0
POINT
  5
FA
330
F0
100
AcDbEntity
  8
0
100
AcDbPoint
 10
34.54896324219999
 20
19.71804901039999
 30
0.0
  0
ENDBLK
  5
FB
330
F0
100
AcDbEntity
  8
0
 62
     1
100
AcDbBlockEnd
  0
BLOCK
  5
FE
330
FD
100
AcDbEntity
  8
0
 62
     1
100
AcDbBlockBegin
  2
*D5
 70
     1
 10
0.0
 20
0.0
 30
0.0
  3
*D5
  1

  0
MTEXT
  5
FF
330
FD
100
AcDbEntity
  8
0
100
AcDbMText
 10
69.31626694870001
 20
30.9932438217
 30
0.0
 40
0.5
 41
0.0
 71
     7
 72
     1
  1
13"
  7
SLDTEXTSTYLE0
 73
     1
 44
1.0
  0
LINE
  5
100
330
FD
100
AcDbEntity
  8
0
100
AcDbLine
 10
64.3119632422
 20
24.7490490104
 30
0.0
 11
70.36653440149999
 21
24.7490490104
 31
0.0
  0
LINE
  5
101
330
FD
100
AcDbEntity
  8
0
100
AcDbLine
 10
64.3119632422
 20
37.6870490104
 30
0.0
 11
70.36653440149999
 21
37.6870490104
 31
0.0
  0
LINE
  5
102
330
FD
100
AcDbEntity
  8
0
100
AcDbLine
 10
69.76653440149999
 20
24.7490490104
 30
0.0
 11
69.76653440149999
 21
30.7432438217
 31
0.0
  0
LINE
  5
103
330
FD
100
AcDbEntity
  8
0
100
AcDbLine
 10
69.76653440149999
 20
37.6870490104
 30
0.0
 11
69.76653440149999
 21
31.692854199
 31
0.0
  0
SOLID
  5
104
330
FD
100
AcDbEntity
  8
0
100
AcDbTrace
 10
69.76653440149999
 20
24.7490490104
 30
0.0
 11
69.92278440149999
 21
25.6865490104
 31
0.0
 12
69.61028440149999
 22
25.6865490104
 32
0.0
 13
69.61028440149999
 23
25.6865490104
 33
0.0
  0
SOLID
  5
105
330
FD
100
AcDbEntity
  8
0
100
AcDbTrace
 10
69.76653440149999
 20
37.6870490104
 30
0.0
 11
69.61028440149999
 21
36.7495490104
 31
0.0
 12
69.92278440149999
 22
36.7495490104
 32
0.0
 13
69.92278440149999
 23
36.7495490104
 33
0.0
  0
POINT
  5
106
330
FD
100
AcDbEntity
  8
0
100
AcDbPoint
 10
64.1119632422
 20
24.7490490104
 30
0.0
  0
POINT
  5
107
330
FD
100
AcDbEntity
  8
0
100
AcDbPoint
 10
64.1119632422
 20
37.6870490104
 30
0.0
  0
ENDBLK
  5
108
330
FD
100
AcDbEntity
  8
0
 62
     1
100
AcDbBlockEnd
  0
BLOCK
  5
10B
330
10A
100
AcDbEntity
  8
0
 62
     0
100
AcDbBlockBegin
  2
NOTE67
 70
     0
 10
0.0
 20
0.0
 30
0.0
  3
NOTE67
  1

  0
MTEXT
  5
10C
330
10A
100
AcDbEntity
  8
0
 62
     1
100
AcDbMText
 10
0.0
 20
0.0
 30
0.0
 40
0.9375
 41
0.0
 71
     1
 72
     1
  1
{\Fgdt;q}
  7
SLDTEXTSTYLE0
 73
     1
 44
1.0
  0
ENDBLK
  5
10D
330
10A
100
AcDbEntity
  8
0
100
AcDbBlockEnd
  0
BLOCK
  5
115
330
114
100
AcDbEntity
  8
0
 62
     1
100
AcDbBlockBegin
  2
*D7
 70
     1
 10
0.0
 20
0.0
 30
0.0
  3
*D7
  1

  0
MTEXT
  5
116
330
114
100
AcDbEntity
  8
0
100
AcDbMText
 10
11.5828381746
 20
40.1833474975
 30
0.0
 40
0.5
 41
0.0
 71
     7
 72
     1
  1
3/8"
  7
SLDTEXTSTYLE0
 73
     1
 44
1.0
  0
LINE
  5
117
330
114
100
AcDbEntity
  8
0
100
AcDbLine
 10
16.7764491046
 20
40.4081526861
 30
0.0
 11
19.2764491046
 21
40.4081526861
 31
0.0
  0
LINE
  5
118
330
114
100
AcDbEntity
  8
0
100
AcDbLine
 10
16.4014491046
 20
40.4081526861
 30
0.0
 11
13.24573157089999
 21
40.4081526861
 31
0.0
  0
SOLID
  5
119
330
114
100
AcDbEntity
  8
0
100
AcDbTrace
 10
16.7764491046
 20
40.4081526861
 30
0.0
 11
17.7139491046
 21
40.2519026861
 31
0.0
 12
17.7139491046
 22
40.5644026861
 32
0.0
 13
17.7139491046
 23
40.5644026861
 33
0.0
  0
SOLID
  5
11A
330
114
100
AcDbEntity
  8
0
100
AcDbTrace
 10
16.4014491046
 20
40.4081526861
 30
0.0
 11
15.4639491046
 21
40.5644026861
 31
0.0
 12
15.4639491046
 22
40.2519026861
 32
0.0
 13
15.4639491046
 23
40.2519026861
 33
0.0
  0
POINT
  5
11B
330
114
100
AcDbEntity
  8
0
100
AcDbPoint
 10
16.7764491046
 20
42.7180490104
 30
0.0
  0
POINT
  5
11C
330
114
100
AcDbEntity
  8
0
100
AcDbPoint
 10
16.4014491046
 20
42.7180490104
 30
0.0
  0
ENDBLK
  5
11D
330
114
100
AcDbEntity
  8
0
 62
     1
100
AcDbBlockEnd
  0
ENDSEC
  0
SECTION
  2
ENTITIES
  0
LINE
  5
2A
330
A
100
AcDbEntity
  8
0
  6
Continuous
 62
     7
370
     0
100
AcDbLine
 10
16.875
 20
53.125
 30
0.0
 11
7.5
 21
53.125
 31
0.0
  0
LINE
  5
2B
330
A
100
AcDbEntity
  8
0
  6
Continuous
 62
     7
370
     0
100
AcDbLine
 10
26.25
 20
53.125
 30
0.0
 11
16.875
 21
53.125
 31
0.0
  0
LINE
  5
2C
330
A
100
AcDbEntity
  8
0
  6
Continuous
 62
     7
370
     0
100
AcDbLine
 10
82.5
 20
1.875
 30
0.0
 11
73.125
 21
1.875
 31
0.0
  0
LINE
  5
2D
330
A
100
AcDbEntity
  8
0
  6
Continuous
 62
     7
370
     0
100
AcDbLine
 10
82.5
 20
1.875
 30
0.0
 11
82.5
 21
14.6875
 31
0.0
  0
LINE
  5
2E
330
A
100
AcDbEntity
  8
0
  6
Continuous
 62
     7
370
     0
100
AcDbLine
 10
82.5
 20
40.3125
 30
0.0
 11
83.125
 21
40.3125
 31
0.0
  0
LINE
  5
2F
330
A
100
AcDbEntity
  8
0
  6
Continuous
 62
     7
370
     0
100
AcDbLine
 10
82.5
 20
27.5
 30
0.0
 11
83.125
 21
27.5
 31
0.0
  0
LINE
  5
30
330
A
100
AcDbEntity
  8
0
  6
Continuous
 62
     7
370
     0
100
AcDbLine
 10
35.625
 20
53.125
 30
0.0
 11
26.25
 21
53.125
 31
0.0
  0
LINE
  5
31
330
A
100
AcDbEntity
  8
0
  6
Continuous
 62
     7
370
     0
100
AcDbLine
 10
45.0
 20
53.125
 30
0.0
 11
35.625
 21
53.125
 31
0.0
  0
LINE
  5
32
330
A
100
AcDbEntity
  8
0
  6
Continuous
 62
     7
370
     0
100
AcDbLine
 10
54.375
 20
53.125
 30
0.0
 11
45.0
 21
53.125
 31
0.0
  0
LINE
  5
33
330
A
100
AcDbEntity
  8
0
  6
Continuous
 62
     7
370
     0
100
AcDbLine
 10
63.75
 20
53.125
 30
0.0
 11
54.375
 21
53.125
 31
0.0
  0
LINE
  5
34
330
A
100
AcDbEntity
  8
0
  6
Continuous
 62
     7
370
     0
100
AcDbLine
 10
73.125
 20
53.125
 30
0.0
 11
63.75
 21
53.125
 31
0.0
  0
LINE
  5
35
330
A
100
AcDbEntity
  8
0
  6
Continuous
 62
     7
370
     0
100
AcDbLine
 10
82.5
 20
14.6875
 30
0.0
 11
83.125
 21
14.6875
 31
0.0
  0
LINE
  5
36
330
A
100
AcDbEntity
  8
0
  6
Continuous
 62
     7
370
     0
100
AcDbLine
 10
82.5
 20
53.125
 30
0.0
 11
73.125
 21
53.125
 31
0.0
  0
LINE
  5
37
330
A
100
AcDbEntity
  8
0
  6
Continuous
 62
     7
370
     0
100
AcDbLine
 10
73.125
 20
53.125
 30
0.0
 11
73.125
 21
53.75
 31
0.0
  0
LINE
  5
38
330
A
100
AcDbEntity
  8
0
  6
Continuous
 62
     7
370
     0
100
AcDbLine
 10
63.75
 20
53.125
 30
0.0
 11
63.75
 21
53.75
 31
0.0
  0
LINE
  5
39
330
A
100
AcDbEntity
  8
0
  6
Continuous
 62
     7
370
     0
100
AcDbLine
 10
54.375
 20
53.125
 30
0.0
 11
54.375
 21
53.75
 31
0.0
  0
LINE
  5
3A
330
A
100
AcDbEntity
  8
0
  6
Continuous
 62
     7
370
     0
100
AcDbLine
 10
45.0
 20
53.125
 30
0.0
 11
45.0
 21
53.75
 31
0.0
  0
LINE
  5
3B
330
A
100
AcDbEntity
  8
0
  6
Continuous
 62
     7
370
     0
100
AcDbLine
 10
35.625
 20
53.125
 30
0.0
 11
35.625
 21
53.75
 31
0.0
  0
LINE
  5
3C
330
A
100
AcDbEntity
  8
0
  6
Continuous
 62
     7
370
     0
100
AcDbLine
 10
26.25
 20
53.125
 30
0.0
 11
26.25
 21
53.75
 31
0.0
  0
LINE
  5
3D
330
A
100
AcDbEntity
  8
0
  6
Continuous
 62
     7
370
     0
100
AcDbLine
 10
16.875
 20
53.125
 30
0.0
 11
16.875
 21
53.75
 31
0.0
  0
LINE
  5
3E
330
A
100
AcDbEntity
  8
0
  6
Continuous
 62
     7
370
     0
100
AcDbLine
 10
43.75
 20
8.449999999999999
 30
0.0
 11
43.75
 21
1.879999999999999
 31
0.0
  0
LINE
  5
3F
330
A
100
AcDbEntity
  8
0
  6
Continuous
 62
     7
370
     0
100
AcDbLine
 10
55.0
 20
11.875
 30
0.0
 11
82.5
 21
11.875
 31
0.0
  0
LINE
  5
40
330
A
100
AcDbEntity
  8
0
  6
Continuous
 62
     7
370
     0
100
AcDbLine
 10
55.0
 20
11.875
 30
0.0
 11
55.0
 21
1.875
 31
0.0
  0
LINE
  5
41
330
A
100
AcDbEntity
  8
0
  6
Continuous
 62
     7
370
     0
100
AcDbLine
 10
67.5
 20
11.875
 30
0.0
 11
67.5
 21
1.875
 31
0.0
  0
LINE
  5
42
330
A
100
AcDbEntity
  8
0
  6
Continuous
 62
     7
370
     0
100
AcDbLine
 10
67.5
 20
2.814999999999999
 30
0.0
 11
82.5
 21
2.814999999999999
 31
0.0
  0
LINE
  5
43
330
A
100
AcDbEntity
  8
0
  6
Continuous
 62
     7
370
     0
100
AcDbLine
 10
67.5
 20
4.69
 30
0.0
 11
82.5
 21
4.69
 31
0.0
  0
LINE
  5
44
330
A
100
AcDbEntity
  8
0
  6
Continuous
 62
     7
370
     0
100
AcDbLine
 10
67.5
 20
8.439999999999999
 30
0.0
 11
82.5
 21
8.439999999999999
 31
0.0
  0
LINE
  5
45
330
A
100
AcDbEntity
  8
0
  6
Continuous
 62
     7
370
     0
100
AcDbLine
 10
69.375
 20
4.69
 30
0.0
 11
69.375
 21
1.875
 31
0.0
  0
LINE
  5
46
330
A
100
AcDbEntity
  8
0
  6
Continuous
 62
     7
370
     0
100
AcDbLine
 10
43.75
 20
3.754999999999999
 30
0.0
 11
67.5
 21
3.754999999999999
 31
0.0
  0
LINE
  5
47
330
A
100
AcDbEntity
  8
0
  6
Continuous
 62
     7
370
     0
100
AcDbLine
 10
80.625
 20
4.69
 30
0.0
 11
80.625
 21
1.875
 31
0.0
  0
LINE
  5
48
330
A
100
AcDbEntity
  8
0
  6
Continuous
 62
     7
370
     0
100
AcDbLine
 10
67.5
 20
10.0
 30
0.0
 11
55.0
 21
10.0
 31
0.0
  0
LINE
  5
49
330
A
100
AcDbEntity
  8
0
  6
Continuous
 62
     7
370
     0
100
AcDbLine
 10
55.0
 20
5.934999999999999
 30
0.0
 11
67.5
 21
5.934999999999999
 31
0.0
  0
LINE
  5
4A
330
A
100
AcDbEntity
  8
0
  6
Continuous
 62
     7
370
     0
100
AcDbLine
 10
55.0
 20
2.814999999999999
 30
0.0
 11
67.5
 21
2.814999999999999
 31
0.0
  0
LINE
  5
4B
330
A
100
AcDbEntity
  8
0
  6
Continuous
 62
     7
370
     0
100
AcDbLine
 10
43.75
 20
6.57
 30
0.0
 11
55.0
 21
6.57
 31
0.0
  0
LINE
  5
4C
330
A
100
AcDbEntity
  8
0
  6
Continuous
 62
     7
370
     0
100
AcDbLine
 10
82.5
 20
14.6875
 30
0.0
 11
82.5
 21
27.5
 31
0.0
  0
LINE
  5
4D
330
A
100
AcDbEntity
  8
0
  6
Continuous
 62
     7
370
     0
100
AcDbLine
 10
82.5
 20
27.5
 30
0.0
 11
82.5
 21
40.3125
 31
0.0
  0
LINE
  5
4E
330
A
100
AcDbEntity
  8
0
  6
Continuous
 62
     7
370
     0
100
AcDbLine
 10
82.5
 20
40.3125
 30
0.0
 11
82.5
 21
53.125
 31
0.0
  0
LINE
  5
4F
330
A
100
AcDbEntity
  8
0
  6
Continuous
 62
     7
370
     0
100
AcDbLine
 10
73.125
 20
1.875
 30
0.0
 11
63.75
 21
1.875
 31
0.0
  0
LINE
  5
50
330
A
100
AcDbEntity
  8
0
  6
Continuous
 62
     7
370
     0
100
AcDbLine
 10
63.75
 20
1.875
 30
0.0
 11
54.375
 21
1.875
 31
0.0
  0
LINE
  5
51
330
A
100
AcDbEntity
  8
0
  6
Continuous
 62
     7
370
     0
100
AcDbLine
 10
43.75
 20
7.509999999999999
 30
0.0
 11
55.0
 21
7.509999999999999
 31
0.0
  0
LINE
  5
52
330
A
100
AcDbEntity
  8
0
  6
Continuous
 62
     7
370
     0
100
AcDbLine
 10
43.75
 20
4.6875
 30
0.0
 11
25.0
 21
4.6875
 31
0.0
  0
LINE
  5
53
330
A
100
AcDbEntity
  8
0
  6
Continuous
 62
     7
370
     0
100
AcDbLine
 10
55.0
 20
8.449999999999999
 30
0.0
 11
43.75
 21
8.449999999999999
 31
0.0
  0
LINE
  5
54
330
A
100
AcDbEntity
  8
0
  6
Continuous
 62
     7
370
     0
100
AcDbLine
 10
51.25
 20
8.449999999999999
 30
0.0
 11
51.25
 21
5.629999999999999
 31
0.0
  0
LINE
  5
55
330
A
100
AcDbEntity
  8
0
  6
Continuous
 62
     7
370
     0
100
AcDbLine
 10
55.0
 20
9.06
 30
0.0
 11
67.5
 21
9.06
 31
0.0
  0
LINE
  5
56
330
A
100
AcDbEntity
  8
0
  6
Continuous
 62
     7
370
     0
100
AcDbLine
 10
43.75
 20
5.629999999999999
 30
0.0
 11
55.0
 21
5.629999999999999
 31
0.0
  0
LINE
  5
57
330
A
100
AcDbEntity
  8
0
  6
Continuous
 62
     7
370
     0
100
AcDbLine
 10
61.25
 20
10.0
 30
0.0
 11
61.25
 21
5.934999999999999
 31
0.0
  0
LINE
  5
58
330
A
100
AcDbEntity
  8
0
  6
Continuous
 62
     7
370
     0
100
AcDbLine
 10
54.375
 20
1.875
 30
0.0
 11
45.0
 21
1.875
 31
0.0
  0
LINE
  5
59
330
A
100
AcDbEntity
  8
0
  6
Continuous
 62
     7
370
     0
100
AcDbLine
 10
45.0
 20
1.875
 30
0.0
 11
35.625
 21
1.875
 31
0.0
  0
LINE
  5
5A
330
A
100
AcDbEntity
  8
0
  6
Continuous
 62
     7
370
     0
100
AcDbLine
 10
35.625
 20
1.875
 30
0.0
 11
26.25
 21
1.875
 31
0.0
  0
LINE
  5
5B
330
A
100
AcDbEntity
  8
0
  6
Continuous
 62
     7
370
     0
100
AcDbLine
 10
26.25
 20
1.875
 30
0.0
 11
16.875
 21
1.875
 31
0.0
  0
LINE
  5
5C
330
A
100
AcDbEntity
  8
0
  6
Continuous
 62
     7
370
     0
100
AcDbLine
 10
64.375
 20
10.0
 30
0.0
 11
64.375
 21
5.934999999999999
 31
0.0
  0
LINE
  5
5D
330
A
100
AcDbEntity
  8
0
  6
Continuous
 62
     7
370
     0
100
AcDbLine
 10
16.875
 20
1.875
 30
0.0
 11
7.5
 21
1.875
 31
0.0
  0
LINE
  5
5E
330
A
100
AcDbEntity
  8
0
  6
Continuous
 62
     7
370
     0
100
AcDbLine
 10
3.75
 20
53.125
 30
0.0
 11
3.75
 21
1.875
 31
0.0
  0
LINE
  5
5F
330
A
100
AcDbEntity
  8
0
  6
Continuous
 62
     7
370
     0
100
AcDbLine
 10
7.5
 20
14.6875
 30
0.0
 11
7.5
 21
27.5
 31
0.0
  0
LINE
  5
60
330
A
100
AcDbEntity
  8
0
  6
Continuous
 62
     7
370
     0
100
AcDbLine
 10
7.5
 20
27.5
 30
0.0
 11
7.5
 21
40.3125
 31
0.0
  0
LINE
  5
61
330
A
100
AcDbEntity
  8
0
  6
Continuous
 62
     7
370
     0
100
AcDbLine
 10
7.5
 20
40.3125
 30
0.0
 11
7.5
 21
53.125
 31
0.0
  0
LINE
  5
62
330
A
100
AcDbEntity
  8
0
  6
Continuous
 62
     7
370
     0
100
AcDbLine
 10
7.5
 20
40.3125
 30
0.0
 11
6.875
 21
40.3125
 31
0.0
  0
LINE
  5
63
330
A
100
AcDbEntity
  8
0
  6
Continuous
 62
     7
370
     0
100
AcDbLine
 10
73.125
 20
1.875
 30
0.0
 11
73.125
 21
1.25
 31
0.0
  0
LINE
  5
64
330
A
100
AcDbEntity
  8
0
  6
Continuous
 62
     7
370
     0
100
AcDbLine
 10
63.75
 20
1.875
 30
0.0
 11
63.75
 21
1.25
 31
0.0
  0
LINE
  5
65
330
A
100
AcDbEntity
  8
0
  6
Continuous
 62
     7
370
     0
100
AcDbLine
 10
54.375
 20
1.875
 30
0.0
 11
54.375
 21
1.25
 31
0.0
  0
LINE
  5
66
330
A
100
AcDbEntity
  8
0
  6
CENTERX2
 62
     7
370
     0
100
AcDbLine
 10
45.0
 20
1.875
 30
0.0
 11
45.0
 21
1.25
 31
0.0
  0
LINE
  5
67
330
A
100
AcDbEntity
  8
0
  6
Continuous
 62
     7
370
     0
100
AcDbLine
 10
35.625
 20
1.875
 30
0.0
 11
35.625
 21
1.25
 31
0.0
  0
LINE
  5
68
330
A
100
AcDbEntity
  8
0
  6
Continuous
 62
     7
370
     0
100
AcDbLine
 10
26.25
 20
1.875
 30
0.0
 11
26.25
 21
1.25
 31
0.0
  0
LINE
  5
69
330
A
100
AcDbEntity
  8
0
  6
Continuous
 62
     7
370
     0
100
AcDbLine
 10
16.875
 20
1.875
 30
0.0
 11
16.875
 21
1.25
 31
0.0
  0
LINE
  5
6A
330
A
100
AcDbEntity
  8
0
  6
Continuous
 62
     7
370
     0
100
AcDbLine
 10
7.5
 20
27.5
 30
0.0
 11
6.875
 21
27.5
 31
0.0
  0
LINE
  5
6B
330
A
100
AcDbEntity
  8
0
  6
Continuous
 62
     7
370
     0
100
AcDbLine
 10
7.5
 20
14.6875
 30
0.0
 11
6.875
 21
14.6875
 31
0.0
  0
LINE
  5
6C
330
A
100
AcDbEntity
  8
0
  6
Continuous
 62
     7
370
     0
100
AcDbLine
 10
7.5
 20
1.875
 30
0.0
 11
7.5
 21
14.6875
 31
0.0
  0
LINE
  5
6D
330
A
100
AcDbEntity
  8
0
  6
Continuous
 62
     7
370
     0
100
AcDbLine
 10
25.0
 20
4.6875
 30
0.0
 11
25.0
 21
1.875
 31
0.0
  0
LINE
  5
6E
330
A
100
AcDbEntity
  8
0
  6
Continuous
 62
     7
370
     0
100
AcDbLine
 10
82.5
 20
52.185
 30
0.0
 11
62.5
 21
52.185
 31
0.0
  0
LINE
  5
6F
330
A
100
AcDbEntity
  8
0
  6
Continuous
 62
     7
370
     0
100
AcDbLine
 10
82.5
 20
51.245
 30
0.0
 11
62.5
 21
51.245
 31
0.0
  0
LINE
  5
70
330
A
100
AcDbEntity
  8
0
  6
Continuous
 62
     7
370
     0
100
AcDbLine
 10
82.5
 20
50.30499999999999
 30
0.0
 11
62.5
 21
50.30499999999999
 31
0.0
  0
LINE
  5
71
330
A
100
AcDbEntity
  8
0
  6
Continuous
 62
     7
370
     0
100
AcDbLine
 10
62.5
 20
53.125
 30
0.0
 11
62.5
 21
50.30499999999999
 31
0.0
  0
LINE
  5
72
330
A
100
AcDbEntity
  8
0
  6
Continuous
 62
     7
370
     0
100
AcDbLine
 10
64.375
 20
52.185
 30
0.0
 11
64.375
 21
50.30499999999999
 31
0.0
  0
LINE
  5
73
330
A
100
AcDbEntity
  8
0
  6
Continuous
 62
     7
370
     0
100
AcDbLine
 10
78.75
 20
52.185
 30
0.0
 11
78.75
 21
50.30499999999999
 31
0.0
  0
LINE
  5
74
330
A
100
AcDbEntity
  8
0
  6
Continuous
 62
     7
370
     0
100
AcDbLine
 10
75.625
 20
52.185
 30
0.0
 11
75.625
 21
50.30499999999999
 31
0.0
  0
MTEXT
  5
76
330
A
100
AcDbEntity
  8
0
 62
     1
100
AcDbMText
 10
44.03272597078365
 20
4.7655129260513
 30
0.0
 40
0.5
 41
0.0
 71
     1
 72
     1
  1
STEEL A-36, 3/8" THICK BURNED
  7
SLDTEXTSTYLE0
 73
     1
 44
1.0
  0
MTEXT
  5
77
330
A
100
AcDbEntity
  8
0
 62
     1
100
AcDbMText
 10
58.33257532445092
 20
3.500767193825747
 30
0.0
 40
0.5
 41
0.0
 71
     1
 72
     1
  1
56.4  lbs
  7
SLDTEXTSTYLE0
 73
     1
 44
1.0
  0
MTEXT
  5
78
330
A
100
AcDbEntity
  8
0
 62
     1
100
AcDbMText
 10
74.67931983799831
 20
16.05479387178033
 30
0.0
 40
0.8333333333
 41
0.0
 71
     2
 72
     1
  1
4 REQUIRED\PPER BASE ASSEM
  7
SLDTEXTSTYLE0
 73
     1
 44
1.0
  0
MTEXT
  5
79
330
A
100
AcDbEntity
  8
0
 62
     7
100
AcDbMText
 10
83.56697539770001
 20
45.4433139627
 30
0.0
 40
0.46875
 41
0.0
 71
     1
 72
     1
  1
D
  7
SLDTEXTSTYLE0
 73
     1
 44
1.0
  0
MTEXT
  5
7A
330
A
100
AcDbEntity
  8
0
 62
     7
100
AcDbMText
 10
83.47552924850001
 20
32.73105737379999
 30
0.0
 40
0.46875
 41
0.0
 71
     1
 72
     1
  1
C
  7
SLDTEXTSTYLE0
 73
     1
 44
1.0
  0
MTEXT
  5
7B
330
A
100
AcDbEntity
  8
0
 62
     7
100
AcDbMText
 10
83.5306040008
 20
21.0940757983
 30
0.0
 40
0.46875
 41
0.0
 71
     1
 72
     1
  1
B
  7
SLDTEXTSTYLE0
 73
     1
 44
1.0
  0
MTEXT
  5
7C
330
A
100
AcDbEntity
  8
0
 62
     7
100
AcDbMText
 10
83.52775830049999
 20
8.5688410414
 30
0.0
 40
0.46875
 41
0.0
 71
     1
 72
     1
  1
A
  7
SLDTEXTSTYLE0
 73
     1
 44
1.0
  0
MTEXT
  5
7D
330
A
100
AcDbEntity
  8
0
 62
     7
100
AcDbMText
 10
4.8217629934
 20
8.467071842699999
 30
0.0
 40
0.46875
 41
0.0
 71
     1
 72
     1
  1
A
  7
SLDTEXTSTYLE0
 73
     1
 44
1.0
  0
MTEXT
  5
7E
330
A
100
AcDbEntity
  8
0
 62
     7
100
AcDbMText
 10
4.805797532099999
 20
21.3889764032
 30
0.0
 40
0.46875
 41
0.0
 71
     1
 72
     1
  1
B
  7
SLDTEXTSTYLE0
 73
     1
 44
1.0
  0
MTEXT
  5
7F
330
A
100
AcDbEntity
  8
0
 62
     7
100
AcDbMText
 10
4.7441395272
 20
34.371200033
 30
0.0
 40
0.46875
 41
0.0
 71
     1
 72
     1
  1
C
  7
SLDTEXTSTYLE0
 73
     1
 44
1.0
  0
MTEXT
  5
80
330
A
100
AcDbEntity
  8
0
 62
     7
100
AcDbMText
 10
4.727744810599999
 20
46.5323419178
 30
0.0
 40
0.46875
 41
0.0
 71
     1
 72
     1
  1
D
  7
SLDTEXTSTYLE0
 73
     1
 44
1.0
  0
MTEXT
  5
81
330
A
100
AcDbEntity
  8
0
 62
     7
100
AcDbMText
 10
80.92902905770001
 20
2.5983927948
 30
0.0
 40
0.45
 41
0.0
 71
     1
 72
     1
  1
REV.
  7
SLDTEXTSTYLE0
 73
     1
 44
1.0
  0
MTEXT
  5
82
330
A
100
AcDbEntity
  8
0
 62
     7
100
AcDbMText
 10
61.74538505920001
 20
8.793454872299999
 30
0.0
 40
0.45
 41
0.0
 71
     1
 72
     1
  1
%%p\P%%p\P%%p\P%%p
  7
SLDTEXTSTYLE0
 73
     1
 44
1.0
  0
MTEXT
  5
83
330
A
100
AcDbEntity
  8
0
 62
     7
100
AcDbMText
 10
44.05970762419999
 20
5.4874229998
 30
0.0
 40
0.45
 41
0.0
 71
     1
 72
     1
  1
MATERIAL
  7
SLDTEXTSTYLE0
 73
     1
 44
1.0
  0
MTEXT
  5
84
330
A
100
AcDbEntity
  8
0
 62
     7
100
AcDbMText
 10
44.04826703229999
 20
3.6583690343
 30
0.0
 40
0.45
 41
0.0
 71
     1
 72
     1
  1
FINISH
  7
SLDTEXTSTYLE0
 73
     1
 44
1.0
  0
MTEXT
  5
85
330
A
100
AcDbEntity
  8
0
 62
     7
100
AcDbMText
 10
79.00216501670001
 20
1.6088419049
 30
0.0
 40
0.46875
 41
0.0
 71
     1
 72
     1
  1
1
  7
SLDTEXTSTYLE0
 73
     1
 44
1.0
  0
MTEXT
  5
86
330
A
100
AcDbEntity
  8
0
 62
     7
100
AcDbMText
 10
67.9719312701
 20
1.657553973999999
 30
0.0
 40
0.46875
 41
0.0
 71
     1
 72
     1
  1
2
  7
SLDTEXTSTYLE0
 73
     1
 44
1.0
  0
MTEXT
  5
87
330
A
100
AcDbEntity
  8
0
 62
     7
100
AcDbMText
 10
57.6813584046
 20
1.673791330399999
 30
0.0
 40
0.46875
 41
0.0
 71
     1
 72
     1
  1
3
  7
SLDTEXTSTYLE0
 73
     1
 44
1.0
  0
MTEXT
  5
88
330
A
100
AcDbEntity
  8
0
 62
     7
100
AcDbMText
 10
48.4083879037
 20
1.683724386699999
 30
0.0
 40
0.46875
 41
0.0
 71
     1
 72
     1
  1
4
  7
SLDTEXTSTYLE0
 73
     1
 44
1.0
  0
MTEXT
  5
89
330
A
100
AcDbEntity
  8
0
 62
     7
100
AcDbMText
 10
38.6563233426
 20
1.6999617431
 30
0.0
 40
0.46875
 41
0.0
 71
     1
 72
     1
  1
5
  7
SLDTEXTSTYLE0
 73
     1
 44
1.0
  0
MTEXT
  5
8A
330
A
100
AcDbEntity
  8
0
 62
     7
100
AcDbMText
 10
29.551077493
 20
1.618774961199999
 30
0.0
 40
0.46875
 41
0.0
 71
     1
 72
     1
  1
6
  7
SLDTEXTSTYLE0
 73
     1
 44
1.0
  0
MTEXT
  5
8B
330
A
100
AcDbEntity
  8
0
 62
     7
100
AcDbMText
 10
19.65115439319999
 20
1.6900286868
 30
0.0
 40
0.46875
 41
0.0
 71
     1
 72
     1
  1
7
  7
SLDTEXTSTYLE0
 73
     1
 44
1.0
  0
MTEXT
  5
8C
330
A
100
AcDbEntity
  8
0
 62
     7
100
AcDbMText
 10
10.74075682019999
 20
1.6999617431
 30
0.0
 40
0.46875
 41
0.0
 71
     1
 72
     1
  1
8
  7
SLDTEXTSTYLE0
 73
     1
 44
1.0
  0
MTEXT
  5
8D
330
A
100
AcDbEntity
  8
0
 62
     7
100
AcDbMText
 10
10.5863947654
 20
54.04344810659999
 30
0.0
 40
0.46875
 41
0.0
 71
     1
 72
     1
  1
8
  7
SLDTEXTSTYLE0
 73
     1
 44
1.0
  0
MTEXT
  5
8E
330
A
100
AcDbEntity
  8
0
 62
     7
100
AcDbMText
 10
20.3522849888
 20
53.9320117187
 30
0.0
 40
0.46875
 41
0.0
 71
     1
 72
     1
  1
7
  7
SLDTEXTSTYLE0
 73
     1
 44
1.0
  0
MTEXT
  5
8F
330
A
100
AcDbEntity
  8
0
 62
     7
100
AcDbMText
 10
29.7585736986
 20
53.899343533
 30
0.0
 40
0.46875
 41
0.0
 71
     1
 72
     1
  1
6
  7
SLDTEXTSTYLE0
 73
     1
 44
1.0
  0
MTEXT
  5
90
330
A
100
AcDbEntity
  8
0
 62
     7
100
AcDbMText
 10
39.53097090449999
 20
53.8400544976
 30
0.0
 40
0.46875
 41
0.0
 71
     1
 72
     1
  1
5
  7
SLDTEXTSTYLE0
 73
     1
 44
1.0
  0
MTEXT
  5
91
330
A
100
AcDbEntity
  8
0
 62
     7
100
AcDbMText
 10
49.2440790751
 20
53.9841590712
 30
0.0
 40
0.46875
 41
0.0
 71
     1
 72
     1
  1
4
  7
SLDTEXTSTYLE0
 73
     1
 44
1.0
  0
MTEXT
  5
92
330
A
100
AcDbEntity
  8
0
 62
     7
100
AcDbMText
 10
59.0065112039
 20
53.88073321939999
 30
0.0
 40
0.46875
 41
0.0
 71
     1
 72
     1
  1
3
  7
SLDTEXTSTYLE0
 73
     1
 44
1.0
  0
MTEXT
  5
93
330
A
100
AcDbEntity
  8
0
 62
     7
100
AcDbMText
 10
68.3552399256
 20
53.9417513021
 30
0.0
 40
0.46875
 41
0.0
 71
     1
 72
     1
  1
2
  7
SLDTEXTSTYLE0
 73
     1
 44
1.0
  0
MTEXT
  5
94
330
A
100
AcDbEntity
  8
0
 62
     7
100
AcDbMText
 10
78.3344888351
 20
53.8586648112
 30
0.0
 40
0.46875
 41
0.0
 71
     1
 72
     1
  1
1
  7
SLDTEXTSTYLE0
 73
     1
 44
1.0
  0
MTEXT
  5
95
330
A
100
AcDbEntity
  8
0
 62
     7
100
AcDbMText
 10
68.2771700582
 20
11.5035869299
 30
0.0
 40
0.8333333333
 41
0.0
 71
     1
 72
     1
  1
RADIO  ASTRONOMY  LAB
  7
SLDTEXTSTYLE0
 73
     1
 44
1.0
  0
MTEXT
  5
96
330
A
100
AcDbEntity
  8
0
 62
     7
100
AcDbMText
 10
75.11378937729999
 20
10.0977455452
 30
0.0
 40
0.5
 41
0.0
 71
     2
 72
     1
  1
University of California - Berkeley\PTel: 510-642-5040    Fax: 510-642-3411
  7
SLDTEXTSTYLE0
 73
     1
 44
1.0
  0
MTEXT
  5
97
330
A
100
AcDbEntity
  8
0
 62
     7
100
AcDbMText
 10
46.91992470319999
 20
8.1887969308
 30
0.0
 40
0.45
 41
0.0
 71
     1
 72
     1
  1
NAME
  7
SLDTEXTSTYLE0
 73
     1
 44
1.0
  0
MTEXT
  5
98
330
A
100
AcDbEntity
  8
0
 62
     7
100
AcDbMText
 10
52.4596961177
 20
8.166642135
 30
0.0
 40
0.45
 41
0.0
 71
     1
 72
     1
  1
DATE
  7
SLDTEXTSTYLE0
 73
     1
 44
1.0
  0
MTEXT
  5
99
330
A
100
AcDbEntity
  8
0
 62
     7
100
AcDbMText
 10
67.89665216199999
 20
2.620764315999999
 30
0.0
 40
0.45
 41
0.0
 71
     1
 72
     1
  1
SIZE
  7
SLDTEXTSTYLE0
 73
     1
 44
1.0
  0
MTEXT
  5
9A
330
A
100
AcDbEntity
  8
0
 62
     7
100
AcDbMText
 10
68.1724994029
 20
4.2206598363
 30
0.0
 40
0.9375
 41
0.0
 71
     1
 72
     1
  1
B
  7
SLDTEXTSTYLE0
 73
     1
 44
1.0
  0
MTEXT
  5
9B
330
A
100
AcDbEntity
  8
0
 62
     7
100
AcDbMText
 10
55.3960642556
 20
2.564330853399999
 30
0.0
 40
0.45
 41
0.0
 71
     1
 72
     1
  1
SCALE:
  7
SLDTEXTSTYLE0
 73
     1
 44
1.0
  0
MTEXT
  5
9C
330
A
100
AcDbEntity
  8
0
 62
     7
100
AcDbMText
 10
69.62195289029999
 20
2.600001406
 30
0.0
 40
0.45
 41
0.0
 71
     1
 72
     1
  1
DWG NUM:      SHEET             OF
  7
SLDTEXTSTYLE0
 73
     1
 44
1.0
  0
MTEXT
  5
9D
330
A
100
AcDbEntity
  8
0
 62
     7
100
AcDbMText
 10
79.9939073971
 20
51.9265134263
 30
0.0
 40
0.45
 41
0.0
 71
     1
 72
     1
  1
DATE
  7
SLDTEXTSTYLE0
 73
     1
 44
1.0
  0
MTEXT
  5
9E
330
A
100
AcDbEntity
  8
0
 62
     7
100
AcDbMText
 10
76.51244289640001
 20
51.9243728017
 30
0.0
 40
0.45
 41
0.0
 71
     1
 72
     1
  1
NAME
  7
SLDTEXTSTYLE0
 73
     1
 44
1.0
  0
MTEXT
  5
9F
330
A
100
AcDbEntity
  8
0
 62
     7
100
AcDbMText
 10
70.16536925369999
 20
52.8598233534
 30
0.0
 40
0.45
 41
0.0
 71
     1
 72
     1
  1
REVISIONS
  7
SLDTEXTSTYLE0
 73
     1
 44
1.0
  0
MTEXT
  5
A0
330
A
100
AcDbEntity
  8
0
 62
     7
100
AcDbMText
 10
62.91099293439999
 20
51.9171662075
 30
0.0
 40
0.45
 41
0.0
 71
     1
 72
     1
  1
REV
  7
SLDTEXTSTYLE0
 73
     1
 44
1.0
  0
MTEXT
  5
A1
330
A
100
AcDbEntity
  8
0
 62
     7
100
AcDbMText
 10
64.81227845789999
 20
51.9144533763
 30
0.0
 40
0.45
 41
0.0
 71
     1
 72
     1
  1
DESCRIPTION
  7
SLDTEXTSTYLE0
 73
     1
 44
1.0
  0
MTEXT
  5
A2
330
A
100
AcDbEntity
  8
0
 62
     7
100
AcDbMText
 10
55.3700983888
 20
3.492229074199999
 30
0.0
 40
0.45
 41
0.0
 71
     1
 72
     1
  1
WEIGHT:
  7
SLDTEXTSTYLE0
 73
     1
 44
1.0
  0
MTEXT
  5
A3
330
A
100
AcDbEntity
  8
0
 62
     7
100
AcDbMText
 10
44.0538205881
 20
7.237722315599999
 30
0.0
 40
0.45
 41
0.0
 71
     1
 72
     1
  1
DRAWN
  7
SLDTEXTSTYLE0
 73
     1
 44
1.0
  0
MTEXT
  5
A4
330
A
100
AcDbEntity
  8
0
 62
     7
100
AcDbMText
 10
44.0526835034
 20
6.306652119299999
 30
0.0
 40
0.45
 41
0.0
 71
     1
 72
     1
  1
CHECKED
  7
SLDTEXTSTYLE0
 73
     1
 44
1.0
  0
MTEXT
  5
A5
330
A
100
AcDbEntity
  8
0
 62
     7
100
AcDbMText
 10
60.8263964621
 20
8.769602548499999
 30
0.0
 40
0.45
 41
0.0
 71
     3
 72
     1
  1
WHOLE & FRACTION\PDECIMAL   X.X\PDECIMAL   X.XX\PDECIMAL   X.XXX
  7
SLDTEXTSTYLE0
 73
     1
 44
1.0
  0
MTEXT
  5
A6
330
A
100
AcDbEntity
  8
0
 62
     7
100
AcDbMText
 10
62.9364878514
 20
9.823680130299999
 30
0.0
 40
0.45
 41
0.0
 71
     2
 72
     1
  1
LINEAR
  7
SLDTEXTSTYLE0
 73
     1
 44
1.0
  0
MTEXT
  5
A7
330
A
100
AcDbEntity
  8
0
 62
     7
100
AcDbMText
 10
65.83902275689999
 20
9.853768828199999
 30
0.0
 40
0.45
 41
0.0
 71
     2
 72
     1
  1
ANGLE
  7
SLDTEXTSTYLE0
 73
     1
 44
1.0
  0
INSERT
  5
AE
330
A
100
AcDbEntity
  8
0
100
AcDbBlockReference
  2
NOTE50
 10
55.8349834287
 20
5.470223762999999
 30
0.0
  0
MTEXT
  5
AF
330
A
100
AcDbEntity
  8
0
 62
     7
100
AcDbMText
 10
61.2437674405
 20
11.5445142328
 30
0.0
 40
0.45
 41
0.0
 71
     2
 72
     1
  1
UNLESS OTHERWISE SPECIFIED\PDIMENSIONS ARE INCHES & DEGREES
  7
SLDTEXTSTYLE0
 73
     1
 44
1.0
  0
MTEXT
  5
B0
330
A
100
AcDbEntity
  8
0
 62
     7
100
AcDbMText
 10
56.006500545
 20
9.791842264899999
 30
0.0
 40
0.45
 41
0.0
 71
     1
 72
     1
  1
TOLERANCES:
  7
SLDTEXTSTYLE0
 73
     1
 44
1.0
  0
MTEXT
  5
B1
330
A
100
AcDbEntity
  8
0
 62
     7
100
AcDbMText
 10
64.7773092562
 20
8.789060838799999
 30
0.0
 40
0.45
 41
0.0
 71
     1
 72
     1
  1
%%p\P%%p\P%%p\P%%p
  7
SLDTEXTSTYLE0
 73
     1
 44
1.0
  0
MTEXT
  5
B2
330
A
100
AcDbEntity
  8
0
 62
     7
100
AcDbMText
 10
73.31700146770001
 20
51.9311321764
 30
0.0
 40
0.45
 41
0.0
 71
     1
 72
     1
  1
ZONE
  7
SLDTEXTSTYLE0
 73
     1
 44
1.0
  0
MTEXT
  5
B3
330
A
100
AcDbEntity
  8
0
 62
     7
100
AcDbMText
 10
25.47608840969999
 20
4.322833335899999
 30
0.0
 40
0.4
 41
0.0
 71
     1
 72
     1
  1
THIS DRAWING IS THE PROPERTY OF AND CONTAINS CONFIDENTIAL\PINFORMATION PROPRIETARY TO THE UNIVERSITY OF CALIFORNIA AND\PSHALL BE USED ONLY FOR THE PURPOSE FOR WHICH IT WAS PROVIDED\PAND SHALL NOT BE REPRODUCED OR DISCLOSED TO OTHERS.
  7
SLDTEXTSTYLE0
 73
     1
 44
1.0
  0
MTEXT
  5
B4
330
A
100
AcDbEntity
  8
0
 62
     7
100
AcDbMText
 10
63.19479306459999
 20
51.0244958805
 30
0.0
 40
0.45
 41
0.0
 71
     1
 72
     1
  1
A
  7
SLDTEXTSTYLE0
 73
     1
 44
1.0
  0
MTEXT
  5
B5
330
A
100
AcDbEntity
  8
0
 62
     7
100
AcDbMText
 10
64.8899795696
 20
51.02325754189999
 30
0.0
 40
0.45
 41
0.0
 71
     1
 72
     1
  1
RELEASED
  7
SLDTEXTSTYLE0
 73
     1
 44
1.0
  0
MTEXT
  5
B6
330
A
100
AcDbEntity
  8
0
 62
     7
100
AcDbMText
 10
46.8458708658
 20
7.300634446599999
 30
0.0
 40
0.5208333333000001
 41
0.0
 71
     1
 72
     1
  1
M. C. FLEMING
  7
SLDTEXTSTYLE0
 73
     1
 44
1.0
  0
MTEXT
  5
B7
330
A
100
AcDbEntity
  8
0
 62
     7
100
AcDbMText
 10
81.2605219401
 20
4.135352238999999
 30
0.0
 40
0.9375
 41
0.0
 71
     1
 72
     1
  1
A
  7
SLDTEXTSTYLE0
 73
     1
 44
1.0
  0
MTEXT
  5
B8
330
A
100
AcDbEntity
  8
0
 62
     7
100
AcDbMText
 10
51.61070138479999
 20
7.2920208809
 30
0.0
 40
0.5208333333000001
 41
0.0
 71
     1
 72
     1
  1
2005-01-16
  7
SLDTEXTSTYLE0
 73
     1
 44
1.0
  0
MTEXT
  5
B9
330
A
100
AcDbEntity
  8
0
 62
     7
100
AcDbMText
 10
62.5620545663
 20
8.7991336196
 30
0.0
 40
0.45
 41
0.0
 71
     1
 72
     1
  1
1/16\P0.1\P0.01\P0.005
  7
SLDTEXTSTYLE0
 73
     1
 44
1.0
  0
MTEXT
  5
BA
330
A
100
AcDbEntity
  8
0
 62
     7
100
AcDbMText
 10
65.51242109739999
 20
8.789375511199999
 30
0.0
 40
0.45
 41
0.0
 71
     1
 72
     1
  1
1%%d\P0.1%%d\P0.01%%d\P0.001%%d
  7
SLDTEXTSTYLE0
 73
     1
 44
1.0
  0
MTEXT
  5
BB
330
A
100
AcDbEntity
  8
0
 62
     7
100
AcDbMText
 10
70.4085150551
 20
4.2258100563
 30
0.0
 40
0.9375
 41
0.0
 71
     1
 72
     1
  1
24-09-256   1 of 1
  7
SLDTEXTSTYLE0
 73
     1
 44
1.0
  0
MTEXT
  5
BC
330
A
100
AcDbEntity
  8
0
 62
     7
100
AcDbMText
 10
76.4798912472
 20
51.02543075399999
 30
0.0
 40
0.5208333333000001
 41
0.0
 71
     1
 72
     1
  1
M.C.F.
  7
SLDTEXTSTYLE0
 73
     1
 44
1.0
  0
MTEXT
  5
BD
330
A
100
AcDbEntity
  8
0
 62
     7
100
AcDbMText
 10
79.2098700488
 20
51.02076198239999
 30
0.0
 40
0.5208333333000001
 41
0.0
 71
     1
 72
     1
  1
2005-01-16
  7
SLDTEXTSTYLE0
 73
     1
 44
1.0
  0
MTEXT
  5
BE
330
A
100
AcDbEntity
  8
0
 62
     7
100
AcDbMText
 10
74.69339700749999
 20
7.6629316169
 30
0.0
 40
0.9375
 41
0.0
 71
     2
 72
     1
  1
CARMA 6m Base,\PArm, Bottom Plate
  7
SLDTEXTSTYLE0
 73
     1
 44
1.0
  0
LINE
  5
BF
330
A
100
AcDbEntity
  8
0
  6
Continuous
 62
     7
370
    15
100
AcDbLine
 10
34.54896324219999
 20
42.71804949469999
 30
0.0
 11
34.54896324219999
 21
19.718048526
 31
0.0
  0
LINE
  5
C0
330
A
100
AcDbEntity
  8
0
  6
Continuous
 62
     7
370
    15
100
AcDbLine
 10
34.54896324219999
 20
19.718048526
 30
0.0
 11
64.11196359459999
 21
24.7490489675
 31
0.0
  0
LINE
  5
C1
330
A
100
AcDbEntity
  8
0
  6
Continuous
 62
     7
370
    15
100
AcDbLine
 10
64.11196359459999
 20
24.7490489675
 30
0.0
 11
64.11196359459999
 21
37.6870490533
 31
0.0
  0
LINE
  5
C2
330
A
100
AcDbEntity
  8
0
  6
Continuous
 62
     7
370
    15
100
AcDbLine
 10
64.11196359459999
 20
37.6870490533
 30
0.0
 11
34.54896324219999
 21
42.71804949469999
 31
0.0
  0
DIMENSION
  5
D0
330
A
100
AcDbEntity
  8
0
100
AcDbDimension
  2
*D1
 10
64.1119632422
 20
45.78061320749999
 30
0.0
 11
49.33046324220001
 21
45.78061320749999
 31
0.0
 70
   160
 71
     5
 42
0.0
  3
SLDDIMSTYLE0
100
AcDbAlignedDimension
 13
34.54896324219999
 23
42.7180490104
 33
0.0
 14
64.1119632422
 24
37.6870490104
 34
0.0
100
AcDbRotatedDimension
  0
DIMENSION
  5
E0
330
A
100
AcDbEntity
  8
0
100
AcDbDimension
  2
*D2
 10
31.7544297832
 20
31.21804901039999
 30
0.0
 11
41.09263918429999
 21
36.3741859819
 31
0.0
 70
   162
  1
(<>)
 71
     5
 42
0.0
  3
SLDDIMSTYLE1
100
AcDb2LineAngularDimension
 13
64.1119632422
 23
37.6870490104
 33
0.0
 14
34.54896324219999
 24
42.7180490104
 34
0.0
 15
66.79235849060001
 25
31.21804901039999
 35
0.0
 16
41.3640442415
 26
38.94080837189999
 36
0.0
  0
DIMENSION
  5
EF
330
A
100
AcDbEntity
  8
0
100
AcDbDimension
  2
*D3
 10
31.7544297832
 20
31.21804901039999
 30
0.0
 11
41.06343418849999
 21
26.0594447375
 31
0.0
 70
   162
  1
(<>)
 71
     5
 42
0.0
  3
SLDDIMSTYLE1
100
AcDb2LineAngularDimension
 13
34.54896324219999
 23
19.71804901039999
 33
0.0
 14
64.1119632422
 24
24.7490490104
 34
0.0
 15
66.79235849060001
 25
31.21804901039999
 35
0.0
 16
40.9003201357
 26
28.6364549315
 36
0.0
  0
DIMENSION
  5
FC
330
A
100
AcDbEntity
  8
0
100
AcDbDimension
  2
*D4
 10
28.3223845429
 20
19.71804901039999
 30
0.0
 11
28.3223845429
 21
31.21804901039999
 31
0.0
 70
   160
 71
     5
 42
0.0
  3
SLDDIMSTYLE0
100
AcDbAlignedDimension
 13
34.54896324219999
 23
42.7180490104
 33
0.0
 14
34.54896324219999
 24
19.71804901039999
 34
0.0
 50
90.0
100
AcDbRotatedDimension
  0
DIMENSION
  5
109
330
A
100
AcDbEntity
  8
0
100
AcDbDimension
  2
*D5
 10
69.76653440149999
 20
37.6870490104
 30
0.0
 11
69.76653440149999
 21
31.21804901039999
 31
0.0
 70
   160
 71
     5
 42
0.0
  3
SLDDIMSTYLE0
100
AcDbAlignedDimension
 13
64.1119632422
 23
24.7490490104
 33
0.0
 14
64.1119632422
 24
37.6870490104
 34
0.0
 50
90.0
100
AcDbRotatedDimension
  0
INSERT
  5
10E
330
A
100
AcDbEntity
  8
0
100
AcDbBlockReference
  2
NOTE67
 10
50.92462264149999
 20
32.6938207547
 30
0.0
  0
LINE
  5
10F
330
A
100
AcDbEntity
  8
0
  6
CENTERX2
 62
     7
370
     0
100
AcDbLine
 10
31.7544297832
 20
31.21804901039999
 30
0.0
 11
66.79235849060001
 21
31.21804901039999
 31
0.0
  0
LINE
  5
110
330
A
100
AcDbEntity
  8
0
  6
Continuous
 62
     7
370
    15
100
AcDbLine
 10
16.7764491046
 20
42.71804949469999
 30
0.0
 11
16.7764491046
 21
19.718048526
 31
0.0
  0
LINE
  5
111
330
A
100
AcDbEntity
  8
0
  6
Continuous
 62
     7
370
    15
100
AcDbLine
 10
16.4014491
 20
19.718048526
 30
0.0
 11
16.7764491046
 21
19.718048526
 31
0.0
  0
LINE
  5
112
330
A
100
AcDbEntity
  8
0
  6
Continuous
 62
     7
370
    15
100
AcDbLine
 10
16.4014491
 20
42.71804949469999
 30
0.0
 11
16.4014491
 21
19.718048526
 31
0.0
  0
LINE
  5
113
330
A
100
AcDbEntity
  8
0
  6
Continuous
 62
     7
370
    15
100
AcDbLine
 10
16.4014491
 20
42.71804949469999
 30
0.0
 11
16.7764491046
 21
42.71804949469999
 31
0.0
  0
DIMENSION
  5
11E
330
A
100
AcDbEntity
  8
0
100
AcDbDimension
  2
*D7
 10
16.4014491046
 20
40.4081526861
 30
0.0
 11
12.2580348728
 21
40.4081526861
 31
0.0
 70
   160
 71
     5
 42
0.0
  3
SLDDIMSTYLE0
100
AcDbAlignedDimension
 13
16.7764491046
 23
42.7180490104
 33
0.0
 14
16.4014491046
 24
42.7180490104
 34
0.0
100
AcDbRotatedDimension
  0
LINE
  5
11F
330
A
100
AcDbEntity
  8
0
  6
Continuous
 62
     7
370
    15
100
AcDbLine
 10
20.7795026633
 20
5.7355461009
 30
0.0
 11
20.7795026633
 21
5.8886475032
 31
0.0
  0
LINE
  5
120
330
A
100
AcDbEntity
  8
0
  6
Continuous
 62
     7
370
    15
100
AcDbLine
 10
8.548676669099998
 20
10.74257705069999
 30
0.0
 11
20.7795026633
 21
5.7355461009
 31
0.0
  0
LINE
  5
121
330
A
100
AcDbEntity
  8
0
  6
Continuous
 62
     7
370
    15
100
AcDbLine
 10
8.548676669099998
 20
10.74257705069999
 30
0.0
 11
8.548676669099998
 21
10.895678453
 31
0.0
  0
LINE
  5
122
330
A
100
AcDbEntity
  8
0
  6
Continuous
 62
     7
370
    15
100
AcDbLine
 10
8.548676669099998
 20
10.895678453
 30
0.0
 11
20.7795026633
 21
5.8886475032
 31
0.0
  0
LINE
  5
123
330
A
100
AcDbEntity
  8
0
  6
Continuous
 62
     7
370
    15
100
AcDbLine
 10
20.7795026633
 20
5.8886475032
 30
0.0
 11
25.3537764308
 21
8.529319540799999
 31
0.0
  0
LINE
  5
124
330
A
100
AcDbEntity
  8
0
  6
Continuous
 62
     7
370
    15
100
AcDbLine
 10
16.6804046528
 20
15.59002509589999
 30
0.0
 11
8.548676669099998
 21
10.895678453
 31
0.0
  0
LINE
  5
125
330
A
100
AcDbEntity
  8
0
  6
Continuous
 62
     7
370
    15
100
AcDbLine
 10
25.3537764308
 20
8.529319540799999
 30
0.0
 11
16.6804046528
 21
15.59002509589999
 31
0.0
  0
LINE
  5
126
330
A
100
AcDbEntity
  8
0
  6
Continuous
 62
     7
370
    15
100
AcDbLine
 10
25.3537764308
 20
8.3762181386
 30
0.0
 11
25.3537764308
 21
8.529319540799999
 31
0.0
  0
LINE
  5
127
330
A
100
AcDbEntity
  8
0
  6
Continuous
 62
     7
370
    15
100
AcDbLine
 10
20.7795026633
 20
5.7355461009
 30
0.0
 11
25.3537764308
 21
8.3762181386
 31
0.0
  0
LEADER
  5
128
330
A
100
AcDbEntity
  8
0
 62
     1
100
AcDbLeader
  3
SLDDIMSTYLE2
 73
     0
 76
     3
 10
23.79654982869999
 20
9.797006295399999
 30
0.0
 10
27.477512539
 20
13.2610165094
 30
0.0
 10
28.727512539
 20
13.2610165094
 30
0.0
340
12B
213
0.0
223
-0.3747313946012678
233
0.0
  0
LEADER
  5
12A
330
A
100
AcDbEntity
  8
0
 62
     1
100
AcDbLeader
  3
SLDDIMSTYLE2
 73
     0
 76
     3
 10
16.8040050412
 20
7.516128725099999
 30
0.0
 10
27.477512539
 20
13.2610165094
 30
0.0
 10
28.727512539
 20
13.2610165094
 30
0.0
340
12B
213
0.0
223
-0.3747313946012678
233
0.0
  0
MTEXT
  5
12B
102
{ACAD_REACTORS
330
128
330
12A
102
}
330
A
100
AcDbEntity
  8
0
 62
     1
100
AcDbMText
 10
28.8262777838
 20
13.635747904
 30
0.0
 40
0.5
 41
0.0
 71
     1
 72
     1
  1
RADIUS EDGES 1/32 TO 1/16 TOP & BOTTOM\PALONG BOTH EXPOSED SIDE EDGES
  7
SLDTEXTSTYLE0
 73
     1
 44
1.0
  0
ENDSEC
  0
SECTION
  2
OBJECTS
  0
DICTIONARY
  5
19
330
0
100
AcDbDictionary
281
     1
  3
ACAD_GROUP
350
1A
  3
ACAD_LAYOUT
350
1E
  3
ACAD_MLINESTYLE
350
1B
  3
ACAD_PLOTSETTINGS
350
22
  3
ACAD_PLOTSTYLENAME
350
1F
  3
ACAD_WIPEOUT_VARS
350
23
  0
DICTIONARY
  5
1A
102
{ACAD_REACTORS
330
19
102
}
330
19
100
AcDbDictionary
281
     1
  0
DICTIONARY
  5
1E
102
{ACAD_REACTORS
330
19
102
}
330
19
100
AcDbDictionary
281
     1
  3
Layout1
350
21
  3
Model
350
20
  0
DICTIONARY
  5
1B
102
{ACAD_REACTORS
330
19
102
}
330
19
100
AcDbDictionary
281
     1
  3
Standard
350
1C
  0
DICTIONARY
  5
22
102
{ACAD_REACTORS
330
19
102
}
330
19
100
AcDbDictionary
281
     1
  0
ACDBDICTIONARYWDFLT
  5
1F
102
{ACAD_REACTORS
330
19
102
}
330
19
100
AcDbDictionary
281
     1
  3
Normal
350
1D
100
AcDbDictionaryWithDefault
340
1D
  0
WIPEOUTVARIABLES
  5
23
330
19
100
AcDbWipeoutVariables
 70
     1
  0
LAYOUT
  5
21
102
{ACAD_REACTORS
330
1E
102
}
330
1E
100
AcDbPlotSettings
  1

  2

  4

  6

 40
0.0
 41
0.0
 42
0.0
 43
0.0
 44
0.0
 45
0.0
 46
0.0
 47
0.0
 48
0.0
 49
0.0
140
0.0
141
0.0
142
1.0
143
1.0
 70
     0
 72
     0
 73
     0
 74
     0
  7

 75
     0
147
1.0
148
0.0
149
0.0
100
AcDbLayout
  1
Layout1
 70
     1
 71
     1
 10
0.0
 20
0.0
 11
12.0
 21
9.0
 12
0.0
 22
0.0
 32
0.0
 14
1.000000000000000E+20
 24
1.000000000000000E+20
 34
1.000000000000000E+20
 15
-1.000000000000000E+20
 25
-1.000000000000000E+20
 35
-1.000000000000000E+20
146
0.0
 13
0.0
 23
0.0
 33
0.0
 16
1.0
 26
0.0
 36
0.0
 17
0.0
 27
1.0
 37
0.0
 76
     0
330
B
  0
LAYOUT
  5
20
102
{ACAD_REACTORS
330
1E
102
}
330
1E
100
AcDbPlotSettings
  1

  2

  4

  6

 40
0.0
 41
0.0
 42
0.0
 43
0.0
 44
0.0
 45
0.0
 46
0.0
 47
0.0
 48
0.0
 49
0.0
140
0.0
141
0.0
142
1.0
143
1.0
 70
  1024
 72
     0
 73
     0
 74
     0
  7

 75
     0
147
1.0
148
0.0
149
0.0
100
AcDbLayout
  1
Model
 70
     0
 71
     0
 10
0.0
 20
0.0
 11
0.0
 21
0.0
 12
0.0
 22
0.0
 32
0.0
 14
0.0
 24
0.0
 34
0.0
 15
0.0
 25
0.0
 35
0.0
146
0.0
 13
0.0
 23
0.0
 33
0.0
 16
0.0
 26
0.0
 36
0.0
 17
0.0
 27
0.0
 37
0.0
 76
     0
330
A
  0
MLINESTYLE
  5
1C
102
{ACAD_REACTORS
330
1B
102
}
330
1B
100
AcDbMlineStyle
  2
STANDARD
 70
     0
  3

 62
     0
 51
90.0
 52
90.0
 71
     2
 49
0.5
 62
   256
  6
BYLAYER
 49
-0.5
 62
   256
  6
BYLAYER
  0
ACDBPLACEHOLDER
  5
1D
102
{ACAD_REACTORS
330
1F
102
}
330
1F
  0
ENDSEC
  0
EOF
