  0
SECTION
  2
HEADER
  9
$ACADVER
  1
AC1015
  9
$ACADMAINTVER
 70
    10
  9
$DWGCODEPAGE
  3
ANSI_1252
  9
$INSBASE
 10
0.0
 20
0.0
 30
0.0
  9
$EXTMIN
 10
2.25
 20
0.2400214929
 30
0.0
  9
$EXTMAX
 10
50.2808102386
 20
32.426068864
 30
0.0
  9
$LIMMIN
 10
0.0
 20
0.0
  9
$LIMMAX
 10
0.0
 20
0.0
  9
$ORTHOMODE
 70
     0
  9
$REGENMODE
 70
     1
  9
$FILLMODE
 70
     1
  9
$QTEXTMODE
 70
     0
  9
$MIRRTEXT
 70
     1
  9
$LTSCALE
 40
1.0
  9
$ATTMODE
 70
     1
  9
$TEXTSIZE
 40
0.0
  9
$TRACEWID
 40
0.05
  9
$TEXTSTYLE
  7
Standard
  9
$CLAYER
  8
0
  9
$CELTYPE
  6
Continuous
  9
$CECOLOR
 62
   256
  9
$CELTSCALE
 40
1.0
  9
$DISPSILH
 70
     0
  9
$DIMSCALE
 40
1.0
  9
$DIMASZ
 40
0.0
  9
$DIMEXO
 40
0.0
  9
$DIMDLI
 40
0.38
  9
$DIMRND
 40
0.0
  9
$DIMDLE
 40
0.0
  9
$DIMEXE
 40
0.18
  9
$DIMTP
 40
0.0
  9
$DIMTM
 40
0.0
  9
$DIMTXT
 40
0.3
  9
$DIMCEN
 40
0.09
  9
$DIMTSZ
 40
0.0
  9
$DIMTOL
 70
     0
  9
$DIMLIM
 70
     0
  9
$DIMTIH
 70
     1
  9
$DIMTOH
 70
     1
  9
$DIMSE1
 70
     0
  9
$DIMSE2
 70
     0
  9
$DIMTAD
 70
     0
  9
$DIMZIN
 70
     0
  9
$DIMBLK
  1

  9
$DIMASO
 70
     1
  9
$DIMSHO
 70
     1
  9
$DIMPOST
  1

  9
$DIMAPOST
  1

  9
$DIMALT
 70
     0
  9
$DIMALTD
 70
     2
  9
$DIMALTF
 40
25.4
  9
$DIMLFAC
 40
1.0
  9
$DIMTOFL
 70
     0
  9
$DIMTVP
 40
0.0
  9
$DIMTIX
 70
     0
  9
$DIMSOXD
 70
     0
  9
$DIMSAH
 70
     0
  9
$DIMBLK1
  1

  9
$DIMBLK2
  1

  9
$DIMSTYLE
  2
Standard
  9
$DIMCLRD
 70
     0
  9
$DIMCLRE
 70
     0
  9
$DIMCLRT
 70
     0
  9
$DIMTFAC
 40
1.0
  9
$DIMGAP
 40
0.0
  9
$DIMJUST
 70
     0
  9
$DIMSD1
 70
     0
  9
$DIMSD2
 70
     0
  9
$DIMTOLJ
 70
     1
  9
$DIMTZIN
 70
     0
  9
$DIMALTZ
 70
     0
  9
$DIMALTTZ
 70
     0
  9
$DIMUPT
 70
     0
  9
$DIMDEC
 70
     4
  9
$DIMTDEC
 70
     4
  9
$DIMALTU
 70
     2
  9
$DIMALTTD
 70
     2
  9
$DIMTXSTY
  7
Standard
  9
$DIMAUNIT
 70
     0
  9
$DIMADEC
 70
     0
  9
$DIMALTRND
 40
0.0
  9
$DIMAZIN
 70
     0
  9
$DIMDSEP
 70
     0
  9
$DIMATFIT
 70
     3
  9
$DIMFRAC
 70
     0
  9
$DIMLDRBLK
  1

  9
$DIMLUNIT
 70
     2
  9
$DIMLWD
 70
     0
  9
$DIMLWE
 70
     0
  9
$DIMTMOVE
 70
     0
  9
$LUNITS
 70
     2
  9
$LUPREC
 70
     3
  9
$SKETCHINC
 40
0.1
  9
$FILLETRAD
 40
0.0
  9
$AUNITS
 70
     0
  9
$AUPREC
 70
     2
  9
$MENU
  1
acad
  9
$ELEVATION
 40
0.0
  9
$PELEVATION
 40
0.0
  9
$THICKNESS
 40
0.0
  9
$LIMCHECK
 70
     0
  9
$CHAMFERA
 40
0.0
  9
$CHAMFERB
 40
0.0
  9
$CHAMFERC
 40
0.0
  9
$CHAMFERD
 40
0.0
  9
$SKPOLY
 70
     0
  9
$TDCREATE
 40
2453398.559497060
  9
$TDUCREATE
 40
2453398.892830394
  9
$TDUPDATE
 40
2453398.559977210
  9
$TDUUPDATE
 40
2453398.893310544
  9
$TDINDWG
 40
0.0004857407
  9
$TDUSRTIMER
 40
0.0004855671
  9
$USRTIMER
 70
     1
  9
$ANGBASE
 50
0.0
  9
$ANGDIR
 70
     0
  9
$PDMODE
 70
     0
  9
$PDSIZE
 40
-1.0
  9
$PLINEWID
 40
0.0
  9
$SPLFRAME
 70
     0
  9
$SPLINETYPE
 70
     6
  9
$SPLINESEGS
 70
     8
  9
$HANDSEED
  5
206
  9
$SURFTAB1
 70
     6
  9
$SURFTAB2
 70
     6
  9
$SURFTYPE
 70
     6
  9
$SURFU
 70
     6
  9
$SURFV
 70
     6
  9
$UCSBASE
  2

  9
$UCSNAME
  2

  9
$UCSORG
 10
0.0
 20
0.0
 30
0.0
  9
$UCSXDIR
 10
1.0
 20
0.0
 30
0.0
  9
$UCSYDIR
 10
0.0
 20
1.0
 30
0.0
  9
$UCSORTHOREF
  2

  9
$UCSORTHOVIEW
 70
     0
  9
$UCSORGTOP
 10
0.0
 20
0.0
 30
0.0
  9
$UCSORGBOTTOM
 10
0.0
 20
0.0
 30
0.0
  9
$UCSORGLEFT
 10
0.0
 20
0.0
 30
0.0
  9
$UCSORGRIGHT
 10
0.0
 20
0.0
 30
0.0
  9
$UCSORGFRONT
 10
0.0
 20
0.0
 30
0.0
  9
$UCSORGBACK
 10
0.0
 20
0.0
 30
0.0
  9
$PUCSBASE
  2

  9
$PUCSNAME
  2

  9
$PUCSORG
 10
0.0
 20
0.0
 30
0.0
  9
$PUCSXDIR
 10
1.0
 20
0.0
 30
0.0
  9
$PUCSYDIR
 10
0.0
 20
1.0
 30
0.0
  9
$PUCSORTHOREF
  2

  9
$PUCSORTHOVIEW
 70
     0
  9
$PUCSORGTOP
 10
0.0
 20
0.0
 30
0.0
  9
$PUCSORGBOTTOM
 10
0.0
 20
0.0
 30
0.0
  9
$PUCSORGLEFT
 10
0.0
 20
0.0
 30
0.0
  9
$PUCSORGRIGHT
 10
0.0
 20
0.0
 30
0.0
  9
$PUCSORGFRONT
 10
0.0
 20
0.0
 30
0.0
  9
$PUCSORGBACK
 10
0.0
 20
0.0
 30
0.0
  9
$USERI1
 70
     0
  9
$USERI2
 70
     0
  9
$USERI3
 70
     0
  9
$USERI4
 70
     0
  9
$USERI5
 70
     0
  9
$USERR1
 40
0.0
  9
$USERR2
 40
0.0
  9
$USERR3
 40
0.0
  9
$USERR4
 40
0.0
  9
$USERR5
 40
0.0
  9
$WORLDVIEW
 70
     1
  9
$SHADEDGE
 70
     3
  9
$SHADEDIF
 70
    70
  9
$TILEMODE
 70
     1
  9
$MAXACTVP
 70
    16
  9
$PINSBASE
 10
0.0
 20
0.0
 30
0.0
  9
$PLIMCHECK
 70
     0
  9
$PEXTMIN
 10
1.000000000000000E+20
 20
1.000000000000000E+20
 30
1.000000000000000E+20
  9
$PEXTMAX
 10
-1.000000000000000E+20
 20
-1.000000000000000E+20
 30
-1.000000000000000E+20
  9
$PLIMMIN
 10
0.0
 20
0.0
  9
$PLIMMAX
 10
12.0
 20
9.0
  9
$UNITMODE
 70
     0
  9
$VISRETAIN
 70
     0
  9
$PLINEGEN
 70
     1
  9
$PSLTSCALE
 70
     1
  9
$TREEDEPTH
 70
  3020
  9
$CMLSTYLE
  2
Standard
  9
$CMLJUST
 70
     0
  9
$CMLSCALE
 40
1.0
  9
$PROXYGRAPHICS
 70
     0
  9
$MEASUREMENT
 70
     0
  9
$CELWEIGHT
370
     0
  9
$ENDCAPS
280
     0
  9
$JOINSTYLE
280
     0
  9
$LWDISPLAY
290
     1
  9
$INSUNITS
 70
     0
  9
$HYPERLINKBASE
  1

  9
$STYLESHEET
  1

  9
$XEDIT
290
     1
  9
$CEPSNTYPE
380
     0
  9
$PSTYLEMODE
290
     1
  9
$FINGERPRINTGUID
  2

  9
$VERSIONGUID
  2
{09476546-EC52-4706-853C-DD3C935CB516}
  9
$EXTNAMES
290
     1
  9
$PSVPSCALE
 40
0.0
  9
$OLESTARTUP
290
     0
  0
ENDSEC
  0
SECTION
  2
CLASSES
  0
CLASS
  1
LWPOLYLINE
  2
AcDbPolyline
  3
AutoCAD 2000
 90
    32768
280
     0
281
     1
  0
CLASS
  1
IMAGE
  2
AcDbRasterImage
  3
ISM
 90
    32895
280
     0
281
     1
  0
CLASS
  1
OLE2FRAME
  2
AcDbOle2Frame
  3
AutoCAD 2000
 90
    32768
280
     0
281
     1
  0
CLASS
  1
HATCH
  2
AcDbHatch
  3
AutoCAD 2000
 90
    32768
280
     0
281
     1
  0
CLASS
  1
DICTIONARYVAR
  2
AcDbDictionaryVar
  3
AutoCAD 2000
 90
    32768
280
     0
281
     0
  0
CLASS
  1
RASTERVARIABLES
  2
AcDbRasterVariables
  3
ISM
 90
    32768
280
     0
281
     0
  0
CLASS
  1
IMAGEDEF
  2
AcDbRasterImageDef
  3
ISM
 90
    32768
280
     0
281
     0
  0
CLASS
  1
IMAGEDEF_REACTOR
  2
AcDbRasterImageDefReactor
  3
ISM
 90
    32769
280
     0
281
     0
  0
CLASS
  1
IDBUFFER
  2
AcDbIdBuffer
  3
AutoCAD 2000
 90
    32768
280
     0
281
     0
  0
CLASS
  1
SPATIAL_FILTER
  2
AcDbSpatialFilter
  3
AutoCAD 2000
 90
    32768
280
     0
281
     0
  0
CLASS
  1
XRECORD
  2
AcDbXrecord
  3
AutoCAD 2000
 90
    32768
280
     0
281
     0
  0
CLASS
  1
SORTENTSTABLE
  2
AcDbSortentsTable
  3
AutoCAD 2000
 90
    32768
280
     0
281
     0
  0
CLASS
  1
LAYER_INDEX
  2
AcDbLayerIndex
  3
AutoCAD 2000
 90
    32768
280
     0
281
     0
  0
CLASS
  1
SPATIAL_INDEX
  2
AcDbSpatialIndex
  3
AutoCAD 2000
 90
    32768
280
     0
281
     0
  0
CLASS
  1
OBJECT_PTR
  2
CAseDLPNTableRecord
  3
"ASE-LPNTableRecord"
 90
    32769
280
     0
281
     0
  0
CLASS
  1
LAYOUT
  2
AcDbLayout
  3
AutoCAD 2000
 90
        0
280
     0
281
     0
  0
CLASS
  1
PLOTSETTINGS
  2
AcDbPlotSettings
  3
AutoCAD 2000
 90
    32768
280
     0
281
     0
  0
CLASS
  1
ACDBDICTIONARYWDFLT
  2
AcDbDictionaryWithDefault
  3
AutoCAD 2000
 90
        0
280
     0
281
     0
  0
CLASS
  1
ACDBPLACEHOLDER
  2
AcDbPlaceHolder
  3
AutoCAD 2000
 90
        0
280
     0
281
     0
  0
CLASS
  1
VBA_PROJECT
  2
AcDbVbaProject
  3
acadvba
 90
    32768
280
     0
281
     0
  0
CLASS
  1
WIPEOUT
  2
AcDbWipeout
  3
WipeOut|AutoCAD Express Tool|expresstools@autodesk.com
 90
    32895
280
     0
281
     1
  0
CLASS
  1
WIPEOUTVARIABLES
  2
AcDbWipeoutVariables
  3
WipeOut|AutoCAD Express Tool|expresstools@autodesk.com
 90
        0
280
     0
281
     0
  0
CLASS
  1
RTEXT
  2
RText
  3
RText|AutoCAD Express Tool|expresstools@autodesk.com
 90
    32768
280
     0
281
     1
  0
CLASS
  1
ARCALIGNEDTEXT
  2
AcDbArcAlignedText
  3
ATEXT|AutoCAD Express Tool|expresstools@autodesk.com
 90
    32768
280
     0
281
     1
  0
ENDSEC
  0
SECTION
  2
TABLES
  0
TABLE
  2
VPORT
  5
7
330
0
100
AcDbSymbolTable
 70
     5
  0
VPORT
  5
205
330
7
100
AcDbSymbolTableRecord
100
AcDbViewportTableRecord
  2
*Active
 70
     0
 10
0.0
 20
0.0
 11
1.0
 21
1.0
 12
25.71353188234714
 22
16.50000000000001
 13
0.0
 23
0.0
 14
1.0
 24
1.0
 15
0.0
 25
0.0
 16
0.0
 26
0.0
 36
1.0
 17
0.0
 27
0.0
 37
0.0
 40
32.99999999063453
 41
1.5
 42
50.0
 43
0.0
 44
0.0
 50
0.0
 51
0.0
 71
     0
 72
  2000
 73
     1
 74
     1
 75
     0
 76
     0
 77
     0
 78
     0
281
     0
 65
     0
110
0.0
120
0.0
130
0.0
111
1.0
121
0.0
131
0.0
112
0.0
122
1.0
132
0.0
 79
     0
146
0.0
  0
ENDTAB
  0
TABLE
  2
LTYPE
  5
4
330
0
100
AcDbSymbolTable
 70
     6
  0
LTYPE
  5
11
330
4
100
AcDbSymbolTableRecord
100
AcDbLinetypeTableRecord
  2
ByBlock
 70
     0
  3

 72
    65
 73
     0
 40
0.0
  0
LTYPE
  5
12
330
4
100
AcDbSymbolTableRecord
100
AcDbLinetypeTableRecord
  2
ByLayer
 70
     0
  3

 72
    65
 73
     0
 40
0.0
  0
LTYPE
  5
13
330
4
100
AcDbSymbolTableRecord
100
AcDbLinetypeTableRecord
  2
Continuous
 70
     0
  3
Solid line
 72
    65
 73
     0
 40
0.0
  0
LTYPE
  5
24
330
4
100
AcDbSymbolTableRecord
100
AcDbLinetypeTableRecord
  2
HIDDEN
 70
     0
  3
Hidden __ __ __ __ __ __ __ __ __ __ __ __ __ __
 72
    65
 73
     2
 40
0.075
 49
0.05
 74
     0
 49
-0.025
 74
     0
  0
LTYPE
  5
25
330
4
100
AcDbSymbolTableRecord
100
AcDbLinetypeTableRecord
  2
PHANTOM
 70
     0
  3
Phantom ______  __  __  ______  __  __  ______
 72
    65
 73
     6
 40
0.5
 49
0.25
 74
     0
 49
-0.05
 74
     0
 49
0.05
 74
     0
 49
-0.05
 74
     0
 49
0.05
 74
     0
 49
-0.05
 74
     0
  0
LTYPE
  5
26
330
4
100
AcDbSymbolTableRecord
100
AcDbLinetypeTableRecord
  2
CENTER
 70
     0
  3
Center ____ _ ____ _ ____ _ ____ _ ____ _ ____
 72
    65
 73
     4
 40
0.4
 49
0.25
 74
     0
 49
-0.05
 74
     0
 49
0.05
 74
     0
 49
-0.05
 74
     0
  0
LTYPE
  5
27
330
4
100
AcDbSymbolTableRecord
100
AcDbLinetypeTableRecord
  2
CENTERX2
 70
     0
  3
Center (2x) ________  __  ________  __  _____
 72
    65
 73
     4
 40
0.8
 49
0.5
 74
     0
 49
-0.1
 74
     0
 49
0.1
 74
     0
 49
-0.1
 74
     0
  0
LTYPE
  5
28
330
4
100
AcDbSymbolTableRecord
100
AcDbLinetypeTableRecord
  2
DOT2
 70
     0
  3
Dot (.5x) ........................................
 72
    65
 73
     2
 40
0.025
 49
0.0
 74
     0
 49
-0.025
 74
     0
  0
ENDTAB
  0
TABLE
  2
LAYER
  5
2
330
0
100
AcDbSymbolTable
 70
     1
  0
LAYER
  5
14
330
2
100
AcDbSymbolTableRecord
100
AcDbLayerTableRecord
  2
0
 70
     0
 62
     7
  6
Continuous
370
    -3
390
1D
  0
ENDTAB
  0
TABLE
  2
STYLE
  5
3
330
0
100
AcDbSymbolTable
 70
     2
  0
STYLE
  5
17
330
3
100
AcDbSymbolTableRecord
100
AcDbTextStyleTableRecord
  2
Standard
 70
     0
 40
0.0
 41
1.0
 50
0.0
 71
     0
 42
0.0
  3
txt
  4

  0
STYLE
  5
75
330
3
100
AcDbSymbolTableRecord
100
AcDbTextStyleTableRecord
  2
SLDTEXTSTYLE0
 70
     0
 40
0.0
 41
0.75
 50
0.0
 71
     0
 42
0.0
  3
txt
  4

  0
ENDTAB
  0
TABLE
  2
VIEW
  5
5
330
0
100
AcDbSymbolTable
 70
     0
  0
ENDTAB
  0
TABLE
  2
UCS
  5
6
330
0
100
AcDbSymbolTable
 70
     0
  0
ENDTAB
  0
TABLE
  2
APPID
  5
8
330
0
100
AcDbSymbolTable
 70
     1
  0
APPID
  5
16
330
8
100
AcDbSymbolTableRecord
100
AcDbRegAppTableRecord
  2
ACAD
 70
     0
  0
ENDTAB
  0
TABLE
  2
DIMSTYLE
  5
9
330
0
100
AcDbSymbolTable
 70
     4
100
AcDbDimStyleTable
 71
     1
340
18
  0
DIMSTYLE
105
18
330
9
100
AcDbSymbolTableRecord
100
AcDbDimStyleTableRecord
  2
Standard
 70
     0
340
17
  0
DIMSTYLE
105
D1
102
{ACAD_REACTORS
330
D5
330
E2
330
100
330
11F
330
12C
330
139
330
146
330
15D
102
}
330
9
100
AcDbSymbolTableRecord
100
AcDbDimStyleTableRecord
  2
SLDDIMSTYLE0
 70
     0
 41
0.5625
 44
0.36
 78
    12
140
0.3
147
0.075
173
     1
176
     7
177
     7
178
     7
271
     3
284
    12
340
17
  0
DIMSTYLE
105
ED
102
{ACAD_REACTORS
330
F1
102
}
330
9
100
AcDbSymbolTableRecord
100
AcDbDimStyleTableRecord
  2
SLDDIMSTYLE1
 70
     0
 41
0.5625
 44
0.36
 78
    12
140
0.3
147
0.075
172
     1
173
     1
176
     7
177
     7
178
     7
271
     3
284
    12
340
17
  0
DIMSTYLE
105
10C
102
{ACAD_REACTORS
330
112
102
}
330
9
100
AcDbSymbolTableRecord
100
AcDbDimStyleTableRecord
  2
SLDDIMSTYLE2
 70
     0
 41
0.5625
 44
0.36
 78
    12
140
0.3
147
0.075
173
     1
176
     7
177
     7
178
     7
271
     0
284
    12
340
17
  0
ENDTAB
  0
TABLE
  2
BLOCK_RECORD
  5
1
330
0
100
AcDbSymbolTable
 70
    11
  0
BLOCK_RECORD
  5
A
330
1
100
AcDbSymbolTableRecord
100
AcDbBlockTableRecord
  2
*MODEL_SPACE
340
20
  0
BLOCK_RECORD
  5
B
330
1
100
AcDbSymbolTableRecord
100
AcDbBlockTableRecord
  2
*PAPER_SPACE
340
21
  0
BLOCK_RECORD
  5
A8
330
1
100
AcDbSymbolTableRecord
100
AcDbBlockTableRecord
  2
NOTE50
340
0
102
{BLKREFS
331
AE
102
}
  0
BLOCK_RECORD
  5
C8
330
1
100
AcDbSymbolTableRecord
100
AcDbBlockTableRecord
  2
*D1
340
0
  0
BLOCK_RECORD
  5
D6
330
1
100
AcDbSymbolTableRecord
100
AcDbBlockTableRecord
  2
*D2
340
0
  0
BLOCK_RECORD
  5
E3
330
1
100
AcDbSymbolTableRecord
100
AcDbBlockTableRecord
  2
*D3
340
0
  0
BLOCK_RECORD
  5
F2
330
1
100
AcDbSymbolTableRecord
100
AcDbBlockTableRecord
  2
*D4
340
0
  0
BLOCK_RECORD
  5
101
330
1
100
AcDbSymbolTableRecord
100
AcDbBlockTableRecord
  2
*D5
340
0
  0
BLOCK_RECORD
  5
113
330
1
100
AcDbSymbolTableRecord
100
AcDbBlockTableRecord
  2
*D6
340
0
  0
BLOCK_RECORD
  5
120
330
1
100
AcDbSymbolTableRecord
100
AcDbBlockTableRecord
  2
*D7
340
0
  0
BLOCK_RECORD
  5
12D
330
1
100
AcDbSymbolTableRecord
100
AcDbBlockTableRecord
  2
*D8
340
0
  0
BLOCK_RECORD
  5
13A
330
1
100
AcDbSymbolTableRecord
100
AcDbBlockTableRecord
  2
*D9
340
0
  0
BLOCK_RECORD
  5
151
330
1
100
AcDbSymbolTableRecord
100
AcDbBlockTableRecord
  2
*D10
340
0
  0
ENDTAB
  0
ENDSEC
  0
SECTION
  2
BLOCKS
  0
BLOCK
  5
D
330
A
100
AcDbEntity
  8
0
100
AcDbBlockBegin
  2
*MODEL_SPACE
 70
     0
 10
0.0
 20
0.0
 30
0.0
  3
*MODEL_SPACE
  1

  0
ENDBLK
  5
E
330
A
100
AcDbEntity
  8
0
100
AcDbBlockEnd
  0
BLOCK
  5
F
330
B
100
AcDbEntity
 67
     1
  8
0
100
AcDbBlockBegin
  2
*PAPER_SPACE
 70
     0
 10
0.0
 20
0.0
 30
0.0
  3
*PAPER_SPACE
  1

  0
ENDBLK
  5
10
330
B
100
AcDbEntity
 67
     1
  8
0
100
AcDbBlockEnd
  0
BLOCK
  5
A9
330
A8
100
AcDbEntity
  8
0
 62
     0
100
AcDbBlockBegin
  2
NOTE50
 70
     0
 10
0.0
 20
0.0
 30
0.0
  3
NOTE50
  1

  0
MTEXT
  5
AA
330
A8
100
AcDbEntity
  8
0
 62
     7
100
AcDbMText
 10
0.0
 20
0.0
 30
0.0
 40
0.27
 41
0.0
 71
     1
 72
     1
  1
BREAK SHARP EDGES 0.010 RAD %%p 0.003
  7
SLDTEXTSTYLE0
 73
     1
 44
1.0
  0
MTEXT
  5
AB
330
A8
100
AcDbEntity
  8
0
 62
     7
100
AcDbMText
 10
0.0
 20
-0.4050000000000001
 30
0.0
 40
0.27
 41
0.0
 71
     1
 72
     1
  1
MACHINED SURF FINISH  
  7
SLDTEXTSTYLE0
 73
     1
 44
1.0
  0
MTEXT
  5
AC
330
A8
100
AcDbEntity
  8
0
 62
     7
100
AcDbMText
 10
4.158
 20
-0.4050000000000001
 30
0.0
 40
0.27
 41
0.0
 71
     1
 72
     1
  1
< 125 MICROINCH
  7
SLDTEXTSTYLE0
 73
     1
 44
1.0
  0
ENDBLK
  5
AD
330
A8
100
AcDbEntity
  8
0
100
AcDbBlockEnd
  0
BLOCK
  5
C9
330
C8
100
AcDbEntity
  8
0
 62
     7
100
AcDbBlockBegin
  2
*D1
 70
     1
 10
0.0
 20
0.0
 30
0.0
  3
*D1
  1

  0
MTEXT
  5
CA
330
C8
100
AcDbEntity
  8
0
 62
     7
100
AcDbMText
 10
22.6709410833
 20
28.4387763073
 30
0.0
 40
0.3
 41
0.0
 71
     7
 72
     1
  1
12"
  7
SLDTEXTSTYLE0
 73
     1
 44
1.0
  0
LINE
  5
CB
330
C8
100
AcDbEntity
  8
0
 62
     7
100
AcDbLine
 10
16.16134281049999
 20
20.36955065569999
 30
0.0
 11
16.16134281049999
 21
28.9336594205
 31
0.0
  0
LINE
  5
CC
330
C8
100
AcDbEntity
  8
0
 62
     7
100
AcDbLine
 10
28.1613428105
 20
20.4554706014
 30
0.0
 11
28.1613428105
 21
28.9336594205
 31
0.0
  0
LINE
  5
CD
330
C8
100
AcDbEntity
  8
0
 62
     7
100
AcDbLine
 10
16.16134281049999
 20
28.5736594205
 30
0.0
 11
22.48344108329999
 21
28.5736594205
 31
0.0
  0
LINE
  5
CE
330
C8
100
AcDbEntity
  8
0
 62
     7
100
AcDbLine
 10
28.1613428105
 20
28.5736594205
 30
0.0
 11
23.3987620267
 21
28.5736594205
 31
0.0
  0
SOLID
  5
CF
330
C8
100
AcDbEntity
  8
0
 62
     7
100
AcDbTrace
 10
16.16134281049999
 20
28.5736594205
 30
0.0
 11
16.7238428105
 21
28.4799094205
 31
0.0
 12
16.7238428105
 22
28.6674094205
 32
0.0
 13
16.7238428105
 23
28.6674094205
 33
0.0
  0
SOLID
  5
D0
330
C8
100
AcDbEntity
  8
0
 62
     7
100
AcDbTrace
 10
28.1613428105
 20
28.5736594205
 30
0.0
 11
27.5988428105
 21
28.6674094205
 31
0.0
 12
27.5988428105
 22
28.4799094205
 32
0.0
 13
27.5988428105
 23
28.4799094205
 33
0.0
  0
POINT
  5
D2
330
C8
100
AcDbEntity
  8
0
 62
     7
100
AcDbPoint
 10
16.16134281049999
 20
23.97285637099999
 30
0.0
  0
POINT
  5
D3
330
C8
100
AcDbEntity
  8
0
 62
     7
100
AcDbPoint
 10
28.1613428105
 20
23.97285637099999
 30
0.0
  0
ENDBLK
  5
D4
330
C8
100
AcDbEntity
  8
0
 62
     7
100
AcDbBlockEnd
  0
BLOCK
  5
D7
330
D6
100
AcDbEntity
  8
0
 62
     7
100
AcDbBlockBegin
  2
*D2
 70
     1
 10
0.0
 20
0.0
 30
0.0
  3
*D2
  1

  0
MTEXT
  5
D8
330
D6
100
AcDbEntity
  8
0
 62
     7
100
AcDbMText
 10
31.41666284199999
 20
17.2439732578
 30
0.0
 40
0.3
 41
0.0
 71
     7
 72
     1
  1
13 3/16"
  7
SLDTEXTSTYLE0
 73
     1
 44
1.0
  0
LINE
  5
D9
330
D6
100
AcDbEntity
  8
0
 62
     7
100
AcDbLine
 10
24.5056888476
 20
10.78485637099999
 30
0.0
 11
32.5270268042
 21
10.78485637099999
 31
0.0
  0
LINE
  5
DA
330
D6
100
AcDbEntity
  8
0
 62
     7
100
AcDbLine
 10
24.579847656
 20
23.97285637099999
 30
0.0
 11
32.5270268042
 21
23.97285637099999
 31
0.0
  0
LINE
  5
DB
330
D6
100
AcDbEntity
  8
0
 62
     7
100
AcDbLine
 10
32.1670268042
 20
10.78485637099999
 30
0.0
 11
32.1670268042
 21
17.09397325779999
 31
0.0
  0
LINE
  5
DC
330
D6
100
AcDbEntity
  8
0
 62
     7
100
AcDbLine
 10
32.1670268042
 20
23.97285637099999
 30
0.0
 11
32.1670268042
 21
17.6637394842
 31
0.0
  0
SOLID
  5
DD
330
D6
100
AcDbEntity
  8
0
 62
     7
100
AcDbTrace
 10
32.1670268042
 20
10.78485637099999
 30
0.0
 11
32.26077680419999
 21
11.34735637099999
 31
0.0
 12
32.0732768042
 22
11.34735637099999
 32
0.0
 13
32.0732768042
 23
11.34735637099999
 33
0.0
  0
SOLID
  5
DE
330
D6
100
AcDbEntity
  8
0
 62
     7
100
AcDbTrace
 10
32.1670268042
 20
23.97285637099999
 30
0.0
 11
32.0732768042
 21
23.410356371
 31
0.0
 12
32.26077680419999
 22
23.410356371
 32
0.0
 13
32.26077680419999
 23
23.410356371
 33
0.0
  0
POINT
  5
DF
330
D6
100
AcDbEntity
  8
0
 62
     7
100
AcDbPoint
 10
28.1613428105
 20
10.78485637099999
 30
0.0
  0
POINT
  5
E0
330
D6
100
AcDbEntity
  8
0
 62
     7
100
AcDbPoint
 10
28.1613428105
 20
23.97285637099999
 30
0.0
  0
ENDBLK
  5
E1
330
D6
100
AcDbEntity
  8
0
 62
     7
100
AcDbBlockEnd
  0
BLOCK
  5
E4
330
E3
100
AcDbEntity
  8
0
 62
     7
100
AcDbBlockBegin
  2
*D3
 70
     1
 10
0.0
 20
0.0
 30
0.0
  3
*D3
  1

  0
MTEXT
  5
E5
330
E3
100
AcDbEntity
  8
0
 62
     7
100
AcDbMText
 10
9.5520478388
 20
23.08411637789999
 30
0.0
 40
0.3
 41
0.0
 71
     7
 72
     1
  1
6"
  7
SLDTEXTSTYLE0
 73
     1
 44
1.0
  0
MTEXT
  5
E6
330
E3
100
AcDbEntity
  8
0
 62
     7
100
AcDbMText
 10
9.9421978388
 20
23.08411637789999
 30
0.0
 40
0.3
 41
0.0
 71
     7
 72
     1
  1
 DIA BURNED OKAY
  7
SLDTEXTSTYLE0
 73
     1
 44
1.0
  0
MTEXT
  5
E7
330
E3
100
AcDbEntity
  8
0
 62
     7
100
AcDbMText
 10
10.0938489708
 20
22.5143501515
 30
0.0
 40
0.3
 41
0.0
 71
     7
 72
     1
  1
PLEASE DEBURR
  7
SLDTEXTSTYLE0
 73
     1
 44
1.0
  0
LINE
  5
E8
330
E3
100
AcDbEntity
  8
0
 62
     7
100
AcDbLine
 10
19.72714329099999
 20
19.13233083589999
 30
0.0
 11
14.44944765009999
 21
22.9341163779
 31
0.0
  0
LINE
  5
E9
330
E3
100
AcDbEntity
  8
0
 62
     7
100
AcDbLine
 10
24.5955423301
 20
15.62538190609999
 30
0.0
 11
19.72714329099999
 21
19.13233083589999
 31
0.0
  0
LINE
  5
EA
330
E3
100
AcDbEntity
  8
0
 62
     7
100
AcDbLine
 10
14.44944765009999
 20
22.9341163779
 30
0.0
 11
13.6994476501
 21
22.9341163779
 31
0.0
  0
SOLID
  5
EB
330
E3
100
AcDbEntity
  8
0
 62
     7
100
AcDbTrace
 10
24.5955423301
 20
15.62538190609999
 30
0.0
 11
24.1939259972
 21
16.0302271033
 31
0.0
 12
24.08433384309999
 22
15.8780896333
 32
0.0
 13
24.08433384309999
 23
15.8780896333
 33
0.0
  0
SOLID
  5
EC
330
E3
100
AcDbEntity
  8
0
 62
     7
100
AcDbTrace
 10
19.72714329099999
 20
19.13233083589999
 30
0.0
 11
20.1287596238
 21
18.7274856387
 31
0.0
 12
20.2383517779
 22
18.87962310869999
 32
0.0
 13
20.2383517779
 23
18.87962310869999
 33
0.0
  0
POINT
  5
EE
330
E3
100
AcDbEntity
  8
0
 62
     7
100
AcDbPoint
 10
24.5955423301
 20
15.62538190609999
 30
0.0
  0
POINT
  5
EF
330
E3
100
AcDbEntity
  8
0
 62
     7
100
AcDbPoint
 10
19.72714329099999
 20
19.13233083589999
 30
0.0
  0
ENDBLK
  5
F0
330
E3
100
AcDbEntity
  8
0
100
AcDbBlockEnd
  0
BLOCK
  5
F3
330
F2
100
AcDbEntity
  8
0
 62
     7
100
AcDbBlockBegin
  2
*D4
 70
     1
 10
0.0
 20
0.0
 30
0.0
  3
*D4
  1

  0
MTEXT
  5
F4
330
F2
100
AcDbEntity
  8
0
 62
     7
100
AcDbMText
 10
29.2835273768
 20
22.12285637099999
 30
0.0
 40
0.3
 41
0.0
 71
     7
 72
     1
  1
4"
  7
SLDTEXTSTYLE0
 73
     1
 44
1.0
  0
MTEXT
  5
F5
330
F2
100
AcDbEntity
  8
0
 62
     7
100
AcDbMText
 10
29.7036134146
 20
22.12285637099999
 30
0.0
 40
0.3
 41
0.0
 71
     7
 72
     1
  1
 TYPICAL
  7
SLDTEXTSTYLE0
 73
     1
 44
1.0
  0
MTEXT
  5
F6
330
F2
100
AcDbEntity
  8
0
 62
     7
100
AcDbMText
 10
29.4952959617
 20
21.55309014459999
 30
0.0
 40
0.3
 41
0.0
 71
     7
 72
     1
  1
4 PLACES
  7
SLDTEXTSTYLE0
 73
     1
 44
1.0
  0
LINE
  5
F7
330
F2
100
AcDbEntity
  8
0
 62
     7
100
AcDbLine
 10
28.2813428105
 20
19.972856371
 30
0.0
 11
30.7084651127
 21
19.972856371
 31
0.0
  0
LINE
  5
F8
330
F2
100
AcDbEntity
  8
0
 62
     7
100
AcDbLine
 10
28.2813428105
 20
23.97285637099999
 30
0.0
 11
30.7084651127
 21
23.97285637099999
 31
0.0
  0
LINE
  5
F9
330
F2
100
AcDbEntity
  8
0
 62
     7
100
AcDbLine
 10
30.3484651127
 20
19.972856371
 30
0.0
 11
30.3484651127
 21
21.4030901446
 31
0.0
  0
LINE
  5
FA
330
F2
100
AcDbEntity
  8
0
 62
     7
100
AcDbLine
 10
30.3484651127
 20
23.97285637099999
 30
0.0
 11
30.3484651127
 21
22.54262259739999
 31
0.0
  0
SOLID
  5
FB
330
F2
100
AcDbEntity
  8
0
 62
     7
100
AcDbTrace
 10
30.3484651127
 20
19.972856371
 30
0.0
 11
30.4422151127
 21
20.53535637099999
 31
0.0
 12
30.2547151127
 22
20.53535637099999
 32
0.0
 13
30.2547151127
 23
20.53535637099999
 33
0.0
  0
SOLID
  5
FC
330
F2
100
AcDbEntity
  8
0
 62
     7
100
AcDbTrace
 10
30.3484651127
 20
23.97285637099999
 30
0.0
 11
30.2547151127
 21
23.410356371
 31
0.0
 12
30.4422151127
 22
23.410356371
 32
0.0
 13
30.4422151127
 23
23.410356371
 33
0.0
  0
POINT
  5
FD
330
F2
100
AcDbEntity
  8
0
 62
     7
100
AcDbPoint
 10
28.1613428105
 20
19.972856371
 30
0.0
  0
POINT
  5
FE
330
F2
100
AcDbEntity
  8
0
 62
     7
100
AcDbPoint
 10
28.1613428105
 20
23.97285637099999
 30
0.0
  0
ENDBLK
  5
FF
330
F2
100
AcDbEntity
  8
0
 62
     7
100
AcDbBlockEnd
  0
BLOCK
  5
102
330
101
100
AcDbEntity
  8
0
 62
     7
100
AcDbBlockBegin
  2
*D5
 70
     1
 10
0.0
 20
0.0
 30
0.0
  3
*D5
  1

  0
MTEXT
  5
103
330
101
100
AcDbEntity
  8
0
 62
     7
100
AcDbMText
 10
24.2040734688
 20
27.1459714328
 30
0.0
 40
0.3
 41
0.0
 71
     7
 72
     1
  1
45%%d
  7
SLDTEXTSTYLE0
 73
     1
 44
1.0
  0
MTEXT
  5
104
330
101
100
AcDbEntity
  8
0
 62
     7
100
AcDbMText
 10
24.8342025254
 20
27.1459714328
 30
0.0
 40
0.3
 41
0.0
 71
     7
 72
     1
  1
 TYPICAL
  7
SLDTEXTSTYLE0
 73
     1
 44
1.0
  0
MTEXT
  5
105
330
101
100
AcDbEntity
  8
0
 62
     7
100
AcDbMText
 10
24.5208635631
 20
26.5762052064
 30
0.0
 40
0.3
 41
0.0
 71
     7
 72
     1
  1
4 PLACES
  7
SLDTEXTSTYLE0
 73
     1
 44
1.0
  0
LINE
  5
106
330
101
100
AcDbEntity
  8
0
 62
     7
100
AcDbLine
 10
27.8682982926
 20
20.2659008889
 30
0.0
 11
22.5638805359
 21
25.5703186456
 31
0.0
  0
LINE
  5
107
330
101
100
AcDbEntity
  8
0
 62
     7
100
AcDbLine
 10
28.1613428105
 20
20.092856371
 30
0.0
 11
28.1613428105
 21
27.8888634346
 31
0.0
  0
ARC
  5
108
330
101
100
AcDbEntity
  8
0
 62
     7
100
AcDbCircle
 10
28.1613428105
 20
19.972856371
 30
0.0
 40
7.5560070636
100
AcDbArc
 50
121.3430037243
 51
135.0
  0
ARC
  5
109
330
101
100
AcDbEntity
  8
0
 62
     7
100
AcDbCircle
 10
28.1613428105
 20
19.972856371
 30
0.0
 40
7.5560070636
100
AcDbArc
 50
90.0
 51
100.9080647013
  0
SOLID
  5
10A
330
101
100
AcDbEntity
  8
0
 62
     7
100
AcDbTrace
 10
22.8184389771
 20
25.3157602044
 30
0.0
 11
23.2944694948
 21
25.62975106219999
 31
0.0
 12
23.1669032426
 22
25.7671668594
 32
0.0
 13
23.1669032426
 23
25.7671668594
 33
0.0
  0
SOLID
  5
10B
330
101
100
AcDbEntity
  8
0
 62
     7
100
AcDbTrace
 10
28.1613428105
 20
27.5288634346
 30
0.0
 11
27.5957486586
 21
27.6016546963
 31
0.0
 12
27.6027133387
 22
27.4142840923
 32
0.0
 13
27.6027133387
 23
27.4142840923
 33
0.0
  0
POINT
  5
10D
330
101
100
AcDbEntity
  8
0
 62
     7
100
AcDbPoint
 10
28.439731307
 20
19.69446787449999
 30
0.0
  0
POINT
  5
10E
330
101
100
AcDbEntity
  8
0
 62
     7
100
AcDbPoint
 10
28.1613428105
 20
19.972856371
 30
0.0
  0
POINT
  5
10F
330
101
100
AcDbEntity
  8
0
 62
     7
100
AcDbPoint
 10
28.1613428105
 20
19.57915558359999
 30
0.0
  0
POINT
  5
110
330
101
100
AcDbEntity
  8
0
 62
     7
100
AcDbPoint
 10
28.1613428105
 20
19.972856371
 30
0.0
  0
ENDBLK
  5
111
330
101
100
AcDbEntity
  8
0
100
AcDbBlockEnd
  0
BLOCK
  5
114
330
113
100
AcDbEntity
  8
0
 62
     7
100
AcDbBlockBegin
  2
*D6
 70
     1
 10
0.0
 20
0.0
 30
0.0
  3
*D6
  1

  0
MTEXT
  5
115
330
113
100
AcDbEntity
  8
0
 62
     7
100
AcDbMText
 10
16.2847471924
 20
24.26901847739999
 30
0.0
 40
0.3
 41
0.0
 71
     7
 72
     1
  1
12 5/32"
  7
SLDTEXTSTYLE0
 73
     1
 44
1.0
  0
LINE
  5
116
330
113
100
AcDbEntity
  8
0
 62
     7
100
AcDbLine
 10
24.0764899968
 20
24.0577091847
 30
0.0
 11
20.1431139505
 21
27.991085231
 31
0.0
  0
LINE
  5
117
330
113
100
AcDbEntity
  8
0
 62
     7
100
AcDbLine
 10
16.0764899968
 20
14.86970918469999
 30
0.0
 11
11.54911395049999
 21
19.397085231
 31
0.0
  0
LINE
  5
118
330
113
100
AcDbEntity
  8
0
 62
     7
100
AcDbLine
 10
20.3976723917
 20
27.7365267898
 30
0.0
 11
17.3499303056
 21
24.68878470379999
 31
0.0
  0
LINE
  5
119
330
113
100
AcDbEntity
  8
0
 62
     7
100
AcDbLine
 10
11.8036723917
 20
19.1425267898
 30
0.0
 11
16.7801640792
 21
24.11901847739999
 31
0.0
  0
SOLID
  5
11A
330
113
100
AcDbEntity
  8
0
 62
     7
100
AcDbTrace
 10
20.3976723917
 20
27.7365267898
 30
0.0
 11
19.93363356649999
 21
27.4050704861
 31
0.0
 12
20.066216088
 22
27.2724879647
 32
0.0
 13
20.066216088
 23
27.2724879647
 33
0.0
  0
SOLID
  5
11B
330
113
100
AcDbEntity
  8
0
 62
     7
100
AcDbTrace
 10
11.8036723917
 20
19.1425267898
 30
0.0
 11
12.2677112168
 21
19.47398309349999
 31
0.0
 12
12.13512869539999
 22
19.606565615
 32
0.0
 13
12.13512869539999
 23
19.606565615
 33
0.0
  0
POINT
  5
11C
330
113
100
AcDbEntity
  8
0
 62
     7
100
AcDbPoint
 10
24.1613428105
 20
23.97285637099999
 30
0.0
  0
POINT
  5
11D
330
113
100
AcDbEntity
  8
0
 62
     7
100
AcDbPoint
 10
16.16134281049999
 20
14.78485637099999
 30
0.0
  0
ENDBLK
  5
11E
330
113
100
AcDbEntity
  8
0
 62
     7
100
AcDbBlockEnd
  0
BLOCK
  5
121
330
120
100
AcDbEntity
  8
0
 62
     7
100
AcDbBlockBegin
  2
*D7
 70
     1
 10
0.0
 20
0.0
 30
0.0
  3
*D7
  1

  0
MTEXT
  5
122
330
120
100
AcDbEntity
  8
0
 62
     7
100
AcDbMText
 10
13.3800674698
 20
13.6462387503
 30
0.0
 40
0.3
 41
0.0
 71
     7
 72
     1
  1
12 5/32"
  7
SLDTEXTSTYLE0
 73
     1
 44
1.0
  0
LINE
  5
123
330
120
100
AcDbEntity
  8
0
 62
     7
100
AcDbLine
 10
24.0764899968
 20
10.7000035573
 30
0.0
 11
20.4044294452
 21
7.0279430057
 31
0.0
  0
LINE
  5
124
330
120
100
AcDbEntity
  8
0
 62
     7
100
AcDbLine
 10
16.0764899968
 20
19.88800355729999
 30
0.0
 11
11.8104294452
 21
15.62194300569999
 31
0.0
  0
LINE
  5
125
330
120
100
AcDbEntity
  8
0
 62
     7
100
AcDbLine
 10
20.6589878864
 20
7.2825014469
 30
0.0
 11
14.44525058299999
 21
13.4962387503
 31
0.0
  0
LINE
  5
126
330
120
100
AcDbEntity
  8
0
 62
     7
100
AcDbLine
 10
12.0649878864
 20
15.8765014469
 30
0.0
 11
13.8754843566
 21
14.0660049768
 31
0.0
  0
SOLID
  5
127
330
120
100
AcDbEntity
  8
0
 62
     7
100
AcDbTrace
 10
20.6589878864
 20
7.2825014469
 30
0.0
 11
20.3275315827
 21
7.7465402721
 31
0.0
 12
20.1949490613
 22
7.613957750599999
 32
0.0
 13
20.1949490613
 23
7.613957750599999
 33
0.0
  0
SOLID
  5
128
330
120
100
AcDbEntity
  8
0
 62
     7
100
AcDbTrace
 10
12.0649878864
 20
15.8765014469
 30
0.0
 11
12.3964441901
 21
15.4124626218
 31
0.0
 12
12.5290267116
 22
15.5450451432
 32
0.0
 13
12.5290267116
 23
15.5450451432
 33
0.0
  0
POINT
  5
129
330
120
100
AcDbEntity
  8
0
 62
     7
100
AcDbPoint
 10
24.1613428105
 20
10.78485637099999
 30
0.0
  0
POINT
  5
12A
330
120
100
AcDbEntity
  8
0
 62
     7
100
AcDbPoint
 10
16.16134281049999
 20
19.972856371
 30
0.0
  0
ENDBLK
  5
12B
330
120
100
AcDbEntity
  8
0
 62
     7
100
AcDbBlockEnd
  0
BLOCK
  5
12E
330
12D
100
AcDbEntity
  8
0
 62
     7
100
AcDbBlockBegin
  2
*D8
 70
     1
 10
0.0
 20
0.0
 30
0.0
  3
*D8
  1

  0
MTEXT
  5
12F
330
12D
100
AcDbEntity
  8
0
 62
     7
100
AcDbMText
 10
19.9191677877
 20
25.7838016111
 30
0.0
 40
0.3
 41
0.0
 71
     7
 72
     1
  1
2 27/32"
  7
SLDTEXTSTYLE0
 73
     1
 44
1.0
  0
LINE
  5
130
330
12D
100
AcDbEntity
  8
0
 62
     7
100
AcDbLine
 10
24.0764899968
 20
24.0577091847
 30
0.0
 11
21.21790070009999
 21
26.91629848139999
 31
0.0
  0
LINE
  5
131
330
12D
100
AcDbEntity
  8
0
 62
     7
100
AcDbLine
 10
20.0764899968
 20
24.0577091847
 30
0.0
 11
19.2179007001
 21
24.9162984814
 31
0.0
  0
LINE
  5
132
330
12D
100
AcDbEntity
  8
0
 62
     7
100
AcDbLine
 10
21.4724591414
 20
26.6617400402
 30
0.0
 11
21.01428693869999
 21
26.2035678375
 31
0.0
  0
LINE
  5
133
330
12D
100
AcDbEntity
  8
0
 62
     7
100
AcDbLine
 10
19.4724591414
 20
24.6617400402
 30
0.0
 11
20.4445207123
 21
25.6338016111
 31
0.0
  0
SOLID
  5
134
330
12D
100
AcDbEntity
  8
0
 62
     7
100
AcDbTrace
 10
21.4724591414
 20
26.6617400402
 30
0.0
 11
21.0084203162
 21
26.3302837365
 31
0.0
 12
21.1410028377
 22
26.197701215
 32
0.0
 13
21.1410028377
 23
26.197701215
 33
0.0
  0
SOLID
  5
135
330
12D
100
AcDbEntity
  8
0
 62
     7
100
AcDbTrace
 10
19.4724591414
 20
24.6617400402
 30
0.0
 11
19.93649796649999
 21
24.9931963438
 31
0.0
 12
19.803915445
 22
25.1257788653
 32
0.0
 13
19.803915445
 23
25.1257788653
 33
0.0
  0
POINT
  5
136
330
12D
100
AcDbEntity
  8
0
 62
     7
100
AcDbPoint
 10
24.1613428105
 20
23.97285637099999
 30
0.0
  0
POINT
  5
137
330
12D
100
AcDbEntity
  8
0
 62
     7
100
AcDbPoint
 10
20.16134281049999
 20
23.97285637099999
 30
0.0
  0
ENDBLK
  5
138
330
12D
100
AcDbEntity
  8
0
 62
     7
100
AcDbBlockEnd
  0
BLOCK
  5
13B
330
13A
100
AcDbEntity
  8
0
 62
     7
100
AcDbBlockBegin
  2
*D9
 70
     1
 10
0.0
 20
0.0
 30
0.0
  3
*D9
  1

  0
MTEXT
  5
13C
330
13A
100
AcDbEntity
  8
0
 62
     7
100
AcDbMText
 10
13.3800674698
 20
19.5434214611
 30
0.0
 40
0.3
 41
0.0
 71
     7
 72
     1
  1
3 21/32"
  7
SLDTEXTSTYLE0
 73
     1
 44
1.0
  0
LINE
  5
13D
330
13A
100
AcDbEntity
  8
0
 62
     7
100
AcDbLine
 10
16.0764899968
 20
14.86970918469999
 30
0.0
 11
12.45957259729999
 21
18.4866265842
 31
0.0
  0
LINE
  5
13E
330
13A
100
AcDbEntity
  8
0
 62
     7
100
AcDbLine
 10
16.0764899968
 20
20.0577091847
 30
0.0
 11
15.0535725973
 21
21.0806265842
 31
0.0
  0
LINE
  5
13F
330
13A
100
AcDbEntity
  8
0
 62
     7
100
AcDbLine
 10
12.7141310385
 20
18.23206814299999
 30
0.0
 11
13.8754843566
 21
19.39342146109999
 31
0.0
  0
LINE
  5
140
330
13A
100
AcDbEntity
  8
0
 62
     7
100
AcDbLine
 10
15.30813103849999
 20
20.826068143
 30
0.0
 11
14.44525058299999
 21
19.9631876875
 31
0.0
  0
SOLID
  5
141
330
13A
100
AcDbEntity
  8
0
 62
     7
100
AcDbTrace
 10
12.7141310385
 20
18.23206814299999
 30
0.0
 11
13.17816986369999
 21
18.5635244467
 31
0.0
 12
13.0455873422
 22
18.69610696819999
 32
0.0
 13
13.0455873422
 23
18.69610696819999
 33
0.0
  0
SOLID
  5
142
330
13A
100
AcDbEntity
  8
0
 62
     7
100
AcDbTrace
 10
15.30813103849999
 20
20.826068143
 30
0.0
 11
14.84409221339999
 21
20.4946118393
 31
0.0
 12
14.97667473479999
 22
20.3620293178
 32
0.0
 13
14.97667473479999
 23
20.3620293178
 33
0.0
  0
POINT
  5
143
330
13A
100
AcDbEntity
  8
0
 62
     7
100
AcDbPoint
 10
16.16134281049999
 20
14.78485637099999
 30
0.0
  0
POINT
  5
144
330
13A
100
AcDbEntity
  8
0
 62
     7
100
AcDbPoint
 10
16.16134281049999
 20
19.972856371
 30
0.0
  0
ENDBLK
  5
145
330
13A
100
AcDbEntity
  8
0
 62
     7
100
AcDbBlockEnd
  0
BLOCK
  5
152
330
151
100
AcDbEntity
  8
0
 62
     7
100
AcDbBlockBegin
  2
*D10
 70
     1
 10
0.0
 20
0.0
 30
0.0
  3
*D10
  1

  0
MTEXT
  5
153
330
151
100
AcDbEntity
  8
0
 62
     7
100
AcDbMText
 10
44.4261837309
 20
25.0712081643
 30
0.0
 40
0.3
 41
0.0
 71
     7
 72
     1
  1
1/4"
  7
SLDTEXTSTYLE0
 73
     1
 44
1.0
  0
LINE
  5
154
330
151
100
AcDbEntity
  8
0
 62
     7
100
AcDbLine
 10
41.1093705036
 20
24.09285637099999
 30
0.0
 11
41.1093705036
 21
25.5660912775
 31
0.0
  0
LINE
  5
155
330
151
100
AcDbEntity
  8
0
 62
     7
100
AcDbLine
 10
40.8593705036
 20
24.09285637099999
 30
0.0
 11
40.8593705036
 21
25.5660912775
 31
0.0
  0
LINE
  5
156
330
151
100
AcDbEntity
  8
0
 62
     7
100
AcDbLine
 10
41.1093705036
 20
25.2060912775
 30
0.0
 11
44.2386837309
 21
25.2060912775
 31
0.0
  0
LINE
  5
157
330
151
100
AcDbEntity
  8
0
 62
     7
100
AcDbLine
 10
40.8593705036
 20
25.2060912775
 30
0.0
 11
41.1093705036
 21
25.2060912775
 31
0.0
  0
SOLID
  5
158
330
151
100
AcDbEntity
  8
0
 62
     7
100
AcDbTrace
 10
41.1093705036
 20
25.2060912775
 30
0.0
 11
40.5468705036
 21
25.2998412775
 31
0.0
 12
40.5468705036
 22
25.1123412775
 32
0.0
 13
40.5468705036
 23
25.1123412775
 33
0.0
  0
SOLID
  5
159
330
151
100
AcDbEntity
  8
0
 62
     7
100
AcDbTrace
 10
40.8593705036
 20
25.2060912775
 30
0.0
 11
41.4218705036
 21
25.1123412775
 31
0.0
 12
41.4218705036
 22
25.2998412775
 32
0.0
 13
41.4218705036
 23
25.2998412775
 33
0.0
  0
POINT
  5
15A
330
151
100
AcDbEntity
  8
0
 62
     7
100
AcDbPoint
 10
41.1093705036
 20
23.97285637099999
 30
0.0
  0
POINT
  5
15B
330
151
100
AcDbEntity
  8
0
 62
     7
100
AcDbPoint
 10
40.8593705036
 20
23.97285637099999
 30
0.0
  0
ENDBLK
  5
15C
330
151
100
AcDbEntity
  8
0
 62
     7
100
AcDbBlockEnd
  0
ENDSEC
  0
SECTION
  2
ENTITIES
  0
LINE
  5
2A
330
A
100
AcDbEntity
  8
0
  6
Continuous
 62
     7
370
     0
100
AcDbLine
 10
10.12499999999999
 20
31.875
 30
0.0
 11
4.5
 21
31.875
 31
0.0
  0
LINE
  5
2B
330
A
100
AcDbEntity
  8
0
  6
Continuous
 62
     7
370
     0
100
AcDbLine
 10
15.75
 20
31.875
 30
0.0
 11
10.12499999999999
 21
31.875
 31
0.0
  0
LINE
  5
2C
330
A
100
AcDbEntity
  8
0
  6
Continuous
 62
     7
370
     0
100
AcDbLine
 10
49.5
 20
1.125
 30
0.0
 11
43.875
 21
1.125
 31
0.0
  0
LINE
  5
2D
330
A
100
AcDbEntity
  8
0
  6
Continuous
 62
     7
370
     0
100
AcDbLine
 10
49.5
 20
1.125
 30
0.0
 11
49.5
 21
8.8125
 31
0.0
  0
LINE
  5
2E
330
A
100
AcDbEntity
  8
0
  6
Continuous
 62
     7
370
     0
100
AcDbLine
 10
49.5
 20
24.1875
 30
0.0
 11
49.875
 21
24.1875
 31
0.0
  0
LINE
  5
2F
330
A
100
AcDbEntity
  8
0
  6
Continuous
 62
     7
370
     0
100
AcDbLine
 10
49.5
 20
16.5
 30
0.0
 11
49.875
 21
16.5
 31
0.0
  0
LINE
  5
30
330
A
100
AcDbEntity
  8
0
  6
Continuous
 62
     7
370
     0
100
AcDbLine
 10
21.375
 20
31.875
 30
0.0
 11
15.75
 21
31.875
 31
0.0
  0
LINE
  5
31
330
A
100
AcDbEntity
  8
0
  6
Continuous
 62
     7
370
     0
100
AcDbLine
 10
27.0
 20
31.875
 30
0.0
 11
21.375
 21
31.875
 31
0.0
  0
LINE
  5
32
330
A
100
AcDbEntity
  8
0
  6
Continuous
 62
     7
370
     0
100
AcDbLine
 10
32.625
 20
31.875
 30
0.0
 11
27.0
 21
31.875
 31
0.0
  0
LINE
  5
33
330
A
100
AcDbEntity
  8
0
  6
Continuous
 62
     7
370
     0
100
AcDbLine
 10
38.25
 20
31.875
 30
0.0
 11
32.625
 21
31.875
 31
0.0
  0
LINE
  5
34
330
A
100
AcDbEntity
  8
0
  6
Continuous
 62
     7
370
     0
100
AcDbLine
 10
43.875
 20
31.875
 30
0.0
 11
38.25
 21
31.875
 31
0.0
  0
LINE
  5
35
330
A
100
AcDbEntity
  8
0
  6
Continuous
 62
     7
370
     0
100
AcDbLine
 10
49.5
 20
8.8125
 30
0.0
 11
49.875
 21
8.8125
 31
0.0
  0
LINE
  5
36
330
A
100
AcDbEntity
  8
0
  6
Continuous
 62
     7
370
     0
100
AcDbLine
 10
49.5
 20
31.875
 30
0.0
 11
43.875
 21
31.875
 31
0.0
  0
LINE
  5
37
330
A
100
AcDbEntity
  8
0
  6
Continuous
 62
     7
370
     0
100
AcDbLine
 10
43.875
 20
31.875
 30
0.0
 11
43.875
 21
32.25
 31
0.0
  0
LINE
  5
38
330
A
100
AcDbEntity
  8
0
  6
Continuous
 62
     7
370
     0
100
AcDbLine
 10
38.25
 20
31.875
 30
0.0
 11
38.25
 21
32.25
 31
0.0
  0
LINE
  5
39
330
A
100
AcDbEntity
  8
0
  6
Continuous
 62
     7
370
     0
100
AcDbLine
 10
32.625
 20
31.875
 30
0.0
 11
32.625
 21
32.25
 31
0.0
  0
LINE
  5
3A
330
A
100
AcDbEntity
  8
0
  6
Continuous
 62
     7
370
     0
100
AcDbLine
 10
27.0
 20
31.875
 30
0.0
 11
27.0
 21
32.25
 31
0.0
  0
LINE
  5
3B
330
A
100
AcDbEntity
  8
0
  6
Continuous
 62
     7
370
     0
100
AcDbLine
 10
21.375
 20
31.875
 30
0.0
 11
21.375
 21
32.25
 31
0.0
  0
LINE
  5
3C
330
A
100
AcDbEntity
  8
0
  6
Continuous
 62
     7
370
     0
100
AcDbLine
 10
15.75
 20
31.875
 30
0.0
 11
15.75
 21
32.25
 31
0.0
  0
LINE
  5
3D
330
A
100
AcDbEntity
  8
0
  6
Continuous
 62
     7
370
     0
100
AcDbLine
 10
10.12499999999999
 20
31.875
 30
0.0
 11
10.12499999999999
 21
32.25
 31
0.0
  0
LINE
  5
3E
330
A
100
AcDbEntity
  8
0
  6
Continuous
 62
     7
370
     0
100
AcDbLine
 10
26.25
 20
5.07
 30
0.0
 11
26.25
 21
1.127999999999999
 31
0.0
  0
LINE
  5
3F
330
A
100
AcDbEntity
  8
0
  6
Continuous
 62
     7
370
     0
100
AcDbLine
 10
33.0
 20
7.125
 30
0.0
 11
49.5
 21
7.125
 31
0.0
  0
LINE
  5
40
330
A
100
AcDbEntity
  8
0
  6
Continuous
 62
     7
370
     0
100
AcDbLine
 10
33.0
 20
7.125
 30
0.0
 11
33.0
 21
1.125
 31
0.0
  0
LINE
  5
41
330
A
100
AcDbEntity
  8
0
  6
Continuous
 62
     7
370
     0
100
AcDbLine
 10
40.49999999999999
 20
7.125
 30
0.0
 11
40.49999999999999
 21
1.125
 31
0.0
  0
LINE
  5
42
330
A
100
AcDbEntity
  8
0
  6
Continuous
 62
     7
370
     0
100
AcDbLine
 10
40.49999999999999
 20
1.689
 30
0.0
 11
49.5
 21
1.689
 31
0.0
  0
LINE
  5
43
330
A
100
AcDbEntity
  8
0
  6
Continuous
 62
     7
370
     0
100
AcDbLine
 10
40.49999999999999
 20
2.813999999999999
 30
0.0
 11
49.5
 21
2.813999999999999
 31
0.0
  0
LINE
  5
44
330
A
100
AcDbEntity
  8
0
  6
Continuous
 62
     7
370
     0
100
AcDbLine
 10
40.49999999999999
 20
5.064
 30
0.0
 11
49.5
 21
5.064
 31
0.0
  0
LINE
  5
45
330
A
100
AcDbEntity
  8
0
  6
Continuous
 62
     7
370
     0
100
AcDbLine
 10
41.625
 20
2.813999999999999
 30
0.0
 11
41.625
 21
1.125
 31
0.0
  0
LINE
  5
46
330
A
100
AcDbEntity
  8
0
  6
Continuous
 62
     7
370
     0
100
AcDbLine
 10
26.25
 20
2.253
 30
0.0
 11
40.49999999999999
 21
2.253
 31
0.0
  0
LINE
  5
47
330
A
100
AcDbEntity
  8
0
  6
Continuous
 62
     7
370
     0
100
AcDbLine
 10
48.375
 20
2.813999999999999
 30
0.0
 11
48.375
 21
1.125
 31
0.0
  0
LINE
  5
48
330
A
100
AcDbEntity
  8
0
  6
Continuous
 62
     7
370
     0
100
AcDbLine
 10
40.49999999999999
 20
6.0
 30
0.0
 11
33.0
 21
6.0
 31
0.0
  0
LINE
  5
49
330
A
100
AcDbEntity
  8
0
  6
Continuous
 62
     7
370
     0
100
AcDbLine
 10
33.0
 20
3.561
 30
0.0
 11
40.49999999999999
 21
3.561
 31
0.0
  0
LINE
  5
4A
330
A
100
AcDbEntity
  8
0
  6
Continuous
 62
     7
370
     0
100
AcDbLine
 10
33.0
 20
1.689
 30
0.0
 11
40.49999999999999
 21
1.689
 31
0.0
  0
LINE
  5
4B
330
A
100
AcDbEntity
  8
0
  6
Continuous
 62
     7
370
     0
100
AcDbLine
 10
26.25
 20
3.941999999999999
 30
0.0
 11
33.0
 21
3.941999999999999
 31
0.0
  0
LINE
  5
4C
330
A
100
AcDbEntity
  8
0
  6
Continuous
 62
     7
370
     0
100
AcDbLine
 10
49.5
 20
8.8125
 30
0.0
 11
49.5
 21
16.5
 31
0.0
  0
LINE
  5
4D
330
A
100
AcDbEntity
  8
0
  6
Continuous
 62
     7
370
     0
100
AcDbLine
 10
49.5
 20
16.5
 30
0.0
 11
49.5
 21
24.1875
 31
0.0
  0
LINE
  5
4E
330
A
100
AcDbEntity
  8
0
  6
Continuous
 62
     7
370
     0
100
AcDbLine
 10
49.5
 20
24.1875
 30
0.0
 11
49.5
 21
31.875
 31
0.0
  0
LINE
  5
4F
330
A
100
AcDbEntity
  8
0
  6
Continuous
 62
     7
370
     0
100
AcDbLine
 10
43.875
 20
1.125
 30
0.0
 11
38.25
 21
1.125
 31
0.0
  0
LINE
  5
50
330
A
100
AcDbEntity
  8
0
  6
Continuous
 62
     7
370
     0
100
AcDbLine
 10
38.25
 20
1.125
 30
0.0
 11
32.625
 21
1.125
 31
0.0
  0
LINE
  5
51
330
A
100
AcDbEntity
  8
0
  6
Continuous
 62
     7
370
     0
100
AcDbLine
 10
26.25
 20
4.506
 30
0.0
 11
33.0
 21
4.506
 31
0.0
  0
LINE
  5
52
330
A
100
AcDbEntity
  8
0
  6
Continuous
 62
     7
370
     0
100
AcDbLine
 10
26.25
 20
2.8125
 30
0.0
 11
15.0
 21
2.8125
 31
0.0
  0
LINE
  5
53
330
A
100
AcDbEntity
  8
0
  6
Continuous
 62
     7
370
     0
100
AcDbLine
 10
33.0
 20
5.07
 30
0.0
 11
26.25
 21
5.07
 31
0.0
  0
LINE
  5
54
330
A
100
AcDbEntity
  8
0
  6
Continuous
 62
     7
370
     0
100
AcDbLine
 10
30.75
 20
5.07
 30
0.0
 11
30.75
 21
3.378
 31
0.0
  0
LINE
  5
55
330
A
100
AcDbEntity
  8
0
  6
Continuous
 62
     7
370
     0
100
AcDbLine
 10
33.0
 20
5.435999999999999
 30
0.0
 11
40.49999999999999
 21
5.435999999999999
 31
0.0
  0
LINE
  5
56
330
A
100
AcDbEntity
  8
0
  6
Continuous
 62
     7
370
     0
100
AcDbLine
 10
26.25
 20
3.378
 30
0.0
 11
33.0
 21
3.378
 31
0.0
  0
LINE
  5
57
330
A
100
AcDbEntity
  8
0
  6
Continuous
 62
     7
370
     0
100
AcDbLine
 10
36.75
 20
6.0
 30
0.0
 11
36.75
 21
3.561
 31
0.0
  0
LINE
  5
58
330
A
100
AcDbEntity
  8
0
  6
Continuous
 62
     7
370
     0
100
AcDbLine
 10
32.625
 20
1.125
 30
0.0
 11
27.0
 21
1.125
 31
0.0
  0
LINE
  5
59
330
A
100
AcDbEntity
  8
0
  6
Continuous
 62
     7
370
     0
100
AcDbLine
 10
27.0
 20
1.125
 30
0.0
 11
21.375
 21
1.125
 31
0.0
  0
LINE
  5
5A
330
A
100
AcDbEntity
  8
0
  6
Continuous
 62
     7
370
     0
100
AcDbLine
 10
21.375
 20
1.125
 30
0.0
 11
15.75
 21
1.125
 31
0.0
  0
LINE
  5
5B
330
A
100
AcDbEntity
  8
0
  6
Continuous
 62
     7
370
     0
100
AcDbLine
 10
15.75
 20
1.125
 30
0.0
 11
10.12499999999999
 21
1.125
 31
0.0
  0
LINE
  5
5C
330
A
100
AcDbEntity
  8
0
  6
Continuous
 62
     7
370
     0
100
AcDbLine
 10
38.625
 20
6.0
 30
0.0
 11
38.625
 21
3.561
 31
0.0
  0
LINE
  5
5D
330
A
100
AcDbEntity
  8
0
  6
Continuous
 62
     7
370
     0
100
AcDbLine
 10
10.12499999999999
 20
1.125
 30
0.0
 11
4.5
 21
1.125
 31
0.0
  0
LINE
  5
5E
330
A
100
AcDbEntity
  8
0
  6
Continuous
 62
     7
370
     0
100
AcDbLine
 10
2.25
 20
31.875
 30
0.0
 11
2.25
 21
1.125
 31
0.0
  0
LINE
  5
5F
330
A
100
AcDbEntity
  8
0
  6
Continuous
 62
     7
370
     0
100
AcDbLine
 10
4.5
 20
8.8125
 30
0.0
 11
4.5
 21
16.5
 31
0.0
  0
LINE
  5
60
330
A
100
AcDbEntity
  8
0
  6
Continuous
 62
     7
370
     0
100
AcDbLine
 10
4.5
 20
16.5
 30
0.0
 11
4.5
 21
24.1875
 31
0.0
  0
LINE
  5
61
330
A
100
AcDbEntity
  8
0
  6
Continuous
 62
     7
370
     0
100
AcDbLine
 10
4.5
 20
24.1875
 30
0.0
 11
4.5
 21
31.875
 31
0.0
  0
LINE
  5
62
330
A
100
AcDbEntity
  8
0
  6
Continuous
 62
     7
370
     0
100
AcDbLine
 10
4.5
 20
24.1875
 30
0.0
 11
4.125
 21
24.1875
 31
0.0
  0
LINE
  5
63
330
A
100
AcDbEntity
  8
0
  6
Continuous
 62
     7
370
     0
100
AcDbLine
 10
43.875
 20
1.125
 30
0.0
 11
43.875
 21
0.75
 31
0.0
  0
LINE
  5
64
330
A
100
AcDbEntity
  8
0
  6
Continuous
 62
     7
370
     0
100
AcDbLine
 10
38.25
 20
1.125
 30
0.0
 11
38.25
 21
0.75
 31
0.0
  0
LINE
  5
65
330
A
100
AcDbEntity
  8
0
  6
Continuous
 62
     7
370
     0
100
AcDbLine
 10
32.625
 20
1.125
 30
0.0
 11
32.625
 21
0.75
 31
0.0
  0
LINE
  5
66
330
A
100
AcDbEntity
  8
0
  6
CENTERX2
 62
     7
370
     0
100
AcDbLine
 10
27.0
 20
1.125
 30
0.0
 11
27.0
 21
0.75
 31
0.0
  0
LINE
  5
67
330
A
100
AcDbEntity
  8
0
  6
Continuous
 62
     7
370
     0
100
AcDbLine
 10
21.375
 20
1.125
 30
0.0
 11
21.375
 21
0.75
 31
0.0
  0
LINE
  5
68
330
A
100
AcDbEntity
  8
0
  6
Continuous
 62
     7
370
     0
100
AcDbLine
 10
15.75
 20
1.125
 30
0.0
 11
15.75
 21
0.75
 31
0.0
  0
LINE
  5
69
330
A
100
AcDbEntity
  8
0
  6
Continuous
 62
     7
370
     0
100
AcDbLine
 10
10.12499999999999
 20
1.125
 30
0.0
 11
10.12499999999999
 21
0.75
 31
0.0
  0
LINE
  5
6A
330
A
100
AcDbEntity
  8
0
  6
Continuous
 62
     7
370
     0
100
AcDbLine
 10
4.5
 20
16.5
 30
0.0
 11
4.125
 21
16.5
 31
0.0
  0
LINE
  5
6B
330
A
100
AcDbEntity
  8
0
  6
Continuous
 62
     7
370
     0
100
AcDbLine
 10
4.5
 20
8.8125
 30
0.0
 11
4.125
 21
8.8125
 31
0.0
  0
LINE
  5
6C
330
A
100
AcDbEntity
  8
0
  6
Continuous
 62
     7
370
     0
100
AcDbLine
 10
4.5
 20
1.125
 30
0.0
 11
4.5
 21
8.8125
 31
0.0
  0
LINE
  5
6D
330
A
100
AcDbEntity
  8
0
  6
Continuous
 62
     7
370
     0
100
AcDbLine
 10
15.0
 20
2.8125
 30
0.0
 11
15.0
 21
1.125
 31
0.0
  0
LINE
  5
6E
330
A
100
AcDbEntity
  8
0
  6
Continuous
 62
     7
370
     0
100
AcDbLine
 10
49.5
 20
31.31099999999999
 30
0.0
 11
37.5
 21
31.31099999999999
 31
0.0
  0
LINE
  5
6F
330
A
100
AcDbEntity
  8
0
  6
Continuous
 62
     7
370
     0
100
AcDbLine
 10
49.5
 20
30.74699999999999
 30
0.0
 11
37.5
 21
30.74699999999999
 31
0.0
  0
LINE
  5
70
330
A
100
AcDbEntity
  8
0
  6
Continuous
 62
     7
370
     0
100
AcDbLine
 10
49.5
 20
30.183
 30
0.0
 11
37.5
 21
30.183
 31
0.0
  0
LINE
  5
71
330
A
100
AcDbEntity
  8
0
  6
Continuous
 62
     7
370
     0
100
AcDbLine
 10
37.5
 20
31.875
 30
0.0
 11
37.5
 21
30.183
 31
0.0
  0
LINE
  5
72
330
A
100
AcDbEntity
  8
0
  6
Continuous
 62
     7
370
     0
100
AcDbLine
 10
38.625
 20
31.31099999999999
 30
0.0
 11
38.625
 21
30.183
 31
0.0
  0
LINE
  5
73
330
A
100
AcDbEntity
  8
0
  6
Continuous
 62
     7
370
     0
100
AcDbLine
 10
47.25
 20
31.31099999999999
 30
0.0
 11
47.25
 21
30.183
 31
0.0
  0
LINE
  5
74
330
A
100
AcDbEntity
  8
0
  6
Continuous
 62
     7
370
     0
100
AcDbLine
 10
45.375
 20
31.31099999999999
 30
0.0
 11
45.375
 21
30.183
 31
0.0
  0
MTEXT
  5
76
330
A
100
AcDbEntity
  8
0
 62
     1
100
AcDbMText
 10
26.70540861431815
 20
2.824183161876285
 30
0.0
 40
0.3
 41
0.0
 71
     1
 72
     1
  1
STEEL, A-36 1/4" THICK
  7
SLDTEXTSTYLE0
 73
     1
 44
1.0
  0
MTEXT
  5
77
330
A
100
AcDbEntity
  8
0
 62
     1
100
AcDbMText
 10
34.81383386502884
 20
2.121358190304694
 30
0.0
 40
0.3
 41
0.0
 71
     1
 72
     1
  1
6.9 lbs
  7
SLDTEXTSTYLE0
 73
     1
 44
1.0
  0
MTEXT
  5
78
330
A
100
AcDbEntity
  8
0
 62
     1
100
AcDbMText
 10
45.30080625114321
 20
9.380309858944176
 30
0.0
 40
0.5
 41
0.0
 71
     2
 72
     1
  1
4 REQUIRED\PPER BASE ASSEM
  7
SLDTEXTSTYLE0
 73
     1
 44
1.0
  0
MTEXT
  5
79
330
A
100
AcDbEntity
  8
0
 62
     7
100
AcDbMText
 10
50.14018523859999
 20
27.2659883776
 30
0.0
 40
0.28125
 41
0.0
 71
     1
 72
     1
  1
D
  7
SLDTEXTSTYLE0
 73
     1
 44
1.0
  0
MTEXT
  5
7A
330
A
100
AcDbEntity
  8
0
 62
     7
100
AcDbMText
 10
50.08531754909999
 20
19.6386344243
 30
0.0
 40
0.28125
 41
0.0
 71
     1
 72
     1
  1
C
  7
SLDTEXTSTYLE0
 73
     1
 44
1.0
  0
MTEXT
  5
7B
330
A
100
AcDbEntity
  8
0
 62
     7
100
AcDbMText
 10
50.1183624005
 20
12.656445479
 30
0.0
 40
0.28125
 41
0.0
 71
     1
 72
     1
  1
B
  7
SLDTEXTSTYLE0
 73
     1
 44
1.0
  0
MTEXT
  5
7C
330
A
100
AcDbEntity
  8
0
 62
     7
100
AcDbMText
 10
50.1166549803
 20
5.1413046249
 30
0.0
 40
0.28125
 41
0.0
 71
     1
 72
     1
  1
A
  7
SLDTEXTSTYLE0
 73
     1
 44
1.0
  0
MTEXT
  5
7D
330
A
100
AcDbEntity
  8
0
 62
     7
100
AcDbMText
 10
2.893057796
 20
5.0802431056
 30
0.0
 40
0.28125
 41
0.0
 71
     1
 72
     1
  1
A
  7
SLDTEXTSTYLE0
 73
     1
 44
1.0
  0
MTEXT
  5
7E
330
A
100
AcDbEntity
  8
0
 62
     7
100
AcDbMText
 10
2.8834785192
 20
12.8333858419
 30
0.0
 40
0.28125
 41
0.0
 71
     1
 72
     1
  1
B
  7
SLDTEXTSTYLE0
 73
     1
 44
1.0
  0
MTEXT
  5
7F
330
A
100
AcDbEntity
  8
0
 62
     7
100
AcDbMText
 10
2.846483716299999
 20
20.62272001979999
 30
0.0
 40
0.28125
 41
0.0
 71
     1
 72
     1
  1
C
  7
SLDTEXTSTYLE0
 73
     1
 44
1.0
  0
MTEXT
  5
80
330
A
100
AcDbEntity
  8
0
 62
     7
100
AcDbMText
 10
2.8366468864
 20
27.9194051507
 30
0.0
 40
0.28125
 41
0.0
 71
     1
 72
     1
  1
D
  7
SLDTEXTSTYLE0
 73
     1
 44
1.0
  0
MTEXT
  5
81
330
A
100
AcDbEntity
  8
0
 62
     7
100
AcDbMText
 10
48.5574174346
 20
1.559035676899999
 30
0.0
 40
0.27
 41
0.0
 71
     1
 72
     1
  1
REV.
  7
SLDTEXTSTYLE0
 73
     1
 44
1.0
  0
MTEXT
  5
82
330
A
100
AcDbEntity
  8
0
 62
     7
100
AcDbMText
 10
37.0472310355
 20
5.2760729234
 30
0.0
 40
0.27
 41
0.0
 71
     1
 72
     1
  1
%%p\P%%p\P%%p\P%%p
  7
SLDTEXTSTYLE0
 73
     1
 44
1.0
  0
MTEXT
  5
83
330
A
100
AcDbEntity
  8
0
 62
     7
100
AcDbMText
 10
26.43582457449999
 20
3.2924537999
 30
0.0
 40
0.27
 41
0.0
 71
     1
 72
     1
  1
MATERIAL
  7
SLDTEXTSTYLE0
 73
     1
 44
1.0
  0
MTEXT
  5
84
330
A
100
AcDbEntity
  8
0
 62
     7
100
AcDbMText
 10
26.4289602194
 20
2.195021420599999
 30
0.0
 40
0.27
 41
0.0
 71
     1
 72
     1
  1
FINISH
  7
SLDTEXTSTYLE0
 73
     1
 44
1.0
  0
MTEXT
  5
85
330
A
100
AcDbEntity
  8
0
 62
     7
100
AcDbMText
 10
47.40129901
 20
0.9653051428999999
 30
0.0
 40
0.28125
 41
0.0
 71
     1
 72
     1
  1
1
  7
SLDTEXTSTYLE0
 73
     1
 44
1.0
  0
MTEXT
  5
86
330
A
100
AcDbEntity
  8
0
 62
     7
100
AcDbMText
 10
40.7831587621
 20
0.9945323844
 30
0.0
 40
0.28125
 41
0.0
 71
     1
 72
     1
  1
2
  7
SLDTEXTSTYLE0
 73
     1
 44
1.0
  0
MTEXT
  5
87
330
A
100
AcDbEntity
  8
0
 62
     7
100
AcDbMText
 10
34.6088150428
 20
1.004274798199999
 30
0.0
 40
0.28125
 41
0.0
 71
     1
 72
     1
  1
3
  7
SLDTEXTSTYLE0
 73
     1
 44
1.0
  0
MTEXT
  5
88
330
A
100
AcDbEntity
  8
0
 62
     7
100
AcDbMText
 10
29.04503274219999
 20
1.010234631999999
 30
0.0
 40
0.28125
 41
0.0
 71
     1
 72
     1
  1
4
  7
SLDTEXTSTYLE0
 73
     1
 44
1.0
  0
MTEXT
  5
89
330
A
100
AcDbEntity
  8
0
 62
     7
100
AcDbMText
 10
23.1937940055
 20
1.019977045899999
 30
0.0
 40
0.28125
 41
0.0
 71
     1
 72
     1
  1
5
  7
SLDTEXTSTYLE0
 73
     1
 44
1.0
  0
MTEXT
  5
8A
330
A
100
AcDbEntity
  8
0
 62
     7
100
AcDbMText
 10
17.7306464958
 20
0.9712649767
 30
0.0
 40
0.28125
 41
0.0
 71
     1
 72
     1
  1
6
  7
SLDTEXTSTYLE0
 73
     1
 44
1.0
  0
MTEXT
  5
8B
330
A
100
AcDbEntity
  8
0
 62
     7
100
AcDbMText
 10
11.79069263589999
 20
1.014017212099999
 30
0.0
 40
0.28125
 41
0.0
 71
     1
 72
     1
  1
7
  7
SLDTEXTSTYLE0
 73
     1
 44
1.0
  0
MTEXT
  5
8C
330
A
100
AcDbEntity
  8
0
 62
     7
100
AcDbMText
 10
6.444454092099999
 20
1.019977045899999
 30
0.0
 40
0.28125
 41
0.0
 71
     1
 72
     1
  1
8
  7
SLDTEXTSTYLE0
 73
     1
 44
1.0
  0
MTEXT
  5
8D
330
A
100
AcDbEntity
  8
0
 62
     7
100
AcDbMText
 10
6.351836859199999
 20
32.426068864
 30
0.0
 40
0.28125
 41
0.0
 71
     1
 72
     1
  1
8
  7
SLDTEXTSTYLE0
 73
     1
 44
1.0
  0
MTEXT
  5
8E
330
A
100
AcDbEntity
  8
0
 62
     7
100
AcDbMText
 10
12.21137099329999
 20
32.3592070312
 30
0.0
 40
0.28125
 41
0.0
 71
     1
 72
     1
  1
7
  7
SLDTEXTSTYLE0
 73
     1
 44
1.0
  0
MTEXT
  5
8F
330
A
100
AcDbEntity
  8
0
 62
     7
100
AcDbMText
 10
17.8551442191
 20
32.3396061198
 30
0.0
 40
0.28125
 41
0.0
 71
     1
 72
     1
  1
6
  7
SLDTEXTSTYLE0
 73
     1
 44
1.0
  0
MTEXT
  5
90
330
A
100
AcDbEntity
  8
0
 62
     7
100
AcDbMText
 10
23.71858254269999
 20
32.3040326985
 30
0.0
 40
0.28125
 41
0.0
 71
     1
 72
     1
  1
5
  7
SLDTEXTSTYLE0
 73
     1
 44
1.0
  0
MTEXT
  5
91
330
A
100
AcDbEntity
  8
0
 62
     7
100
AcDbMText
 10
29.5464474451
 20
32.3904954427
 30
0.0
 40
0.28125
 41
0.0
 71
     1
 72
     1
  1
4
  7
SLDTEXTSTYLE0
 73
     1
 44
1.0
  0
MTEXT
  5
92
330
A
100
AcDbEntity
  8
0
 62
     7
100
AcDbMText
 10
35.40390672239999
 20
32.3284399316
 30
0.0
 40
0.28125
 41
0.0
 71
     1
 72
     1
  1
3
  7
SLDTEXTSTYLE0
 73
     1
 44
1.0
  0
MTEXT
  5
93
330
A
100
AcDbEntity
  8
0
 62
     7
100
AcDbMText
 10
41.0131439554
 20
32.36505078119999
 30
0.0
 40
0.28125
 41
0.0
 71
     1
 72
     1
  1
2
  7
SLDTEXTSTYLE0
 73
     1
 44
1.0
  0
MTEXT
  5
94
330
A
100
AcDbEntity
  8
0
 62
     7
100
AcDbMText
 10
47.00069330109999
 20
32.3151988867
 30
0.0
 40
0.28125
 41
0.0
 71
     1
 72
     1
  1
1
  7
SLDTEXTSTYLE0
 73
     1
 44
1.0
  0
MTEXT
  5
95
330
A
100
AcDbEntity
  8
0
 62
     7
100
AcDbMText
 10
40.9663020349
 20
6.902152157899999
 30
0.0
 40
0.5
 41
0.0
 71
     1
 72
     1
  1
RADIO  ASTRONOMY  LAB
  7
SLDTEXTSTYLE0
 73
     1
 44
1.0
  0
MTEXT
  5
96
330
A
100
AcDbEntity
  8
0
 62
     7
100
AcDbMText
 10
45.0682736264
 20
6.0586473271
 30
0.0
 40
0.3
 41
0.0
 71
     2
 72
     1
  1
University of California - Berkeley\PTel: 510-642-5040    Fax: 510-642-3411
  7
SLDTEXTSTYLE0
 73
     1
 44
1.0
  0
MTEXT
  5
97
330
A
100
AcDbEntity
  8
0
 62
     7
100
AcDbMText
 10
28.1519548219
 20
4.913278158499999
 30
0.0
 40
0.27
 41
0.0
 71
     1
 72
     1
  1
NAME
  7
SLDTEXTSTYLE0
 73
     1
 44
1.0
  0
MTEXT
  5
98
330
A
100
AcDbEntity
  8
0
 62
     7
100
AcDbMText
 10
31.4758176706
 20
4.899985281
 30
0.0
 40
0.27
 41
0.0
 71
     1
 72
     1
  1
DATE
  7
SLDTEXTSTYLE0
 73
     1
 44
1.0
  0
MTEXT
  5
99
330
A
100
AcDbEntity
  8
0
 62
     7
100
AcDbMText
 10
40.7379912972
 20
1.5724585896
 30
0.0
 40
0.27
 41
0.0
 71
     1
 72
     1
  1
SIZE
  7
SLDTEXTSTYLE0
 73
     1
 44
1.0
  0
MTEXT
  5
9A
330
A
100
AcDbEntity
  8
0
 62
     7
100
AcDbMText
 10
40.90349964179999
 20
2.5323959018
 30
0.0
 40
0.5625
 41
0.0
 71
     1
 72
     1
  1
B
  7
SLDTEXTSTYLE0
 73
     1
 44
1.0
  0
MTEXT
  5
9B
330
A
100
AcDbEntity
  8
0
 62
     7
100
AcDbMText
 10
33.2376385533
 20
1.538598511999999
 30
0.0
 40
0.27
 41
0.0
 71
     1
 72
     1
  1
SCALE:
  7
SLDTEXTSTYLE0
 73
     1
 44
1.0
  0
MTEXT
  5
9C
330
A
100
AcDbEntity
  8
0
 62
     7
100
AcDbMText
 10
41.77317173419999
 20
1.5600008436
 30
0.0
 40
0.27
 41
0.0
 71
     1
 72
     1
  1
DWG NUM:      SHEET             OF
  7
SLDTEXTSTYLE0
 73
     1
 44
1.0
  0
MTEXT
  5
9D
330
A
100
AcDbEntity
  8
0
 62
     7
100
AcDbMText
 10
47.9963444383
 20
31.1559080558
 30
0.0
 40
0.27
 41
0.0
 71
     1
 72
     1
  1
DATE
  7
SLDTEXTSTYLE0
 73
     1
 44
1.0
  0
MTEXT
  5
9E
330
A
100
AcDbEntity
  8
0
 62
     7
100
AcDbMText
 10
45.90746573779999
 20
31.154623681
 30
0.0
 40
0.27
 41
0.0
 71
     1
 72
     1
  1
NAME
  7
SLDTEXTSTYLE0
 73
     1
 44
1.0
  0
MTEXT
  5
9F
330
A
100
AcDbEntity
  8
0
 62
     7
100
AcDbMText
 10
42.0992215522
 20
31.715894012
 30
0.0
 40
0.27
 41
0.0
 71
     1
 72
     1
  1
REVISIONS
  7
SLDTEXTSTYLE0
 73
     1
 44
1.0
  0
MTEXT
  5
A0
330
A
100
AcDbEntity
  8
0
 62
     7
100
AcDbMText
 10
37.7465957607
 20
31.15029972449999
 30
0.0
 40
0.27
 41
0.0
 71
     1
 72
     1
  1
REV
  7
SLDTEXTSTYLE0
 73
     1
 44
1.0
  0
MTEXT
  5
A1
330
A
100
AcDbEntity
  8
0
 62
     7
100
AcDbMText
 10
38.88736707469999
 20
31.1486720258
 30
0.0
 40
0.27
 41
0.0
 71
     1
 72
     1
  1
DESCRIPTION
  7
SLDTEXTSTYLE0
 73
     1
 44
1.0
  0
MTEXT
  5
A2
330
A
100
AcDbEntity
  8
0
 62
     7
100
AcDbMText
 10
33.22205903329999
 20
2.095337444499999
 30
0.0
 40
0.27
 41
0.0
 71
     1
 72
     1
  1
WEIGHT:
  7
SLDTEXTSTYLE0
 73
     1
 44
1.0
  0
MTEXT
  5
A3
330
A
100
AcDbEntity
  8
0
 62
     7
100
AcDbMText
 10
26.4322923529
 20
4.342633389399999
 30
0.0
 40
0.27
 41
0.0
 71
     1
 72
     1
  1
DRAWN
  7
SLDTEXTSTYLE0
 73
     1
 44
1.0
  0
MTEXT
  5
A4
330
A
100
AcDbEntity
  8
0
 62
     7
100
AcDbMText
 10
26.431610102
 20
3.7839912716
 30
0.0
 40
0.27
 41
0.0
 71
     1
 72
     1
  1
CHECKED
  7
SLDTEXTSTYLE0
 73
     1
 44
1.0
  0
MTEXT
  5
A5
330
A
100
AcDbEntity
  8
0
 62
     7
100
AcDbMText
 10
36.4958378773
 20
5.2617615291
 30
0.0
 40
0.27
 41
0.0
 71
     3
 72
     1
  1
WHOLE & FRACTION\PDECIMAL   X.X\PDECIMAL   X.XX\PDECIMAL   X.XXX
  7
SLDTEXTSTYLE0
 73
     1
 44
1.0
  0
MTEXT
  5
A6
330
A
100
AcDbEntity
  8
0
 62
     7
100
AcDbMText
 10
37.76189271079999
 20
5.8942080782
 30
0.0
 40
0.27
 41
0.0
 71
     2
 72
     1
  1
LINEAR
  7
SLDTEXTSTYLE0
 73
     1
 44
1.0
  0
MTEXT
  5
A7
330
A
100
AcDbEntity
  8
0
 62
     7
100
AcDbMText
 10
39.5034136541
 20
5.9122612969
 30
0.0
 40
0.27
 41
0.0
 71
     2
 72
     1
  1
ANGLE
  7
SLDTEXTSTYLE0
 73
     1
 44
1.0
  0
INSERT
  5
AE
330
A
100
AcDbEntity
  8
0
100
AcDbBlockReference
  2
NOTE50
 10
33.5009900572
 20
3.282134257799999
 30
0.0
  0
MTEXT
  5
AF
330
A
100
AcDbEntity
  8
0
 62
     7
100
AcDbMText
 10
36.7462604643
 20
6.926708539699999
 30
0.0
 40
0.27
 41
0.0
 71
     2
 72
     1
  1
UNLESS OTHERWISE SPECIFIED\PDIMENSIONS ARE INCHES & DEGREES
  7
SLDTEXTSTYLE0
 73
     1
 44
1.0
  0
MTEXT
  5
B0
330
A
100
AcDbEntity
  8
0
 62
     7
100
AcDbMText
 10
33.60390032699999
 20
5.875105358999999
 30
0.0
 40
0.27
 41
0.0
 71
     1
 72
     1
  1
TOLERANCES:
  7
SLDTEXTSTYLE0
 73
     1
 44
1.0
  0
MTEXT
  5
B1
330
A
100
AcDbEntity
  8
0
 62
     7
100
AcDbMText
 10
38.8663855537
 20
5.2734365033
 30
0.0
 40
0.27
 41
0.0
 71
     1
 72
     1
  1
%%p\P%%p\P%%p\P%%p
  7
SLDTEXTSTYLE0
 73
     1
 44
1.0
  0
MTEXT
  5
B2
330
A
100
AcDbEntity
  8
0
 62
     7
100
AcDbMText
 10
43.99020088060001
 20
31.1586793059
 30
0.0
 40
0.27
 41
0.0
 71
     1
 72
     1
  1
ZONE
  7
SLDTEXTSTYLE0
 73
     1
 44
1.0
  0
MTEXT
  5
B3
330
A
100
AcDbEntity
  8
0
 62
     7
100
AcDbMText
 10
15.28565304579999
 20
2.5937000015
 30
0.0
 40
0.24
 41
0.0
 71
     1
 72
     1
  1
THIS DRAWING IS THE PROPERTY OF AND CONTAINS CONFIDENTIAL\PINFORMATION PROPRIETARY TO THE UNIVERSITY OF CALIFORNIA AND\PSHALL BE USED ONLY FOR THE PURPOSE FOR WHICH IT WAS PROVIDED\PAND SHALL NOT BE REPRODUCED OR DISCLOSED TO OTHERS.
  7
SLDTEXTSTYLE0
 73
     1
 44
1.0
  0
MTEXT
  5
B4
330
A
100
AcDbEntity
  8
0
 62
     7
100
AcDbMText
 10
37.9168758388
 20
30.61469752829999
 30
0.0
 40
0.27
 41
0.0
 71
     1
 72
     1
  1
A
  7
SLDTEXTSTYLE0
 73
     1
 44
1.0
  0
MTEXT
  5
B5
330
A
100
AcDbEntity
  8
0
 62
     7
100
AcDbMText
 10
38.9339877417
 20
30.6139545251
 30
0.0
 40
0.27
 41
0.0
 71
     1
 72
     1
  1
RELEASED
  7
SLDTEXTSTYLE0
 73
     1
 44
1.0
  0
MTEXT
  5
B6
330
A
100
AcDbEntity
  8
0
 62
     7
100
AcDbMText
 10
28.10752251949999
 20
4.380380667999999
 30
0.0
 40
0.3125
 41
0.0
 71
     1
 72
     1
  1
M. C. FLEMING
  7
SLDTEXTSTYLE0
 73
     1
 44
1.0
  0
MTEXT
  5
B7
330
A
100
AcDbEntity
  8
0
 62
     7
100
AcDbMText
 10
48.7563131641
 20
2.4812113434
 30
0.0
 40
0.5625
 41
0.0
 71
     1
 72
     1
  1
A
  7
SLDTEXTSTYLE0
 73
     1
 44
1.0
  0
MTEXT
  5
B8
330
A
100
AcDbEntity
  8
0
 62
     7
100
AcDbMText
 10
30.9664208309
 20
4.3752125285
 30
0.0
 40
0.3125
 41
0.0
 71
     1
 72
     1
  1
2005-01-17
  7
SLDTEXTSTYLE0
 73
     1
 44
1.0
  0
MTEXT
  5
B9
330
A
100
AcDbEntity
  8
0
 62
     7
100
AcDbMText
 10
37.53723273979999
 20
5.2794801717
 30
0.0
 40
0.27
 41
0.0
 71
     1
 72
     1
  1
1/16\P0.1\P0.01\P0.005
  7
SLDTEXTSTYLE0
 73
     1
 44
1.0
  0
MTEXT
  5
BA
330
A
100
AcDbEntity
  8
0
 62
     7
100
AcDbMText
 10
39.3074526584
 20
5.2736253067
 30
0.0
 40
0.27
 41
0.0
 71
     1
 72
     1
  1
1%%d\P0.1%%d\P0.01%%d\P0.001%%d
  7
SLDTEXTSTYLE0
 73
     1
 44
1.0
  0
MTEXT
  5
BB
330
A
100
AcDbEntity
  8
0
 62
     7
100
AcDbMText
 10
42.24510903299999
 20
2.535486033799999
 30
0.0
 40
0.5625
 41
0.0
 71
     1
 72
     1
  1
24-09-257    1 of 1
  7
SLDTEXTSTYLE0
 73
     1
 44
1.0
  0
MTEXT
  5
BC
330
A
100
AcDbEntity
  8
0
 62
     7
100
AcDbMText
 10
45.8879347483
 20
30.6152584524
 30
0.0
 40
0.3125
 41
0.0
 71
     1
 72
     1
  1
M.C.F.
  7
SLDTEXTSTYLE0
 73
     1
 44
1.0
  0
MTEXT
  5
BD
330
A
100
AcDbEntity
  8
0
 62
     7
100
AcDbMText
 10
47.5387685161
 20
30.62530367629999
 30
0.0
 40
0.3125
 41
0.0
 71
     1
 72
     1
  1
2005-01-17
  7
SLDTEXTSTYLE0
 73
     1
 44
1.0
  0
MTEXT
  5
BE
330
A
100
AcDbEntity
  8
0
 62
     7
100
AcDbMText
 10
44.8160382045
 20
4.5977589702
 30
0.0
 40
0.5625
 41
0.0
 71
     2
 72
     1
  1
CARMA 6m Base,\PArm, End Stiffener 
  7
SLDTEXTSTYLE0
 73
     1
 44
1.0
  0
CIRCLE
  5
BF
330
A
100
AcDbEntity
  8
0
  6
Continuous
 62
     7
370
    15
100
AcDbCircle
 10
22.1613428105
 20
17.37885637099999
 30
0.0
 40
3.0
  0
LINE
  5
C0
330
A
100
AcDbEntity
  8
0
  6
Continuous
 62
     7
370
    15
100
AcDbLine
 10
20.1613428347
 20
23.97285687539999
 30
0.0
 11
16.1613427364
 21
19.97285663039999
 31
0.0
  0
LINE
  5
C1
330
A
100
AcDbEntity
  8
0
  6
Continuous
 62
     7
370
    15
100
AcDbLine
 10
24.1613427863
 20
23.97285687539999
 30
0.0
 11
20.1613428347
 21
23.97285687539999
 31
0.0
  0
LINE
  5
C2
330
A
100
AcDbEntity
  8
0
  6
Continuous
 62
     7
370
    15
100
AcDbLine
 10
28.16134288469999
 20
19.97285663039999
 30
0.0
 11
24.1613427863
 21
23.97285687539999
 31
0.0
  0
LINE
  5
C3
330
A
100
AcDbEntity
  8
0
  6
Continuous
 62
     7
370
    15
100
AcDbLine
 10
28.16134288469999
 20
14.78485632269999
 30
0.0
 11
28.16134288469999
 21
19.97285663039999
 31
0.0
  0
LINE
  5
C4
330
A
100
AcDbEntity
  8
0
  6
Continuous
 62
     7
370
    15
100
AcDbLine
 10
24.1613427863
 20
10.78485637099999
 30
0.0
 11
28.16134288469999
 21
14.78485632269999
 31
0.0
  0
LINE
  5
C5
330
A
100
AcDbEntity
  8
0
  6
Continuous
 62
     7
370
    15
100
AcDbLine
 10
20.1613428347
 20
10.78485637099999
 30
0.0
 11
24.1613427863
 21
10.78485637099999
 31
0.0
  0
LINE
  5
C6
330
A
100
AcDbEntity
  8
0
  6
Continuous
 62
     7
370
    15
100
AcDbLine
 10
16.1613427364
 20
14.78485632269999
 30
0.0
 11
20.1613428347
 21
10.78485637099999
 31
0.0
  0
LINE
  5
C7
330
A
100
AcDbEntity
  8
0
  6
Continuous
 62
     7
370
    15
100
AcDbLine
 10
16.1613427364
 20
19.97285663039999
 30
0.0
 11
16.1613427364
 21
14.78485632269999
 31
0.0
  0
DIMENSION
  5
D5
330
A
100
AcDbEntity
  8
0
 62
     7
100
AcDbDimension
  2
*D1
 10
28.1613428105
 20
28.5736594205
 30
0.0
 11
22.94110155499999
 21
28.5736594205
 31
0.0
 70
   160
 71
     5
 42
0.0
  3
SLDDIMSTYLE0
100
AcDbAlignedDimension
 13
16.16134281049999
 23
23.97285637099999
 33
0.0
 14
28.1613428105
 24
23.97285637099999
 34
0.0
100
AcDbRotatedDimension
  0
DIMENSION
  5
E2
330
A
100
AcDbEntity
  8
0
 62
     7
100
AcDbDimension
  2
*D2
 10
32.1670268042
 20
23.97285637099999
 30
0.0
 11
32.1670268042
 21
17.37885637099999
 31
0.0
 70
   160
 71
     5
 42
0.0
  3
SLDDIMSTYLE0
100
AcDbAlignedDimension
 13
28.1613428105
 23
10.78485637099999
 33
0.0
 14
28.1613428105
 24
23.97285637099999
 34
0.0
 50
90.0
100
AcDbRotatedDimension
  0
DIMENSION
  5
F1
330
A
100
AcDbEntity
  8
0
100
AcDbDimension
  2
*D3
 10
19.72714329099999
 20
19.13233083589999
 30
0.0
 11
11.53199774439999
 21
22.9341163779
 31
0.0
 70
   163
  1
<> DIA BURNED OKAY\PPLEASE DEBURR
 71
     5
 42
0.0
  3
SLDDIMSTYLE1
100
AcDbDiametricDimension
 15
24.5955423301
 25
15.62538190609999
 35
0.0
 40
0.0
  0
DIMENSION
  5
100
330
A
100
AcDbEntity
  8
0
 62
     7
100
AcDbDimension
  2
*D4
 10
30.3484651127
 20
23.97285637099999
 30
0.0
 11
30.3484651127
 21
21.97285637099999
 31
0.0
 70
   160
  1
<> TYPICAL\P4 PLACES
 71
     5
 42
0.0
  3
SLDDIMSTYLE0
100
AcDbAlignedDimension
 13
28.1613428105
 23
19.972856371
 33
0.0
 14
28.1613428105
 24
23.97285637099999
 34
0.0
 50
90.0
100
AcDbRotatedDimension
  0
DIMENSION
  5
112
330
A
100
AcDbEntity
  8
0
100
AcDbDimension
  2
*D5
 10
28.1613428105
 20
19.57915558359999
 30
0.0
 11
21.1805025369
 21
17.08129765289999
 31
0.0
 70
   162
  1
<> TYPICAL\P4 PLACES
 71
     5
 42
0.0
  3
SLDDIMSTYLE2
100
AcDb2LineAngularDimension
 13
28.439731307
 23
19.69446787449999
 33
0.0
 14
28.1613428105
 24
19.972856371
 34
0.0
 15
28.1613428105
 25
19.972856371
 35
0.0
 16
20.7505223039
 26
18.4987525198
 36
0.0
  0
DIMENSION
  5
11F
330
A
100
AcDbEntity
  8
0
 62
     7
100
AcDbDimension
  2
*D6
 10
11.8036723917
 20
19.1425267898
 30
0.0
 11
17.0650471924
 21
24.4039015906
 31
0.0
 70
   160
 71
     5
 42
0.0
  3
SLDDIMSTYLE0
100
AcDbAlignedDimension
 13
24.1613428105
 23
23.97285637099999
 33
0.0
 14
16.16134281049999
 24
14.78485637099999
 34
0.0
 50
-45.0
100
AcDbRotatedDimension
  0
DIMENSION
  5
12C
330
A
100
AcDbEntity
  8
0
 62
     7
100
AcDbDimension
  2
*D7
 10
12.0649878864
 20
15.8765014469
 30
0.0
 11
14.1603674698
 21
13.7811218635
 31
0.0
 70
   160
 71
     5
 42
0.0
  3
SLDDIMSTYLE0
100
AcDbAlignedDimension
 13
24.1613428105
 23
10.78485637099999
 33
0.0
 14
16.16134281049999
 24
19.972856371
 34
0.0
 50
-45.0
100
AcDbRotatedDimension
  0
DIMENSION
  5
139
330
A
100
AcDbEntity
  8
0
 62
     7
100
AcDbDimension
  2
*D8
 10
19.4724591414
 20
24.6617400402
 30
0.0
 11
20.7294038255
 21
25.91868472429999
 31
0.0
 70
   160
 71
     5
 42
0.0
  3
SLDDIMSTYLE0
100
AcDbAlignedDimension
 13
24.1613428105
 23
23.97285637099999
 33
0.0
 14
20.16134281049999
 24
23.97285637099999
 34
0.0
 50
-45.0
100
AcDbRotatedDimension
  0
DIMENSION
  5
146
330
A
100
AcDbEntity
  8
0
 62
     7
100
AcDbDimension
  2
*D9
 10
15.30813103849999
 20
20.826068143
 30
0.0
 11
14.1603674698
 21
19.6783045743
 31
0.0
 70
   160
 71
     5
 42
0.0
  3
SLDDIMSTYLE0
100
AcDbAlignedDimension
 13
16.16134281049999
 23
14.78485637099999
 33
0.0
 14
16.16134281049999
 24
19.972856371
 34
0.0
 50
45.0
100
AcDbRotatedDimension
  0
LINE
  5
147
330
A
100
AcDbEntity
  8
0
  6
Continuous
 62
     7
370
    15
100
AcDbLine
 10
41.1093705036
 20
19.97285663039999
 30
0.0
 11
40.8593705066
 21
19.97285663039999
 31
0.0
  0
LINE
  5
148
330
A
100
AcDbEntity
  8
0
  6
Continuous
 62
     7
370
    15
100
AcDbLine
 10
41.1093705036
 20
14.78485632269999
 30
0.0
 11
41.1093705036
 21
19.97285663039999
 31
0.0
  0
LINE
  5
149
330
A
100
AcDbEntity
  8
0
  6
Continuous
 62
     7
370
    15
100
AcDbLine
 10
40.8593705066
 20
14.78485632269999
 30
0.0
 11
41.1093705036
 21
14.78485632269999
 31
0.0
  0
LINE
  5
14A
330
A
100
AcDbEntity
  8
0
  6
Continuous
 62
     7
370
    15
100
AcDbLine
 10
40.8593705066
 20
14.78485632269999
 30
0.0
 11
40.8593705066
 21
19.97285663039999
 31
0.0
  0
LINE
  5
14B
330
A
100
AcDbEntity
  8
0
  6
Continuous
 62
     7
370
    15
100
AcDbLine
 10
41.1093705036
 20
10.78485637099999
 30
0.0
 11
40.8593705066
 21
10.78485637099999
 31
0.0
  0
LINE
  5
14C
330
A
100
AcDbEntity
  8
0
  6
Continuous
 62
     7
370
    15
100
AcDbLine
 10
40.8593705066
 20
10.78485637099999
 30
0.0
 11
40.8593705066
 21
14.78485632269999
 31
0.0
  0
LINE
  5
14D
330
A
100
AcDbEntity
  8
0
  6
Continuous
 62
     7
370
    15
100
AcDbLine
 10
41.1093705036
 20
14.78485632269999
 30
0.0
 11
41.1093705036
 21
10.78485637099999
 31
0.0
  0
LINE
  5
14E
330
A
100
AcDbEntity
  8
0
  6
Continuous
 62
     7
370
    15
100
AcDbLine
 10
40.8593705066
 20
23.97285687539999
 30
0.0
 11
41.1093705036
 21
23.97285687539999
 31
0.0
  0
LINE
  5
14F
330
A
100
AcDbEntity
  8
0
  6
Continuous
 62
     7
370
    15
100
AcDbLine
 10
40.8593705066
 20
19.97285663039999
 30
0.0
 11
40.8593705066
 21
23.97285687539999
 31
0.0
  0
LINE
  5
150
330
A
100
AcDbEntity
  8
0
  6
Continuous
 62
     7
370
    15
100
AcDbLine
 10
41.1093705036
 20
23.97285687539999
 30
0.0
 11
41.1093705036
 21
19.97285663039999
 31
0.0
  0
DIMENSION
  5
15D
330
A
100
AcDbEntity
  8
0
 62
     7
100
AcDbDimension
  2
*D10
 10
40.8593705036
 20
25.2060912775
 30
0.0
 11
44.8163337309
 21
25.2060912775
 31
0.0
 70
   160
 71
     5
 42
0.0
  3
SLDDIMSTYLE0
100
AcDbAlignedDimension
 13
41.1093705036
 23
23.97285637099999
 33
0.0
 14
40.8593705036
 24
23.97285637099999
 34
0.0
100
AcDbRotatedDimension
  0
POLYLINE
  5
15E
330
A
100
AcDbEntity
  8
0
  6
Continuous
 62
     7
100
AcDb2dPolyline
 66
     1
 10
0.0
 20
0.0
 30
0.0
 70
   128
 40
0.0017716535
 41
0.0017716535
  0
VERTEX
  5
15F
330
15E
100
AcDbEntity
  8
0
100
AcDbVertex
100
AcDb2dVertex
 10
11.1418275429
 20
6.963259481499999
 30
0.0
  0
VERTEX
  5
160
330
15E
100
AcDbEntity
  8
0
100
AcDbVertex
100
AcDb2dVertex
 10
11.1388603705
 20
7.065273281799999
 30
0.0
  0
VERTEX
  5
161
330
15E
100
AcDbEntity
  8
0
100
AcDbVertex
100
AcDb2dVertex
 10
11.1299726876
 20
7.170237271
 30
0.0
  0
VERTEX
  5
162
330
15E
100
AcDbEntity
  8
0
100
AcDbVertex
100
AcDb2dVertex
 10
11.1152059327
 20
7.277662058499999
 30
0.0
  0
VERTEX
  5
163
330
15E
100
AcDbEntity
  8
0
100
AcDbVertex
100
AcDb2dVertex
 10
11.09462895519999
 20
7.387046780399999
 30
0.0
  0
VERTEX
  5
164
330
15E
100
AcDbEntity
  8
0
100
AcDbVertex
100
AcDb2dVertex
 10
11.0683376946
 20
7.4978814346
 30
0.0
  0
VERTEX
  5
165
330
15E
100
AcDbEntity
  8
0
100
AcDbVertex
100
AcDb2dVertex
 10
11.0364547327
 20
7.6096492589
 30
0.0
  0
VERTEX
  5
166
330
15E
100
AcDbEntity
  8
0
100
AcDbVertex
100
AcDb2dVertex
 10
10.9991287227
 20
7.7218291399
 30
0.0
  0
VERTEX
  5
167
330
15E
100
AcDbEntity
  8
0
100
AcDbVertex
100
AcDb2dVertex
 10
10.95653369559999
 20
7.8338980434
 30
0.0
  0
VERTEX
  5
168
330
15E
100
AcDbEntity
  8
0
100
AcDbVertex
100
AcDb2dVertex
 10
10.9088682492
 20
7.945333452299999
 30
0.0
  0
VERTEX
  5
169
330
15E
100
AcDbEntity
  8
0
100
AcDbVertex
100
AcDb2dVertex
 10
10.8563546218
 20
8.0556158034
 30
0.0
  0
VERTEX
  5
16A
330
15E
100
AcDbEntity
  8
0
100
AcDbVertex
100
AcDb2dVertex
 10
10.799237656
 20
8.164230909299998
 30
0.0
  0
VERTEX
  5
16B
330
15E
100
AcDbEntity
  8
0
100
AcDbVertex
100
AcDb2dVertex
 10
10.73778365769999
 20
8.2706723565
 30
0.0
  0
VERTEX
  5
16C
330
15E
100
AcDbEntity
  8
0
100
AcDbVertex
100
AcDb2dVertex
 10
10.67227915369999
 20
8.374443865599999
 30
0.0
  0
VERTEX
  5
16D
330
15E
100
AcDbEntity
  8
0
100
AcDbVertex
100
AcDb2dVertex
 10
10.60302955619999
 20
8.475061606
 30
0.0
  0
VERTEX
  5
16E
330
15E
100
AcDbEntity
  8
0
100
AcDbVertex
100
AcDb2dVertex
 10
10.5303577388
 20
8.572056451399999
 30
0.0
  0
VERTEX
  5
16F
330
15E
100
AcDbEntity
  8
0
100
AcDbVertex
100
AcDb2dVertex
 10
10.4546025311
 20
8.664976167
 30
0.0
  0
VERTEX
  5
170
330
15E
100
AcDbEntity
  8
0
100
AcDbVertex
100
AcDb2dVertex
 10
10.3761171388
 20
8.7533875182
 30
0.0
  0
VERTEX
  5
171
330
15E
100
AcDbEntity
  8
0
100
AcDbVertex
100
AcDb2dVertex
 10
10.2952674971
 20
8.836878290499999
 30
0.0
  0
VERTEX
  5
172
330
15E
100
AcDbEntity
  8
0
100
AcDbVertex
100
AcDb2dVertex
 10
10.2124305643
 20
8.915059211299999
 30
0.0
  0
VERTEX
  5
173
330
15E
100
AcDbEntity
  8
0
100
AcDbVertex
100
AcDb2dVertex
 10
10.1279925644
 20
8.987565765199999
 30
0.0
  0
VERTEX
  5
174
330
15E
100
AcDbEntity
  8
0
100
AcDbVertex
100
AcDb2dVertex
 10
10.0423471864
 20
9.054059892999999
 30
0.0
  0
VERTEX
  5
175
330
15E
100
AcDbEntity
  8
0
100
AcDbVertex
100
AcDb2dVertex
 10
9.955893748599999
 20
9.114231568500001
 30
0.0
  0
VERTEX
  5
176
330
15E
100
AcDbEntity
  8
0
100
AcDbVertex
100
AcDb2dVertex
 10
9.869035336699999
 20
9.1678002435
 30
0.0
  0
VERTEX
  5
177
330
15E
100
AcDbEntity
  8
0
100
AcDbVertex
100
AcDb2dVertex
 10
9.782176924899999
 20
9.2145161562
 30
0.0
  0
VERTEX
  5
178
330
15E
100
AcDbEntity
  8
0
100
AcDbVertex
100
AcDb2dVertex
 10
9.695723487
 20
9.254161495399999
 30
0.0
  0
VERTEX
  5
179
330
15E
100
AcDbEntity
  8
0
100
AcDbVertex
100
AcDb2dVertex
 10
9.610078108999999
 20
9.2865514162
 30
0.0
  0
VERTEX
  5
17A
330
15E
100
AcDbEntity
  8
0
100
AcDbVertex
100
AcDb2dVertex
 10
9.525640109199999
 20
9.311534901899999
 30
0.0
  0
VERTEX
  5
17B
330
15E
100
AcDbEntity
  8
0
100
AcDbVertex
100
AcDb2dVertex
 10
9.442803176399999
 20
9.3289954679
 30
0.0
  0
VERTEX
  5
17C
330
15E
100
AcDbEntity
  8
0
100
AcDbVertex
100
AcDb2dVertex
 10
9.361953534699999
 20
9.338851704899999
 30
0.0
  0
VERTEX
  5
17D
330
15E
100
AcDbEntity
  8
0
100
AcDbVertex
100
AcDb2dVertex
 10
9.2834681424
 20
9.3410576588
 30
0.0
  0
VERTEX
  5
17E
330
15E
100
AcDbEntity
  8
0
100
AcDbVertex
100
AcDb2dVertex
 10
9.207712934699999
 20
9.335603044299999
 30
0.0
  0
VERTEX
  5
17F
330
15E
100
AcDbEntity
  8
0
100
AcDbVertex
100
AcDb2dVertex
 10
9.1350411173
 20
9.3225132933
 30
0.0
  0
VERTEX
  5
180
330
15E
100
AcDbEntity
  8
0
100
AcDbVertex
100
AcDb2dVertex
 10
9.065791519799999
 20
9.301849436199999
 30
0.0
  0
VERTEX
  5
181
330
15E
100
AcDbEntity
  8
0
100
AcDbVertex
100
AcDb2dVertex
 10
9.000287015799999
 20
9.2737078177
 30
0.0
  0
VERTEX
  5
182
330
15E
100
AcDbEntity
  8
0
100
AcDbVertex
100
AcDb2dVertex
 10
8.9388330174
 20
9.238219646699999
 30
0.0
  0
VERTEX
  5
183
330
15E
100
AcDbEntity
  8
0
100
AcDbVertex
100
AcDb2dVertex
 10
8.881716051699999
 20
9.1955503857
 30
0.0
  0
VERTEX
  5
184
330
15E
100
AcDbEntity
  8
0
100
AcDbVertex
100
AcDb2dVertex
 10
8.8292024243
 20
9.145898978299999
 30
0.0
  0
VERTEX
  5
185
330
15E
100
AcDbEntity
  8
0
100
AcDbVertex
100
AcDb2dVertex
 10
8.7815369779
 20
9.0894969224
 30
0.0
  0
VERTEX
  5
186
330
15E
100
AcDbEntity
  8
0
100
AcDbVertex
100
AcDb2dVertex
 10
8.738941950800001
 20
9.0266071903
 30
0.0
  0
VERTEX
  5
187
330
15E
100
AcDbEntity
  8
0
100
AcDbVertex
100
AcDb2dVertex
 10
8.7016159408
 20
8.957523003099998
 30
0.0
  0
VERTEX
  5
188
330
15E
100
AcDbEntity
  8
0
100
AcDbVertex
100
AcDb2dVertex
 10
8.669732978899999
 20
8.882566463099999
 30
0.0
  0
VERTEX
  5
189
330
15E
100
AcDbEntity
  8
0
100
AcDbVertex
100
AcDb2dVertex
 10
8.6434417182
 20
8.8020870523
 30
0.0
  0
VERTEX
  5
18A
330
15E
100
AcDbEntity
  8
0
100
AcDbVertex
100
AcDb2dVertex
 10
8.6228647408
 20
8.716460002899999
 30
0.0
  0
VERTEX
  5
18B
330
15E
100
AcDbEntity
  8
0
100
AcDbVertex
100
AcDb2dVertex
 10
8.6080979859
 20
8.626084547699999
 30
0.0
  0
VERTEX
  5
18C
330
15E
100
AcDbEntity
  8
0
100
AcDbVertex
100
AcDb2dVertex
 10
8.599210302999999
 20
8.5313820587
 30
0.0
  0
VERTEX
  5
18D
330
15E
100
AcDbEntity
  8
0
100
AcDbVertex
100
AcDb2dVertex
 10
8.596243130599999
 20
8.432794082799999
 30
0.0
  0
VERTEX
  5
18E
330
15E
100
AcDbEntity
  8
0
100
AcDbVertex
100
AcDb2dVertex
 10
8.599210302999999
 20
8.330780282499999
 30
0.0
  0
VERTEX
  5
18F
330
15E
100
AcDbEntity
  8
0
100
AcDbVertex
100
AcDb2dVertex
 10
8.6080979859
 20
8.225816293300001
 30
0.0
  0
VERTEX
  5
190
330
15E
100
AcDbEntity
  8
0
100
AcDbVertex
100
AcDb2dVertex
 10
8.6228647408
 20
8.1183915058
 30
0.0
  0
VERTEX
  5
191
330
15E
100
AcDbEntity
  8
0
100
AcDbVertex
100
AcDb2dVertex
 10
8.6434417182
 20
8.0090067839
 30
0.0
  0
VERTEX
  5
192
330
15E
100
AcDbEntity
  8
0
100
AcDbVertex
100
AcDb2dVertex
 10
8.669732978899999
 20
7.8981721297
 30
0.0
  0
VERTEX
  5
193
330
15E
100
AcDbEntity
  8
0
100
AcDbVertex
100
AcDb2dVertex
 10
8.7016159408
 20
7.786404305399999
 30
0.0
  0
VERTEX
  5
194
330
15E
100
AcDbEntity
  8
0
100
AcDbVertex
100
AcDb2dVertex
 10
8.738941950800001
 20
7.6742244244
 30
0.0
  0
VERTEX
  5
195
330
15E
100
AcDbEntity
  8
0
100
AcDbVertex
100
AcDb2dVertex
 10
8.7815369779
 20
7.5621555209
 30
0.0
  0
VERTEX
  5
196
330
15E
100
AcDbEntity
  8
0
100
AcDbVertex
100
AcDb2dVertex
 10
8.8292024243
 20
7.450720112
 30
0.0
  0
VERTEX
  5
197
330
15E
100
AcDbEntity
  8
0
100
AcDbVertex
100
AcDb2dVertex
 10
8.881716051699999
 20
7.3404377609
 30
0.0
  0
VERTEX
  5
198
330
15E
100
AcDbEntity
  8
0
100
AcDbVertex
100
AcDb2dVertex
 10
8.9388330174
 20
7.2318226549
 30
0.0
  0
VERTEX
  5
199
330
15E
100
AcDbEntity
  8
0
100
AcDbVertex
100
AcDb2dVertex
 10
9.000287015799999
 20
7.125381207799999
 30
0.0
  0
VERTEX
  5
19A
330
15E
100
AcDbEntity
  8
0
100
AcDbVertex
100
AcDb2dVertex
 10
9.065791519799999
 20
7.021609698699999
 30
0.0
  0
VERTEX
  5
19B
330
15E
100
AcDbEntity
  8
0
100
AcDbVertex
100
AcDb2dVertex
 10
9.1350411173
 20
6.9209919582
 30
0.0
  0
VERTEX
  5
19C
330
15E
100
AcDbEntity
  8
0
100
AcDbVertex
100
AcDb2dVertex
 10
9.207712934699999
 20
6.823997112899999
 30
0.0
  0
VERTEX
  5
19D
330
15E
100
AcDbEntity
  8
0
100
AcDbVertex
100
AcDb2dVertex
 10
9.2834681424
 20
6.731077397299999
 30
0.0
  0
VERTEX
  5
19E
330
15E
100
AcDbEntity
  8
0
100
AcDbVertex
100
AcDb2dVertex
 10
9.361953534699999
 20
6.6426660461
 30
0.0
  0
VERTEX
  5
19F
330
15E
100
AcDbEntity
  8
0
100
AcDbVertex
100
AcDb2dVertex
 10
9.442803176399999
 20
6.5591752738
 30
0.0
  0
VERTEX
  5
1A0
330
15E
100
AcDbEntity
  8
0
100
AcDbVertex
100
AcDb2dVertex
 10
9.525640109199999
 20
6.480994352899999
 30
0.0
  0
VERTEX
  5
1A1
330
15E
100
AcDbEntity
  8
0
100
AcDbVertex
100
AcDb2dVertex
 10
9.610078108999999
 20
6.408487799099999
 30
0.0
  0
VERTEX
  5
1A2
330
15E
100
AcDbEntity
  8
0
100
AcDbVertex
100
AcDb2dVertex
 10
9.695723487
 20
6.3419936713
 30
0.0
  0
VERTEX
  5
1A3
330
15E
100
AcDbEntity
  8
0
100
AcDbVertex
100
AcDb2dVertex
 10
9.782176924899999
 20
6.2818219958
 30
0.0
  0
VERTEX
  5
1A4
330
15E
100
AcDbEntity
  8
0
100
AcDbVertex
100
AcDb2dVertex
 10
9.869035336699999
 20
6.2282533207
 30
0.0
  0
VERTEX
  5
1A5
330
15E
100
AcDbEntity
  8
0
100
AcDbVertex
100
AcDb2dVertex
 10
9.955893748599999
 20
6.181537408099999
 30
0.0
  0
VERTEX
  5
1A6
330
15E
100
AcDbEntity
  8
0
100
AcDbVertex
100
AcDb2dVertex
 10
10.0423471864
 20
6.141892068899999
 30
0.0
  0
VERTEX
  5
1A7
330
15E
100
AcDbEntity
  8
0
100
AcDbVertex
100
AcDb2dVertex
 10
10.1279925644
 20
6.109502148099999
 30
0.0
  0
VERTEX
  5
1A8
330
15E
100
AcDbEntity
  8
0
100
AcDbVertex
100
AcDb2dVertex
 10
10.2124305643
 20
6.084518662399999
 30
0.0
  0
VERTEX
  5
1A9
330
15E
100
AcDbEntity
  8
0
100
AcDbVertex
100
AcDb2dVertex
 10
10.2952674971
 20
6.0670580964
 30
0.0
  0
VERTEX
  5
1AA
330
15E
100
AcDbEntity
  8
0
100
AcDbVertex
100
AcDb2dVertex
 10
10.3761171388
 20
6.057201859299999
 30
0.0
  0
VERTEX
  5
1AB
330
15E
100
AcDbEntity
  8
0
100
AcDbVertex
100
AcDb2dVertex
 10
10.4546025311
 20
6.054995905499999
 30
0.0
  0
VERTEX
  5
1AC
330
15E
100
AcDbEntity
  8
0
100
AcDbVertex
100
AcDb2dVertex
 10
10.5303577388
 20
6.060450519999999
 30
0.0
  0
VERTEX
  5
1AD
330
15E
100
AcDbEntity
  8
0
100
AcDbVertex
100
AcDb2dVertex
 10
10.60302955619999
 20
6.073540271
 30
0.0
  0
VERTEX
  5
1AE
330
15E
100
AcDbEntity
  8
0
100
AcDbVertex
100
AcDb2dVertex
 10
10.67227915369999
 20
6.094204127999999
 30
0.0
  0
VERTEX
  5
1AF
330
15E
100
AcDbEntity
  8
0
100
AcDbVertex
100
AcDb2dVertex
 10
10.73778365769999
 20
6.122345746599999
 30
0.0
  0
VERTEX
  5
1B0
330
15E
100
AcDbEntity
  8
0
100
AcDbVertex
100
AcDb2dVertex
 10
10.799237656
 20
6.157833917599999
 30
0.0
  0
VERTEX
  5
1B1
330
15E
100
AcDbEntity
  8
0
100
AcDbVertex
100
AcDb2dVertex
 10
10.8563546218
 20
6.200503178599999
 30
0.0
  0
VERTEX
  5
1B2
330
15E
100
AcDbEntity
  8
0
100
AcDbVertex
100
AcDb2dVertex
 10
10.9088682492
 20
6.250154585999999
 30
0.0
  0
VERTEX
  5
1B3
330
15E
100
AcDbEntity
  8
0
100
AcDbVertex
100
AcDb2dVertex
 10
10.95653369559999
 20
6.3065566419
 30
0.0
  0
VERTEX
  5
1B4
330
15E
100
AcDbEntity
  8
0
100
AcDbVertex
100
AcDb2dVertex
 10
10.9991287227
 20
6.369446373999999
 30
0.0
  0
VERTEX
  5
1B5
330
15E
100
AcDbEntity
  8
0
100
AcDbVertex
100
AcDb2dVertex
 10
11.0364547327
 20
6.4385305612
 30
0.0
  0
VERTEX
  5
1B6
330
15E
100
AcDbEntity
  8
0
100
AcDbVertex
100
AcDb2dVertex
 10
11.0683376946
 20
6.513487101199999
 30
0.0
  0
VERTEX
  5
1B7
330
15E
100
AcDbEntity
  8
0
100
AcDbVertex
100
AcDb2dVertex
 10
11.09462895519999
 20
6.593966512
 30
0.0
  0
VERTEX
  5
1B8
330
15E
100
AcDbEntity
  8
0
100
AcDbVertex
100
AcDb2dVertex
 10
11.1152059327
 20
6.679593561399999
 30
0.0
  0
VERTEX
  5
1B9
330
15E
100
AcDbEntity
  8
0
100
AcDbVertex
100
AcDb2dVertex
 10
11.1299726876
 20
6.769969016599999
 30
0.0
  0
VERTEX
  5
1BA
330
15E
100
AcDbEntity
  8
0
100
AcDbVertex
100
AcDb2dVertex
 10
11.1388603705
 20
6.864671505599999
 30
0.0
  0
VERTEX
  5
1BB
330
15E
100
AcDbEntity
  8
0
100
AcDbVertex
100
AcDb2dVertex
 10
11.1418275429
 20
6.963259481499999
 30
0.0
  0
SEQEND
  5
1BC
330
15E
100
AcDbEntity
  8
0
  0
LINE
  5
1BD
330
A
100
AcDbEntity
  8
0
  6
Continuous
 62
     7
370
    15
100
AcDbLine
 10
9.020507199299999
 20
11.4184337174
 30
0.0
 11
7.3234509245
 21
10.43842550299999
 31
0.0
  0
LINE
  5
1BE
330
A
100
AcDbEntity
  8
0
  6
Continuous
 62
     7
370
    15
100
AcDbLine
 10
10.7175634742
 20
10.4387439832
 30
0.0
 11
9.020507199299999
 21
11.4184337174
 31
0.0
  0
LINE
  5
1BF
330
A
100
AcDbEntity
  8
0
  6
Continuous
 62
     7
370
    15
100
AcDbLine
 10
12.414619749
 20
7.499356300499999
 30
0.0
 11
10.7175634742
 21
10.4387439832
 31
0.0
  0
LINE
  5
1C0
330
A
100
AcDbEntity
  8
0
  6
Continuous
 62
     7
370
    15
100
AcDbLine
 10
12.414619749
 20
4.9576280612
 30
0.0
 11
12.414619749
 21
7.499356300499999
 31
0.0
  0
LINE
  5
1C1
330
A
100
AcDbEntity
  8
0
  6
Continuous
 62
     7
370
    15
100
AcDbLine
 10
10.7175634742
 20
3.9776198469
 30
0.0
 11
12.414619749
 21
4.9576280612
 31
0.0
  0
LINE
  5
1C2
330
A
100
AcDbEntity
  8
0
  6
Continuous
 62
     7
370
    15
100
AcDbLine
 10
9.020507199299999
 20
4.9573095811
 30
0.0
 11
10.7175634742
 21
3.9776198469
 31
0.0
  0
LINE
  5
1C3
330
A
100
AcDbEntity
  8
0
  6
Continuous
 62
     7
370
    15
100
AcDbLine
 10
7.3234509245
 20
7.8966972638
 30
0.0
 11
9.020507199299999
 21
4.9573095811
 31
0.0
  0
LINE
  5
1C4
330
A
100
AcDbEntity
  8
0
  6
Continuous
 62
     7
370
    15
100
AcDbLine
 10
7.3234509245
 20
10.43842550299999
 30
0.0
 11
7.3234509245
 21
7.8966972638
 31
0.0
  0
LINE
  5
1C5
330
A
100
AcDbEntity
  8
0
  6
Continuous
 62
     7
370
    15
100
AcDbLine
 10
10.7175634742
 20
10.4387439832
 30
0.0
 11
10.8236294913
 21
10.49997459159999
 31
0.0
  0
LINE
  5
1C6
330
A
100
AcDbEntity
  8
0
  6
Continuous
 62
     7
370
    15
100
AcDbLine
 10
10.8236294913
 20
10.49997459159999
 30
0.0
 11
12.5206857662
 21
7.560586908899999
 31
0.0
  0
LINE
  5
1C7
330
A
100
AcDbEntity
  8
0
  6
Continuous
 62
     7
370
    15
100
AcDbLine
 10
12.5206857662
 20
7.560586908899999
 30
0.0
 11
12.414619749
 21
7.499356300499999
 31
0.0
  0
LINE
  5
1C8
330
A
100
AcDbEntity
  8
0
  6
Continuous
 62
     7
370
    15
100
AcDbLine
 10
12.414619749
 20
4.9576280612
 30
0.0
 11
12.5206857662
 21
5.0188586696
 31
0.0
  0
LINE
  5
1C9
330
A
100
AcDbEntity
  8
0
  6
Continuous
 62
     7
370
    15
100
AcDbLine
 10
12.5206857662
 20
5.0188586696
 30
0.0
 11
12.5206857662
 21
7.560586908899999
 31
0.0
  0
LINE
  5
1CA
330
A
100
AcDbEntity
  8
0
  6
Continuous
 62
     7
370
    15
100
AcDbLine
 10
9.1265732165
 20
11.4796643258
 30
0.0
 11
9.020507199299999
 21
11.4184337174
 31
0.0
  0
LINE
  5
1CB
330
A
100
AcDbEntity
  8
0
  6
Continuous
 62
     7
370
    15
100
AcDbLine
 10
10.8236294913
 20
10.49997459159999
 30
0.0
 11
9.1265732165
 21
11.4796643258
 31
0.0
  0
POLYLINE
  5
1CC
330
A
100
AcDbEntity
  8
0
  6
Continuous
 62
     7
100
AcDb2dPolyline
 66
     1
 10
0.0
 20
0.0
 30
0.0
 70
   128
 40
0.0017716535
 41
0.0017716535
  0
VERTEX
  5
1CD
330
1CC
100
AcDbEntity
  8
0
100
AcDbVertex
100
AcDb2dVertex
 10
9.0237049632
 20
9.2848217231
 30
0.0
  0
VERTEX
  5
1CE
330
1CC
100
AcDbEntity
  8
0
100
AcDbVertex
100
AcDb2dVertex
 10
8.987782068899999
 20
9.256780993999999
 30
0.0
  0
VERTEX
  5
1CF
330
1CC
100
AcDbEntity
  8
0
100
AcDbVertex
100
AcDb2dVertex
 10
8.935268441399999
 20
9.207129586699998
 30
0.0
  0
VERTEX
  5
1D0
330
1CC
100
AcDbEntity
  8
0
100
AcDbVertex
100
AcDb2dVertex
 10
8.887602994999999
 20
9.150727530700001
 30
0.0
  0
VERTEX
  5
1D1
330
1CC
100
AcDbEntity
  8
0
100
AcDbVertex
100
AcDb2dVertex
 10
8.845007967999999
 20
9.0878377987
 30
0.0
  0
VERTEX
  5
1D2
330
1CC
100
AcDbEntity
  8
0
100
AcDbVertex
100
AcDb2dVertex
 10
8.807681957999999
 20
9.018753611499999
 30
0.0
  0
VERTEX
  5
1D3
330
1CC
100
AcDbEntity
  8
0
100
AcDbVertex
100
AcDb2dVertex
 10
8.7757989961
 20
8.9437970715
 30
0.0
  0
VERTEX
  5
1D4
330
1CC
100
AcDbEntity
  8
0
100
AcDbVertex
100
AcDb2dVertex
 10
8.749507735399999
 20
8.863317660699999
 30
0.0
  0
VERTEX
  5
1D5
330
1CC
100
AcDbEntity
  8
0
100
AcDbVertex
100
AcDb2dVertex
 10
8.728930757999998
 20
8.7776906113
 30
0.0
  0
VERTEX
  5
1D6
330
1CC
100
AcDbEntity
  8
0
100
AcDbVertex
100
AcDb2dVertex
 10
8.714164003099998
 20
8.687315156
 30
0.0
  0
VERTEX
  5
1D7
330
1CC
100
AcDbEntity
  8
0
100
AcDbVertex
100
AcDb2dVertex
 10
8.705276320199999
 20
8.5926126671
 30
0.0
  0
VERTEX
  5
1D8
330
1CC
100
AcDbEntity
  8
0
100
AcDbVertex
100
AcDb2dVertex
 10
8.702309147799999
 20
8.494024691199999
 30
0.0
  0
VERTEX
  5
1D9
330
1CC
100
AcDbEntity
  8
0
100
AcDbVertex
100
AcDb2dVertex
 10
8.705276320199999
 20
8.392010890899999
 30
0.0
  0
VERTEX
  5
1DA
330
1CC
100
AcDbEntity
  8
0
100
AcDbVertex
100
AcDb2dVertex
 10
8.714164003099998
 20
8.2870469017
 30
0.0
  0
VERTEX
  5
1DB
330
1CC
100
AcDbEntity
  8
0
100
AcDbVertex
100
AcDb2dVertex
 10
8.728930757999998
 20
8.179622114199998
 30
0.0
  0
VERTEX
  5
1DC
330
1CC
100
AcDbEntity
  8
0
100
AcDbVertex
100
AcDb2dVertex
 10
8.749507735399999
 20
8.070237392300001
 30
0.0
  0
VERTEX
  5
1DD
330
1CC
100
AcDbEntity
  8
0
100
AcDbVertex
100
AcDb2dVertex
 10
8.7757989961
 20
7.959402737999999
 30
0.0
  0
VERTEX
  5
1DE
330
1CC
100
AcDbEntity
  8
0
100
AcDbVertex
100
AcDb2dVertex
 10
8.807681957999999
 20
7.8476349138
 30
0.0
  0
VERTEX
  5
1DF
330
1CC
100
AcDbEntity
  8
0
100
AcDbVertex
100
AcDb2dVertex
 10
8.845007967999999
 20
7.7354550328
 30
0.0
  0
VERTEX
  5
1E0
330
1CC
100
AcDbEntity
  8
0
100
AcDbVertex
100
AcDb2dVertex
 10
8.887602994999999
 20
7.623386129299999
 30
0.0
  0
VERTEX
  5
1E1
330
1CC
100
AcDbEntity
  8
0
100
AcDbVertex
100
AcDb2dVertex
 10
8.935268441399999
 20
7.511950720399999
 30
0.0
  0
VERTEX
  5
1E2
330
1CC
100
AcDbEntity
  8
0
100
AcDbVertex
100
AcDb2dVertex
 10
8.987782068899999
 20
7.401668369299999
 30
0.0
  0
VERTEX
  5
1E3
330
1CC
100
AcDbEntity
  8
0
100
AcDbVertex
100
AcDb2dVertex
 10
9.0448990346
 20
7.2930532633
 30
0.0
  0
VERTEX
  5
1E4
330
1CC
100
AcDbEntity
  8
0
100
AcDbVertex
100
AcDb2dVertex
 10
9.106353032999999
 20
7.1866118162
 30
0.0
  0
VERTEX
  5
1E5
330
1CC
100
AcDbEntity
  8
0
100
AcDbVertex
100
AcDb2dVertex
 10
9.171857537000001
 20
7.0828403071
 30
0.0
  0
VERTEX
  5
1E6
330
1CC
100
AcDbEntity
  8
0
100
AcDbVertex
100
AcDb2dVertex
 10
9.241107134499999
 20
6.982222566599999
 30
0.0
  0
VERTEX
  5
1E7
330
1CC
100
AcDbEntity
  8
0
100
AcDbVertex
100
AcDb2dVertex
 10
9.313778951899999
 20
6.885227721199999
 30
0.0
  0
VERTEX
  5
1E8
330
1CC
100
AcDbEntity
  8
0
100
AcDbVertex
100
AcDb2dVertex
 10
9.3895341596
 20
6.792308005599999
 30
0.0
  0
VERTEX
  5
1E9
330
1CC
100
AcDbEntity
  8
0
100
AcDbVertex
100
AcDb2dVertex
 10
9.468019551799999
 20
6.7038966544
 30
0.0
  0
VERTEX
  5
1EA
330
1CC
100
AcDbEntity
  8
0
100
AcDbVertex
100
AcDb2dVertex
 10
9.548869193499999
 20
6.6204058822
 30
0.0
  0
VERTEX
  5
1EB
330
1CC
100
AcDbEntity
  8
0
100
AcDbVertex
100
AcDb2dVertex
 10
9.631706126299999
 20
6.542224961299999
 30
0.0
  0
VERTEX
  5
1EC
330
1CC
100
AcDbEntity
  8
0
100
AcDbVertex
100
AcDb2dVertex
 10
9.716144126199999
 20
6.4697184075
 30
0.0
  0
VERTEX
  5
1ED
330
1CC
100
AcDbEntity
  8
0
100
AcDbVertex
100
AcDb2dVertex
 10
9.8017895042
 20
6.403224279699999
 30
0.0
  0
VERTEX
  5
1EE
330
1CC
100
AcDbEntity
  8
0
100
AcDbVertex
100
AcDb2dVertex
 10
9.888242942099999
 20
6.343052604199999
 30
0.0
  0
VERTEX
  5
1EF
330
1CC
100
AcDbEntity
  8
0
100
AcDbVertex
100
AcDb2dVertex
 10
9.975101353899999
 20
6.289483929099999
 30
0.0
  0
VERTEX
  5
1F0
330
1CC
100
AcDbEntity
  8
0
100
AcDbVertex
100
AcDb2dVertex
 10
10.0619597658
 20
6.242768016399999
 30
0.0
  0
VERTEX
  5
1F1
330
1CC
100
AcDbEntity
  8
0
100
AcDbVertex
100
AcDb2dVertex
 10
10.1484132036
 20
6.2031226773
 30
0.0
  0
VERTEX
  5
1F2
330
1CC
100
AcDbEntity
  8
0
100
AcDbVertex
100
AcDb2dVertex
 10
10.2340585816
 20
6.170732756499999
 30
0.0
  0
VERTEX
  5
1F3
330
1CC
100
AcDbEntity
  8
0
100
AcDbVertex
100
AcDb2dVertex
 10
10.3184965815
 20
6.1457492708
 30
0.0
  0
VERTEX
  5
1F4
330
1CC
100
AcDbEntity
  8
0
100
AcDbVertex
100
AcDb2dVertex
 10
10.40133351429999
 20
6.1282887048
 30
0.0
  0
VERTEX
  5
1F5
330
1CC
100
AcDbEntity
  8
0
100
AcDbVertex
100
AcDb2dVertex
 10
10.482183156
 20
6.118432467699999
 30
0.0
  0
VERTEX
  5
1F6
330
1CC
100
AcDbEntity
  8
0
100
AcDbVertex
100
AcDb2dVertex
 10
10.5606685483
 20
6.1162265139
 30
0.0
  0
VERTEX
  5
1F7
330
1CC
100
AcDbEntity
  8
0
100
AcDbVertex
100
AcDb2dVertex
 10
10.636423756
 20
6.1216811284
 30
0.0
  0
VERTEX
  5
1F8
330
1CC
100
AcDbEntity
  8
0
100
AcDbVertex
100
AcDb2dVertex
 10
10.7090955733
 20
6.1347708794
 30
0.0
  0
VERTEX
  5
1F9
330
1CC
100
AcDbEntity
  8
0
100
AcDbVertex
100
AcDb2dVertex
 10
10.7783451708
 20
6.1554347364
 30
0.0
  0
VERTEX
  5
1FA
330
1CC
100
AcDbEntity
  8
0
100
AcDbVertex
100
AcDb2dVertex
 10
10.8204317274
 20
6.1724624496
 30
0.0
  0
SEQEND
  5
1FB
330
1CC
100
AcDbEntity
  8
0
  0
LINE
  5
1FC
330
A
100
AcDbEntity
  8
0
  6
Continuous
 62
     7
370
    15
100
AcDbLine
 10
10.8236294913
 20
4.038850455299999
 30
0.0
 11
10.7175634742
 21
3.9776198469
 31
0.0
  0
LINE
  5
1FD
330
A
100
AcDbEntity
  8
0
  6
Continuous
 62
     7
370
    15
100
AcDbLine
 10
12.5206857662
 20
5.0188586696
 30
0.0
 11
10.8236294913
 21
4.038850455299999
 31
0.0
  0
ENDSEC
  0
SECTION
  2
OBJECTS
  0
DICTIONARY
  5
19
330
0
100
AcDbDictionary
281
     1
  3
ACAD_GROUP
350
1A
  3
ACAD_LAYOUT
350
1E
  3
ACAD_MLINESTYLE
350
1B
  3
ACAD_PLOTSETTINGS
350
22
  3
ACAD_PLOTSTYLENAME
350
1F
  3
ACAD_WIPEOUT_VARS
350
23
  0
DICTIONARY
  5
1A
102
{ACAD_REACTORS
330
19
102
}
330
19
100
AcDbDictionary
281
     1
  0
DICTIONARY
  5
1E
102
{ACAD_REACTORS
330
19
102
}
330
19
100
AcDbDictionary
281
     1
  3
Layout1
350
21
  3
Model
350
20
  0
DICTIONARY
  5
1B
102
{ACAD_REACTORS
330
19
102
}
330
19
100
AcDbDictionary
281
     1
  3
Standard
350
1C
  0
DICTIONARY
  5
22
102
{ACAD_REACTORS
330
19
102
}
330
19
100
AcDbDictionary
281
     1
  0
ACDBDICTIONARYWDFLT
  5
1F
102
{ACAD_REACTORS
330
19
102
}
330
19
100
AcDbDictionary
281
     1
  3
Normal
350
1D
100
AcDbDictionaryWithDefault
340
1D
  0
WIPEOUTVARIABLES
  5
23
330
19
100
AcDbWipeoutVariables
 70
     1
  0
LAYOUT
  5
21
102
{ACAD_REACTORS
330
1E
102
}
330
1E
100
AcDbPlotSettings
  1

  2

  4

  6

 40
0.0
 41
0.0
 42
0.0
 43
0.0
 44
0.0
 45
0.0
 46
0.0
 47
0.0
 48
0.0
 49
0.0
140
0.0
141
0.0
142
1.0
143
1.0
 70
     0
 72
     0
 73
     0
 74
     0
  7

 75
     0
147
1.0
148
0.0
149
0.0
100
AcDbLayout
  1
Layout1
 70
     1
 71
     1
 10
0.0
 20
0.0
 11
12.0
 21
9.0
 12
0.0
 22
0.0
 32
0.0
 14
1.000000000000000E+20
 24
1.000000000000000E+20
 34
1.000000000000000E+20
 15
-1.000000000000000E+20
 25
-1.000000000000000E+20
 35
-1.000000000000000E+20
146
0.0
 13
0.0
 23
0.0
 33
0.0
 16
1.0
 26
0.0
 36
0.0
 17
0.0
 27
1.0
 37
0.0
 76
     0
330
B
  0
LAYOUT
  5
20
102
{ACAD_REACTORS
330
1E
102
}
330
1E
100
AcDbPlotSettings
  1

  2

  4

  6

 40
0.0
 41
0.0
 42
0.0
 43
0.0
 44
0.0
 45
0.0
 46
0.0
 47
0.0
 48
0.0
 49
0.0
140
0.0
141
0.0
142
1.0
143
1.0
 70
  1024
 72
     0
 73
     0
 74
     0
  7

 75
     0
147
1.0
148
0.0
149
0.0
100
AcDbLayout
  1
Model
 70
     0
 71
     0
 10
0.0
 20
0.0
 11
0.0
 21
0.0
 12
0.0
 22
0.0
 32
0.0
 14
0.0
 24
0.0
 34
0.0
 15
0.0
 25
0.0
 35
0.0
146
0.0
 13
0.0
 23
0.0
 33
0.0
 16
0.0
 26
0.0
 36
0.0
 17
0.0
 27
0.0
 37
0.0
 76
     0
330
A
  0
MLINESTYLE
  5
1C
102
{ACAD_REACTORS
330
1B
102
}
330
1B
100
AcDbMlineStyle
  2
STANDARD
 70
     0
  3

 62
     0
 51
90.0
 52
90.0
 71
     2
 49
0.5
 62
   256
  6
BYLAYER
 49
-0.5
 62
   256
  6
BYLAYER
  0
ACDBPLACEHOLDER
  5
1D
102
{ACAD_REACTORS
330
1F
102
}
330
1F
  0
ENDSEC
  0
EOF
