  0
SECTION
  2
HEADER
  9
$ACADVER
  1
AC1015
  9
$ACADMAINTVER
 70
    10
  9
$DWGCODEPAGE
  3
ANSI_1252
  9
$INSBASE
 10
0.0
 20
0.0
 30
0.0
  9
$EXTMIN
 10
3.0
 20
0.3200286571999999
 30
0.0
  9
$EXTMAX
 10
67.0410803182
 20
43.2347584853
 30
0.0
  9
$LIMMIN
 10
0.0
 20
0.0
  9
$LIMMAX
 10
0.0
 20
0.0
  9
$ORTHOMODE
 70
     0
  9
$REGENMODE
 70
     1
  9
$FILLMODE
 70
     1
  9
$QTEXTMODE
 70
     0
  9
$MIRRTEXT
 70
     1
  9
$LTSCALE
 40
1.0
  9
$ATTMODE
 70
     1
  9
$TEXTSIZE
 40
0.0
  9
$TRACEWID
 40
0.05
  9
$TEXTSTYLE
  7
Standard
  9
$CLAYER
  8
0
  9
$CELTYPE
  6
Continuous
  9
$CECOLOR
 62
   256
  9
$CELTSCALE
 40
1.0
  9
$DISPSILH
 70
     0
  9
$DIMSCALE
 40
1.0
  9
$DIMASZ
 40
0.0
  9
$DIMEXO
 40
0.0
  9
$DIMDLI
 40
0.38
  9
$DIMRND
 40
0.0
  9
$DIMDLE
 40
0.0
  9
$DIMEXE
 40
0.18
  9
$DIMTP
 40
0.0
  9
$DIMTM
 40
0.0
  9
$DIMTXT
 40
0.4
  9
$DIMCEN
 40
0.09
  9
$DIMTSZ
 40
0.0
  9
$DIMTOL
 70
     0
  9
$DIMLIM
 70
     0
  9
$DIMTIH
 70
     1
  9
$DIMTOH
 70
     1
  9
$DIMSE1
 70
     0
  9
$DIMSE2
 70
     0
  9
$DIMTAD
 70
     0
  9
$DIMZIN
 70
     0
  9
$DIMBLK
  1

  9
$DIMASO
 70
     1
  9
$DIMSHO
 70
     1
  9
$DIMPOST
  1

  9
$DIMAPOST
  1

  9
$DIMALT
 70
     0
  9
$DIMALTD
 70
     2
  9
$DIMALTF
 40
25.4
  9
$DIMLFAC
 40
1.0
  9
$DIMTOFL
 70
     0
  9
$DIMTVP
 40
0.0
  9
$DIMTIX
 70
     0
  9
$DIMSOXD
 70
     0
  9
$DIMSAH
 70
     0
  9
$DIMBLK1
  1

  9
$DIMBLK2
  1

  9
$DIMSTYLE
  2
Standard
  9
$DIMCLRD
 70
     0
  9
$DIMCLRE
 70
     0
  9
$DIMCLRT
 70
     0
  9
$DIMTFAC
 40
1.0
  9
$DIMGAP
 40
0.0
  9
$DIMJUST
 70
     0
  9
$DIMSD1
 70
     0
  9
$DIMSD2
 70
     0
  9
$DIMTOLJ
 70
     1
  9
$DIMTZIN
 70
     0
  9
$DIMALTZ
 70
     0
  9
$DIMALTTZ
 70
     0
  9
$DIMUPT
 70
     0
  9
$DIMDEC
 70
     4
  9
$DIMTDEC
 70
     4
  9
$DIMALTU
 70
     2
  9
$DIMALTTD
 70
     2
  9
$DIMTXSTY
  7
Standard
  9
$DIMAUNIT
 70
     0
  9
$DIMADEC
 70
     0
  9
$DIMALTRND
 40
0.0
  9
$DIMAZIN
 70
     0
  9
$DIMDSEP
 70
     0
  9
$DIMATFIT
 70
     3
  9
$DIMFRAC
 70
     0
  9
$DIMLDRBLK
  1

  9
$DIMLUNIT
 70
     2
  9
$DIMLWD
 70
     0
  9
$DIMLWE
 70
     0
  9
$DIMTMOVE
 70
     0
  9
$LUNITS
 70
     2
  9
$LUPREC
 70
     3
  9
$SKETCHINC
 40
0.1
  9
$FILLETRAD
 40
0.0
  9
$AUNITS
 70
     0
  9
$AUPREC
 70
     2
  9
$MENU
  1
acad
  9
$ELEVATION
 40
0.0
  9
$PELEVATION
 40
0.0
  9
$THICKNESS
 40
0.0
  9
$LIMCHECK
 70
     0
  9
$CHAMFERA
 40
0.0
  9
$CHAMFERB
 40
0.0
  9
$CHAMFERC
 40
0.0
  9
$CHAMFERD
 40
0.0
  9
$SKPOLY
 70
     0
  9
$TDCREATE
 40
2453398.560066724
  9
$TDUCREATE
 40
2453398.893400057
  9
$TDUPDATE
 40
2453398.560537465
  9
$TDUUPDATE
 40
2453398.893870798
  9
$TDINDWG
 40
0.0004763542
  9
$TDUSRTIMER
 40
0.0004763542
  9
$USRTIMER
 70
     1
  9
$ANGBASE
 50
0.0
  9
$ANGDIR
 70
     0
  9
$PDMODE
 70
     0
  9
$PDSIZE
 40
-1.0
  9
$PLINEWID
 40
0.0
  9
$SPLFRAME
 70
     0
  9
$SPLINETYPE
 70
     6
  9
$SPLINESEGS
 70
     8
  9
$HANDSEED
  5
275
  9
$SURFTAB1
 70
     6
  9
$SURFTAB2
 70
     6
  9
$SURFTYPE
 70
     6
  9
$SURFU
 70
     6
  9
$SURFV
 70
     6
  9
$UCSBASE
  2

  9
$UCSNAME
  2

  9
$UCSORG
 10
0.0
 20
0.0
 30
0.0
  9
$UCSXDIR
 10
1.0
 20
0.0
 30
0.0
  9
$UCSYDIR
 10
0.0
 20
1.0
 30
0.0
  9
$UCSORTHOREF
  2

  9
$UCSORTHOVIEW
 70
     0
  9
$UCSORGTOP
 10
0.0
 20
0.0
 30
0.0
  9
$UCSORGBOTTOM
 10
0.0
 20
0.0
 30
0.0
  9
$UCSORGLEFT
 10
0.0
 20
0.0
 30
0.0
  9
$UCSORGRIGHT
 10
0.0
 20
0.0
 30
0.0
  9
$UCSORGFRONT
 10
0.0
 20
0.0
 30
0.0
  9
$UCSORGBACK
 10
0.0
 20
0.0
 30
0.0
  9
$PUCSBASE
  2

  9
$PUCSNAME
  2

  9
$PUCSORG
 10
0.0
 20
0.0
 30
0.0
  9
$PUCSXDIR
 10
1.0
 20
0.0
 30
0.0
  9
$PUCSYDIR
 10
0.0
 20
1.0
 30
0.0
  9
$PUCSORTHOREF
  2

  9
$PUCSORTHOVIEW
 70
     0
  9
$PUCSORGTOP
 10
0.0
 20
0.0
 30
0.0
  9
$PUCSORGBOTTOM
 10
0.0
 20
0.0
 30
0.0
  9
$PUCSORGLEFT
 10
0.0
 20
0.0
 30
0.0
  9
$PUCSORGRIGHT
 10
0.0
 20
0.0
 30
0.0
  9
$PUCSORGFRONT
 10
0.0
 20
0.0
 30
0.0
  9
$PUCSORGBACK
 10
0.0
 20
0.0
 30
0.0
  9
$USERI1
 70
     0
  9
$USERI2
 70
     0
  9
$USERI3
 70
     0
  9
$USERI4
 70
     0
  9
$USERI5
 70
     0
  9
$USERR1
 40
0.0
  9
$USERR2
 40
0.0
  9
$USERR3
 40
0.0
  9
$USERR4
 40
0.0
  9
$USERR5
 40
0.0
  9
$WORLDVIEW
 70
     1
  9
$SHADEDGE
 70
     3
  9
$SHADEDIF
 70
    70
  9
$TILEMODE
 70
     1
  9
$MAXACTVP
 70
    16
  9
$PINSBASE
 10
0.0
 20
0.0
 30
0.0
  9
$PLIMCHECK
 70
     0
  9
$PEXTMIN
 10
1.000000000000000E+20
 20
1.000000000000000E+20
 30
1.000000000000000E+20
  9
$PEXTMAX
 10
-1.000000000000000E+20
 20
-1.000000000000000E+20
 30
-1.000000000000000E+20
  9
$PLIMMIN
 10
0.0
 20
0.0
  9
$PLIMMAX
 10
12.0
 20
9.0
  9
$UNITMODE
 70
     0
  9
$VISRETAIN
 70
     0
  9
$PLINEGEN
 70
     1
  9
$PSLTSCALE
 70
     1
  9
$TREEDEPTH
 70
  3020
  9
$CMLSTYLE
  2
Standard
  9
$CMLJUST
 70
     0
  9
$CMLSCALE
 40
1.0
  9
$PROXYGRAPHICS
 70
     0
  9
$MEASUREMENT
 70
     0
  9
$CELWEIGHT
370
     0
  9
$ENDCAPS
280
     0
  9
$JOINSTYLE
280
     0
  9
$LWDISPLAY
290
     1
  9
$INSUNITS
 70
     0
  9
$HYPERLINKBASE
  1

  9
$STYLESHEET
  1

  9
$XEDIT
290
     1
  9
$CEPSNTYPE
380
     0
  9
$PSTYLEMODE
290
     1
  9
$FINGERPRINTGUID
  2

  9
$VERSIONGUID
  2
{AA97C243-7EFE-4563-9883-CA1D5ACD9878}
  9
$EXTNAMES
290
     1
  9
$PSVPSCALE
 40
0.0
  9
$OLESTARTUP
290
     0
  0
ENDSEC
  0
SECTION
  2
CLASSES
  0
CLASS
  1
LWPOLYLINE
  2
AcDbPolyline
  3
AutoCAD 2000
 90
    32768
280
     0
281
     1
  0
CLASS
  1
IMAGE
  2
AcDbRasterImage
  3
ISM
 90
    32895
280
     0
281
     1
  0
CLASS
  1
OLE2FRAME
  2
AcDbOle2Frame
  3
AutoCAD 2000
 90
    32768
280
     0
281
     1
  0
CLASS
  1
HATCH
  2
AcDbHatch
  3
AutoCAD 2000
 90
    32768
280
     0
281
     1
  0
CLASS
  1
DICTIONARYVAR
  2
AcDbDictionaryVar
  3
AutoCAD 2000
 90
    32768
280
     0
281
     0
  0
CLASS
  1
RASTERVARIABLES
  2
AcDbRasterVariables
  3
ISM
 90
    32768
280
     0
281
     0
  0
CLASS
  1
IMAGEDEF
  2
AcDbRasterImageDef
  3
ISM
 90
    32768
280
     0
281
     0
  0
CLASS
  1
IMAGEDEF_REACTOR
  2
AcDbRasterImageDefReactor
  3
ISM
 90
    32769
280
     0
281
     0
  0
CLASS
  1
IDBUFFER
  2
AcDbIdBuffer
  3
AutoCAD 2000
 90
    32768
280
     0
281
     0
  0
CLASS
  1
SPATIAL_FILTER
  2
AcDbSpatialFilter
  3
AutoCAD 2000
 90
    32768
280
     0
281
     0
  0
CLASS
  1
XRECORD
  2
AcDbXrecord
  3
AutoCAD 2000
 90
    32768
280
     0
281
     0
  0
CLASS
  1
SORTENTSTABLE
  2
AcDbSortentsTable
  3
AutoCAD 2000
 90
    32768
280
     0
281
     0
  0
CLASS
  1
LAYER_INDEX
  2
AcDbLayerIndex
  3
AutoCAD 2000
 90
    32768
280
     0
281
     0
  0
CLASS
  1
SPATIAL_INDEX
  2
AcDbSpatialIndex
  3
AutoCAD 2000
 90
    32768
280
     0
281
     0
  0
CLASS
  1
OBJECT_PTR
  2
CAseDLPNTableRecord
  3
"ASE-LPNTableRecord"
 90
    32769
280
     0
281
     0
  0
CLASS
  1
LAYOUT
  2
AcDbLayout
  3
AutoCAD 2000
 90
        0
280
     0
281
     0
  0
CLASS
  1
PLOTSETTINGS
  2
AcDbPlotSettings
  3
AutoCAD 2000
 90
    32768
280
     0
281
     0
  0
CLASS
  1
ACDBDICTIONARYWDFLT
  2
AcDbDictionaryWithDefault
  3
AutoCAD 2000
 90
        0
280
     0
281
     0
  0
CLASS
  1
ACDBPLACEHOLDER
  2
AcDbPlaceHolder
  3
AutoCAD 2000
 90
        0
280
     0
281
     0
  0
CLASS
  1
VBA_PROJECT
  2
AcDbVbaProject
  3
acadvba
 90
    32768
280
     0
281
     0
  0
CLASS
  1
WIPEOUT
  2
AcDbWipeout
  3
WipeOut|AutoCAD Express Tool|expresstools@autodesk.com
 90
    32895
280
     0
281
     1
  0
CLASS
  1
WIPEOUTVARIABLES
  2
AcDbWipeoutVariables
  3
WipeOut|AutoCAD Express Tool|expresstools@autodesk.com
 90
        0
280
     0
281
     0
  0
CLASS
  1
RTEXT
  2
RText
  3
RText|AutoCAD Express Tool|expresstools@autodesk.com
 90
    32768
280
     0
281
     1
  0
CLASS
  1
ARCALIGNEDTEXT
  2
AcDbArcAlignedText
  3
ATEXT|AutoCAD Express Tool|expresstools@autodesk.com
 90
    32768
280
     0
281
     1
  0
ENDSEC
  0
SECTION
  2
TABLES
  0
TABLE
  2
VPORT
  5
7
330
0
100
AcDbSymbolTable
 70
     5
  0
VPORT
  5
274
330
7
100
AcDbSymbolTableRecord
100
AcDbViewportTableRecord
  2
*Active
 70
     0
 10
0.0
 20
0.0
 11
1.0
 21
1.0
 12
36.26470882245581
 22
21.99999999999999
 13
0.0
 23
0.0
 14
1.0
 24
1.0
 15
0.0
 25
0.0
 16
0.0
 26
0.0
 36
1.0
 17
0.0
 27
0.0
 37
0.0
 40
43.99999998751271
 41
1.5
 42
50.0
 43
0.0
 44
0.0
 50
0.0
 51
0.0
 71
     0
 72
  2000
 73
     1
 74
     1
 75
     0
 76
     0
 77
     0
 78
     0
281
     0
 65
     0
110
0.0
120
0.0
130
0.0
111
1.0
121
0.0
131
0.0
112
0.0
122
1.0
132
0.0
 79
     0
146
0.0
  0
ENDTAB
  0
TABLE
  2
LTYPE
  5
4
330
0
100
AcDbSymbolTable
 70
     6
  0
LTYPE
  5
11
330
4
100
AcDbSymbolTableRecord
100
AcDbLinetypeTableRecord
  2
ByBlock
 70
     0
  3

 72
    65
 73
     0
 40
0.0
  0
LTYPE
  5
12
330
4
100
AcDbSymbolTableRecord
100
AcDbLinetypeTableRecord
  2
ByLayer
 70
     0
  3

 72
    65
 73
     0
 40
0.0
  0
LTYPE
  5
13
330
4
100
AcDbSymbolTableRecord
100
AcDbLinetypeTableRecord
  2
Continuous
 70
     0
  3
Solid line
 72
    65
 73
     0
 40
0.0
  0
LTYPE
  5
24
330
4
100
AcDbSymbolTableRecord
100
AcDbLinetypeTableRecord
  2
HIDDEN
 70
     0
  3
Hidden __ __ __ __ __ __ __ __ __ __ __ __ __ __
 72
    65
 73
     2
 40
0.075
 49
0.05
 74
     0
 49
-0.025
 74
     0
  0
LTYPE
  5
25
330
4
100
AcDbSymbolTableRecord
100
AcDbLinetypeTableRecord
  2
PHANTOM
 70
     0
  3
Phantom ______  __  __  ______  __  __  ______
 72
    65
 73
     6
 40
0.5
 49
0.25
 74
     0
 49
-0.05
 74
     0
 49
0.05
 74
     0
 49
-0.05
 74
     0
 49
0.05
 74
     0
 49
-0.05
 74
     0
  0
LTYPE
  5
26
330
4
100
AcDbSymbolTableRecord
100
AcDbLinetypeTableRecord
  2
CENTER
 70
     0
  3
Center ____ _ ____ _ ____ _ ____ _ ____ _ ____
 72
    65
 73
     4
 40
0.4
 49
0.25
 74
     0
 49
-0.05
 74
     0
 49
0.05
 74
     0
 49
-0.05
 74
     0
  0
LTYPE
  5
27
330
4
100
AcDbSymbolTableRecord
100
AcDbLinetypeTableRecord
  2
CENTERX2
 70
     0
  3
Center (2x) ________  __  ________  __  _____
 72
    65
 73
     4
 40
0.8
 49
0.5
 74
     0
 49
-0.1
 74
     0
 49
0.1
 74
     0
 49
-0.1
 74
     0
  0
LTYPE
  5
28
330
4
100
AcDbSymbolTableRecord
100
AcDbLinetypeTableRecord
  2
DOT2
 70
     0
  3
Dot (.5x) ........................................
 72
    65
 73
     2
 40
0.025
 49
0.0
 74
     0
 49
-0.025
 74
     0
  0
ENDTAB
  0
TABLE
  2
LAYER
  5
2
330
0
100
AcDbSymbolTable
 70
     1
  0
LAYER
  5
14
330
2
100
AcDbSymbolTableRecord
100
AcDbLayerTableRecord
  2
0
 70
     0
 62
     7
  6
Continuous
370
    -3
390
1D
  0
ENDTAB
  0
TABLE
  2
STYLE
  5
3
330
0
100
AcDbSymbolTable
 70
     2
  0
STYLE
  5
17
330
3
100
AcDbSymbolTableRecord
100
AcDbTextStyleTableRecord
  2
Standard
 70
     0
 40
0.0
 41
1.0
 50
0.0
 71
     0
 42
0.0
  3
txt
  4

  0
STYLE
  5
75
330
3
100
AcDbSymbolTableRecord
100
AcDbTextStyleTableRecord
  2
SLDTEXTSTYLE0
 70
     0
 40
0.0
 41
0.75
 50
0.0
 71
     0
 42
0.0
  3
txt
  4

  0
ENDTAB
  0
TABLE
  2
VIEW
  5
5
330
0
100
AcDbSymbolTable
 70
     0
  0
ENDTAB
  0
TABLE
  2
UCS
  5
6
330
0
100
AcDbSymbolTable
 70
     0
  0
ENDTAB
  0
TABLE
  2
APPID
  5
8
330
0
100
AcDbSymbolTable
 70
     1
  0
APPID
  5
16
330
8
100
AcDbSymbolTableRecord
100
AcDbRegAppTableRecord
  2
ACAD
 70
     0
  0
ENDTAB
  0
TABLE
  2
DIMSTYLE
  5
9
330
0
100
AcDbSymbolTable
 70
     4
100
AcDbDimStyleTable
 71
     1
340
18
  0
DIMSTYLE
105
18
330
9
100
AcDbSymbolTableRecord
100
AcDbDimStyleTableRecord
  2
Standard
 70
     0
340
17
  0
DIMSTYLE
105
D0
102
{ACAD_REACTORS
330
D4
330
E1
330
FE
330
10B
330
118
330
135
330
149
330
156
102
}
330
9
100
AcDbSymbolTableRecord
100
AcDbDimStyleTableRecord
  2
SLDDIMSTYLE0
 70
     0
 41
0.75
 44
0.48
 78
    12
140
0.4
147
0.1
173
     1
176
     7
177
     7
178
     7
271
     3
284
    12
340
17
  0
DIMSTYLE
105
ED
102
{ACAD_REACTORS
330
F1
102
}
330
9
100
AcDbSymbolTableRecord
100
AcDbDimStyleTableRecord
  2
SLDDIMSTYLE1
 70
     0
 41
0.75
 44
0.48
 78
    12
140
0.4
147
0.1
172
     1
173
     1
176
     7
177
     7
178
     7
271
     3
284
    12
340
17
  0
DIMSTYLE
105
122
102
{ACAD_REACTORS
330
128
102
}
330
9
100
AcDbSymbolTableRecord
100
AcDbDimStyleTableRecord
  2
SLDDIMSTYLE2
 70
     0
 41
0.75
 44
0.48
 78
    12
140
0.4
147
0.1
173
     1
176
     7
177
     7
178
     7
271
     0
284
    12
340
17
  0
ENDTAB
  0
TABLE
  2
BLOCK_RECORD
  5
1
330
0
100
AcDbSymbolTable
 70
    11
  0
BLOCK_RECORD
  5
A
330
1
100
AcDbSymbolTableRecord
100
AcDbBlockTableRecord
  2
*MODEL_SPACE
340
20
  0
BLOCK_RECORD
  5
B
330
1
100
AcDbSymbolTableRecord
100
AcDbBlockTableRecord
  2
*PAPER_SPACE
340
21
  0
BLOCK_RECORD
  5
A8
330
1
100
AcDbSymbolTableRecord
100
AcDbBlockTableRecord
  2
NOTE50
340
0
102
{BLKREFS
331
AE
102
}
  0
BLOCK_RECORD
  5
C7
330
1
100
AcDbSymbolTableRecord
100
AcDbBlockTableRecord
  2
*D1
340
0
  0
BLOCK_RECORD
  5
D5
330
1
100
AcDbSymbolTableRecord
100
AcDbBlockTableRecord
  2
*D2
340
0
  0
BLOCK_RECORD
  5
E2
330
1
100
AcDbSymbolTableRecord
100
AcDbBlockTableRecord
  2
*D3
340
0
  0
BLOCK_RECORD
  5
F2
330
1
100
AcDbSymbolTableRecord
100
AcDbBlockTableRecord
  2
*D4
340
0
  0
BLOCK_RECORD
  5
FF
330
1
100
AcDbSymbolTableRecord
100
AcDbBlockTableRecord
  2
*D5
340
0
  0
BLOCK_RECORD
  5
10C
330
1
100
AcDbSymbolTableRecord
100
AcDbBlockTableRecord
  2
*D6
340
0
  0
BLOCK_RECORD
  5
119
330
1
100
AcDbSymbolTableRecord
100
AcDbBlockTableRecord
  2
*D7
340
0
  0
BLOCK_RECORD
  5
129
330
1
100
AcDbSymbolTableRecord
100
AcDbBlockTableRecord
  2
*D8
340
0
  0
BLOCK_RECORD
  5
13D
330
1
100
AcDbSymbolTableRecord
100
AcDbBlockTableRecord
  2
*D9
340
0
  0
BLOCK_RECORD
  5
14A
330
1
100
AcDbSymbolTableRecord
100
AcDbBlockTableRecord
  2
*D10
340
0
  0
ENDTAB
  0
ENDSEC
  0
SECTION
  2
BLOCKS
  0
BLOCK
  5
D
330
A
100
AcDbEntity
  8
0
100
AcDbBlockBegin
  2
*MODEL_SPACE
 70
     0
 10
0.0
 20
0.0
 30
0.0
  3
*MODEL_SPACE
  1

  0
ENDBLK
  5
E
330
A
100
AcDbEntity
  8
0
100
AcDbBlockEnd
  0
BLOCK
  5
F
330
B
100
AcDbEntity
 67
     1
  8
0
100
AcDbBlockBegin
  2
*PAPER_SPACE
 70
     0
 10
0.0
 20
0.0
 30
0.0
  3
*PAPER_SPACE
  1

  0
ENDBLK
  5
10
330
B
100
AcDbEntity
 67
     1
  8
0
100
AcDbBlockEnd
  0
BLOCK
  5
A9
330
A8
100
AcDbEntity
  8
0
 62
     0
100
AcDbBlockBegin
  2
NOTE50
 70
     0
 10
0.0
 20
0.0
 30
0.0
  3
NOTE50
  1

  0
MTEXT
  5
AA
330
A8
100
AcDbEntity
  8
0
 62
     7
100
AcDbMText
 10
0.0
 20
0.0
 30
0.0
 40
0.36
 41
0.0
 71
     1
 72
     1
  1
BREAK SHARP EDGES 0.010 RAD %%p 0.003
  7
SLDTEXTSTYLE0
 73
     1
 44
1.0
  0
MTEXT
  5
AB
330
A8
100
AcDbEntity
  8
0
 62
     7
100
AcDbMText
 10
0.0
 20
-0.5400000000000001
 30
0.0
 40
0.36
 41
0.0
 71
     1
 72
     1
  1
MACHINED SURF FINISH  
  7
SLDTEXTSTYLE0
 73
     1
 44
1.0
  0
MTEXT
  5
AC
330
A8
100
AcDbEntity
  8
0
 62
     7
100
AcDbMText
 10
5.543999999999999
 20
-0.5400000000000001
 30
0.0
 40
0.36
 41
0.0
 71
     1
 72
     1
  1
< 125 MICROINCH
  7
SLDTEXTSTYLE0
 73
     1
 44
1.0
  0
ENDBLK
  5
AD
330
A8
100
AcDbEntity
  8
0
100
AcDbBlockEnd
  0
BLOCK
  5
C8
330
C7
100
AcDbEntity
  8
0
 62
     7
100
AcDbBlockBegin
  2
*D1
 70
     1
 10
0.0
 20
0.0
 30
0.0
  3
*D1
  1

  0
MTEXT
  5
C9
330
C7
100
AcDbEntity
  8
0
 62
     7
100
AcDbMText
 10
46.9682410762
 20
23.66385047679999
 30
0.0
 40
0.4
 41
0.0
 71
     7
 72
     1
  1
10"
  7
SLDTEXTSTYLE0
 73
     1
 44
1.0
  0
LINE
  5
CA
330
C7
100
AcDbEntity
  8
0
 62
     7
100
AcDbLine
 10
40.4377426956
 20
28.84369462769999
 30
0.0
 11
47.8084550384
 21
28.84369462769999
 31
0.0
  0
LINE
  5
CB
330
C7
100
AcDbEntity
  8
0
 62
     7
100
AcDbLine
 10
40.4377426956
 20
18.84369462769999
 30
0.0
 11
47.8084550384
 21
18.84369462769999
 31
0.0
  0
LINE
  5
CC
330
C7
100
AcDbEntity
  8
0
 62
     7
100
AcDbLine
 10
47.3284550384
 20
28.84369462769999
 30
0.0
 11
47.3284550384
 21
24.2235387787
 31
0.0
  0
LINE
  5
CD
330
C7
100
AcDbEntity
  8
0
 62
     7
100
AcDbLine
 10
47.3284550384
 20
18.84369462769999
 30
0.0
 11
47.3284550384
 21
23.46385047679999
 31
0.0
  0
SOLID
  5
CE
330
C7
100
AcDbEntity
  8
0
 62
     7
100
AcDbTrace
 10
47.3284550384
 20
28.84369462769999
 30
0.0
 11
47.20345503839999
 21
28.0936946277
 31
0.0
 12
47.4534550384
 22
28.0936946277
 32
0.0
 13
47.4534550384
 23
28.0936946277
 33
0.0
  0
SOLID
  5
CF
330
C7
100
AcDbEntity
  8
0
 62
     7
100
AcDbTrace
 10
47.3284550384
 20
18.84369462769999
 30
0.0
 11
47.4534550384
 21
19.59369462769999
 31
0.0
 12
47.20345503839999
 22
19.59369462769999
 32
0.0
 13
47.20345503839999
 23
19.59369462769999
 33
0.0
  0
POINT
  5
D1
330
C7
100
AcDbEntity
  8
0
 62
     7
100
AcDbPoint
 10
40.2777426956
 20
28.84369462769999
 30
0.0
  0
POINT
  5
D2
330
C7
100
AcDbEntity
  8
0
 62
     7
100
AcDbPoint
 10
40.2777426956
 20
18.84369462769999
 30
0.0
  0
ENDBLK
  5
D3
330
C7
100
AcDbEntity
  8
0
 62
     7
100
AcDbBlockEnd
  0
BLOCK
  5
D6
330
D5
100
AcDbEntity
  8
0
 62
     7
100
AcDbBlockBegin
  2
*D2
 70
     1
 10
0.0
 20
0.0
 30
0.0
  3
*D2
  1

  0
MTEXT
  5
D7
330
D5
100
AcDbEntity
  8
0
 62
     7
100
AcDbMText
 10
34.1118423111
 20
34.74025737499999
 30
0.0
 40
0.4
 41
0.0
 71
     7
 72
     1
  1
21 1/4"
  7
SLDTEXTSTYLE0
 73
     1
 44
1.0
  0
LINE
  5
D8
330
D5
100
AcDbEntity
  8
0
 62
     7
100
AcDbLine
 10
40.2777426956
 20
29.00369462769999
 30
0.0
 11
40.2777426956
 21
35.40010152589999
 31
0.0
  0
LINE
  5
D9
330
D5
100
AcDbEntity
  8
0
 62
     7
100
AcDbLine
 10
19.0277426956
 20
29.00369462769999
 30
0.0
 11
19.0277426956
 21
35.40010152589999
 31
0.0
  0
LINE
  5
DA
330
D5
100
AcDbEntity
  8
0
 62
     7
100
AcDbLine
 10
40.2777426956
 20
34.9201015259
 30
0.0
 11
36.12267023559999
 21
34.9201015259
 31
0.0
  0
LINE
  5
DB
330
D5
100
AcDbEntity
  8
0
 62
     7
100
AcDbLine
 10
19.0277426956
 20
34.9201015259
 30
0.0
 11
33.8618423111
 21
34.9201015259
 31
0.0
  0
SOLID
  5
DC
330
D5
100
AcDbEntity
  8
0
 62
     7
100
AcDbTrace
 10
40.2777426956
 20
34.9201015259
 30
0.0
 11
39.52774269559999
 21
35.0451015259
 31
0.0
 12
39.52774269559999
 22
34.7951015259
 32
0.0
 13
39.52774269559999
 23
34.7951015259
 33
0.0
  0
SOLID
  5
DD
330
D5
100
AcDbEntity
  8
0
 62
     7
100
AcDbTrace
 10
19.0277426956
 20
34.9201015259
 30
0.0
 11
19.7777426956
 21
34.7951015259
 31
0.0
 12
19.7777426956
 22
35.0451015259
 32
0.0
 13
19.7777426956
 23
35.0451015259
 33
0.0
  0
POINT
  5
DE
330
D5
100
AcDbEntity
  8
0
 62
     7
100
AcDbPoint
 10
40.2777426956
 20
28.84369462769999
 30
0.0
  0
POINT
  5
DF
330
D5
100
AcDbEntity
  8
0
 62
     7
100
AcDbPoint
 10
19.0277426956
 20
28.84369462769999
 30
0.0
  0
ENDBLK
  5
E0
330
D5
100
AcDbEntity
  8
0
 62
     7
100
AcDbBlockEnd
  0
BLOCK
  5
E3
330
E2
100
AcDbEntity
  8
0
 62
     7
100
AcDbBlockBegin
  2
*D3
 70
     1
 10
0.0
 20
0.0
 30
0.0
  3
*D3
  1

  0
MTEXT
  5
E4
330
E2
100
AcDbEntity
  8
0
 62
     7
100
AcDbMText
 10
25.1799000039
 20
32.3514766321
 30
0.0
 40
0.4
 41
0.0
 71
     7
 72
     1
  1
5"
  7
SLDTEXTSTYLE0
 73
     1
 44
1.0
  0
MTEXT
  5
E5
330
E2
100
AcDbEntity
  8
0
 62
     7
100
AcDbMText
 10
25.70010000389999
 20
32.3514766321
 30
0.0
 40
0.4
 41
0.0
 71
     7
 72
     1
  1
 DIA BURNED 
  7
SLDTEXTSTYLE0
 73
     1
 44
1.0
  0
MTEXT
  5
E6
330
E2
100
AcDbEntity
  8
0
 62
     7
100
AcDbMText
 10
25.1799000039
 20
31.5917883302
 30
0.0
 40
0.4
 41
0.0
 71
     7
 72
     1
  1
2 PLACES
  7
SLDTEXTSTYLE0
 73
     1
 44
1.0
  0
MTEXT
  5
E7
330
E2
100
AcDbEntity
  8
0
 62
     7
100
AcDbMText
 10
25.1799000039
 20
30.8321000283
 30
0.0
 40
0.4
 41
0.0
 71
     7
 72
     1
  1
PLEASE DEBURR
  7
SLDTEXTSTYLE0
 73
     1
 44
1.0
  0
LINE
  5
E8
330
E2
100
AcDbEntity
  8
0
 62
     7
100
AcDbLine
 10
33.46880896389999
 20
26.045580392
 30
0.0
 11
30.3899634001
 21
31.7716324811
 31
0.0
  0
LINE
  5
E9
330
E2
100
AcDbEntity
  8
0
 62
     7
100
AcDbLine
 10
35.8366764272
 20
21.6418088634
 30
0.0
 11
33.46880896389999
 21
26.045580392
 31
0.0
  0
LINE
  5
EA
330
E2
100
AcDbEntity
  8
0
 62
     7
100
AcDbLine
 10
30.3899634001
 20
31.7716324811
 30
0.0
 11
29.3899634001
 21
31.7716324811
 31
0.0
  0
SOLID
  5
EB
330
E2
100
AcDbEntity
  8
0
 62
     7
100
AcDbTrace
 10
35.8366764272
 20
21.6418088634
 30
0.0
 11
35.5915905959
 21
22.36157127929999
 31
0.0
 12
35.37140201949999
 22
22.2431779061
 32
0.0
 13
35.37140201949999
 23
22.2431779061
 33
0.0
  0
SOLID
  5
EC
330
E2
100
AcDbEntity
  8
0
 62
     7
100
AcDbTrace
 10
33.46880896389999
 20
26.045580392
 30
0.0
 11
33.71389479519999
 21
25.3258179761
 31
0.0
 12
33.93408337159999
 22
25.44421134929999
 32
0.0
 13
33.93408337159999
 23
25.44421134929999
 33
0.0
  0
POINT
  5
EE
330
E2
100
AcDbEntity
  8
0
 62
     7
100
AcDbPoint
 10
35.8366764272
 20
21.6418088634
 30
0.0
  0
POINT
  5
EF
330
E2
100
AcDbEntity
  8
0
 62
     7
100
AcDbPoint
 10
33.46880896389999
 20
26.045580392
 30
0.0
  0
ENDBLK
  5
F0
330
E2
100
AcDbEntity
  8
0
100
AcDbBlockEnd
  0
BLOCK
  5
F3
330
F2
100
AcDbEntity
  8
0
 62
     7
100
AcDbBlockBegin
  2
*D4
 70
     1
 10
0.0
 20
0.0
 30
0.0
  3
*D4
  1

  0
MTEXT
  5
F4
330
F2
100
AcDbEntity
  8
0
 62
     7
100
AcDbMText
 10
31.8926426956
 20
16.8277670509
 30
0.0
 40
0.4
 41
0.0
 71
     7
 72
     1
  1
5"
  7
SLDTEXTSTYLE0
 73
     1
 44
1.0
  0
LINE
  5
F5
330
F2
100
AcDbEntity
  8
0
 62
     7
100
AcDbLine
 10
34.6527426956
 20
23.6836946277
 30
0.0
 11
34.6527426956
 21
16.5276112018
 31
0.0
  0
LINE
  5
F6
330
F2
100
AcDbEntity
  8
0
 62
     7
100
AcDbLine
 10
29.6527426956
 20
18.68369462769999
 30
0.0
 11
29.6527426956
 21
16.5276112018
 31
0.0
  0
LINE
  5
F7
330
F2
100
AcDbEntity
  8
0
 62
     7
100
AcDbLine
 10
34.6527426956
 20
17.0076112018
 30
0.0
 11
32.66284269559999
 21
17.0076112018
 31
0.0
  0
LINE
  5
F8
330
F2
100
AcDbEntity
  8
0
 62
     7
100
AcDbLine
 10
29.6527426956
 20
17.0076112018
 30
0.0
 11
31.6426426956
 21
17.0076112018
 31
0.0
  0
SOLID
  5
F9
330
F2
100
AcDbEntity
  8
0
 62
     7
100
AcDbTrace
 10
34.6527426956
 20
17.0076112018
 30
0.0
 11
33.90274269559999
 21
17.1326112018
 31
0.0
 12
33.90274269559999
 22
16.88261120179999
 32
0.0
 13
33.90274269559999
 23
16.88261120179999
 33
0.0
  0
SOLID
  5
FA
330
F2
100
AcDbEntity
  8
0
 62
     7
100
AcDbTrace
 10
29.6527426956
 20
17.0076112018
 30
0.0
 11
30.4027426956
 21
16.88261120179999
 31
0.0
 12
30.4027426956
 22
17.1326112018
 32
0.0
 13
30.4027426956
 23
17.1326112018
 33
0.0
  0
POINT
  5
FB
330
F2
100
AcDbEntity
  8
0
 62
     7
100
AcDbPoint
 10
34.6527426956
 20
23.8436946277
 30
0.0
  0
POINT
  5
FC
330
F2
100
AcDbEntity
  8
0
 62
     7
100
AcDbPoint
 10
29.6527426956
 20
18.84369462769999
 30
0.0
  0
ENDBLK
  5
FD
330
F2
100
AcDbEntity
  8
0
 62
     7
100
AcDbBlockEnd
  0
BLOCK
  5
100
330
FF
100
AcDbEntity
  8
0
 62
     7
100
AcDbBlockBegin
  2
*D5
 70
     1
 10
0.0
 20
0.0
 30
0.0
  3
*D5
  1

  0
MTEXT
  5
101
330
FF
100
AcDbEntity
  8
0
 62
     7
100
AcDbMText
 10
15.5918268452
 20
21.4587520278
 30
0.0
 40
0.4
 41
0.0
 71
     7
 72
     1
  1
5"
  7
SLDTEXTSTYLE0
 73
     1
 44
1.0
  0
LINE
  5
102
330
FF
100
AcDbEntity
  8
0
 62
     7
100
AcDbLine
 10
34.4927426956
 20
23.8436946277
 30
0.0
 11
15.37192684519999
 21
23.8436946277
 31
0.0
  0
LINE
  5
103
330
FF
100
AcDbEntity
  8
0
 62
     7
100
AcDbLine
 10
20.7169056604
 20
18.84369462769999
 30
0.0
 11
15.37192684519999
 21
18.84369462769999
 31
0.0
  0
LINE
  5
104
330
FF
100
AcDbEntity
  8
0
 62
     7
100
AcDbLine
 10
15.85192684519999
 20
23.8436946277
 30
0.0
 11
15.85192684519999
 21
22.01844032969999
 31
0.0
  0
LINE
  5
105
330
FF
100
AcDbEntity
  8
0
 62
     7
100
AcDbLine
 10
15.85192684519999
 20
18.84369462769999
 30
0.0
 11
15.85192684519999
 21
21.2587520278
 31
0.0
  0
SOLID
  5
106
330
FF
100
AcDbEntity
  8
0
 62
     7
100
AcDbTrace
 10
15.85192684519999
 20
23.8436946277
 30
0.0
 11
15.72692684519999
 21
23.09369462769999
 31
0.0
 12
15.9769268452
 22
23.09369462769999
 32
0.0
 13
15.9769268452
 23
23.09369462769999
 33
0.0
  0
SOLID
  5
107
330
FF
100
AcDbEntity
  8
0
 62
     7
100
AcDbTrace
 10
15.85192684519999
 20
18.84369462769999
 30
0.0
 11
15.9769268452
 21
19.59369462769999
 31
0.0
 12
15.72692684519999
 22
19.59369462769999
 32
0.0
 13
15.72692684519999
 23
19.59369462769999
 33
0.0
  0
POINT
  5
108
330
FF
100
AcDbEntity
  8
0
 62
     7
100
AcDbPoint
 10
34.6527426956
 20
23.8436946277
 30
0.0
  0
POINT
  5
109
330
FF
100
AcDbEntity
  8
0
 62
     7
100
AcDbPoint
 10
19.0277426956
 20
18.84369462769999
 30
0.0
  0
ENDBLK
  5
10A
330
FF
100
AcDbEntity
  8
0
 62
     7
100
AcDbBlockEnd
  0
BLOCK
  5
10D
330
10C
100
AcDbEntity
  8
0
 62
     7
100
AcDbBlockBegin
  2
*D6
 70
     1
 10
0.0
 20
0.0
 30
0.0
  3
*D6
  1

  0
MTEXT
  5
10E
330
10C
100
AcDbEntity
  8
0
 62
     7
100
AcDbMText
 10
43.1054770228
 20
15.7383632228
 30
0.0
 40
0.4
 41
0.0
 71
     7
 72
     1
  1
2"
  7
SLDTEXTSTYLE0
 73
     1
 44
1.0
  0
LINE
  5
10F
330
10C
100
AcDbEntity
  8
0
 62
     7
100
AcDbLine
 10
38.27774269559999
 20
18.68369462769999
 30
0.0
 11
38.27774269559999
 21
15.43820737369999
 31
0.0
  0
LINE
  5
110
330
10C
100
AcDbEntity
  8
0
 62
     7
100
AcDbLine
 10
40.2777426956
 20
18.68369462769999
 30
0.0
 11
40.2777426956
 21
15.43820737369999
 31
0.0
  0
LINE
  5
111
330
10C
100
AcDbEntity
  8
0
 62
     7
100
AcDbLine
 10
38.27774269559999
 20
15.91820737369999
 30
0.0
 11
40.2777426956
 21
15.91820737369999
 31
0.0
  0
LINE
  5
112
330
10C
100
AcDbEntity
  8
0
 62
     7
100
AcDbLine
 10
40.2777426956
 20
15.91820737369999
 30
0.0
 11
42.8554770228
 21
15.91820737369999
 31
0.0
  0
SOLID
  5
113
330
10C
100
AcDbEntity
  8
0
 62
     7
100
AcDbTrace
 10
38.27774269559999
 20
15.91820737369999
 30
0.0
 11
39.0277426956
 21
15.79320737369999
 31
0.0
 12
39.0277426956
 22
16.0432073737
 32
0.0
 13
39.0277426956
 23
16.0432073737
 33
0.0
  0
SOLID
  5
114
330
10C
100
AcDbEntity
  8
0
 62
     7
100
AcDbTrace
 10
40.2777426956
 20
15.91820737369999
 30
0.0
 11
39.52774269559999
 21
16.0432073737
 31
0.0
 12
39.52774269559999
 22
15.79320737369999
 32
0.0
 13
39.52774269559999
 23
15.79320737369999
 33
0.0
  0
POINT
  5
115
330
10C
100
AcDbEntity
  8
0
 62
     7
100
AcDbPoint
 10
38.27774269559999
 20
18.84369462769999
 30
0.0
  0
POINT
  5
116
330
10C
100
AcDbEntity
  8
0
 62
     7
100
AcDbPoint
 10
40.2777426956
 20
18.84369462769999
 30
0.0
  0
ENDBLK
  5
117
330
10C
100
AcDbEntity
  8
0
 62
     7
100
AcDbBlockEnd
  0
BLOCK
  5
11A
330
119
100
AcDbEntity
  8
0
 62
     7
100
AcDbBlockBegin
  2
*D7
 70
     1
 10
0.0
 20
0.0
 30
0.0
  3
*D7
  1

  0
MTEXT
  5
11B
330
119
100
AcDbEntity
  8
0
 62
     7
100
AcDbMText
 10
42.4401620193
 20
20.4660435304
 30
0.0
 40
0.4
 41
0.0
 71
     7
 72
     1
  1
45%%d
  7
SLDTEXTSTYLE0
 73
     1
 44
1.0
  0
LINE
  5
11C
330
119
100
AcDbEntity
  8
0
 62
     7
100
AcDbLine
 10
38.3908797806
 20
18.9568317127
 30
0.0
 11
42.09905394839999
 21
22.66500588049999
 31
0.0
  0
LINE
  5
11D
330
119
100
AcDbEntity
  8
0
 62
     7
100
AcDbLine
 10
38.4377426956
 20
18.84369462769999
 30
0.0
 11
43.6818928954
 21
18.84369462769999
 31
0.0
  0
ARC
  5
11E
330
119
100
AcDbEntity
  8
0
 62
     7
100
AcDbCircle
 10
38.27774269559999
 20
18.84369462769999
 30
0.0
 40
4.9241501998
100
AcDbArc
 50
26.3037395178
 51
45.0
  0
ARC
  5
11F
330
119
100
AcDbEntity
  8
0
 62
     7
100
AcDbCircle
 10
38.27774269559999
 20
18.84369462769999
 30
0.0
 40
4.9241501998
100
AcDbArc
 50
0.0
 51
16.78921838299999
  0
SOLID
  5
120
330
119
100
AcDbEntity
  8
0
 62
     7
100
AcDbTrace
 10
41.7596426934
 20
22.3255946256
 30
0.0
 11
42.15360815719999
 21
21.6752745403
 31
0.0
 12
42.343227349
 22
21.8381995602
 32
0.0
 13
42.343227349
 23
21.8381995602
 33
0.0
  0
SOLID
  5
121
330
119
100
AcDbEntity
  8
0
 62
     7
100
AcDbTrace
 10
43.2018928954
 20
18.84369462769999
 30
0.0
 11
43.2699092069
 21
19.60099165089999
 31
0.0
 12
43.0206228041
 22
19.58211602099999
 32
0.0
 13
43.0206228041
 23
19.58211602099999
 33
0.0
  0
POINT
  5
123
330
119
100
AcDbEntity
  8
0
 62
     7
100
AcDbPoint
 10
37.999354199
 20
18.5653061312
 30
0.0
  0
POINT
  5
124
330
119
100
AcDbEntity
  8
0
 62
     7
100
AcDbPoint
 10
38.27774269559999
 20
18.84369462769999
 30
0.0
  0
POINT
  5
125
330
119
100
AcDbEntity
  8
0
 62
     7
100
AcDbPoint
 10
37.8840419082
 20
18.84369462769999
 30
0.0
  0
POINT
  5
126
330
119
100
AcDbEntity
  8
0
 62
     7
100
AcDbPoint
 10
38.27774269559999
 20
18.84369462769999
 30
0.0
  0
ENDBLK
  5
127
330
119
100
AcDbEntity
  8
0
100
AcDbBlockEnd
  0
BLOCK
  5
12A
330
129
100
AcDbEntity
  8
0
 62
     7
100
AcDbBlockBegin
  2
*D8
 70
     1
 10
0.0
 20
0.0
 30
0.0
  3
*D8
  1

  0
MTEXT
  5
12B
330
129
100
AcDbEntity
  8
0
 62
     7
100
AcDbMText
 10
28.51986738769999
 20
15.2013349116
 30
0.0
 40
0.4
 41
0.0
 71
     7
 72
     1
  1
10"
  7
SLDTEXTSTYLE0
 73
     1
 44
1.0
  0
LINE
  5
12C
330
129
100
AcDbEntity
  8
0
 62
     7
100
AcDbLine
 10
24.6527426956
 20
23.6836946277
 30
0.0
 11
24.6527426956
 21
14.9011790625
 31
0.0
  0
LINE
  5
12D
330
129
100
AcDbEntity
  8
0
 62
     7
100
AcDbLine
 10
34.6527426956
 20
23.6836946277
 30
0.0
 11
34.6527426956
 21
14.9011790625
 31
0.0
  0
LINE
  5
12E
330
129
100
AcDbEntity
  8
0
 62
     7
100
AcDbLine
 10
24.6527426956
 20
15.3811790625
 30
0.0
 11
28.26986738769999
 21
15.3811790625
 31
0.0
  0
LINE
  5
12F
330
129
100
AcDbEntity
  8
0
 62
     7
100
AcDbLine
 10
34.6527426956
 20
15.3811790625
 30
0.0
 11
29.49029531219999
 21
15.3811790625
 31
0.0
  0
SOLID
  5
130
330
129
100
AcDbEntity
  8
0
 62
     7
100
AcDbTrace
 10
24.6527426956
 20
15.3811790625
 30
0.0
 11
25.4027426956
 21
15.25617906249999
 31
0.0
 12
25.4027426956
 22
15.5061790625
 32
0.0
 13
25.4027426956
 23
15.5061790625
 33
0.0
  0
SOLID
  5
131
330
129
100
AcDbEntity
  8
0
 62
     7
100
AcDbTrace
 10
34.6527426956
 20
15.3811790625
 30
0.0
 11
33.90274269559999
 21
15.5061790625
 31
0.0
 12
33.90274269559999
 22
15.25617906249999
 32
0.0
 13
33.90274269559999
 23
15.25617906249999
 33
0.0
  0
POINT
  5
132
330
129
100
AcDbEntity
  8
0
 62
     7
100
AcDbPoint
 10
24.6527426956
 20
23.8436946277
 30
0.0
  0
POINT
  5
133
330
129
100
AcDbEntity
  8
0
 62
     7
100
AcDbPoint
 10
34.6527426956
 20
23.8436946277
 30
0.0
  0
ENDBLK
  5
134
330
129
100
AcDbEntity
  8
0
 62
     7
100
AcDbBlockEnd
  0
BLOCK
  5
13E
330
13D
100
AcDbEntity
  8
0
 62
     1
100
AcDbBlockBegin
  2
*D9
 70
     1
 10
0.0
 20
0.0
 30
0.0
  3
*D9
  1

  0
MTEXT
  5
13F
330
13D
100
AcDbEntity
  8
0
100
AcDbMText
 10
57.4756170568
 20
32.5690442438
 30
0.0
 40
0.4
 41
0.0
 71
     7
 72
     1
  1
3/8"
  7
SLDTEXTSTYLE0
 73
     1
 44
1.0
  0
LINE
  5
140
330
13D
100
AcDbEntity
  8
0
100
AcDbLine
 10
55.0423579316
 20
29.00369462769999
 30
0.0
 11
55.0423579316
 21
33.2288883947
 31
0.0
  0
LINE
  5
141
330
13D
100
AcDbEntity
  8
0
100
AcDbLine
 10
55.4173579316
 20
29.00369462769999
 30
0.0
 11
55.4173579316
 21
33.2288883947
 31
0.0
  0
LINE
  5
142
330
13D
100
AcDbEntity
  8
0
100
AcDbLine
 10
55.0423579316
 20
32.74888839469999
 30
0.0
 11
53.0423579316
 21
32.74888839469999
 31
0.0
  0
LINE
  5
143
330
13D
100
AcDbEntity
  8
0
100
AcDbLine
 10
55.4173579316
 20
32.74888839469999
 30
0.0
 11
57.2256170568
 21
32.74888839469999
 31
0.0
  0
SOLID
  5
144
330
13D
100
AcDbEntity
  8
0
100
AcDbTrace
 10
55.0423579316
 20
32.74888839469999
 30
0.0
 11
54.2923579316
 21
32.87388839469999
 31
0.0
 12
54.2923579316
 22
32.62388839469999
 32
0.0
 13
54.2923579316
 23
32.62388839469999
 33
0.0
  0
SOLID
  5
145
330
13D
100
AcDbEntity
  8
0
100
AcDbTrace
 10
55.4173579316
 20
32.74888839469999
 30
0.0
 11
56.1673579316
 21
32.62388839469999
 31
0.0
 12
56.1673579316
 22
32.87388839469999
 32
0.0
 13
56.1673579316
 23
32.87388839469999
 33
0.0
  0
POINT
  5
146
330
13D
100
AcDbEntity
  8
0
100
AcDbPoint
 10
55.0423579316
 20
28.84369462769999
 30
0.0
  0
POINT
  5
147
330
13D
100
AcDbEntity
  8
0
100
AcDbPoint
 10
55.4173579316
 20
28.84369462769999
 30
0.0
  0
ENDBLK
  5
148
330
13D
100
AcDbEntity
  8
0
 62
     1
100
AcDbBlockEnd
  0
BLOCK
  5
14B
330
14A
100
AcDbEntity
  8
0
 62
     7
100
AcDbBlockBegin
  2
*D10
 70
     1
 10
0.0
 20
0.0
 30
0.0
  3
*D10
  1

  0
MTEXT
  5
14C
330
14A
100
AcDbEntity
  8
0
 62
     7
100
AcDbMText
 10
52.8866209075
 20
16.8104003123
 30
0.0
 40
0.4
 41
0.0
 71
     7
 72
     1
  1
3/8"
  7
SLDTEXTSTYLE0
 73
     1
 44
1.0
  0
LINE
  5
14D
330
14A
100
AcDbEntity
  8
0
 62
     7
100
AcDbLine
 10
55.4173579316
 20
18.68369462769999
 30
0.0
 11
55.4173579316
 21
16.51024446329999
 31
0.0
  0
LINE
  5
14E
330
14A
100
AcDbEntity
  8
0
 62
     7
100
AcDbLine
 10
55.0423579316
 20
18.68369462769999
 30
0.0
 11
55.0423579316
 21
16.51024446329999
 31
0.0
  0
LINE
  5
14F
330
14A
100
AcDbEntity
  8
0
 62
     7
100
AcDbLine
 10
55.4173579316
 20
16.99024446329999
 30
0.0
 11
55.0423579316
 21
16.99024446329999
 31
0.0
  0
LINE
  5
150
330
14A
100
AcDbEntity
  8
0
 62
     7
100
AcDbLine
 10
55.0423579316
 20
16.99024446329999
 30
0.0
 11
54.21693562439999
 21
16.99024446329999
 31
0.0
  0
SOLID
  5
151
330
14A
100
AcDbEntity
  8
0
 62
     7
100
AcDbTrace
 10
55.4173579316
 20
16.99024446329999
 30
0.0
 11
54.6673579316
 21
17.11524446329999
 31
0.0
 12
54.6673579316
 22
16.86524446329999
 32
0.0
 13
54.6673579316
 23
16.86524446329999
 33
0.0
  0
SOLID
  5
152
330
14A
100
AcDbEntity
  8
0
 62
     7
100
AcDbTrace
 10
55.0423579316
 20
16.99024446329999
 30
0.0
 11
55.7923579316
 21
16.86524446329999
 31
0.0
 12
55.7923579316
 22
17.11524446329999
 32
0.0
 13
55.7923579316
 23
17.11524446329999
 33
0.0
  0
POINT
  5
153
330
14A
100
AcDbEntity
  8
0
 62
     7
100
AcDbPoint
 10
55.4173579316
 20
18.84369462769999
 30
0.0
  0
POINT
  5
154
330
14A
100
AcDbEntity
  8
0
 62
     7
100
AcDbPoint
 10
55.0423579316
 20
18.84369462769999
 30
0.0
  0
ENDBLK
  5
155
330
14A
100
AcDbEntity
  8
0
 62
     7
100
AcDbBlockEnd
  0
ENDSEC
  0
SECTION
  2
ENTITIES
  0
LINE
  5
2A
330
A
100
AcDbEntity
  8
0
  6
Continuous
 62
     7
370
     0
100
AcDbLine
 10
13.5
 20
42.5
 30
0.0
 11
6.0
 21
42.5
 31
0.0
  0
LINE
  5
2B
330
A
100
AcDbEntity
  8
0
  6
Continuous
 62
     7
370
     0
100
AcDbLine
 10
21.0
 20
42.5
 30
0.0
 11
13.5
 21
42.5
 31
0.0
  0
LINE
  5
2C
330
A
100
AcDbEntity
  8
0
  6
Continuous
 62
     7
370
     0
100
AcDbLine
 10
66.0
 20
1.5
 30
0.0
 11
58.5
 21
1.5
 31
0.0
  0
LINE
  5
2D
330
A
100
AcDbEntity
  8
0
  6
Continuous
 62
     7
370
     0
100
AcDbLine
 10
66.0
 20
1.5
 30
0.0
 11
66.0
 21
11.75
 31
0.0
  0
LINE
  5
2E
330
A
100
AcDbEntity
  8
0
  6
Continuous
 62
     7
370
     0
100
AcDbLine
 10
66.0
 20
32.25
 30
0.0
 11
66.5
 21
32.25
 31
0.0
  0
LINE
  5
2F
330
A
100
AcDbEntity
  8
0
  6
Continuous
 62
     7
370
     0
100
AcDbLine
 10
66.0
 20
22.0
 30
0.0
 11
66.5
 21
22.0
 31
0.0
  0
LINE
  5
30
330
A
100
AcDbEntity
  8
0
  6
Continuous
 62
     7
370
     0
100
AcDbLine
 10
28.5
 20
42.5
 30
0.0
 11
21.0
 21
42.5
 31
0.0
  0
LINE
  5
31
330
A
100
AcDbEntity
  8
0
  6
Continuous
 62
     7
370
     0
100
AcDbLine
 10
36.0
 20
42.5
 30
0.0
 11
28.5
 21
42.5
 31
0.0
  0
LINE
  5
32
330
A
100
AcDbEntity
  8
0
  6
Continuous
 62
     7
370
     0
100
AcDbLine
 10
43.5
 20
42.5
 30
0.0
 11
36.0
 21
42.5
 31
0.0
  0
LINE
  5
33
330
A
100
AcDbEntity
  8
0
  6
Continuous
 62
     7
370
     0
100
AcDbLine
 10
51.0
 20
42.5
 30
0.0
 11
43.5
 21
42.5
 31
0.0
  0
LINE
  5
34
330
A
100
AcDbEntity
  8
0
  6
Continuous
 62
     7
370
     0
100
AcDbLine
 10
58.5
 20
42.5
 30
0.0
 11
51.0
 21
42.5
 31
0.0
  0
LINE
  5
35
330
A
100
AcDbEntity
  8
0
  6
Continuous
 62
     7
370
     0
100
AcDbLine
 10
66.0
 20
11.75
 30
0.0
 11
66.5
 21
11.75
 31
0.0
  0
LINE
  5
36
330
A
100
AcDbEntity
  8
0
  6
Continuous
 62
     7
370
     0
100
AcDbLine
 10
66.0
 20
42.5
 30
0.0
 11
58.5
 21
42.5
 31
0.0
  0
LINE
  5
37
330
A
100
AcDbEntity
  8
0
  6
Continuous
 62
     7
370
     0
100
AcDbLine
 10
58.5
 20
42.5
 30
0.0
 11
58.5
 21
43.0
 31
0.0
  0
LINE
  5
38
330
A
100
AcDbEntity
  8
0
  6
Continuous
 62
     7
370
     0
100
AcDbLine
 10
51.0
 20
42.5
 30
0.0
 11
51.0
 21
43.0
 31
0.0
  0
LINE
  5
39
330
A
100
AcDbEntity
  8
0
  6
Continuous
 62
     7
370
     0
100
AcDbLine
 10
43.5
 20
42.5
 30
0.0
 11
43.5
 21
43.0
 31
0.0
  0
LINE
  5
3A
330
A
100
AcDbEntity
  8
0
  6
Continuous
 62
     7
370
     0
100
AcDbLine
 10
36.0
 20
42.5
 30
0.0
 11
36.0
 21
43.0
 31
0.0
  0
LINE
  5
3B
330
A
100
AcDbEntity
  8
0
  6
Continuous
 62
     7
370
     0
100
AcDbLine
 10
28.5
 20
42.5
 30
0.0
 11
28.5
 21
43.0
 31
0.0
  0
LINE
  5
3C
330
A
100
AcDbEntity
  8
0
  6
Continuous
 62
     7
370
     0
100
AcDbLine
 10
21.0
 20
42.5
 30
0.0
 11
21.0
 21
43.0
 31
0.0
  0
LINE
  5
3D
330
A
100
AcDbEntity
  8
0
  6
Continuous
 62
     7
370
     0
100
AcDbLine
 10
13.5
 20
42.5
 30
0.0
 11
13.5
 21
43.0
 31
0.0
  0
LINE
  5
3E
330
A
100
AcDbEntity
  8
0
  6
Continuous
 62
     7
370
     0
100
AcDbLine
 10
35.0
 20
6.759999999999999
 30
0.0
 11
35.0
 21
1.504
 31
0.0
  0
LINE
  5
3F
330
A
100
AcDbEntity
  8
0
  6
Continuous
 62
     7
370
     0
100
AcDbLine
 10
44.0
 20
9.5
 30
0.0
 11
66.0
 21
9.5
 31
0.0
  0
LINE
  5
40
330
A
100
AcDbEntity
  8
0
  6
Continuous
 62
     7
370
     0
100
AcDbLine
 10
44.0
 20
9.5
 30
0.0
 11
44.0
 21
1.5
 31
0.0
  0
LINE
  5
41
330
A
100
AcDbEntity
  8
0
  6
Continuous
 62
     7
370
     0
100
AcDbLine
 10
54.0
 20
9.5
 30
0.0
 11
54.0
 21
1.5
 31
0.0
  0
LINE
  5
42
330
A
100
AcDbEntity
  8
0
  6
Continuous
 62
     7
370
     0
100
AcDbLine
 10
54.0
 20
2.251999999999999
 30
0.0
 11
66.0
 21
2.251999999999999
 31
0.0
  0
LINE
  5
43
330
A
100
AcDbEntity
  8
0
  6
Continuous
 62
     7
370
     0
100
AcDbLine
 10
54.0
 20
3.751999999999999
 30
0.0
 11
66.0
 21
3.751999999999999
 31
0.0
  0
LINE
  5
44
330
A
100
AcDbEntity
  8
0
  6
Continuous
 62
     7
370
     0
100
AcDbLine
 10
54.0
 20
6.752
 30
0.0
 11
66.0
 21
6.752
 31
0.0
  0
LINE
  5
45
330
A
100
AcDbEntity
  8
0
  6
Continuous
 62
     7
370
     0
100
AcDbLine
 10
55.5
 20
3.751999999999999
 30
0.0
 11
55.5
 21
1.5
 31
0.0
  0
LINE
  5
46
330
A
100
AcDbEntity
  8
0
  6
Continuous
 62
     7
370
     0
100
AcDbLine
 10
35.0
 20
3.003999999999999
 30
0.0
 11
54.0
 21
3.003999999999999
 31
0.0
  0
LINE
  5
47
330
A
100
AcDbEntity
  8
0
  6
Continuous
 62
     7
370
     0
100
AcDbLine
 10
64.5
 20
3.751999999999999
 30
0.0
 11
64.5
 21
1.5
 31
0.0
  0
LINE
  5
48
330
A
100
AcDbEntity
  8
0
  6
Continuous
 62
     7
370
     0
100
AcDbLine
 10
54.0
 20
8.0
 30
0.0
 11
44.0
 21
8.0
 31
0.0
  0
LINE
  5
49
330
A
100
AcDbEntity
  8
0
  6
Continuous
 62
     7
370
     0
100
AcDbLine
 10
44.0
 20
4.748
 30
0.0
 11
54.0
 21
4.748
 31
0.0
  0
LINE
  5
4A
330
A
100
AcDbEntity
  8
0
  6
Continuous
 62
     7
370
     0
100
AcDbLine
 10
44.0
 20
2.251999999999999
 30
0.0
 11
54.0
 21
2.251999999999999
 31
0.0
  0
LINE
  5
4B
330
A
100
AcDbEntity
  8
0
  6
Continuous
 62
     7
370
     0
100
AcDbLine
 10
35.0
 20
5.256
 30
0.0
 11
44.0
 21
5.256
 31
0.0
  0
LINE
  5
4C
330
A
100
AcDbEntity
  8
0
  6
Continuous
 62
     7
370
     0
100
AcDbLine
 10
66.0
 20
11.75
 30
0.0
 11
66.0
 21
22.0
 31
0.0
  0
LINE
  5
4D
330
A
100
AcDbEntity
  8
0
  6
Continuous
 62
     7
370
     0
100
AcDbLine
 10
66.0
 20
22.0
 30
0.0
 11
66.0
 21
32.25
 31
0.0
  0
LINE
  5
4E
330
A
100
AcDbEntity
  8
0
  6
Continuous
 62
     7
370
     0
100
AcDbLine
 10
66.0
 20
32.25
 30
0.0
 11
66.0
 21
42.5
 31
0.0
  0
LINE
  5
4F
330
A
100
AcDbEntity
  8
0
  6
Continuous
 62
     7
370
     0
100
AcDbLine
 10
58.5
 20
1.5
 30
0.0
 11
51.0
 21
1.5
 31
0.0
  0
LINE
  5
50
330
A
100
AcDbEntity
  8
0
  6
Continuous
 62
     7
370
     0
100
AcDbLine
 10
51.0
 20
1.5
 30
0.0
 11
43.5
 21
1.5
 31
0.0
  0
LINE
  5
51
330
A
100
AcDbEntity
  8
0
  6
Continuous
 62
     7
370
     0
100
AcDbLine
 10
35.0
 20
6.007999999999999
 30
0.0
 11
44.0
 21
6.007999999999999
 31
0.0
  0
LINE
  5
52
330
A
100
AcDbEntity
  8
0
  6
Continuous
 62
     7
370
     0
100
AcDbLine
 10
35.0
 20
3.75
 30
0.0
 11
20.0
 21
3.75
 31
0.0
  0
LINE
  5
53
330
A
100
AcDbEntity
  8
0
  6
Continuous
 62
     7
370
     0
100
AcDbLine
 10
44.0
 20
6.759999999999999
 30
0.0
 11
35.0
 21
6.759999999999999
 31
0.0
  0
LINE
  5
54
330
A
100
AcDbEntity
  8
0
  6
Continuous
 62
     7
370
     0
100
AcDbLine
 10
41.0
 20
6.759999999999999
 30
0.0
 11
41.0
 21
4.503999999999999
 31
0.0
  0
LINE
  5
55
330
A
100
AcDbEntity
  8
0
  6
Continuous
 62
     7
370
     0
100
AcDbLine
 10
44.0
 20
7.247999999999999
 30
0.0
 11
54.0
 21
7.247999999999999
 31
0.0
  0
LINE
  5
56
330
A
100
AcDbEntity
  8
0
  6
Continuous
 62
     7
370
     0
100
AcDbLine
 10
35.0
 20
4.503999999999999
 30
0.0
 11
44.0
 21
4.503999999999999
 31
0.0
  0
LINE
  5
57
330
A
100
AcDbEntity
  8
0
  6
Continuous
 62
     7
370
     0
100
AcDbLine
 10
49.0
 20
8.0
 30
0.0
 11
49.0
 21
4.748
 31
0.0
  0
LINE
  5
58
330
A
100
AcDbEntity
  8
0
  6
Continuous
 62
     7
370
     0
100
AcDbLine
 10
43.5
 20
1.5
 30
0.0
 11
36.0
 21
1.5
 31
0.0
  0
LINE
  5
59
330
A
100
AcDbEntity
  8
0
  6
Continuous
 62
     7
370
     0
100
AcDbLine
 10
36.0
 20
1.5
 30
0.0
 11
28.5
 21
1.5
 31
0.0
  0
LINE
  5
5A
330
A
100
AcDbEntity
  8
0
  6
Continuous
 62
     7
370
     0
100
AcDbLine
 10
28.5
 20
1.5
 30
0.0
 11
21.0
 21
1.5
 31
0.0
  0
LINE
  5
5B
330
A
100
AcDbEntity
  8
0
  6
Continuous
 62
     7
370
     0
100
AcDbLine
 10
21.0
 20
1.5
 30
0.0
 11
13.5
 21
1.5
 31
0.0
  0
LINE
  5
5C
330
A
100
AcDbEntity
  8
0
  6
Continuous
 62
     7
370
     0
100
AcDbLine
 10
51.5
 20
8.0
 30
0.0
 11
51.5
 21
4.748
 31
0.0
  0
LINE
  5
5D
330
A
100
AcDbEntity
  8
0
  6
Continuous
 62
     7
370
     0
100
AcDbLine
 10
13.5
 20
1.5
 30
0.0
 11
6.0
 21
1.5
 31
0.0
  0
LINE
  5
5E
330
A
100
AcDbEntity
  8
0
  6
Continuous
 62
     7
370
     0
100
AcDbLine
 10
3.0
 20
42.5
 30
0.0
 11
3.0
 21
1.5
 31
0.0
  0
LINE
  5
5F
330
A
100
AcDbEntity
  8
0
  6
Continuous
 62
     7
370
     0
100
AcDbLine
 10
6.0
 20
11.75
 30
0.0
 11
6.0
 21
22.0
 31
0.0
  0
LINE
  5
60
330
A
100
AcDbEntity
  8
0
  6
Continuous
 62
     7
370
     0
100
AcDbLine
 10
6.0
 20
22.0
 30
0.0
 11
6.0
 21
32.25
 31
0.0
  0
LINE
  5
61
330
A
100
AcDbEntity
  8
0
  6
Continuous
 62
     7
370
     0
100
AcDbLine
 10
6.0
 20
32.25
 30
0.0
 11
6.0
 21
42.5
 31
0.0
  0
LINE
  5
62
330
A
100
AcDbEntity
  8
0
  6
Continuous
 62
     7
370
     0
100
AcDbLine
 10
6.0
 20
32.25
 30
0.0
 11
5.5
 21
32.25
 31
0.0
  0
LINE
  5
63
330
A
100
AcDbEntity
  8
0
  6
Continuous
 62
     7
370
     0
100
AcDbLine
 10
58.5
 20
1.5
 30
0.0
 11
58.5
 21
1.0
 31
0.0
  0
LINE
  5
64
330
A
100
AcDbEntity
  8
0
  6
Continuous
 62
     7
370
     0
100
AcDbLine
 10
51.0
 20
1.5
 30
0.0
 11
51.0
 21
1.0
 31
0.0
  0
LINE
  5
65
330
A
100
AcDbEntity
  8
0
  6
Continuous
 62
     7
370
     0
100
AcDbLine
 10
43.5
 20
1.5
 30
0.0
 11
43.5
 21
1.0
 31
0.0
  0
LINE
  5
66
330
A
100
AcDbEntity
  8
0
  6
CENTERX2
 62
     7
370
     0
100
AcDbLine
 10
36.0
 20
1.5
 30
0.0
 11
36.0
 21
1.0
 31
0.0
  0
LINE
  5
67
330
A
100
AcDbEntity
  8
0
  6
Continuous
 62
     7
370
     0
100
AcDbLine
 10
28.5
 20
1.5
 30
0.0
 11
28.5
 21
1.0
 31
0.0
  0
LINE
  5
68
330
A
100
AcDbEntity
  8
0
  6
Continuous
 62
     7
370
     0
100
AcDbLine
 10
21.0
 20
1.5
 30
0.0
 11
21.0
 21
1.0
 31
0.0
  0
LINE
  5
69
330
A
100
AcDbEntity
  8
0
  6
Continuous
 62
     7
370
     0
100
AcDbLine
 10
13.5
 20
1.5
 30
0.0
 11
13.5
 21
1.0
 31
0.0
  0
LINE
  5
6A
330
A
100
AcDbEntity
  8
0
  6
Continuous
 62
     7
370
     0
100
AcDbLine
 10
6.0
 20
22.0
 30
0.0
 11
5.5
 21
22.0
 31
0.0
  0
LINE
  5
6B
330
A
100
AcDbEntity
  8
0
  6
Continuous
 62
     7
370
     0
100
AcDbLine
 10
6.0
 20
11.75
 30
0.0
 11
5.5
 21
11.75
 31
0.0
  0
LINE
  5
6C
330
A
100
AcDbEntity
  8
0
  6
Continuous
 62
     7
370
     0
100
AcDbLine
 10
6.0
 20
1.5
 30
0.0
 11
6.0
 21
11.75
 31
0.0
  0
LINE
  5
6D
330
A
100
AcDbEntity
  8
0
  6
Continuous
 62
     7
370
     0
100
AcDbLine
 10
20.0
 20
3.75
 30
0.0
 11
20.0
 21
1.5
 31
0.0
  0
LINE
  5
6E
330
A
100
AcDbEntity
  8
0
  6
Continuous
 62
     7
370
     0
100
AcDbLine
 10
66.0
 20
41.748
 30
0.0
 11
50.0
 21
41.748
 31
0.0
  0
LINE
  5
6F
330
A
100
AcDbEntity
  8
0
  6
Continuous
 62
     7
370
     0
100
AcDbLine
 10
66.0
 20
40.996
 30
0.0
 11
50.0
 21
40.996
 31
0.0
  0
LINE
  5
70
330
A
100
AcDbEntity
  8
0
  6
Continuous
 62
     7
370
     0
100
AcDbLine
 10
66.0
 20
40.24399999999999
 30
0.0
 11
50.0
 21
40.24399999999999
 31
0.0
  0
LINE
  5
71
330
A
100
AcDbEntity
  8
0
  6
Continuous
 62
     7
370
     0
100
AcDbLine
 10
50.0
 20
42.5
 30
0.0
 11
50.0
 21
40.24399999999999
 31
0.0
  0
LINE
  5
72
330
A
100
AcDbEntity
  8
0
  6
Continuous
 62
     7
370
     0
100
AcDbLine
 10
51.5
 20
41.748
 30
0.0
 11
51.5
 21
40.24399999999999
 31
0.0
  0
LINE
  5
73
330
A
100
AcDbEntity
  8
0
  6
Continuous
 62
     7
370
     0
100
AcDbLine
 10
63.0
 20
41.748
 30
0.0
 11
63.0
 21
40.24399999999999
 31
0.0
  0
LINE
  5
74
330
A
100
AcDbEntity
  8
0
  6
Continuous
 62
     7
370
     0
100
AcDbLine
 10
60.5
 20
41.748
 30
0.0
 11
60.5
 21
40.24399999999999
 31
0.0
  0
MTEXT
  5
76
330
A
100
AcDbEntity
  8
0
 62
     1
100
AcDbMText
 10
35.60721148572421
 20
3.65460642667481
 30
0.0
 40
0.4
 41
0.0
 71
     1
 72
     1
  1
STEEL, A-36 3/8" THICK
  7
SLDTEXTSTYLE0
 73
     1
 44
1.0
  0
MTEXT
  5
77
330
A
100
AcDbEntity
  8
0
 62
     1
100
AcDbMText
 10
46.91802467548239
 20
2.772992025859462
 30
0.0
 40
0.4
 41
0.0
 71
     1
 72
     1
  1
18.0 lbs
  7
SLDTEXTSTYLE0
 73
     1
 44
1.0
  0
MTEXT
  5
78
330
A
100
AcDbEntity
  8
0
 62
     1
100
AcDbMText
 10
60.14682098412215
 20
12.54366617522557
 30
0.0
 40
0.6666666667
 41
0.0
 71
     2
 72
     1
  1
8 REQUIRED\PPER BASE ASSEM
  7
SLDTEXTSTYLE0
 73
     1
 44
1.0
  0
MTEXT
  5
79
330
A
100
AcDbEntity
  8
0
 62
     7
100
AcDbMText
 10
66.8535803182
 20
36.3546511702
 30
0.0
 40
0.375
 41
0.0
 71
     1
 72
     1
  1
D
  7
SLDTEXTSTYLE0
 73
     1
 44
1.0
  0
MTEXT
  5
7A
330
A
100
AcDbEntity
  8
0
 62
     7
100
AcDbMText
 10
66.7804233988
 20
26.184845899
 30
0.0
 40
0.375
 41
0.0
 71
     1
 72
     1
  1
C
  7
SLDTEXTSTYLE0
 73
     1
 44
1.0
  0
MTEXT
  5
7B
330
A
100
AcDbEntity
  8
0
 62
     7
100
AcDbMText
 10
66.8244832006
 20
16.8752606386
 30
0.0
 40
0.375
 41
0.0
 71
     1
 72
     1
  1
B
  7
SLDTEXTSTYLE0
 73
     1
 44
1.0
  0
MTEXT
  5
7C
330
A
100
AcDbEntity
  8
0
 62
     7
100
AcDbMText
 10
66.82220664039999
 20
6.855072833099999
 30
0.0
 40
0.375
 41
0.0
 71
     1
 72
     1
  1
A
  7
SLDTEXTSTYLE0
 73
     1
 44
1.0
  0
MTEXT
  5
7D
330
A
100
AcDbEntity
  8
0
 62
     7
100
AcDbMText
 10
3.8574103947
 20
6.773657474199999
 30
0.0
 40
0.375
 41
0.0
 71
     1
 72
     1
  1
A
  7
SLDTEXTSTYLE0
 73
     1
 44
1.0
  0
MTEXT
  5
7E
330
A
100
AcDbEntity
  8
0
 62
     7
100
AcDbMText
 10
3.8446380257
 20
17.1111811225
 30
0.0
 40
0.375
 41
0.0
 71
     1
 72
     1
  1
B
  7
SLDTEXTSTYLE0
 73
     1
 44
1.0
  0
MTEXT
  5
7F
330
A
100
AcDbEntity
  8
0
 62
     7
100
AcDbMText
 10
3.7953116217
 20
27.4969600264
 30
0.0
 40
0.375
 41
0.0
 71
     1
 72
     1
  1
C
  7
SLDTEXTSTYLE0
 73
     1
 44
1.0
  0
MTEXT
  5
80
330
A
100
AcDbEntity
  8
0
 62
     7
100
AcDbMText
 10
3.7821958485
 20
37.2258735343
 30
0.0
 40
0.375
 41
0.0
 71
     1
 72
     1
  1
D
  7
SLDTEXTSTYLE0
 73
     1
 44
1.0
  0
MTEXT
  5
81
330
A
100
AcDbEntity
  8
0
 62
     7
100
AcDbMText
 10
64.7432232461
 20
2.0787142358
 30
0.0
 40
0.36
 41
0.0
 71
     1
 72
     1
  1
REV.
  7
SLDTEXTSTYLE0
 73
     1
 44
1.0
  0
MTEXT
  5
82
330
A
100
AcDbEntity
  8
0
 62
     7
100
AcDbMText
 10
49.3963080474
 20
7.034763897799999
 30
0.0
 40
0.36
 41
0.0
 71
     1
 72
     1
  1
%%p\P%%p\P%%p\P%%p
  7
SLDTEXTSTYLE0
 73
     1
 44
1.0
  0
MTEXT
  5
83
330
A
100
AcDbEntity
  8
0
 62
     7
100
AcDbMText
 10
35.2477660994
 20
4.3899383999
 30
0.0
 40
0.36
 41
0.0
 71
     1
 72
     1
  1
MATERIAL
  7
SLDTEXTSTYLE0
 73
     1
 44
1.0
  0
MTEXT
  5
84
330
A
100
AcDbEntity
  8
0
 62
     7
100
AcDbMText
 10
35.23861362579999
 20
2.9266952275
 30
0.0
 40
0.36
 41
0.0
 71
     1
 72
     1
  1
FINISH
  7
SLDTEXTSTYLE0
 73
     1
 44
1.0
  0
MTEXT
  5
85
330
A
100
AcDbEntity
  8
0
 62
     7
100
AcDbMText
 10
63.2017320133
 20
1.287073523899999
 30
0.0
 40
0.375
 41
0.0
 71
     1
 72
     1
  1
1
  7
SLDTEXTSTYLE0
 73
     1
 44
1.0
  0
MTEXT
  5
86
330
A
100
AcDbEntity
  8
0
 62
     7
100
AcDbMText
 10
54.37754501609999
 20
1.3260431792
 30
0.0
 40
0.375
 41
0.0
 71
     1
 72
     1
  1
2
  7
SLDTEXTSTYLE0
 73
     1
 44
1.0
  0
MTEXT
  5
87
330
A
100
AcDbEntity
  8
0
 62
     7
100
AcDbMText
 10
46.14508672369999
 20
1.3390330643
 30
0.0
 40
0.375
 41
0.0
 71
     1
 72
     1
  1
3
  7
SLDTEXTSTYLE0
 73
     1
 44
1.0
  0
MTEXT
  5
88
330
A
100
AcDbEntity
  8
0
 62
     7
100
AcDbMText
 10
38.7267103229
 20
1.346979509399999
 30
0.0
 40
0.375
 41
0.0
 71
     1
 72
     1
  1
4
  7
SLDTEXTSTYLE0
 73
     1
 44
1.0
  0
MTEXT
  5
89
330
A
100
AcDbEntity
  8
0
 62
     7
100
AcDbMText
 10
30.92505867409999
 20
1.359969394499999
 30
0.0
 40
0.375
 41
0.0
 71
     1
 72
     1
  1
5
  7
SLDTEXTSTYLE0
 73
     1
 44
1.0
  0
MTEXT
  5
8A
330
A
100
AcDbEntity
  8
0
 62
     7
100
AcDbMText
 10
23.6408619944
 20
1.295019968899999
 30
0.0
 40
0.375
 41
0.0
 71
     1
 72
     1
  1
6
  7
SLDTEXTSTYLE0
 73
     1
 44
1.0
  0
MTEXT
  5
8B
330
A
100
AcDbEntity
  8
0
 62
     7
100
AcDbMText
 10
15.7209235146
 20
1.3520229494
 30
0.0
 40
0.375
 41
0.0
 71
     1
 72
     1
  1
7
  7
SLDTEXTSTYLE0
 73
     1
 44
1.0
  0
MTEXT
  5
8C
330
A
100
AcDbEntity
  8
0
 62
     7
100
AcDbMText
 10
8.592605456199999
 20
1.359969394499999
 30
0.0
 40
0.375
 41
0.0
 71
     1
 72
     1
  1
8
  7
SLDTEXTSTYLE0
 73
     1
 44
1.0
  0
MTEXT
  5
8D
330
A
100
AcDbEntity
  8
0
 62
     7
100
AcDbMText
 10
8.4691158123
 20
43.2347584853
 30
0.0
 40
0.375
 41
0.0
 71
     1
 72
     1
  1
8
  7
SLDTEXTSTYLE0
 73
     1
 44
1.0
  0
MTEXT
  5
8E
330
A
100
AcDbEntity
  8
0
 62
     7
100
AcDbMText
 10
16.281827991
 20
43.145609375
 30
0.0
 40
0.375
 41
0.0
 71
     1
 72
     1
  1
7
  7
SLDTEXTSTYLE0
 73
     1
 44
1.0
  0
MTEXT
  5
8F
330
A
100
AcDbEntity
  8
0
 62
     7
100
AcDbMText
 10
23.80685895889999
 20
43.11947482639999
 30
0.0
 40
0.375
 41
0.0
 71
     1
 72
     1
  1
6
  7
SLDTEXTSTYLE0
 73
     1
 44
1.0
  0
MTEXT
  5
90
330
A
100
AcDbEntity
  8
0
 62
     7
100
AcDbMText
 10
31.6247767236
 20
43.0720435981
 30
0.0
 40
0.375
 41
0.0
 71
     1
 72
     1
  1
5
  7
SLDTEXTSTYLE0
 73
     1
 44
1.0
  0
MTEXT
  5
91
330
A
100
AcDbEntity
  8
0
 62
     7
100
AcDbMText
 10
39.3952632601
 20
43.1873272569
 30
0.0
 40
0.375
 41
0.0
 71
     1
 72
     1
  1
4
  7
SLDTEXTSTYLE0
 73
     1
 44
1.0
  0
MTEXT
  5
92
330
A
100
AcDbEntity
  8
0
 62
     7
100
AcDbMText
 10
47.2052089631
 20
43.10458657549999
 30
0.0
 40
0.375
 41
0.0
 71
     1
 72
     1
  1
3
  7
SLDTEXTSTYLE0
 73
     1
 44
1.0
  0
MTEXT
  5
93
330
A
100
AcDbEntity
  8
0
 62
     7
100
AcDbMText
 10
54.68419194049999
 20
43.1534010417
 30
0.0
 40
0.375
 41
0.0
 71
     1
 72
     1
  1
2
  7
SLDTEXTSTYLE0
 73
     1
 44
1.0
  0
MTEXT
  5
94
330
A
100
AcDbEntity
  8
0
 62
     7
100
AcDbMText
 10
62.6675910681
 20
43.0869318489
 30
0.0
 40
0.375
 41
0.0
 71
     1
 72
     1
  1
1
  7
SLDTEXTSTYLE0
 73
     1
 44
1.0
  0
MTEXT
  5
95
330
A
100
AcDbEntity
  8
0
 62
     7
100
AcDbMText
 10
54.6217360465
 20
9.2028695439
 30
0.0
 40
0.6666666667
 41
0.0
 71
     1
 72
     1
  1
RADIO  ASTRONOMY  LAB
  7
SLDTEXTSTYLE0
 73
     1
 44
1.0
  0
MTEXT
  5
96
330
A
100
AcDbEntity
  8
0
 62
     7
100
AcDbMText
 10
60.0910315019
 20
8.0781964362
 30
0.0
 40
0.4
 41
0.0
 71
     2
 72
     1
  1
University of California - Berkeley\PTel: 510-642-5040    Fax: 510-642-3411
  7
SLDTEXTSTYLE0
 73
     1
 44
1.0
  0
MTEXT
  5
97
330
A
100
AcDbEntity
  8
0
 62
     7
100
AcDbMText
 10
37.5359397626
 20
6.5510375446
 30
0.0
 40
0.36
 41
0.0
 71
     1
 72
     1
  1
NAME
  7
SLDTEXTSTYLE0
 73
     1
 44
1.0
  0
MTEXT
  5
98
330
A
100
AcDbEntity
  8
0
 62
     7
100
AcDbMText
 10
41.96775689419999
 20
6.533313707999999
 30
0.0
 40
0.36
 41
0.0
 71
     1
 72
     1
  1
DATE
  7
SLDTEXTSTYLE0
 73
     1
 44
1.0
  0
MTEXT
  5
99
330
A
100
AcDbEntity
  8
0
 62
     7
100
AcDbMText
 10
54.3173217296
 20
2.096611452799999
 30
0.0
 40
0.36
 41
0.0
 71
     1
 72
     1
  1
SIZE
  7
SLDTEXTSTYLE0
 73
     1
 44
1.0
  0
MTEXT
  5
9A
330
A
100
AcDbEntity
  8
0
 62
     7
100
AcDbMText
 10
54.53799952229999
 20
3.376527868999999
 30
0.0
 40
0.75
 41
0.0
 71
     1
 72
     1
  1
B
  7
SLDTEXTSTYLE0
 73
     1
 44
1.0
  0
MTEXT
  5
9B
330
A
100
AcDbEntity
  8
0
 62
     7
100
AcDbMText
 10
44.31685140449999
 20
2.0514646827
 30
0.0
 40
0.36
 41
0.0
 71
     1
 72
     1
  1
SCALE:
  7
SLDTEXTSTYLE0
 73
     1
 44
1.0
  0
MTEXT
  5
9C
330
A
100
AcDbEntity
  8
0
 62
     7
100
AcDbMText
 10
55.69756231220001
 20
2.080001124799999
 30
0.0
 40
0.36
 41
0.0
 71
     1
 72
     1
  1
DWG NUM:      SHEET             OF
  7
SLDTEXTSTYLE0
 73
     1
 44
1.0
  0
MTEXT
  5
9D
330
A
100
AcDbEntity
  8
0
 62
     7
100
AcDbMText
 10
63.9951259177
 20
41.5412107411
 30
0.0
 40
0.36
 41
0.0
 71
     1
 72
     1
  1
DATE
  7
SLDTEXTSTYLE0
 73
     1
 44
1.0
  0
MTEXT
  5
9E
330
A
100
AcDbEntity
  8
0
 62
     7
100
AcDbMText
 10
61.20995431709999
 20
41.53949824139999
 30
0.0
 40
0.36
 41
0.0
 71
     1
 72
     1
  1
NAME
  7
SLDTEXTSTYLE0
 73
     1
 44
1.0
  0
MTEXT
  5
9F
330
A
100
AcDbEntity
  8
0
 62
     7
100
AcDbMText
 10
56.132295403
 20
42.2878586827
 30
0.0
 40
0.36
 41
0.0
 71
     1
 72
     1
  1
REVISIONS
  7
SLDTEXTSTYLE0
 73
     1
 44
1.0
  0
MTEXT
  5
A0
330
A
100
AcDbEntity
  8
0
 62
     7
100
AcDbMText
 10
50.3287943475
 20
41.533732966
 30
0.0
 40
0.36
 41
0.0
 71
     1
 72
     1
  1
REV
  7
SLDTEXTSTYLE0
 73
     1
 44
1.0
  0
MTEXT
  5
A1
330
A
100
AcDbEntity
  8
0
 62
     7
100
AcDbMText
 10
51.8498227663
 20
41.531562701
 30
0.0
 40
0.36
 41
0.0
 71
     1
 72
     1
  1
DESCRIPTION
  7
SLDTEXTSTYLE0
 73
     1
 44
1.0
  0
MTEXT
  5
A2
330
A
100
AcDbEntity
  8
0
 62
     7
100
AcDbMText
 10
44.296078711
 20
2.7937832593
 30
0.0
 40
0.36
 41
0.0
 71
     1
 72
     1
  1
WEIGHT:
  7
SLDTEXTSTYLE0
 73
     1
 44
1.0
  0
MTEXT
  5
A3
330
A
100
AcDbEntity
  8
0
 62
     7
100
AcDbMText
 10
35.2430564705
 20
5.7901778525
 30
0.0
 40
0.36
 41
0.0
 71
     1
 72
     1
  1
DRAWN
  7
SLDTEXTSTYLE0
 73
     1
 44
1.0
  0
MTEXT
  5
A4
330
A
100
AcDbEntity
  8
0
 62
     7
100
AcDbMText
 10
35.2421468027
 20
5.0453216955
 30
0.0
 40
0.36
 41
0.0
 71
     1
 72
     1
  1
CHECKED
  7
SLDTEXTSTYLE0
 73
     1
 44
1.0
  0
MTEXT
  5
A5
330
A
100
AcDbEntity
  8
0
 62
     7
100
AcDbMText
 10
48.6611171697
 20
7.015682038799999
 30
0.0
 40
0.36
 41
0.0
 71
     3
 72
     1
  1
WHOLE & FRACTION\PDECIMAL   X.X\PDECIMAL   X.XX\PDECIMAL   X.XXX
  7
SLDTEXTSTYLE0
 73
     1
 44
1.0
  0
MTEXT
  5
A6
330
A
100
AcDbEntity
  8
0
 62
     7
100
AcDbMText
 10
50.3491902811
 20
7.858944104299999
 30
0.0
 40
0.36
 41
0.0
 71
     2
 72
     1
  1
LINEAR
  7
SLDTEXTSTYLE0
 73
     1
 44
1.0
  0
MTEXT
  5
A7
330
A
100
AcDbEntity
  8
0
 62
     7
100
AcDbMText
 10
52.6712182055
 20
7.8830150626
 30
0.0
 40
0.36
 41
0.0
 71
     2
 72
     1
  1
ANGLE
  7
SLDTEXTSTYLE0
 73
     1
 44
1.0
  0
INSERT
  5
AE
330
A
100
AcDbEntity
  8
0
100
AcDbBlockReference
  2
NOTE50
 10
44.667986743
 20
4.3761790104
 30
0.0
  0
MTEXT
  5
AF
330
A
100
AcDbEntity
  8
0
 62
     7
100
AcDbMText
 10
48.9950139524
 20
9.2356113863
 30
0.0
 40
0.36
 41
0.0
 71
     2
 72
     1
  1
UNLESS OTHERWISE SPECIFIED\PDIMENSIONS ARE INCHES & DEGREES
  7
SLDTEXTSTYLE0
 73
     1
 44
1.0
  0
MTEXT
  5
B0
330
A
100
AcDbEntity
  8
0
 62
     7
100
AcDbMText
 10
44.80520043600001
 20
7.833473812
 30
0.0
 40
0.36
 41
0.0
 71
     1
 72
     1
  1
TOLERANCES:
  7
SLDTEXTSTYLE0
 73
     1
 44
1.0
  0
MTEXT
  5
B1
330
A
100
AcDbEntity
  8
0
 62
     7
100
AcDbMText
 10
51.821847405
 20
7.0312486711
 30
0.0
 40
0.36
 41
0.0
 71
     1
 72
     1
  1
%%p\P%%p\P%%p\P%%p
  7
SLDTEXTSTYLE0
 73
     1
 44
1.0
  0
MTEXT
  5
B2
330
A
100
AcDbEntity
  8
0
 62
     7
100
AcDbMText
 10
58.65360117409999
 20
41.54490574119999
 30
0.0
 40
0.36
 41
0.0
 71
     1
 72
     1
  1
ZONE
  7
SLDTEXTSTYLE0
 73
     1
 44
1.0
  0
MTEXT
  5
B3
330
A
100
AcDbEntity
  8
0
 62
     7
100
AcDbMText
 10
20.3808707277
 20
3.458266668699999
 30
0.0
 40
0.32
 41
0.0
 71
     1
 72
     1
  1
THIS DRAWING IS THE PROPERTY OF AND CONTAINS CONFIDENTIAL\PINFORMATION PROPRIETARY TO THE UNIVERSITY OF CALIFORNIA AND\PSHALL BE USED ONLY FOR THE PURPOSE FOR WHICH IT WAS PROVIDED\PAND SHALL NOT BE REPRODUCED OR DISCLOSED TO OTHERS.
  7
SLDTEXTSTYLE0
 73
     1
 44
1.0
  0
MTEXT
  5
B4
330
A
100
AcDbEntity
  8
0
 62
     7
100
AcDbMText
 10
50.5558344517
 20
40.81959670439999
 30
0.0
 40
0.36
 41
0.0
 71
     1
 72
     1
  1
A
  7
SLDTEXTSTYLE0
 73
     1
 44
1.0
  0
MTEXT
  5
B5
330
A
100
AcDbEntity
  8
0
 62
     7
100
AcDbMText
 10
51.9119836556
 20
40.8186060335
 30
0.0
 40
0.36
 41
0.0
 71
     1
 72
     1
  1
RELEASED
  7
SLDTEXTSTYLE0
 73
     1
 44
1.0
  0
MTEXT
  5
B6
330
A
100
AcDbEntity
  8
0
 62
     7
100
AcDbMText
 10
37.4766966926
 20
5.8405075573
 30
0.0
 40
0.4166666667000001
 41
0.0
 71
     1
 72
     1
  1
M. C. FLEMING
  7
SLDTEXTSTYLE0
 73
     1
 44
1.0
  0
MTEXT
  5
B7
330
A
100
AcDbEntity
  8
0
 62
     7
100
AcDbMText
 10
65.0084175521
 20
3.3082817912
 30
0.0
 40
0.75
 41
0.0
 71
     1
 72
     1
  1
A
  7
SLDTEXTSTYLE0
 73
     1
 44
1.0
  0
MTEXT
  5
B8
330
A
100
AcDbEntity
  8
0
 62
     7
100
AcDbMText
 10
41.2885611079
 20
5.8336167047
 30
0.0
 40
0.4166666667000001
 41
0.0
 71
     1
 72
     1
  1
2005-01-17
  7
SLDTEXTSTYLE0
 73
     1
 44
1.0
  0
MTEXT
  5
B9
330
A
100
AcDbEntity
  8
0
 62
     7
100
AcDbMText
 10
50.04964365300001
 20
7.039306895599999
 30
0.0
 40
0.36
 41
0.0
 71
     1
 72
     1
  1
1/16\P0.1\P0.01\P0.005
  7
SLDTEXTSTYLE0
 73
     1
 44
1.0
  0
MTEXT
  5
BA
330
A
100
AcDbEntity
  8
0
 62
     7
100
AcDbMText
 10
52.4099368779
 20
7.031500408999999
 30
0.0
 40
0.36
 41
0.0
 71
     1
 72
     1
  1
1%%d\P0.1%%d\P0.01%%d\P0.001%%d
  7
SLDTEXTSTYLE0
 73
     1
 44
1.0
  0
MTEXT
  5
BB
330
A
100
AcDbEntity
  8
0
 62
     7
100
AcDbMText
 10
56.32681204409999
 20
3.3806480451
 30
0.0
 40
0.75
 41
0.0
 71
     1
 72
     1
  1
24-09-258    1 of 1
  7
SLDTEXTSTYLE0
 73
     1
 44
1.0
  0
MTEXT
  5
BC
330
A
100
AcDbEntity
  8
0
 62
     7
100
AcDbMText
 10
61.1839129978
 20
40.8203446032
 30
0.0
 40
0.4166666667000001
 41
0.0
 71
     1
 72
     1
  1
M.C.F.
  7
SLDTEXTSTYLE0
 73
     1
 44
1.0
  0
MTEXT
  5
BD
330
A
100
AcDbEntity
  8
0
 62
     7
100
AcDbMText
 10
63.3850246881
 20
40.83373823499999
 30
0.0
 40
0.4166666667000001
 41
0.0
 71
     1
 72
     1
  1
2005-01-17
  7
SLDTEXTSTYLE0
 73
     1
 44
1.0
  0
MTEXT
  5
BE
330
A
100
AcDbEntity
  8
0
 62
     7
100
AcDbMText
 10
59.75471760600001
 20
6.1303452935
 30
0.0
 40
0.75
 41
0.0
 71
     2
 72
     1
  1
CARMA 6m Base,\PArm, Base Stiffener 
  7
SLDTEXTSTYLE0
 73
     1
 44
1.0
  0
CIRCLE
  5
BF
330
A
100
AcDbEntity
  8
0
  6
Continuous
 62
     7
370
    15
100
AcDbCircle
 10
24.6527426956
 20
23.8436946277
 30
0.0
 40
2.5
  0
LINE
  5
C0
330
A
100
AcDbEntity
  8
0
  6
Continuous
 62
     7
370
    15
100
AcDbLine
 10
40.2777423013
 20
28.8436949469
 30
0.0
 11
19.0277430898
 21
28.8436949469
 31
0.0
  0
LINE
  5
C1
330
A
100
AcDbEntity
  8
0
  6
Continuous
 62
     7
370
    15
100
AcDbLine
 10
40.2777423013
 20
20.8436946035
 30
0.0
 11
40.2777423013
 21
28.8436949469
 31
0.0
  0
LINE
  5
C2
330
A
100
AcDbEntity
  8
0
  6
Continuous
 62
     7
370
    15
100
AcDbLine
 10
38.27774247219999
 20
18.84369462769999
 30
0.0
 11
40.2777423013
 21
20.8436946035
 31
0.0
  0
LINE
  5
C3
330
A
100
AcDbEntity
  8
0
  6
Continuous
 62
     7
370
    15
100
AcDbLine
 10
21.027742919
 20
18.84369462769999
 30
0.0
 11
38.27774247219999
 21
18.84369462769999
 31
0.0
  0
LINE
  5
C4
330
A
100
AcDbEntity
  8
0
  6
Continuous
 62
     7
370
    15
100
AcDbLine
 10
19.0277430898
 20
20.8436946035
 30
0.0
 11
21.027742919
 21
18.84369462769999
 31
0.0
  0
LINE
  5
C5
330
A
100
AcDbEntity
  8
0
  6
Continuous
 62
     7
370
    15
100
AcDbLine
 10
19.0277430898
 20
28.8436949469
 30
0.0
 11
19.0277430898
 21
20.8436946035
 31
0.0
  0
CIRCLE
  5
C6
330
A
100
AcDbEntity
  8
0
  6
Continuous
 62
     7
370
    15
100
AcDbCircle
 10
34.6527426956
 20
23.8436946277
 30
0.0
 40
2.5
  0
DIMENSION
  5
D4
330
A
100
AcDbEntity
  8
0
 62
     7
100
AcDbDimension
  2
*D1
 10
47.3284550384
 20
18.84369462769999
 30
0.0
 11
47.3284550384
 21
23.8436946277
 31
0.0
 70
   160
 71
     5
 42
0.0
  3
SLDDIMSTYLE0
100
AcDbAlignedDimension
 13
40.2777426956
 23
28.84369462769999
 33
0.0
 14
40.2777426956
 24
18.84369462769999
 34
0.0
 50
90.0
100
AcDbRotatedDimension
  0
DIMENSION
  5
E1
330
A
100
AcDbEntity
  8
0
 62
     7
100
AcDbDimension
  2
*D2
 10
19.0277426956
 20
34.9201015259
 30
0.0
 11
34.9922562733
 21
34.9201015259
 31
0.0
 70
   160
 71
     5
 42
0.0
  3
SLDDIMSTYLE0
100
AcDbAlignedDimension
 13
40.2777426956
 23
28.84369462769999
 33
0.0
 14
19.0277426956
 24
28.84369462769999
 34
0.0
100
AcDbRotatedDimension
  0
DIMENSION
  5
F1
330
A
100
AcDbEntity
  8
0
100
AcDbDimension
  2
*D3
 10
33.46880896389999
 20
26.045580392
 30
0.0
 11
27.15993170199999
 21
31.7716324811
 31
0.0
 70
   163
  1
<> DIA BURNED \P2 PLACES\PPLEASE DEBURR
 71
     5
 42
0.0
  3
SLDDIMSTYLE1
100
AcDbDiametricDimension
 15
35.8366764272
 25
21.6418088634
 35
0.0
 40
0.0
  0
DIMENSION
  5
FE
330
A
100
AcDbEntity
  8
0
 62
     7
100
AcDbDimension
  2
*D4
 10
29.6527426956
 20
17.0076112018
 30
0.0
 11
32.1527426956
 21
17.0076112018
 31
0.0
 70
   160
 71
     5
 42
0.0
  3
SLDDIMSTYLE0
100
AcDbAlignedDimension
 13
34.6527426956
 23
23.8436946277
 33
0.0
 14
29.6527426956
 24
18.84369462769999
 34
0.0
100
AcDbRotatedDimension
  0
DIMENSION
  5
10B
330
A
100
AcDbEntity
  8
0
 62
     7
100
AcDbDimension
  2
*D5
 10
15.85192684519999
 20
18.84369462769999
 30
0.0
 11
15.85192684519999
 21
21.6385961788
 31
0.0
 70
   160
 71
     5
 42
0.0
  3
SLDDIMSTYLE0
100
AcDbAlignedDimension
 13
34.6527426956
 23
23.8436946277
 33
0.0
 14
19.0277426956
 24
18.84369462769999
 34
0.0
 50
90.0
100
AcDbRotatedDimension
  0
DIMENSION
  5
118
330
A
100
AcDbEntity
  8
0
 62
     7
100
AcDbDimension
  2
*D6
 10
40.2777426956
 20
15.91820737369999
 30
0.0
 11
43.36557702279999
 21
15.91820737369999
 31
0.0
 70
   160
 71
     5
 42
0.0
  3
SLDDIMSTYLE0
100
AcDbAlignedDimension
 13
38.27774269559999
 23
18.84369462769999
 33
0.0
 14
40.2777426956
 24
18.84369462769999
 34
0.0
100
AcDbRotatedDimension
  0
DIMENSION
  5
128
330
A
100
AcDbEntity
  8
0
100
AcDbDimension
  2
*D7
 10
37.8840419082
 20
18.84369462769999
 30
0.0
 11
33.72842111099999
 21
16.9593039278
 31
0.0
 70
   162
 71
     5
 42
0.0
  3
SLDDIMSTYLE2
100
AcDb2LineAngularDimension
 13
37.999354199
 23
18.5653061312
 33
0.0
 14
38.27774269559999
 24
18.84369462769999
 34
0.0
 15
38.27774269559999
 25
18.84369462769999
 35
0.0
 16
33.4482086611
 26
17.8830405796
 36
0.0
  0
DIMENSION
  5
135
330
A
100
AcDbEntity
  8
0
 62
     7
100
AcDbDimension
  2
*D8
 10
34.6527426956
 20
15.3811790625
 30
0.0
 11
28.8800813499
 21
15.3811790625
 31
0.0
 70
   160
 71
     5
 42
0.0
  3
SLDDIMSTYLE0
100
AcDbAlignedDimension
 13
24.6527426956
 23
23.8436946277
 33
0.0
 14
34.6527426956
 24
23.8436946277
 34
0.0
100
AcDbRotatedDimension
  0
LINE
  5
136
330
A
100
AcDbEntity
  8
0
  6
Continuous
 62
     7
370
    15
100
AcDbLine
 10
55.042357927
 20
20.8436946035
 30
0.0
 11
55.4173579316
 21
20.8436946035
 31
0.0
  0
LINE
  5
137
330
A
100
AcDbEntity
  8
0
  6
Continuous
 62
     7
370
    15
100
AcDbLine
 10
55.4173579316
 20
20.8436946035
 30
0.0
 11
55.4173579316
 21
18.84369462769999
 31
0.0
  0
LINE
  5
138
330
A
100
AcDbEntity
  8
0
  6
Continuous
 62
     7
370
    15
100
AcDbLine
 10
55.4173579316
 20
18.84369462769999
 30
0.0
 11
55.042357927
 21
18.84369462769999
 31
0.0
  0
LINE
  5
139
330
A
100
AcDbEntity
  8
0
  6
Continuous
 62
     7
370
    15
100
AcDbLine
 10
55.042357927
 20
18.84369462769999
 30
0.0
 11
55.042357927
 21
20.8436946035
 31
0.0
  0
LINE
  5
13A
330
A
100
AcDbEntity
  8
0
  6
Continuous
 62
     7
370
    15
100
AcDbLine
 10
55.042357927
 20
28.8436949469
 30
0.0
 11
55.4173579316
 21
28.8436949469
 31
0.0
  0
LINE
  5
13B
330
A
100
AcDbEntity
  8
0
  6
Continuous
 62
     7
370
    15
100
AcDbLine
 10
55.042357927
 20
20.8436946035
 30
0.0
 11
55.042357927
 21
28.8436949469
 31
0.0
  0
LINE
  5
13C
330
A
100
AcDbEntity
  8
0
  6
Continuous
 62
     7
370
    15
100
AcDbLine
 10
55.4173579316
 20
20.8436946035
 30
0.0
 11
55.4173579316
 21
28.8436949469
 31
0.0
  0
DIMENSION
  5
149
330
A
100
AcDbEntity
  8
0
100
AcDbDimension
  2
*D9
 10
55.4173579316
 20
32.74888839469999
 30
0.0
 11
58.0157744153
 21
32.74888839469999
 31
0.0
 70
   160
 71
     5
 42
0.0
  3
SLDDIMSTYLE0
100
AcDbAlignedDimension
 13
55.0423579316
 23
28.84369462769999
 33
0.0
 14
55.4173579316
 24
28.84369462769999
 34
0.0
100
AcDbRotatedDimension
  0
DIMENSION
  5
156
330
A
100
AcDbEntity
  8
0
 62
     7
100
AcDbDimension
  2
*D10
 10
55.0423579316
 20
16.99024446329999
 30
0.0
 11
53.42677826600001
 21
16.99024446329999
 31
0.0
 70
   160
 71
     5
 42
0.0
  3
SLDDIMSTYLE0
100
AcDbAlignedDimension
 13
55.4173579316
 23
18.84369462769999
 33
0.0
 14
55.0423579316
 24
18.84369462769999
 34
0.0
100
AcDbRotatedDimension
  0
POLYLINE
  5
157
330
A
100
AcDbEntity
  8
0
  6
Continuous
 62
     7
100
AcDb2dPolyline
 66
     1
 10
0.0
 20
0.0
 30
0.0
 70
   128
 40
0.0023622047
 41
0.0023622047
  0
VERTEX
  5
158
330
157
100
AcDbEntity
  8
0
100
AcDbVertex
100
AcDb2dVertex
 10
11.874495199
 20
13.70393858299999
 30
0.0
  0
VERTEX
  5
159
330
157
100
AcDbEntity
  8
0
100
AcDbVertex
100
AcDb2dVertex
 10
11.87779055559999
 20
13.60033592869999
 30
0.0
  0
VERTEX
  5
15A
330
157
100
AcDbEntity
  8
0
100
AcDbVertex
100
AcDb2dVertex
 10
11.8876581965
 20
13.4935079246
 30
0.0
  0
VERTEX
  5
15B
330
157
100
AcDbEntity
  8
0
100
AcDbVertex
100
AcDb2dVertex
 10
11.9040429379
 20
13.3840519964
 30
0.0
  0
VERTEX
  5
15C
330
157
100
AcDbEntity
  8
0
100
AcDbVertex
100
AcDb2dVertex
 10
11.9268531495
 20
13.2725802659
 30
0.0
  0
VERTEX
  5
15D
330
157
100
AcDbEntity
  8
0
100
AcDbVertex
100
AcDb2dVertex
 10
11.95596126749999
 20
13.1597161283
 30
0.0
  0
VERTEX
  5
15E
330
157
100
AcDbEntity
  8
0
100
AcDbVertex
100
AcDb2dVertex
 10
11.9912045074
 20
13.0460907657
 30
0.0
  0
VERTEX
  5
15F
330
157
100
AcDbEntity
  8
0
100
AcDbVertex
100
AcDb2dVertex
 10
12.0323857748
 20
12.9323396172
 30
0.0
  0
VERTEX
  5
160
330
157
100
AcDbEntity
  8
0
100
AcDbVertex
100
AcDb2dVertex
 10
12.0792747673
 20
12.81909882529999
 30
0.0
  0
VERTEX
  5
161
330
157
100
AcDbEntity
  8
0
100
AcDbVertex
100
AcDb2dVertex
 10
12.1316092627
 20
12.7070016785
 30
0.0
  0
VERTEX
  5
162
330
157
100
AcDbEntity
  8
0
100
AcDbVertex
100
AcDb2dVertex
 10
12.1890965851
 20
12.5966750694
 30
0.0
  0
VERTEX
  5
163
330
157
100
AcDbEntity
  8
0
100
AcDbVertex
100
AcDb2dVertex
 10
12.2514152422
 20
12.4887359894
 30
0.0
  0
VERTEX
  5
164
330
157
100
AcDbEntity
  8
0
100
AcDbVertex
100
AcDb2dVertex
 10
12.31821672279999
 20
12.3837880773
 30
0.0
  0
VERTEX
  5
165
330
157
100
AcDbEntity
  8
0
100
AcDbVertex
100
AcDb2dVertex
 10
12.3891274459
 20
12.2824182447
 30
0.0
  0
VERTEX
  5
166
330
157
100
AcDbEntity
  8
0
100
AcDbVertex
100
AcDb2dVertex
 10
12.46375085
 20
12.1851933926
 30
0.0
  0
VERTEX
  5
167
330
157
100
AcDbEntity
  8
0
100
AcDbVertex
100
AcDb2dVertex
 10
12.5416696107
 20
12.0926572419
 30
0.0
  0
VERTEX
  5
168
330
157
100
AcDbEntity
  8
0
100
AcDbVertex
100
AcDb2dVertex
 10
12.6224479747
 20
12.0053272923
 30
0.0
  0
VERTEX
  5
169
330
157
100
AcDbEntity
  8
0
100
AcDbVertex
100
AcDb2dVertex
 10
12.7056341966
 20
11.92369192829999
 30
0.0
  0
VERTEX
  5
16A
330
157
100
AcDbEntity
  8
0
100
AcDbVertex
100
AcDb2dVertex
 10
12.7907630654
 20
11.8482076879
 30
0.0
  0
VERTEX
  5
16B
330
157
100
AcDbEntity
  8
0
100
AcDbVertex
100
AcDb2dVertex
 10
12.87735850579999
 20
11.7792967097
 30
0.0
  0
VERTEX
  5
16C
330
157
100
AcDbEntity
  8
0
100
AcDbVertex
100
AcDb2dVertex
 10
12.9649362411
 20
11.7173443718
 30
0.0
  0
VERTEX
  5
16D
330
157
100
AcDbEntity
  8
0
100
AcDbVertex
100
AcDb2dVertex
 10
13.05300650099999
 20
11.66269713669999
 30
0.0
  0
VERTEX
  5
16E
330
157
100
AcDbEntity
  8
0
100
AcDbVertex
100
AcDb2dVertex
 10
13.14107676089999
 20
11.6156606141
 30
0.0
  0
VERTEX
  5
16F
330
157
100
AcDbEntity
  8
0
100
AcDbVertex
100
AcDb2dVertex
 10
13.2286544961
 20
11.5764978512
 30
0.0
  0
VERTEX
  5
170
330
157
100
AcDbEntity
  8
0
100
AcDbVertex
100
AcDb2dVertex
 10
13.3152499366
 20
11.545427862
 30
0.0
  0
VERTEX
  5
171
330
157
100
AcDbEntity
  8
0
100
AcDbVertex
100
AcDb2dVertex
 10
13.40037880529999
 20
11.5226244026
 30
0.0
  0
VERTEX
  5
172
330
157
100
AcDbEntity
  8
0
100
AcDbVertex
100
AcDb2dVertex
 10
13.4835650273
 20
11.5082149992
 30
0.0
  0
VERTEX
  5
173
330
157
100
AcDbEntity
  8
0
100
AcDbVertex
100
AcDb2dVertex
 10
13.5643433913
 20
11.5022802349
 30
0.0
  0
VERTEX
  5
174
330
157
100
AcDbEntity
  8
0
100
AcDbVertex
100
AcDb2dVertex
 10
13.642262152
 20
11.5048532994
 30
0.0
  0
VERTEX
  5
175
330
157
100
AcDbEntity
  8
0
100
AcDbVertex
100
AcDb2dVertex
 10
13.716885556
 20
11.51591980309999
 30
0.0
  0
VERTEX
  5
176
330
157
100
AcDbEntity
  8
0
100
AcDbVertex
100
AcDb2dVertex
 10
13.7877962791
 20
11.5354178575
 30
0.0
  0
VERTEX
  5
177
330
157
100
AcDbEntity
  8
0
100
AcDbVertex
100
AcDb2dVertex
 10
13.8545977597
 20
11.5632384218
 30
0.0
  0
VERTEX
  5
178
330
157
100
AcDbEntity
  8
0
100
AcDbVertex
100
AcDb2dVertex
 10
13.9169164169
 20
11.5992259119
 30
0.0
  0
VERTEX
  5
179
330
157
100
AcDbEntity
  8
0
100
AcDbVertex
100
AcDb2dVertex
 10
13.9744037393
 20
11.64317907119999
 30
0.0
  0
VERTEX
  5
17A
330
157
100
AcDbEntity
  8
0
100
AcDbVertex
100
AcDb2dVertex
 10
14.02673823459999
 20
11.6948520959
 30
0.0
  0
VERTEX
  5
17B
330
157
100
AcDbEntity
  8
0
100
AcDbVertex
100
AcDb2dVertex
 10
14.0736272271
 20
11.7539560094
 30
0.0
  0
VERTEX
  5
17C
330
157
100
AcDbEntity
  8
0
100
AcDbVertex
100
AcDb2dVertex
 10
14.1148084945
 20
11.8201602786
 30
0.0
  0
VERTEX
  5
17D
330
157
100
AcDbEntity
  8
0
100
AcDbVertex
100
AcDb2dVertex
 10
14.15005173449999
 20
11.89309466249999
 30
0.0
  0
VERTEX
  5
17E
330
157
100
AcDbEntity
  8
0
100
AcDbVertex
100
AcDb2dVertex
 10
14.1791598525
 20
11.9723512824
 30
0.0
  0
VERTEX
  5
17F
330
157
100
AcDbEntity
  8
0
100
AcDbVertex
100
AcDb2dVertex
 10
14.2019700641
 20
12.0574869031
 30
0.0
  0
VERTEX
  5
180
330
157
100
AcDbEntity
  8
0
100
AcDbVertex
100
AcDb2dVertex
 10
14.21835480539999
 20
12.1480254117
 30
0.0
  0
VERTEX
  5
181
330
157
100
AcDbEntity
  8
0
100
AcDbVertex
100
AcDb2dVertex
 10
14.2282224463
 20
12.2434604801
 30
0.0
  0
VERTEX
  5
182
330
157
100
AcDbEntity
  8
0
100
AcDbVertex
100
AcDb2dVertex
 10
14.231517803
 20
12.3432583967
 30
0.0
  0
VERTEX
  5
183
330
157
100
AcDbEntity
  8
0
100
AcDbVertex
100
AcDb2dVertex
 10
14.2282224463
 20
12.44686105099999
 30
0.0
  0
VERTEX
  5
184
330
157
100
AcDbEntity
  8
0
100
AcDbVertex
100
AcDb2dVertex
 10
14.21835480539999
 20
12.5536890551
 30
0.0
  0
VERTEX
  5
185
330
157
100
AcDbEntity
  8
0
100
AcDbVertex
100
AcDb2dVertex
 10
14.2019700641
 20
12.66314498339999
 30
0.0
  0
VERTEX
  5
186
330
157
100
AcDbEntity
  8
0
100
AcDbVertex
100
AcDb2dVertex
 10
14.1791598525
 20
12.7746167138
 30
0.0
  0
VERTEX
  5
187
330
157
100
AcDbEntity
  8
0
100
AcDbVertex
100
AcDb2dVertex
 10
14.15005173449999
 20
12.8874808514
 30
0.0
  0
VERTEX
  5
188
330
157
100
AcDbEntity
  8
0
100
AcDbVertex
100
AcDb2dVertex
 10
14.1148084945
 20
13.001106214
 30
0.0
  0
VERTEX
  5
189
330
157
100
AcDbEntity
  8
0
100
AcDbVertex
100
AcDb2dVertex
 10
14.0736272271
 20
13.1148573625
 30
0.0
  0
VERTEX
  5
18A
330
157
100
AcDbEntity
  8
0
100
AcDbVertex
100
AcDb2dVertex
 10
14.02673823459999
 20
13.2280981544
 30
0.0
  0
VERTEX
  5
18B
330
157
100
AcDbEntity
  8
0
100
AcDbVertex
100
AcDb2dVertex
 10
13.9744037393
 20
13.34019530119999
 30
0.0
  0
VERTEX
  5
18C
330
157
100
AcDbEntity
  8
0
100
AcDbVertex
100
AcDb2dVertex
 10
13.9169164169
 20
13.45052191029999
 30
0.0
  0
VERTEX
  5
18D
330
157
100
AcDbEntity
  8
0
100
AcDbVertex
100
AcDb2dVertex
 10
13.8545977597
 20
13.5584609904
 30
0.0
  0
VERTEX
  5
18E
330
157
100
AcDbEntity
  8
0
100
AcDbVertex
100
AcDb2dVertex
 10
13.7877962791
 20
13.6634089024
 30
0.0
  0
VERTEX
  5
18F
330
157
100
AcDbEntity
  8
0
100
AcDbVertex
100
AcDb2dVertex
 10
13.716885556
 20
13.7647787351
 30
0.0
  0
VERTEX
  5
190
330
157
100
AcDbEntity
  8
0
100
AcDbVertex
100
AcDb2dVertex
 10
13.642262152
 20
13.8620035871
 30
0.0
  0
VERTEX
  5
191
330
157
100
AcDbEntity
  8
0
100
AcDbVertex
100
AcDb2dVertex
 10
13.5643433913
 20
13.9545397378
 30
0.0
  0
VERTEX
  5
192
330
157
100
AcDbEntity
  8
0
100
AcDbVertex
100
AcDb2dVertex
 10
13.4835650273
 20
14.0418696874
 30
0.0
  0
VERTEX
  5
193
330
157
100
AcDbEntity
  8
0
100
AcDbVertex
100
AcDb2dVertex
 10
13.40037880529999
 20
14.1235050515
 30
0.0
  0
VERTEX
  5
194
330
157
100
AcDbEntity
  8
0
100
AcDbVertex
100
AcDb2dVertex
 10
13.3152499366
 20
14.1989892918
 30
0.0
  0
VERTEX
  5
195
330
157
100
AcDbEntity
  8
0
100
AcDbVertex
100
AcDb2dVertex
 10
13.2286544961
 20
14.26790027
 30
0.0
  0
VERTEX
  5
196
330
157
100
AcDbEntity
  8
0
100
AcDbVertex
100
AcDb2dVertex
 10
13.14107676089999
 20
14.32985260799999
 30
0.0
  0
VERTEX
  5
197
330
157
100
AcDbEntity
  8
0
100
AcDbVertex
100
AcDb2dVertex
 10
13.05300650099999
 20
14.384499843
 30
0.0
  0
VERTEX
  5
198
330
157
100
AcDbEntity
  8
0
100
AcDbVertex
100
AcDb2dVertex
 10
12.9649362411
 20
14.43153636559999
 30
0.0
  0
VERTEX
  5
199
330
157
100
AcDbEntity
  8
0
100
AcDbVertex
100
AcDb2dVertex
 10
12.87735850579999
 20
14.47069912859999
 30
0.0
  0
VERTEX
  5
19A
330
157
100
AcDbEntity
  8
0
100
AcDbVertex
100
AcDb2dVertex
 10
12.7907630654
 20
14.5017691177
 30
0.0
  0
VERTEX
  5
19B
330
157
100
AcDbEntity
  8
0
100
AcDbVertex
100
AcDb2dVertex
 10
12.7056341966
 20
14.5245725771
 30
0.0
  0
VERTEX
  5
19C
330
157
100
AcDbEntity
  8
0
100
AcDbVertex
100
AcDb2dVertex
 10
12.6224479747
 20
14.5389819806
 30
0.0
  0
VERTEX
  5
19D
330
157
100
AcDbEntity
  8
0
100
AcDbVertex
100
AcDb2dVertex
 10
12.5416696107
 20
14.5449167448
 30
0.0
  0
VERTEX
  5
19E
330
157
100
AcDbEntity
  8
0
100
AcDbVertex
100
AcDb2dVertex
 10
12.46375085
 20
14.5423436803
 30
0.0
  0
VERTEX
  5
19F
330
157
100
AcDbEntity
  8
0
100
AcDbVertex
100
AcDb2dVertex
 10
12.3891274459
 20
14.5312771766
 30
0.0
  0
VERTEX
  5
1A0
330
157
100
AcDbEntity
  8
0
100
AcDbVertex
100
AcDb2dVertex
 10
12.31821672279999
 20
14.5117791222
 30
0.0
  0
VERTEX
  5
1A1
330
157
100
AcDbEntity
  8
0
100
AcDbVertex
100
AcDb2dVertex
 10
12.2514152422
 20
14.483958558
 30
0.0
  0
VERTEX
  5
1A2
330
157
100
AcDbEntity
  8
0
100
AcDbVertex
100
AcDb2dVertex
 10
12.1890965851
 20
14.4479710679
 30
0.0
  0
VERTEX
  5
1A3
330
157
100
AcDbEntity
  8
0
100
AcDbVertex
100
AcDb2dVertex
 10
12.1316092627
 20
14.4040179085
 30
0.0
  0
VERTEX
  5
1A4
330
157
100
AcDbEntity
  8
0
100
AcDbVertex
100
AcDb2dVertex
 10
12.0792747673
 20
14.3523448838
 30
0.0
  0
VERTEX
  5
1A5
330
157
100
AcDbEntity
  8
0
100
AcDbVertex
100
AcDb2dVertex
 10
12.0323857748
 20
14.2932409703
 30
0.0
  0
VERTEX
  5
1A6
330
157
100
AcDbEntity
  8
0
100
AcDbVertex
100
AcDb2dVertex
 10
11.9912045074
 20
14.22703670109999
 30
0.0
  0
VERTEX
  5
1A7
330
157
100
AcDbEntity
  8
0
100
AcDbVertex
100
AcDb2dVertex
 10
11.95596126749999
 20
14.1541023172
 30
0.0
  0
VERTEX
  5
1A8
330
157
100
AcDbEntity
  8
0
100
AcDbVertex
100
AcDb2dVertex
 10
11.9268531495
 20
14.0748456973
 30
0.0
  0
VERTEX
  5
1A9
330
157
100
AcDbEntity
  8
0
100
AcDbVertex
100
AcDb2dVertex
 10
11.9040429379
 20
13.9897100766
 30
0.0
  0
VERTEX
  5
1AA
330
157
100
AcDbEntity
  8
0
100
AcDbVertex
100
AcDb2dVertex
 10
11.8876581965
 20
13.899171568
 30
0.0
  0
VERTEX
  5
1AB
330
157
100
AcDbEntity
  8
0
100
AcDbVertex
100
AcDb2dVertex
 10
11.87779055559999
 20
13.8037364996
 30
0.0
  0
VERTEX
  5
1AC
330
157
100
AcDbEntity
  8
0
100
AcDbVertex
100
AcDb2dVertex
 10
11.874495199
 20
13.70393858299999
 30
0.0
  0
SEQEND
  5
1AD
330
157
100
AcDbEntity
  8
0
  0
LINE
  5
1AE
330
A
100
AcDbEntity
  8
0
  6
Continuous
 62
     7
370
    15
100
AcDbLine
 10
20.41870213829999
 20
11.49327561369999
 30
0.0
 11
10.4013560715
 21
17.27616640579999
 31
0.0
  0
LINE
  5
1AF
330
A
100
AcDbEntity
  8
0
  6
Continuous
 62
     7
370
    15
100
AcDbLine
 10
20.41870213829999
 20
7.138391283699999
 30
0.0
 11
20.41870213829999
 21
11.49327561369999
 31
0.0
  0
LINE
  5
1B0
330
A
100
AcDbEntity
  8
0
  6
Continuous
 62
     7
370
    15
100
AcDbLine
 10
19.4758930968
 20
6.5939422757
 30
0.0
 11
20.41870213829999
 21
7.138391283699999
 31
0.0
  0
LINE
  5
1B1
330
A
100
AcDbEntity
  8
0
  6
Continuous
 62
     7
370
    15
100
AcDbLine
 10
11.34416511309999
 20
11.2882889187
 30
0.0
 11
19.4758930968
 21
6.5939422757
 31
0.0
  0
LINE
  5
1B2
330
A
100
AcDbEntity
  8
0
  6
Continuous
 62
     7
370
    15
100
AcDbLine
 10
10.4013560715
 20
12.9212820758
 30
0.0
 11
11.34416511309999
 21
11.2882889187
 31
0.0
  0
LINE
  5
1B3
330
A
100
AcDbEntity
  8
0
  6
Continuous
 62
     7
370
    15
100
AcDbLine
 10
10.4013560715
 20
17.27616640579999
 30
0.0
 11
10.4013560715
 21
12.9212820758
 31
0.0
  0
POLYLINE
  5
1B4
330
A
100
AcDbEntity
  8
0
  6
Continuous
 62
     7
100
AcDb2dPolyline
 66
     1
 10
0.0
 20
0.0
 30
0.0
 70
   128
 40
0.0023622047
 41
0.0023622047
  0
VERTEX
  5
1B5
330
1B4
100
AcDbEntity
  8
0
100
AcDbVertex
100
AcDb2dVertex
 10
18.94556301089999
 20
9.6218980239
 30
0.0
  0
VERTEX
  5
1B6
330
1B4
100
AcDbEntity
  8
0
100
AcDbVertex
100
AcDb2dVertex
 10
18.9422676542
 20
9.725500678300001
 30
0.0
  0
VERTEX
  5
1B7
330
1B4
100
AcDbEntity
  8
0
100
AcDbVertex
100
AcDb2dVertex
 10
18.9324000133
 20
9.8323286824
 30
0.0
  0
VERTEX
  5
1B8
330
1B4
100
AcDbEntity
  8
0
100
AcDbVertex
100
AcDb2dVertex
 10
18.91601527199999
 20
9.941784610599999
 30
0.0
  0
VERTEX
  5
1B9
330
1B4
100
AcDbEntity
  8
0
100
AcDbVertex
100
AcDb2dVertex
 10
18.89320506039999
 20
10.0532563411
 30
0.0
  0
VERTEX
  5
1BA
330
1B4
100
AcDbEntity
  8
0
100
AcDbVertex
100
AcDb2dVertex
 10
18.8640969424
 20
10.1661204786
 30
0.0
  0
VERTEX
  5
1BB
330
1B4
100
AcDbEntity
  8
0
100
AcDbVertex
100
AcDb2dVertex
 10
18.8288537024
 20
10.2797458412
 30
0.0
  0
VERTEX
  5
1BC
330
1B4
100
AcDbEntity
  8
0
100
AcDbVertex
100
AcDb2dVertex
 10
18.78767243509999
 20
10.3934969898
 30
0.0
  0
VERTEX
  5
1BD
330
1B4
100
AcDbEntity
  8
0
100
AcDbVertex
100
AcDb2dVertex
 10
18.7407834426
 20
10.50673778169999
 30
0.0
  0
VERTEX
  5
1BE
330
1B4
100
AcDbEntity
  8
0
100
AcDbVertex
100
AcDb2dVertex
 10
18.6884489472
 20
10.6188349285
 30
0.0
  0
VERTEX
  5
1BF
330
1B4
100
AcDbEntity
  8
0
100
AcDbVertex
100
AcDb2dVertex
 10
18.6309616248
 20
10.7291615375
 30
0.0
  0
VERTEX
  5
1C0
330
1B4
100
AcDbEntity
  8
0
100
AcDbVertex
100
AcDb2dVertex
 10
18.5686429677
 20
10.83710061759999
 30
0.0
  0
VERTEX
  5
1C1
330
1B4
100
AcDbEntity
  8
0
100
AcDbVertex
100
AcDb2dVertex
 10
18.501841487
 20
10.9420485296
 30
0.0
  0
VERTEX
  5
1C2
330
1B4
100
AcDbEntity
  8
0
100
AcDbVertex
100
AcDb2dVertex
 10
18.43093076399999
 20
11.0434183623
 30
0.0
  0
VERTEX
  5
1C3
330
1B4
100
AcDbEntity
  8
0
100
AcDbVertex
100
AcDb2dVertex
 10
18.3563073599
 20
11.1406432144
 30
0.0
  0
VERTEX
  5
1C4
330
1B4
100
AcDbEntity
  8
0
100
AcDbVertex
100
AcDb2dVertex
 10
18.27838859919999
 20
11.2331793651
 30
0.0
  0
VERTEX
  5
1C5
330
1B4
100
AcDbEntity
  8
0
100
AcDbVertex
100
AcDb2dVertex
 10
18.19761023519999
 20
11.3205093147
 30
0.0
  0
VERTEX
  5
1C6
330
1B4
100
AcDbEntity
  8
0
100
AcDbVertex
100
AcDb2dVertex
 10
18.11442401329999
 20
11.40214467869999
 30
0.0
  0
VERTEX
  5
1C7
330
1B4
100
AcDbEntity
  8
0
100
AcDbVertex
100
AcDb2dVertex
 10
18.0292951445
 20
11.4776289191
 30
0.0
  0
VERTEX
  5
1C8
330
1B4
100
AcDbEntity
  8
0
100
AcDbVertex
100
AcDb2dVertex
 10
17.9426997041
 20
11.5465398973
 30
0.0
  0
VERTEX
  5
1C9
330
1B4
100
AcDbEntity
  8
0
100
AcDbVertex
100
AcDb2dVertex
 10
17.8551219688
 20
11.6084922352
 30
0.0
  0
VERTEX
  5
1CA
330
1B4
100
AcDbEntity
  8
0
100
AcDbVertex
100
AcDb2dVertex
 10
17.7670517089
 20
11.66313947029999
 30
0.0
  0
VERTEX
  5
1CB
330
1B4
100
AcDbEntity
  8
0
100
AcDbVertex
100
AcDb2dVertex
 10
17.678981449
 20
11.7101759929
 30
0.0
  0
VERTEX
  5
1CC
330
1B4
100
AcDbEntity
  8
0
100
AcDbVertex
100
AcDb2dVertex
 10
17.5914037137
 20
11.74933875579999
 30
0.0
  0
VERTEX
  5
1CD
330
1B4
100
AcDbEntity
  8
0
100
AcDbVertex
100
AcDb2dVertex
 10
17.5048082733
 20
11.780408745
 30
0.0
  0
VERTEX
  5
1CE
330
1B4
100
AcDbEntity
  8
0
100
AcDbVertex
100
AcDb2dVertex
 10
17.4196794045
 20
11.8032122044
 30
0.0
  0
VERTEX
  5
1CF
330
1B4
100
AcDbEntity
  8
0
100
AcDbVertex
100
AcDb2dVertex
 10
17.33649318259999
 20
11.81762160779999
 30
0.0
  0
VERTEX
  5
1D0
330
1B4
100
AcDbEntity
  8
0
100
AcDbVertex
100
AcDb2dVertex
 10
17.25571481859999
 20
11.8235563721
 30
0.0
  0
VERTEX
  5
1D1
330
1B4
100
AcDbEntity
  8
0
100
AcDbVertex
100
AcDb2dVertex
 10
17.1777960579
 20
11.8209833076
 30
0.0
  0
VERTEX
  5
1D2
330
1B4
100
AcDbEntity
  8
0
100
AcDbVertex
100
AcDb2dVertex
 10
17.1031726538
 20
11.8099168039
 30
0.0
  0
VERTEX
  5
1D3
330
1B4
100
AcDbEntity
  8
0
100
AcDbVertex
100
AcDb2dVertex
 10
17.03226193069999
 20
11.7904187494
 30
0.0
  0
VERTEX
  5
1D4
330
1B4
100
AcDbEntity
  8
0
100
AcDbVertex
100
AcDb2dVertex
 10
16.9654604501
 20
11.76259818519999
 30
0.0
  0
VERTEX
  5
1D5
330
1B4
100
AcDbEntity
  8
0
100
AcDbVertex
100
AcDb2dVertex
 10
16.903141793
 20
11.72661069509999
 30
0.0
  0
VERTEX
  5
1D6
330
1B4
100
AcDbEntity
  8
0
100
AcDbVertex
100
AcDb2dVertex
 10
16.84565447059999
 20
11.68265753579999
 30
0.0
  0
VERTEX
  5
1D7
330
1B4
100
AcDbEntity
  8
0
100
AcDbVertex
100
AcDb2dVertex
 10
16.7933199752
 20
11.63098451109999
 30
0.0
  0
VERTEX
  5
1D8
330
1B4
100
AcDbEntity
  8
0
100
AcDbVertex
100
AcDb2dVertex
 10
16.7464309827
 20
11.57188059759999
 30
0.0
  0
VERTEX
  5
1D9
330
1B4
100
AcDbEntity
  8
0
100
AcDbVertex
100
AcDb2dVertex
 10
16.70524971529999
 20
11.5056763283
 30
0.0
  0
VERTEX
  5
1DA
330
1B4
100
AcDbEntity
  8
0
100
AcDbVertex
100
AcDb2dVertex
 10
16.6700064754
 20
11.4327419444
 30
0.0
  0
VERTEX
  5
1DB
330
1B4
100
AcDbEntity
  8
0
100
AcDbVertex
100
AcDb2dVertex
 10
16.6408983574
 20
11.3534853246
 30
0.0
  0
VERTEX
  5
1DC
330
1B4
100
AcDbEntity
  8
0
100
AcDbVertex
100
AcDb2dVertex
 10
16.61808814579999
 20
11.2683497039
 30
0.0
  0
VERTEX
  5
1DD
330
1B4
100
AcDbEntity
  8
0
100
AcDbVertex
100
AcDb2dVertex
 10
16.6017034044
 20
11.1778111953
 30
0.0
  0
VERTEX
  5
1DE
330
1B4
100
AcDbEntity
  8
0
100
AcDbVertex
100
AcDb2dVertex
 10
16.5918357635
 20
11.08237612689999
 30
0.0
  0
VERTEX
  5
1DF
330
1B4
100
AcDbEntity
  8
0
100
AcDbVertex
100
AcDb2dVertex
 10
16.5885404069
 20
10.9825782103
 30
0.0
  0
VERTEX
  5
1E0
330
1B4
100
AcDbEntity
  8
0
100
AcDbVertex
100
AcDb2dVertex
 10
16.5918357635
 20
10.87897555589999
 30
0.0
  0
VERTEX
  5
1E1
330
1B4
100
AcDbEntity
  8
0
100
AcDbVertex
100
AcDb2dVertex
 10
16.6017034044
 20
10.77214755189999
 30
0.0
  0
VERTEX
  5
1E2
330
1B4
100
AcDbEntity
  8
0
100
AcDbVertex
100
AcDb2dVertex
 10
16.61808814579999
 20
10.6626916236
 30
0.0
  0
VERTEX
  5
1E3
330
1B4
100
AcDbEntity
  8
0
100
AcDbVertex
100
AcDb2dVertex
 10
16.6408983574
 20
10.5512198932
 30
0.0
  0
VERTEX
  5
1E4
330
1B4
100
AcDbEntity
  8
0
100
AcDbVertex
100
AcDb2dVertex
 10
16.6700064754
 20
10.43835575559999
 30
0.0
  0
VERTEX
  5
1E5
330
1B4
100
AcDbEntity
  8
0
100
AcDbVertex
100
AcDb2dVertex
 10
16.70524971529999
 20
10.32473039299999
 30
0.0
  0
VERTEX
  5
1E6
330
1B4
100
AcDbEntity
  8
0
100
AcDbVertex
100
AcDb2dVertex
 10
16.7464309827
 20
10.2109792445
 30
0.0
  0
VERTEX
  5
1E7
330
1B4
100
AcDbEntity
  8
0
100
AcDbVertex
100
AcDb2dVertex
 10
16.7933199752
 20
10.0977384526
 30
0.0
  0
VERTEX
  5
1E8
330
1B4
100
AcDbEntity
  8
0
100
AcDbVertex
100
AcDb2dVertex
 10
16.84565447059999
 20
9.985641305699999
 30
0.0
  0
VERTEX
  5
1E9
330
1B4
100
AcDbEntity
  8
0
100
AcDbVertex
100
AcDb2dVertex
 10
16.903141793
 20
9.8753146967
 30
0.0
  0
VERTEX
  5
1EA
330
1B4
100
AcDbEntity
  8
0
100
AcDbVertex
100
AcDb2dVertex
 10
16.9654604501
 20
9.767375616599998
 30
0.0
  0
VERTEX
  5
1EB
330
1B4
100
AcDbEntity
  8
0
100
AcDbVertex
100
AcDb2dVertex
 10
17.03226193069999
 20
9.6624277046
 30
0.0
  0
VERTEX
  5
1EC
330
1B4
100
AcDbEntity
  8
0
100
AcDbVertex
100
AcDb2dVertex
 10
17.1031726538
 20
9.561057871900001
 30
0.0
  0
VERTEX
  5
1ED
330
1B4
100
AcDbEntity
  8
0
100
AcDbVertex
100
AcDb2dVertex
 10
17.1777960579
 20
9.4638330198
 30
0.0
  0
VERTEX
  5
1EE
330
1B4
100
AcDbEntity
  8
0
100
AcDbVertex
100
AcDb2dVertex
 10
17.25571481859999
 20
9.3712968692
 30
0.0
  0
VERTEX
  5
1EF
330
1B4
100
AcDbEntity
  8
0
100
AcDbVertex
100
AcDb2dVertex
 10
17.33649318259999
 20
9.2839669195
 30
0.0
  0
VERTEX
  5
1F0
330
1B4
100
AcDbEntity
  8
0
100
AcDbVertex
100
AcDb2dVertex
 10
17.4196794045
 20
9.202331555499998
 30
0.0
  0
VERTEX
  5
1F1
330
1B4
100
AcDbEntity
  8
0
100
AcDbVertex
100
AcDb2dVertex
 10
17.5048082733
 20
9.126847315199999
 30
0.0
  0
VERTEX
  5
1F2
330
1B4
100
AcDbEntity
  8
0
100
AcDbVertex
100
AcDb2dVertex
 10
17.5914037137
 20
9.0579363369
 30
0.0
  0
VERTEX
  5
1F3
330
1B4
100
AcDbEntity
  8
0
100
AcDbVertex
100
AcDb2dVertex
 10
17.678981449
 20
8.995983998999999
 30
0.0
  0
VERTEX
  5
1F4
330
1B4
100
AcDbEntity
  8
0
100
AcDbVertex
100
AcDb2dVertex
 10
17.7670517089
 20
8.941336763999998
 30
0.0
  0
VERTEX
  5
1F5
330
1B4
100
AcDbEntity
  8
0
100
AcDbVertex
100
AcDb2dVertex
 10
17.8551219688
 20
8.894300241299999
 30
0.0
  0
VERTEX
  5
1F6
330
1B4
100
AcDbEntity
  8
0
100
AcDbVertex
100
AcDb2dVertex
 10
17.9426997041
 20
8.855137478399999
 30
0.0
  0
VERTEX
  5
1F7
330
1B4
100
AcDbEntity
  8
0
100
AcDbVertex
100
AcDb2dVertex
 10
18.0292951445
 20
8.824067489299999
 30
0.0
  0
VERTEX
  5
1F8
330
1B4
100
AcDbEntity
  8
0
100
AcDbVertex
100
AcDb2dVertex
 10
18.11442401329999
 20
8.8012640299
 30
0.0
  0
VERTEX
  5
1F9
330
1B4
100
AcDbEntity
  8
0
100
AcDbVertex
100
AcDb2dVertex
 10
18.19761023519999
 20
8.7868546264
 30
0.0
  0
VERTEX
  5
1FA
330
1B4
100
AcDbEntity
  8
0
100
AcDbVertex
100
AcDb2dVertex
 10
18.27838859919999
 20
8.780919862100001
 30
0.0
  0
VERTEX
  5
1FB
330
1B4
100
AcDbEntity
  8
0
100
AcDbVertex
100
AcDb2dVertex
 10
18.3563073599
 20
8.783492926699999
 30
0.0
  0
VERTEX
  5
1FC
330
1B4
100
AcDbEntity
  8
0
100
AcDbVertex
100
AcDb2dVertex
 10
18.43093076399999
 20
8.794559430299999
 30
0.0
  0
VERTEX
  5
1FD
330
1B4
100
AcDbEntity
  8
0
100
AcDbVertex
100
AcDb2dVertex
 10
18.501841487
 20
8.814057484800001
 30
0.0
  0
VERTEX
  5
1FE
330
1B4
100
AcDbEntity
  8
0
100
AcDbVertex
100
AcDb2dVertex
 10
18.5686429677
 20
8.841878048999999
 30
0.0
  0
VERTEX
  5
1FF
330
1B4
100
AcDbEntity
  8
0
100
AcDbVertex
100
AcDb2dVertex
 10
18.6309616248
 20
8.8778655391
 30
0.0
  0
VERTEX
  5
200
330
1B4
100
AcDbEntity
  8
0
100
AcDbVertex
100
AcDb2dVertex
 10
18.6884489472
 20
8.9218186985
 30
0.0
  0
VERTEX
  5
201
330
1B4
100
AcDbEntity
  8
0
100
AcDbVertex
100
AcDb2dVertex
 10
18.7407834426
 20
8.973491723099998
 30
0.0
  0
VERTEX
  5
202
330
1B4
100
AcDbEntity
  8
0
100
AcDbVertex
100
AcDb2dVertex
 10
18.78767243509999
 20
9.032595636599999
 30
0.0
  0
VERTEX
  5
203
330
1B4
100
AcDbEntity
  8
0
100
AcDbVertex
100
AcDb2dVertex
 10
18.8288537024
 20
9.098799905899999
 30
0.0
  0
VERTEX
  5
204
330
1B4
100
AcDbEntity
  8
0
100
AcDbVertex
100
AcDb2dVertex
 10
18.8640969424
 20
9.171734289799999
 30
0.0
  0
VERTEX
  5
205
330
1B4
100
AcDbEntity
  8
0
100
AcDbVertex
100
AcDb2dVertex
 10
18.89320506039999
 20
9.2509909097
 30
0.0
  0
VERTEX
  5
206
330
1B4
100
AcDbEntity
  8
0
100
AcDbVertex
100
AcDb2dVertex
 10
18.91601527199999
 20
9.336126530399999
 30
0.0
  0
VERTEX
  5
207
330
1B4
100
AcDbEntity
  8
0
100
AcDbVertex
100
AcDb2dVertex
 10
18.9324000133
 20
9.426665038899999
 30
0.0
  0
VERTEX
  5
208
330
1B4
100
AcDbEntity
  8
0
100
AcDbVertex
100
AcDb2dVertex
 10
18.9422676542
 20
9.5221001073
 30
0.0
  0
VERTEX
  5
209
330
1B4
100
AcDbEntity
  8
0
100
AcDbVertex
100
AcDb2dVertex
 10
18.94556301089999
 20
9.6218980239
 30
0.0
  0
SEQEND
  5
20A
330
1B4
100
AcDbEntity
  8
0
  0
LINE
  5
20B
330
A
100
AcDbEntity
  8
0
  6
Continuous
 62
     7
370
    15
100
AcDbLine
 10
20.41870213829999
 20
11.49327561369999
 30
0.0
 11
20.5954788336
 21
11.59532662769999
 31
0.0
  0
LINE
  5
20C
330
A
100
AcDbEntity
  8
0
  6
Continuous
 62
     7
370
    15
100
AcDbLine
 10
20.5954788336
 20
7.240442297699999
 30
0.0
 11
20.5954788336
 21
11.59532662769999
 31
0.0
  0
LINE
  5
20D
330
A
100
AcDbEntity
  8
0
  6
Continuous
 62
     7
370
    15
100
AcDbLine
 10
20.41870213829999
 20
7.138391283699999
 30
0.0
 11
20.5954788336
 21
7.240442297699999
 31
0.0
  0
LINE
  5
20E
330
A
100
AcDbEntity
  8
0
  6
Continuous
 62
     7
370
    15
100
AcDbLine
 10
10.4013560715
 20
17.27616640579999
 30
0.0
 11
10.57813276679999
 21
17.37821741979999
 31
0.0
  0
LINE
  5
20F
330
A
100
AcDbEntity
  8
0
  6
Continuous
 62
     7
370
    15
100
AcDbLine
 10
20.5954788336
 20
11.59532662769999
 30
0.0
 11
10.57813276679999
 21
17.37821741979999
 31
0.0
  0
POLYLINE
  5
210
330
A
100
AcDbEntity
  8
0
  6
Continuous
 62
     7
100
AcDb2dPolyline
 66
     1
 10
0.0
 20
0.0
 30
0.0
 70
   128
 40
0.0023622047
 41
0.0023622047
  0
VERTEX
  5
211
330
210
100
AcDbEntity
  8
0
100
AcDbVertex
100
AcDb2dVertex
 10
17.0268740563
 20
11.7885375489
 30
0.0
  0
VERTEX
  5
212
330
210
100
AcDbEntity
  8
0
100
AcDbVertex
100
AcDb2dVertex
 10
17.0224311659
 20
11.7847085498
 30
0.0
  0
VERTEX
  5
213
330
210
100
AcDbEntity
  8
0
100
AcDbVertex
100
AcDb2dVertex
 10
16.97009667049999
 20
11.73303552509999
 30
0.0
  0
VERTEX
  5
214
330
210
100
AcDbEntity
  8
0
100
AcDbVertex
100
AcDb2dVertex
 10
16.923207678
 20
11.6739316116
 30
0.0
  0
VERTEX
  5
215
330
210
100
AcDbEntity
  8
0
100
AcDbVertex
100
AcDb2dVertex
 10
16.88202641059999
 20
11.6077273423
 30
0.0
  0
VERTEX
  5
216
330
210
100
AcDbEntity
  8
0
100
AcDbVertex
100
AcDb2dVertex
 10
16.8467831707
 20
11.53479295839999
 30
0.0
  0
VERTEX
  5
217
330
210
100
AcDbEntity
  8
0
100
AcDbVertex
100
AcDb2dVertex
 10
16.8176750527
 20
11.45553633849999
 30
0.0
  0
VERTEX
  5
218
330
210
100
AcDbEntity
  8
0
100
AcDbVertex
100
AcDb2dVertex
 10
16.79486484109999
 20
11.37040071779999
 30
0.0
  0
VERTEX
  5
219
330
210
100
AcDbEntity
  8
0
100
AcDbVertex
100
AcDb2dVertex
 10
16.7784800997
 20
11.2798622093
 30
0.0
  0
VERTEX
  5
21A
330
210
100
AcDbEntity
  8
0
100
AcDbVertex
100
AcDb2dVertex
 10
16.7686124588
 20
11.18442714089999
 30
0.0
  0
VERTEX
  5
21B
330
210
100
AcDbEntity
  8
0
100
AcDbVertex
100
AcDb2dVertex
 10
16.7653171022
 20
11.08462922429999
 30
0.0
  0
VERTEX
  5
21C
330
210
100
AcDbEntity
  8
0
100
AcDbVertex
100
AcDb2dVertex
 10
16.7686124588
 20
10.9810265699
 30
0.0
  0
VERTEX
  5
21D
330
210
100
AcDbEntity
  8
0
100
AcDbVertex
100
AcDb2dVertex
 10
16.7784800997
 20
10.87419856579999
 30
0.0
  0
VERTEX
  5
21E
330
210
100
AcDbEntity
  8
0
100
AcDbVertex
100
AcDb2dVertex
 10
16.79486484109999
 20
10.76474263759999
 30
0.0
  0
VERTEX
  5
21F
330
210
100
AcDbEntity
  8
0
100
AcDbVertex
100
AcDb2dVertex
 10
16.8176750527
 20
10.6532709071
 30
0.0
  0
VERTEX
  5
220
330
210
100
AcDbEntity
  8
0
100
AcDbVertex
100
AcDb2dVertex
 10
16.8467831707
 20
10.5404067696
 30
0.0
  0
VERTEX
  5
221
330
210
100
AcDbEntity
  8
0
100
AcDbVertex
100
AcDb2dVertex
 10
16.88202641059999
 20
10.426781407
 30
0.0
  0
VERTEX
  5
222
330
210
100
AcDbEntity
  8
0
100
AcDbVertex
100
AcDb2dVertex
 10
16.923207678
 20
10.31303025839999
 30
0.0
  0
VERTEX
  5
223
330
210
100
AcDbEntity
  8
0
100
AcDbVertex
100
AcDb2dVertex
 10
16.97009667049999
 20
10.19978946649999
 30
0.0
  0
VERTEX
  5
224
330
210
100
AcDbEntity
  8
0
100
AcDbVertex
100
AcDb2dVertex
 10
17.0224311659
 20
10.0876923197
 30
0.0
  0
VERTEX
  5
225
330
210
100
AcDbEntity
  8
0
100
AcDbVertex
100
AcDb2dVertex
 10
17.07991848829999
 20
9.9773657107
 30
0.0
  0
VERTEX
  5
226
330
210
100
AcDbEntity
  8
0
100
AcDbVertex
100
AcDb2dVertex
 10
17.1422371454
 20
9.869426630599999
 30
0.0
  0
VERTEX
  5
227
330
210
100
AcDbEntity
  8
0
100
AcDbVertex
100
AcDb2dVertex
 10
17.20903862599999
 20
9.764478718599999
 30
0.0
  0
VERTEX
  5
228
330
210
100
AcDbEntity
  8
0
100
AcDbVertex
100
AcDb2dVertex
 10
17.2799493491
 20
9.663108885899999
 30
0.0
  0
VERTEX
  5
229
330
210
100
AcDbEntity
  8
0
100
AcDbVertex
100
AcDb2dVertex
 10
17.35457275319999
 20
9.565884033799999
 30
0.0
  0
VERTEX
  5
22A
330
210
100
AcDbEntity
  8
0
100
AcDbVertex
100
AcDb2dVertex
 10
17.4324915139
 20
9.473347883099998
 30
0.0
  0
VERTEX
  5
22B
330
210
100
AcDbEntity
  8
0
100
AcDbVertex
100
AcDb2dVertex
 10
17.5132698779
 20
9.386017933499999
 30
0.0
  0
VERTEX
  5
22C
330
210
100
AcDbEntity
  8
0
100
AcDbVertex
100
AcDb2dVertex
 10
17.5964560998
 20
9.304382569500001
 30
0.0
  0
VERTEX
  5
22D
330
210
100
AcDbEntity
  8
0
100
AcDbVertex
100
AcDb2dVertex
 10
17.68158496859999
 20
9.228898329099999
 30
0.0
  0
VERTEX
  5
22E
330
210
100
AcDbEntity
  8
0
100
AcDbVertex
100
AcDb2dVertex
 10
17.768180409
 20
9.159987350899999
 30
0.0
  0
VERTEX
  5
22F
330
210
100
AcDbEntity
  8
0
100
AcDbVertex
100
AcDb2dVertex
 10
17.8557581443
 20
9.098035012999998
 30
0.0
  0
VERTEX
  5
230
330
210
100
AcDbEntity
  8
0
100
AcDbVertex
100
AcDb2dVertex
 10
17.9438284042
 20
9.043387777999999
 30
0.0
  0
VERTEX
  5
231
330
210
100
AcDbEntity
  8
0
100
AcDbVertex
100
AcDb2dVertex
 10
18.0318986641
 20
8.9963512553
 30
0.0
  0
VERTEX
  5
232
330
210
100
AcDbEntity
  8
0
100
AcDbVertex
100
AcDb2dVertex
 10
18.1194763993
 20
8.9571884924
 30
0.0
  0
VERTEX
  5
233
330
210
100
AcDbEntity
  8
0
100
AcDbVertex
100
AcDb2dVertex
 10
18.20607183979999
 20
8.926118503199999
 30
0.0
  0
VERTEX
  5
234
330
210
100
AcDbEntity
  8
0
100
AcDbVertex
100
AcDb2dVertex
 10
18.2912007085
 20
8.903315043899999
 30
0.0
  0
VERTEX
  5
235
330
210
100
AcDbEntity
  8
0
100
AcDbVertex
100
AcDb2dVertex
 10
18.3743869305
 20
8.888905640399999
 30
0.0
  0
VERTEX
  5
236
330
210
100
AcDbEntity
  8
0
100
AcDbVertex
100
AcDb2dVertex
 10
18.4551652945
 20
8.882970876099999
 30
0.0
  0
VERTEX
  5
237
330
210
100
AcDbEntity
  8
0
100
AcDbVertex
100
AcDb2dVertex
 10
18.53308405519999
 20
8.885543940599999
 30
0.0
  0
VERTEX
  5
238
330
210
100
AcDbEntity
  8
0
100
AcDbVertex
100
AcDb2dVertex
 10
18.6077074592
 20
8.8966104443
 30
0.0
  0
VERTEX
  5
239
330
210
100
AcDbEntity
  8
0
100
AcDbVertex
100
AcDb2dVertex
 10
18.67861818229999
 20
8.916108498799999
 30
0.0
  0
VERTEX
  5
23A
330
210
100
AcDbEntity
  8
0
100
AcDbVertex
100
AcDb2dVertex
 10
18.6840060568
 20
8.917989699299999
 30
0.0
  0
SEQEND
  5
23B
330
210
100
AcDbEntity
  8
0
  0
LINE
  5
23C
330
A
100
AcDbEntity
  8
0
  6
Continuous
 62
     7
370
    15
100
AcDbLine
 10
19.65266979209999
 20
6.6959932897
 30
0.0
 11
19.4758930968
 21
6.5939422757
 31
0.0
  0
LINE
  5
23D
330
A
100
AcDbEntity
  8
0
  6
Continuous
 62
     7
370
    15
100
AcDbLine
 10
20.5954788336
 20
7.240442297699999
 30
0.0
 11
19.65266979209999
 21
6.6959932897
 31
0.0
  0
POLYLINE
  5
23E
330
A
100
AcDbEntity
  8
0
  6
Continuous
 62
     7
100
AcDb2dPolyline
 66
     1
 10
0.0
 20
0.0
 30
0.0
 70
   128
 40
0.0023622047
 41
0.0023622047
  0
VERTEX
  5
23F
330
23E
100
AcDbEntity
  8
0
100
AcDbVertex
100
AcDb2dVertex
 10
12.0512718943
 20
13.805989597
 30
0.0
  0
VERTEX
  5
240
330
23E
100
AcDbEntity
  8
0
100
AcDbVertex
100
AcDb2dVertex
 10
12.0545672509
 20
13.7023869427
 30
0.0
  0
VERTEX
  5
241
330
23E
100
AcDbEntity
  8
0
100
AcDbVertex
100
AcDb2dVertex
 10
12.0644348918
 20
13.59555893859999
 30
0.0
  0
VERTEX
  5
242
330
23E
100
AcDbEntity
  8
0
100
AcDbVertex
100
AcDb2dVertex
 10
12.08081963319999
 20
13.48610301029999
 30
0.0
  0
VERTEX
  5
243
330
23E
100
AcDbEntity
  8
0
100
AcDbVertex
100
AcDb2dVertex
 10
12.1036298448
 20
13.3746312799
 30
0.0
  0
VERTEX
  5
244
330
23E
100
AcDbEntity
  8
0
100
AcDbVertex
100
AcDb2dVertex
 10
12.1327379628
 20
13.2617671423
 30
0.0
  0
VERTEX
  5
245
330
23E
100
AcDbEntity
  8
0
100
AcDbVertex
100
AcDb2dVertex
 10
12.1679812027
 20
13.14814177969999
 30
0.0
  0
VERTEX
  5
246
330
23E
100
AcDbEntity
  8
0
100
AcDbVertex
100
AcDb2dVertex
 10
12.2091624701
 20
13.03439063119999
 30
0.0
  0
VERTEX
  5
247
330
23E
100
AcDbEntity
  8
0
100
AcDbVertex
100
AcDb2dVertex
 10
12.2560514626
 20
12.9211498393
 30
0.0
  0
VERTEX
  5
248
330
23E
100
AcDbEntity
  8
0
100
AcDbVertex
100
AcDb2dVertex
 10
12.30838595789999
 20
12.8090526925
 30
0.0
  0
VERTEX
  5
249
330
23E
100
AcDbEntity
  8
0
100
AcDbVertex
100
AcDb2dVertex
 10
12.36587328039999
 20
12.6987260834
 30
0.0
  0
VERTEX
  5
24A
330
23E
100
AcDbEntity
  8
0
100
AcDbVertex
100
AcDb2dVertex
 10
12.42819193749999
 20
12.59078700329999
 30
0.0
  0
VERTEX
  5
24B
330
23E
100
AcDbEntity
  8
0
100
AcDbVertex
100
AcDb2dVertex
 10
12.49499341809999
 20
12.4858390913
 30
0.0
  0
VERTEX
  5
24C
330
23E
100
AcDbEntity
  8
0
100
AcDbVertex
100
AcDb2dVertex
 10
12.56590414119999
 20
12.38446925859999
 30
0.0
  0
VERTEX
  5
24D
330
23E
100
AcDbEntity
  8
0
100
AcDbVertex
100
AcDb2dVertex
 10
12.64052754529999
 20
12.2872444066
 30
0.0
  0
VERTEX
  5
24E
330
23E
100
AcDbEntity
  8
0
100
AcDbVertex
100
AcDb2dVertex
 10
12.71844630599999
 20
12.19470825589999
 30
0.0
  0
VERTEX
  5
24F
330
23E
100
AcDbEntity
  8
0
100
AcDbVertex
100
AcDb2dVertex
 10
12.79922467
 20
12.1073783063
 30
0.0
  0
VERTEX
  5
250
330
23E
100
AcDbEntity
  8
0
100
AcDbVertex
100
AcDb2dVertex
 10
12.8824108919
 20
12.0257429422
 30
0.0
  0
VERTEX
  5
251
330
23E
100
AcDbEntity
  8
0
100
AcDbVertex
100
AcDb2dVertex
 10
12.96753976069999
 20
11.9502587019
 30
0.0
  0
VERTEX
  5
252
330
23E
100
AcDbEntity
  8
0
100
AcDbVertex
100
AcDb2dVertex
 10
13.0541352011
 20
11.88134772369999
 30
0.0
  0
VERTEX
  5
253
330
23E
100
AcDbEntity
  8
0
100
AcDbVertex
100
AcDb2dVertex
 10
13.1417129364
 20
11.8193953857
 30
0.0
  0
VERTEX
  5
254
330
23E
100
AcDbEntity
  8
0
100
AcDbVertex
100
AcDb2dVertex
 10
13.2297831963
 20
11.76474815069999
 30
0.0
  0
VERTEX
  5
255
330
23E
100
AcDbEntity
  8
0
100
AcDbVertex
100
AcDb2dVertex
 10
13.31785345619999
 20
11.7177116281
 30
0.0
  0
VERTEX
  5
256
330
23E
100
AcDbEntity
  8
0
100
AcDbVertex
100
AcDb2dVertex
 10
13.4054311914
 20
11.6785488651
 30
0.0
  0
VERTEX
  5
257
330
23E
100
AcDbEntity
  8
0
100
AcDbVertex
100
AcDb2dVertex
 10
13.4920266319
 20
11.64747887599999
 30
0.0
  0
VERTEX
  5
258
330
23E
100
AcDbEntity
  8
0
100
AcDbVertex
100
AcDb2dVertex
 10
13.57715550059999
 20
11.6246754166
 30
0.0
  0
VERTEX
  5
259
330
23E
100
AcDbEntity
  8
0
100
AcDbVertex
100
AcDb2dVertex
 10
13.6603417226
 20
11.61026601309999
 30
0.0
  0
VERTEX
  5
25A
330
23E
100
AcDbEntity
  8
0
100
AcDbVertex
100
AcDb2dVertex
 10
13.7411200866
 20
11.6043312489
 30
0.0
  0
VERTEX
  5
25B
330
23E
100
AcDbEntity
  8
0
100
AcDbVertex
100
AcDb2dVertex
 10
13.8190388473
 20
11.60690431339999
 30
0.0
  0
VERTEX
  5
25C
330
23E
100
AcDbEntity
  8
0
100
AcDbVertex
100
AcDb2dVertex
 10
13.8936622513
 20
11.6179708171
 30
0.0
  0
VERTEX
  5
25D
330
23E
100
AcDbEntity
  8
0
100
AcDbVertex
100
AcDb2dVertex
 10
13.9645729744
 20
11.6374688715
 30
0.0
  0
VERTEX
  5
25E
330
23E
100
AcDbEntity
  8
0
100
AcDbVertex
100
AcDb2dVertex
 10
13.9699608489
 20
11.6393500721
 30
0.0
  0
SEQEND
  5
25F
330
23E
100
AcDbEntity
  8
0
  0
POLYLINE
  5
260
330
A
100
AcDbEntity
  8
0
  6
Continuous
 62
     7
100
AcDb2dPolyline
 66
     1
 10
0.0
 20
0.0
 30
0.0
 70
   128
 40
0.0023622047
 41
0.0023622047
  0
VERTEX
  5
261
330
260
100
AcDbEntity
  8
0
100
AcDbVertex
100
AcDb2dVertex
 10
12.31282884839999
 20
14.5098979216
 30
0.0
  0
VERTEX
  5
262
330
260
100
AcDbEntity
  8
0
100
AcDbVertex
100
AcDb2dVertex
 10
12.30838595789999
 20
14.5060689225
 30
0.0
  0
VERTEX
  5
263
330
260
100
AcDbEntity
  8
0
100
AcDbVertex
100
AcDb2dVertex
 10
12.2560514626
 20
14.4543958978
 30
0.0
  0
VERTEX
  5
264
330
260
100
AcDbEntity
  8
0
100
AcDbVertex
100
AcDb2dVertex
 10
12.2091624701
 20
14.3952919843
 30
0.0
  0
VERTEX
  5
265
330
260
100
AcDbEntity
  8
0
100
AcDbVertex
100
AcDb2dVertex
 10
12.1679812027
 20
14.3290877151
 30
0.0
  0
VERTEX
  5
266
330
260
100
AcDbEntity
  8
0
100
AcDbVertex
100
AcDb2dVertex
 10
12.1327379628
 20
14.25615333119999
 30
0.0
  0
VERTEX
  5
267
330
260
100
AcDbEntity
  8
0
100
AcDbVertex
100
AcDb2dVertex
 10
12.1036298448
 20
14.1768967113
 30
0.0
  0
VERTEX
  5
268
330
260
100
AcDbEntity
  8
0
100
AcDbVertex
100
AcDb2dVertex
 10
12.08081963319999
 20
14.09176109059999
 30
0.0
  0
VERTEX
  5
269
330
260
100
AcDbEntity
  8
0
100
AcDbVertex
100
AcDb2dVertex
 10
12.0644348918
 20
14.001222582
 30
0.0
  0
VERTEX
  5
26A
330
260
100
AcDbEntity
  8
0
100
AcDbVertex
100
AcDb2dVertex
 10
12.0545672509
 20
13.90578751359999
 30
0.0
  0
VERTEX
  5
26B
330
260
100
AcDbEntity
  8
0
100
AcDbVertex
100
AcDb2dVertex
 10
12.0512718943
 20
13.805989597
 30
0.0
  0
SEQEND
  5
26C
330
260
100
AcDbEntity
  8
0
  0
ENDSEC
  0
SECTION
  2
OBJECTS
  0
DICTIONARY
  5
19
330
0
100
AcDbDictionary
281
     1
  3
ACAD_GROUP
350
1A
  3
ACAD_LAYOUT
350
1E
  3
ACAD_MLINESTYLE
350
1B
  3
ACAD_PLOTSETTINGS
350
22
  3
ACAD_PLOTSTYLENAME
350
1F
  3
ACAD_WIPEOUT_VARS
350
23
  0
DICTIONARY
  5
1A
102
{ACAD_REACTORS
330
19
102
}
330
19
100
AcDbDictionary
281
     1
  0
DICTIONARY
  5
1E
102
{ACAD_REACTORS
330
19
102
}
330
19
100
AcDbDictionary
281
     1
  3
Layout1
350
21
  3
Model
350
20
  0
DICTIONARY
  5
1B
102
{ACAD_REACTORS
330
19
102
}
330
19
100
AcDbDictionary
281
     1
  3
Standard
350
1C
  0
DICTIONARY
  5
22
102
{ACAD_REACTORS
330
19
102
}
330
19
100
AcDbDictionary
281
     1
  0
ACDBDICTIONARYWDFLT
  5
1F
102
{ACAD_REACTORS
330
19
102
}
330
19
100
AcDbDictionary
281
     1
  3
Normal
350
1D
100
AcDbDictionaryWithDefault
340
1D
  0
WIPEOUTVARIABLES
  5
23
330
19
100
AcDbWipeoutVariables
 70
     1
  0
LAYOUT
  5
21
102
{ACAD_REACTORS
330
1E
102
}
330
1E
100
AcDbPlotSettings
  1

  2

  4

  6

 40
0.0
 41
0.0
 42
0.0
 43
0.0
 44
0.0
 45
0.0
 46
0.0
 47
0.0
 48
0.0
 49
0.0
140
0.0
141
0.0
142
1.0
143
1.0
 70
     0
 72
     0
 73
     0
 74
     0
  7

 75
     0
147
1.0
148
0.0
149
0.0
100
AcDbLayout
  1
Layout1
 70
     1
 71
     1
 10
0.0
 20
0.0
 11
12.0
 21
9.0
 12
0.0
 22
0.0
 32
0.0
 14
1.000000000000000E+20
 24
1.000000000000000E+20
 34
1.000000000000000E+20
 15
-1.000000000000000E+20
 25
-1.000000000000000E+20
 35
-1.000000000000000E+20
146
0.0
 13
0.0
 23
0.0
 33
0.0
 16
1.0
 26
0.0
 36
0.0
 17
0.0
 27
1.0
 37
0.0
 76
     0
330
B
  0
LAYOUT
  5
20
102
{ACAD_REACTORS
330
1E
102
}
330
1E
100
AcDbPlotSettings
  1

  2

  4

  6

 40
0.0
 41
0.0
 42
0.0
 43
0.0
 44
0.0
 45
0.0
 46
0.0
 47
0.0
 48
0.0
 49
0.0
140
0.0
141
0.0
142
1.0
143
1.0
 70
  1024
 72
     0
 73
     0
 74
     0
  7

 75
     0
147
1.0
148
0.0
149
0.0
100
AcDbLayout
  1
Model
 70
     0
 71
     0
 10
0.0
 20
0.0
 11
0.0
 21
0.0
 12
0.0
 22
0.0
 32
0.0
 14
0.0
 24
0.0
 34
0.0
 15
0.0
 25
0.0
 35
0.0
146
0.0
 13
0.0
 23
0.0
 33
0.0
 16
0.0
 26
0.0
 36
0.0
 17
0.0
 27
0.0
 37
0.0
 76
     0
330
A
  0
MLINESTYLE
  5
1C
102
{ACAD_REACTORS
330
1B
102
}
330
1B
100
AcDbMlineStyle
  2
STANDARD
 70
     0
  3

 62
     0
 51
90.0
 52
90.0
 71
     2
 49
0.5
 62
   256
  6
BYLAYER
 49
-0.5
 62
   256
  6
BYLAYER
  0
ACDBPLACEHOLDER
  5
1D
102
{ACAD_REACTORS
330
1F
102
}
330
1F
  0
ENDSEC
  0
EOF
