  0
SECTION
  2
HEADER
  9
$ACADVER
  1
AC1015
  9
$ACADMAINTVER
 70
    18
  9
$DWGCODEPAGE
  3
ANSI_1252
  9
$INSBASE
 10
0.0
 20
0.0
 30
0.0
  9
$EXTMIN
 10
0.0
 20
0.0
 30
0.0
  9
$EXTMAX
 10
2.2
 20
1.7
 30
0.0
  9
$LIMMIN
 10
0.0
 20
0.0
  9
$LIMMAX
 10
2.2
 20
1.7
  9
$ORTHOMODE
 70
     0
  9
$REGENMODE
 70
     1
  9
$FILLMODE
 70
     1
  9
$QTEXTMODE
 70
     0
  9
$MIRRTEXT
 70
     0
  9
$LTSCALE
 40
0.2
  9
$ATTMODE
 70
     1
  9
$TEXTSIZE
 40
0.2
  9
$TRACEWID
 40
0.05
  9
$TEXTSTYLE
  7
Standard
  9
$CLAYER
  8
0
  9
$CELTYPE
  6
ByLayer
  9
$CECOLOR
 62
   256
  9
$CELTSCALE
 40
1.0
  9
$DISPSILH
 70
     0
  9
$DIMSCALE
 40
1.0
  9
$DIMASZ
 40
0.0708661417322835
  9
$DIMEXO
 40
0.0625
  9
$DIMDLI
 40
0.38
  9
$DIMRND
 40
0.0
  9
$DIMDLE
 40
0.0
  9
$DIMEXE
 40
0.18
  9
$DIMTP
 40
0.0
  9
$DIMTM
 40
0.0
  9
$DIMTXT
 40
0.3048000037670135
  9
$DIMCEN
 40
0.09
  9
$DIMTSZ
 40
0.0
  9
$DIMTOL
 70
     0
  9
$DIMLIM
 70
     0
  9
$DIMTIH
 70
     1
  9
$DIMTOH
 70
     1
  9
$DIMSE1
 70
     0
  9
$DIMSE2
 70
     0
  9
$DIMTAD
 70
     0
  9
$DIMZIN
 70
     0
  9
$DIMBLK
  1

  9
$DIMASO
 70
     1
  9
$DIMSHO
 70
     1
  9
$DIMPOST
  1

  9
$DIMAPOST
  1

  9
$DIMALT
 70
     0
  9
$DIMALTD
 70
     2
  9
$DIMALTF
 40
25.4
  9
$DIMLFAC
 40
1.0
  9
$DIMTOFL
 70
     0
  9
$DIMTVP
 40
0.0
  9
$DIMTIX
 70
     0
  9
$DIMSOXD
 70
     0
  9
$DIMSAH
 70
     0
  9
$DIMBLK1
  1

  9
$DIMBLK2
  1

  9
$DIMSTYLE
  2
Standard
  9
$DIMCLRD
 70
     0
  9
$DIMCLRE
 70
     0
  9
$DIMCLRT
 70
     0
  9
$DIMTFAC
 40
1.0
  9
$DIMGAP
 40
0.09
  9
$DIMJUST
 70
     0
  9
$DIMSD1
 70
     0
  9
$DIMSD2
 70
     0
  9
$DIMTOLJ
 70
     1
  9
$DIMTZIN
 70
     0
  9
$DIMALTZ
 70
     0
  9
$DIMALTTZ
 70
     0
  9
$DIMUPT
 70
     0
  9
$DIMDEC
 70
     4
  9
$DIMTDEC
 70
     4
  9
$DIMALTU
 70
     2
  9
$DIMALTTD
 70
     2
  9
$DIMTXSTY
  7
Standard
  9
$DIMAUNIT
 70
     0
  9
$DIMADEC
 70
     0
  9
$DIMALTRND
 40
0.0
  9
$DIMAZIN
 70
     0
  9
$DIMDSEP
 70
    46
  9
$DIMATFIT
 70
     3
  9
$DIMFRAC
 70
     0
  9
$DIMLDRBLK
  1

  9
$DIMLUNIT
 70
     2
  9
$DIMLWD
 70
    -2
  9
$DIMLWE
 70
    -2
  9
$DIMTMOVE
 70
     0
  9
$LUNITS
 70
     2
  9
$LUPREC
 70
     4
  9
$SKETCHINC
 40
0.1
  9
$FILLETRAD
 40
0.0
  9
$AUNITS
 70
     0
  9
$AUPREC
 70
     0
  9
$MENU
  1
.
  9
$ELEVATION
 40
0.0
  9
$PELEVATION
 40
0.0
  9
$THICKNESS
 40
0.0
  9
$LIMCHECK
 70
     0
  9
$CHAMFERA
 40
0.0
  9
$CHAMFERB
 40
0.0
  9
$CHAMFERC
 40
0.0
  9
$CHAMFERD
 40
0.0
  9
$SKPOLY
 70
     0
  9
$TDCREATE
 40
2454846.694530880
  9
$TDUCREATE
 40
2454847.027864213
  9
$TDUPDATE
 40
2454846.694530880
  9
$TDUUPDATE
 40
2454847.027864213
  9
$TDINDWG
 40
0.0000519097
  9
$TDUSRTIMER
 40
0.0000519097
  9
$USRTIMER
 70
     1
  9
$ANGBASE
 50
0.0
  9
$ANGDIR
 70
     0
  9
$PDMODE
 70
     0
  9
$PDSIZE
 40
0.0
  9
$PLINEWID
 40
0.0
  9
$SPLFRAME
 70
     0
  9
$SPLINETYPE
 70
     6
  9
$SPLINESEGS
 70
     8
  9
$HANDSEED
  5
10BD
  9
$SURFTAB1
 70
     6
  9
$SURFTAB2
 70
     6
  9
$SURFTYPE
 70
     6
  9
$SURFU
 70
     6
  9
$SURFV
 70
     6
  9
$UCSBASE
  2

  9
$UCSNAME
  2

  9
$UCSORG
 10
0.0
 20
0.0
 30
0.0
  9
$UCSXDIR
 10
1.0
 20
0.0
 30
0.0
  9
$UCSYDIR
 10
0.0
 20
1.0
 30
0.0
  9
$UCSORTHOREF
  2

  9
$UCSORTHOVIEW
 70
     0
  9
$UCSORGTOP
 10
0.0
 20
0.0
 30
0.0
  9
$UCSORGBOTTOM
 10
0.0
 20
0.0
 30
0.0
  9
$UCSORGLEFT
 10
0.0
 20
0.0
 30
0.0
  9
$UCSORGRIGHT
 10
0.0
 20
0.0
 30
0.0
  9
$UCSORGFRONT
 10
0.0
 20
0.0
 30
0.0
  9
$UCSORGBACK
 10
0.0
 20
0.0
 30
0.0
  9
$PUCSBASE
  2

  9
$PUCSNAME
  2

  9
$PUCSORG
 10
0.0
 20
0.0
 30
0.0
  9
$PUCSXDIR
 10
1.0
 20
0.0
 30
0.0
  9
$PUCSYDIR
 10
0.0
 20
1.0
 30
0.0
  9
$PUCSORTHOREF
  2

  9
$PUCSORTHOVIEW
 70
     0
  9
$PUCSORGTOP
 10
0.0
 20
0.0
 30
0.0
  9
$PUCSORGBOTTOM
 10
0.0
 20
0.0
 30
0.0
  9
$PUCSORGLEFT
 10
0.0
 20
0.0
 30
0.0
  9
$PUCSORGRIGHT
 10
0.0
 20
0.0
 30
0.0
  9
$PUCSORGFRONT
 10
0.0
 20
0.0
 30
0.0
  9
$PUCSORGBACK
 10
0.0
 20
0.0
 30
0.0
  9
$USERI1
 70
     0
  9
$USERI2
 70
     0
  9
$USERI3
 70
     0
  9
$USERI4
 70
     0
  9
$USERI5
 70
     0
  9
$USERR1
 40
0.0
  9
$USERR2
 40
0.0
  9
$USERR3
 40
0.0
  9
$USERR4
 40
0.0
  9
$USERR5
 40
0.0
  9
$WORLDVIEW
 70
     1
  9
$SHADEDGE
 70
     3
  9
$SHADEDIF
 70
    70
  9
$TILEMODE
 70
     1
  9
$MAXACTVP
 70
    64
  9
$PINSBASE
 10
0.0
 20
0.0
 30
0.0
  9
$PLIMCHECK
 70
     0
  9
$PEXTMIN
 10
0.0
 20
0.0
 30
0.0
  9
$PEXTMAX
 10
2.2
 20
1.7
 30
0.0
  9
$PLIMMIN
 10
0.0
 20
0.0
  9
$PLIMMAX
 10
2.2
 20
1.7
  9
$UNITMODE
 70
     0
  9
$VISRETAIN
 70
     1
  9
$PLINEGEN
 70
     0
  9
$PSLTSCALE
 70
     1
  9
$TREEDEPTH
 70
  3020
  9
$CMLSTYLE
  2
Standard
  9
$CMLJUST
 70
     0
  9
$CMLSCALE
 40
1.0
  9
$PROXYGRAPHICS
 70
     1
  9
$MEASUREMENT
 70
     0
  9
$CELWEIGHT
370
    -1
  9
$ENDCAPS
280
     0
  9
$JOINSTYLE
280
     0
  9
$LWDISPLAY
290
     0
  9
$INSUNITS
 70
     0
  9
$HYPERLINKBASE
  1

  9
$STYLESHEET
  1

  9
$XEDIT
290
     1
  9
$CEPSNTYPE
380
     0
  9
$PSTYLEMODE
290
     1
  9
$FINGERPRINTGUID
  2
{DD906A7E-1E3E-4CFA-A53E-1DC7FCD83C72}
  9
$VERSIONGUID
  2
{279B065C-3F48-409F-A9C1-EBCFD8EFDD4C}
  9
$EXTNAMES
290
     1
  9
$PSVPSCALE
 40
0.0
  9
$OLESTARTUP
290
     0
  0
ENDSEC
  0
SECTION
  2
CLASSES
  0
CLASS
  1
ACDBDICTIONARYWDFLT
  2
AcDbDictionaryWithDefault
  3
ObjectDBX Classes
 90
        0
280
     0
281
     0
  0
CLASS
  1
MATERIAL
  2
AcDbMaterial
  3
ObjectDBX Classes
 90
     1024
280
     0
281
     0
  0
CLASS
  1
VISUALSTYLE
  2
AcDbVisualStyle
  3
ObjectDBX Classes
 90
     4095
280
     0
281
     0
  0
CLASS
  1
TABLESTYLE
  2
AcDbTableStyle
  3
ObjectDBX Classes
 90
     4095
280
     0
281
     0
  0
CLASS
  1
DICTIONARYVAR
  2
AcDbDictionaryVar
  3
ObjectDBX Classes
 90
        0
280
     0
281
     0
  0
CLASS
  1
ACDBPLACEHOLDER
  2
AcDbPlaceHolder
  3
ObjectDBX Classes
 90
        0
280
     0
281
     0
  0
CLASS
  1
LAYOUT
  2
AcDbLayout
  3
ObjectDBX Classes
 90
        0
280
     0
281
     0
  0
ENDSEC
  0
SECTION
  2
TABLES
  0
TABLE
  2
VPORT
  5
8
330
0
100
AcDbSymbolTable
 70
     1
  0
VPORT
  5
28
330
8
100
AcDbSymbolTableRecord
100
AcDbViewportTableRecord
  2
*Active
 70
     0
 10
0.0
 20
0.0
 11
1.0
 21
1.0
 12
1.1
 22
0.85
 13
0.0
 23
0.0
 14
1.0
 24
1.0
 15
0.0
 25
0.0
 16
0.0
 26
0.0
 36
1.0
 17
0.0
 27
0.0
 37
0.0
 40
1.7
 41
1.294117647058823
 42
50.0
 43
0.0
 44
0.0
 50
0.0
 51
0.0
 71
     0
 72
   100
 73
     1
 74
     1
 75
     0
 76
     0
 77
     0
 78
     0
281
     0
 65
     1
110
0.0
120
0.0
130
0.0
111
1.0
121
0.0
131
0.0
112
0.0
122
1.0
132
0.0
 79
     0
146
0.0
  0
ENDTAB
  0
TABLE
  2
LTYPE
  5
5
330
0
100
AcDbSymbolTable
 70
    59
  0
LTYPE
  5
29
330
5
100
AcDbSymbolTableRecord
100
AcDbLinetypeTableRecord
  2
ByBlock
 70
     0
  3

 72
    65
 73
     0
 40
0.0
  0
LTYPE
  5
2A
330
5
100
AcDbSymbolTableRecord
100
AcDbLinetypeTableRecord
  2
ByLayer
 70
     0
  3

 72
    65
 73
     0
 40
0.0
  0
LTYPE
  5
2B
330
5
100
AcDbSymbolTableRecord
100
AcDbLinetypeTableRecord
  2
Continuous
 70
     0
  3
Solid line
 72
    65
 73
     0
 40
0.0
  0
LTYPE
  5
40
330
5
100
AcDbSymbolTableRecord
100
AcDbLinetypeTableRecord
  2
BY_STANDARD
 70
     0
  3
By Standard ____________    ____    ____   _
 72
    65
 73
     6
 40
1.240299999999999
 49
0.6614
 74
     0
 49
-0.0827
 74
     0
 49
0.1654
 74
     0
 49
-0.0827
 74
     0
 49
0.1654
 74
     0
 49
-0.0827
 74
     0
  0
LTYPE
  5
41
330
5
100
AcDbSymbolTableRecord
100
AcDbLinetypeTableRecord
  2
CHAIN
 70
     0
  3
Chain ____ _ ____ _ ____ _ ____ _ ____ _ ____
 72
    65
 73
     4
 40
0.7087
 49
0.4724000000000001
 74
     0
 49
-0.0591
 74
     0
 49
0.1181
 74
     0
 49
-0.0591
 74
     0
  0
LTYPE
  5
42
330
5
100
AcDbSymbolTableRecord
100
AcDbLinetypeTableRecord
  2
DASH_DOT
 70
     0
  3
Dash dot __ . __ . __ . __ . __ . __ . __ . __
 72
    65
 73
     4
 40
0.37
 49
0.24
 74
     0
 49
-0.06
 74
     0
 49
0.01
 74
     0
 49
-0.06
 74
     0
  0
LTYPE
  5
43
330
5
100
AcDbSymbolTableRecord
100
AcDbLinetypeTableRecord
  2
DOUBLE_DASH_DOT
 70
     0
  3
Double-Dash Dot __ __ . __ __ . __ __ . __ _
 72
    65
 73
     6
 40
0.4398
 49
0.24
 74
     0
 49
-0.06
 74
     0
 49
0.0098
 74
     0
 49
-0.06
 74
     0
 49
0.01
 74
     0
 49
-0.06
 74
     0
  0
LTYPE
  5
44
330
5
100
AcDbSymbolTableRecord
100
AcDbLinetypeTableRecord
  2
DASH_TRIPLE_DOT
 70
     0
  3
Dash Triple-Dot _ . . . _ . . . _ . . . _
 72
    65
 73
     8
 40
0.51
 49
0.24
 74
     0
 49
-0.06
 74
     0
 49
0.01
 74
     0
 49
-0.06
 74
     0
 49
0.01
 74
     0
 49
-0.06
 74
     0
 49
0.01
 74
     0
 49
-0.06
 74
     0
  0
LTYPE
  5
45
330
5
100
AcDbSymbolTableRecord
100
AcDbLinetypeTableRecord
  2
DASHED
 70
     0
  3
Dashed __ __ __ __ __ __ __ __ __ __ __ __ __ _
 72
    65
 73
     2
 40
0.2067
 49
0.1654
 74
     0
 49
-0.0413
 74
     0
  0
LTYPE
  5
46
330
5
100
AcDbSymbolTableRecord
100
AcDbLinetypeTableRecord
  2
DASH_DOUBLE_DOT
 70
     0
  3
Dash Double-Dot __ . . __ . . __ . . __ . .
 72
    65
 73
     6
 40
0.4398
 49
0.24
 74
     0
 49
-0.06
 74
     0
 49
0.0098
 74
     0
 49
-0.06
 74
     0
 49
0.01
 74
     0
 49
-0.06
 74
     0
  0
LTYPE
  5
47
330
5
100
AcDbSymbolTableRecord
100
AcDbLinetypeTableRecord
  2
DASHED_SPACE
 70
     0
  3
Dashed Space __ __ __ __ __ __ __ __ __ __ __ _
 72
    65
 73
     2
 40
0.2067
 49
0.1654
 74
     0
 49
-0.0413
 74
     0
  0
LTYPE
  5
48
330
5
100
AcDbSymbolTableRecord
100
AcDbLinetypeTableRecord
  2
DOTTED
 70
     0
  3
Dotted . . . . . . . . . . . . . . . . . . . . 
 72
    65
 73
     2
 40
0.0482
 49
0.0069
 74
     0
 49
-0.0413
 74
     0
  0
LTYPE
  5
49
330
5
100
AcDbSymbolTableRecord
100
AcDbLinetypeTableRecord
  2
DOUBLE_DASH_CHAIN
 70
     0
  3
Double-Dash Chain ______  __  __  ______  __  _
 72
    65
 73
     6
 40
1.240299999999999
 49
0.6614
 74
     0
 49
-0.0827
 74
     0
 49
0.1654
 74
     0
 49
-0.0827
 74
     0
 49
0.1654
 74
     0
 49
-0.0827
 74
     0
  0
LTYPE
  5
4B
330
5
100
AcDbSymbolTableRecord
100
AcDbLinetypeTableRecord
  2
DOUBLE_DASH_DOUBLE_DOT
 70
     0
  3
Double-Dash Double-dot _ _ . . _ _ . . _
 72
    65
 73
     8
 40
0.7400000000000001
 49
0.24
 74
     0
 49
-0.06
 74
     0
 49
0.24
 74
     0
 49
-0.06
 74
     0
 49
0.01
 74
     0
 49
-0.06
 74
     0
 49
0.01
 74
     0
 49
-0.06
 74
     0
  0
LTYPE
  5
4C
330
5
100
AcDbSymbolTableRecord
100
AcDbLinetypeTableRecord
  2
DOUBLE_DASH_TRIPLE_DOT
 70
     0
  3
Double Dash Triple Dot __ __ . . . __ __ . .
 72
    65
 73
    10
 40
0.8100000000000001
 49
0.24
 74
     0
 49
-0.06
 74
     0
 49
0.24
 74
     0
 49
-0.06
 74
     0
 49
0.01
 74
     0
 49
-0.06
 74
     0
 49
0.01
 74
     0
 49
-0.06
 74
     0
 49
0.01
 74
     0
 49
-0.06
 74
     0
  0
LTYPE
  5
4D
330
5
100
AcDbSymbolTableRecord
100
AcDbLinetypeTableRecord
  2
LONG_DASH_DOTTED
 70
     0
  3
Long Dash Dotted ____ . ____ . ____ . ____ . _
 72
    65
 73
     4
 40
0.3543
 49
0.2362
 74
     0
 49
-0.0295
 74
     0
 49
0.0591
 74
     0
 49
-0.0295
 74
     0
  0
LTYPE
  5
4E
330
5
100
AcDbSymbolTableRecord
100
AcDbLinetypeTableRecord
  2
LONG_DASH_DOUBLE_DOT
 70
     0
  3
Long Dash Double Dot ________  .  .  ________  
 72
    65
 73
     6
 40
0.6799999999999999
 49
0.48
 74
     0
 49
-0.06
 74
     0
 49
0.01
 74
     0
 49
-0.06
 74
     0
 49
0.01
 74
     0
 49
-0.06
 74
     0
  0
LTYPE
  5
4F
330
5
100
AcDbSymbolTableRecord
100
AcDbLinetypeTableRecord
  2
LONG_DASH_TRIPLE_DOT
 70
     0
  3
Long Dash Triple Dot ____ ... ____ ... ____
 72
    65
 73
     8
 40
0.3689
 49
0.2362
 74
     0
 49
-0.0295
 74
     0
 49
0.0049
 74
     0
 49
-0.0295
 74
     0
 49
0.0049
 74
     0
 49
-0.0295
 74
     0
 49
0.0049
 74
     0
 49
-0.0295
 74
     0
  0
LTYPE
  5
50
330
5
100
AcDbSymbolTableRecord
100
AcDbLinetypeTableRecord
  2
BORDER
 70
     0
  3
Border __ __ . __ __ . __ __ . __ __ . __ __ .
 72
    65
 73
     6
 40
1.75
 49
0.5
 74
     0
 49
-0.25
 74
     0
 49
0.5
 74
     0
 49
-0.25
 74
     0
 49
0.0
 74
     0
 49
-0.25
 74
     0
  0
LTYPE
  5
51
330
5
100
AcDbSymbolTableRecord
100
AcDbLinetypeTableRecord
  2
BORDER2
 70
     0
  3
Border (.5x) __.__.__.__.__.__.__.__.__.__.__.
 72
    65
 73
     6
 40
0.875
 49
0.25
 74
     0
 49
-0.125
 74
     0
 49
0.25
 74
     0
 49
-0.125
 74
     0
 49
0.0
 74
     0
 49
-0.125
 74
     0
  0
LTYPE
  5
52
330
5
100
AcDbSymbolTableRecord
100
AcDbLinetypeTableRecord
  2
BORDERX2
 70
     0
  3
Border (2x) ____  ____  .  ____  ____  .  ___
 72
    65
 73
     6
 40
3.5
 49
1.0
 74
     0
 49
-0.5
 74
     0
 49
1.0
 74
     0
 49
-0.5
 74
     0
 49
0.0
 74
     0
 49
-0.5
 74
     0
  0
LTYPE
  5
53
330
5
100
AcDbSymbolTableRecord
100
AcDbLinetypeTableRecord
  2
CENTER
 70
     0
  3
Center ____ _ ____ _ ____ _ ____ _ ____ _ ____
 72
    65
 73
     4
 40
2.0
 49
1.25
 74
     0
 49
-0.25
 74
     0
 49
0.25
 74
     0
 49
-0.25
 74
     0
  0
LTYPE
  5
54
330
5
100
AcDbSymbolTableRecord
100
AcDbLinetypeTableRecord
  2
CENTER2
 70
     0
  3
Center (.5x) ___ _ ___ _ ___ _ ___ _ ___ _ ___
 72
    65
 73
     4
 40
1.125
 49
0.75
 74
     0
 49
-0.125
 74
     0
 49
0.125
 74
     0
 49
-0.125
 74
     0
  0
LTYPE
  5
55
330
5
100
AcDbSymbolTableRecord
100
AcDbLinetypeTableRecord
  2
CENTERX2
 70
     0
  3
Center (2x) ________  __  ________  __  _____
 72
    65
 73
     4
 40
4.0
 49
2.5
 74
     0
 49
-0.5
 74
     0
 49
0.5
 74
     0
 49
-0.5
 74
     0
  0
LTYPE
  5
56
330
5
100
AcDbSymbolTableRecord
100
AcDbLinetypeTableRecord
  2
DASHDOT2
 70
     0
  3
Dash dot (.5x) _._._._._._._._._._._._._._._.
 72
    65
 73
     4
 40
0.5
 49
0.25
 74
     0
 49
-0.125
 74
     0
 49
0.0
 74
     0
 49
-0.125
 74
     0
  0
LTYPE
  5
57
330
5
100
AcDbSymbolTableRecord
100
AcDbLinetypeTableRecord
  2
DASHDOTX2
 70
     0
  3
Dash dot (2x) ____  .  ____  .  ____  .  ___
 72
    65
 73
     4
 40
2.0
 49
1.0
 74
     0
 49
-0.5
 74
     0
 49
0.0
 74
     0
 49
-0.5
 74
     0
  0
LTYPE
  5
59
330
5
100
AcDbSymbolTableRecord
100
AcDbLinetypeTableRecord
  2
DASHED2
 70
     0
  3
Dashed (.5x) _ _ _ _ _ _ _ _ _ _ _ _ _ _ _ _ _
 72
    65
 73
     2
 40
0.375
 49
0.25
 74
     0
 49
-0.125
 74
     0
  0
LTYPE
  5
5A
330
5
100
AcDbSymbolTableRecord
100
AcDbLinetypeTableRecord
  2
DASHEDX2
 70
     0
  3
Dashed (2x) ____  ____  ____  ____  ____  ___
 72
    65
 73
     2
 40
1.5
 49
1.0
 74
     0
 49
-0.5
 74
     0
  0
LTYPE
  5
5B
330
5
100
AcDbSymbolTableRecord
100
AcDbLinetypeTableRecord
  2
DIVIDE
 70
     0
  3
Divide ____ . . ____ . . ____ . . ____ . . ____
 72
    65
 73
     6
 40
1.25
 49
0.5
 74
     0
 49
-0.25
 74
     0
 49
0.0
 74
     0
 49
-0.25
 74
     0
 49
0.0
 74
     0
 49
-0.25
 74
     0
  0
LTYPE
  5
5C
330
5
100
AcDbSymbolTableRecord
100
AcDbLinetypeTableRecord
  2
DIVIDE2
 70
     0
  3
Divide (.5x) __..__..__..__..__..__..__..__.._
 72
    65
 73
     6
 40
0.625
 49
0.25
 74
     0
 49
-0.125
 74
     0
 49
0.0
 74
     0
 49
-0.125
 74
     0
 49
0.0
 74
     0
 49
-0.125
 74
     0
  0
LTYPE
  5
5D
330
5
100
AcDbSymbolTableRecord
100
AcDbLinetypeTableRecord
  2
DIVIDEX2
 70
     0
  3
Divide (2x) ________  .  .  ________  .  .  _
 72
    65
 73
     6
 40
2.5
 49
1.0
 74
     0
 49
-0.5
 74
     0
 49
0.0
 74
     0
 49
-0.5
 74
     0
 49
0.0
 74
     0
 49
-0.5
 74
     0
  0
LTYPE
  5
5E
330
5
100
AcDbSymbolTableRecord
100
AcDbLinetypeTableRecord
  2
DOT
 70
     0
  3
Dot . . . . . . . . . . . . . . . . . . . . . .
 72
    65
 73
     2
 40
0.25
 49
0.0
 74
     0
 49
-0.25
 74
     0
  0
LTYPE
  5
5F
330
5
100
AcDbSymbolTableRecord
100
AcDbLinetypeTableRecord
  2
DOT2
 70
     0
  3
Dot (.5x) .....................................
 72
    65
 73
     2
 40
0.125
 49
0.0
 74
     0
 49
-0.125
 74
     0
  0
LTYPE
  5
60
330
5
100
AcDbSymbolTableRecord
100
AcDbLinetypeTableRecord
  2
DOTX2
 70
     0
  3
Dot (2x) .  .  .  .  .  .  .  .  .  .  .  .  . 
 72
    65
 73
     2
 40
0.5
 49
0.0
 74
     0
 49
-0.5
 74
     0
  0
LTYPE
  5
61
330
5
100
AcDbSymbolTableRecord
100
AcDbLinetypeTableRecord
  2
HIDDEN
 70
     0
  3
Hidden __ __ __ __ __ __ __ __ __ __ __ __ __ _
 72
    65
 73
     2
 40
0.375
 49
0.25
 74
     0
 49
-0.125
 74
     0
  0
LTYPE
  5
62
330
5
100
AcDbSymbolTableRecord
100
AcDbLinetypeTableRecord
  2
HIDDEN2
 70
     0
  3
Hidden (.5x) _ _ _ _ _ _ _ _ _ _ _ _ _ _ _ _ _
 72
    65
 73
     2
 40
0.1875
 49
0.125
 74
     0
 49
-0.0625
 74
     0
  0
LTYPE
  5
63
330
5
100
AcDbSymbolTableRecord
100
AcDbLinetypeTableRecord
  2
HIDDENX2
 70
     0
  3
Hidden (2x) ____ ____ ____ ____ ____ ____ ____
 72
    65
 73
     2
 40
0.75
 49
0.5
 74
     0
 49
-0.25
 74
     0
  0
LTYPE
  5
64
330
5
100
AcDbSymbolTableRecord
100
AcDbLinetypeTableRecord
  2
PHANTOM
 70
     0
  3
Phantom ______  __  __  ______  __  __  ______
 72
    65
 73
     6
 40
2.5
 49
1.25
 74
     0
 49
-0.25
 74
     0
 49
0.25
 74
     0
 49
-0.25
 74
     0
 49
0.25
 74
     0
 49
-0.25
 74
     0
  0
LTYPE
  5
65
330
5
100
AcDbSymbolTableRecord
100
AcDbLinetypeTableRecord
  2
PHANTOM2
 70
     0
  3
Phantom (.5x) ___ _ _ ___ _ _ ___ _ _ ___ _ _
 72
    65
 73
     6
 40
1.25
 49
0.625
 74
     0
 49
-0.125
 74
     0
 49
0.125
 74
     0
 49
-0.125
 74
     0
 49
0.125
 74
     0
 49
-0.125
 74
     0
  0
LTYPE
  5
66
330
5
100
AcDbSymbolTableRecord
100
AcDbLinetypeTableRecord
  2
PHANTOMX2
 70
     0
  3
Phantom (2x) ____________    ____    ____   _
 72
    65
 73
     6
 40
5.0
 49
2.5
 74
     0
 49
-0.5
 74
     0
 49
0.5
 74
     0
 49
-0.5
 74
     0
 49
0.5
 74
     0
 49
-0.5
 74
     0
  0
LTYPE
  5
67
330
5
100
AcDbSymbolTableRecord
100
AcDbLinetypeTableRecord
  2
ACAD_ISO02W100
 70
     0
  3
ISO dash __ __ __ __ __ __ __ __ __ __ __ __ __
 72
    65
 73
     2
 40
0.59
 49
0.47
 74
     0
 49
-0.12
 74
     0
  0
LTYPE
  5
68
330
5
100
AcDbSymbolTableRecord
100
AcDbLinetypeTableRecord
  2
ACAD_ISO03W100
 70
     0
  3
ISO dash space __    __    __    __    __    __
 72
    65
 73
     2
 40
1.179999999999999
 49
0.47
 74
     0
 49
-0.71
 74
     0
  0
LTYPE
  5
69
330
5
100
AcDbSymbolTableRecord
100
AcDbLinetypeTableRecord
  2
ACAD_ISO04W100
 70
     0
  3
ISO long-dash dot ____ . ____ . ____ . ____ . _
 72
    65
 73
     4
 40
1.179999999999999
 49
0.9399999999999998
 74
     0
 49
-0.12
 74
     0
 49
0.0
 74
     0
 49
-0.12
 74
     0
  0
LTYPE
  5
6A
330
5
100
AcDbSymbolTableRecord
100
AcDbLinetypeTableRecord
  2
ACAD_ISO05W100
 70
     0
  3
ISO long-dash double-dot ____ .. ____ .. ____ .
 72
    65
 73
     6
 40
1.299999999999999
 49
0.9399999999999998
 74
     0
 49
-0.12
 74
     0
 49
0.0
 74
     0
 49
-0.12
 74
     0
 49
0.0
 74
     0
 49
-0.12
 74
     0
  0
LTYPE
  5
6B
330
5
100
AcDbSymbolTableRecord
100
AcDbLinetypeTableRecord
  2
ACAD_ISO06W100
 70
     0
  3
ISO long-dash triple-dot ____ ... ____ ... ____
 72
    65
 73
     8
 40
1.419999999999999
 49
0.9399999999999998
 74
     0
 49
-0.12
 74
     0
 49
0.0
 74
     0
 49
-0.12
 74
     0
 49
0.0
 74
     0
 49
-0.12
 74
     0
 49
0.0
 74
     0
 49
-0.12
 74
     0
  0
LTYPE
  5
6C
330
5
100
AcDbSymbolTableRecord
100
AcDbLinetypeTableRecord
  2
ACAD_ISO07W100
 70
     0
  3
ISO dot . . . . . . . . . . . . . . . . . . . .
 72
    65
 73
     2
 40
0.12
 49
0.0
 74
     0
 49
-0.12
 74
     0
  0
LTYPE
  5
6D
330
5
100
AcDbSymbolTableRecord
100
AcDbLinetypeTableRecord
  2
ACAD_ISO08W100
 70
     0
  3
ISO long-dash short-dash ____ __ ____ __ ____ _
 72
    65
 73
     4
 40
0.95
 49
0.47
 74
     0
 49
-0.12
 74
     0
 49
0.24
 74
     0
 49
-0.12
 74
     0
  0
LTYPE
  5
6E
330
5
100
AcDbSymbolTableRecord
100
AcDbLinetypeTableRecord
  2
ACAD_ISO09W100
 70
     0
  3
ISO long-dash double-short-dash ____ __ __ ____
 72
    65
 73
     6
 40
1.31
 49
0.47
 74
     0
 49
-0.12
 74
     0
 49
0.24
 74
     0
 49
-0.12
 74
     0
 49
0.24
 74
     0
 49
-0.12
 74
     0
  0
LTYPE
  5
6F
330
5
100
AcDbSymbolTableRecord
100
AcDbLinetypeTableRecord
  2
ACAD_ISO10W100
 70
     0
  3
ISO dash dot __ . __ . __ . __ . __ . __ . __ .
 72
    65
 73
     4
 40
0.71
 49
0.47
 74
     0
 49
-0.12
 74
     0
 49
0.0
 74
     0
 49
-0.12
 74
     0
  0
LTYPE
  5
70
330
5
100
AcDbSymbolTableRecord
100
AcDbLinetypeTableRecord
  2
ACAD_ISO11W100
 70
     0
  3
ISO double-dash dot __ __ . __ __ . __ __ . __ 
 72
    65
 73
     6
 40
1.299999999999999
 49
0.47
 74
     0
 49
-0.12
 74
     0
 49
0.47
 74
     0
 49
-0.12
 74
     0
 49
0.0
 74
     0
 49
-0.12
 74
     0
  0
LTYPE
  5
71
330
5
100
AcDbSymbolTableRecord
100
AcDbLinetypeTableRecord
  2
ACAD_ISO12W100
 70
     0
  3
ISO dash double-dot __ . . __ . . __ . . __ . .
 72
    65
 73
     6
 40
0.8299999999999998
 49
0.47
 74
     0
 49
-0.12
 74
     0
 49
0.0
 74
     0
 49
-0.12
 74
     0
 49
0.0
 74
     0
 49
-0.12
 74
     0
  0
LTYPE
  5
72
330
5
100
AcDbSymbolTableRecord
100
AcDbLinetypeTableRecord
  2
ACAD_ISO13W100
 70
     0
  3
ISO double-dash double-dot __ __ . . __ __ . . 
 72
    65
 73
     8
 40
1.419999999999999
 49
0.47
 74
     0
 49
-0.12
 74
     0
 49
0.47
 74
     0
 49
-0.12
 74
     0
 49
0.0
 74
     0
 49
-0.12
 74
     0
 49
0.0
 74
     0
 49
-0.12
 74
     0
  0
LTYPE
  5
73
330
5
100
AcDbSymbolTableRecord
100
AcDbLinetypeTableRecord
  2
ACAD_ISO14W100
 70
     0
  3
ISO dash triple-dot __ . . . __ . . . __ . . . 
 72
    65
 73
     8
 40
0.95
 49
0.47
 74
     0
 49
-0.12
 74
     0
 49
0.0
 74
     0
 49
-0.12
 74
     0
 49
0.0
 74
     0
 49
-0.12
 74
     0
 49
0.0
 74
     0
 49
-0.12
 74
     0
  0
LTYPE
  5
74
330
5
100
AcDbSymbolTableRecord
100
AcDbLinetypeTableRecord
  2
ACAD_ISO15W100
 70
     0
  3
ISO double-dash triple-dot __ __ . . . __ __ . 
 72
    65
 73
    10
 40
1.539999999999999
 49
0.47
 74
     0
 49
-0.12
 74
     0
 49
0.47
 74
     0
 49
-0.12
 74
     0
 49
0.0
 74
     0
 49
-0.12
 74
     0
 49
0.0
 74
     0
 49
-0.12
 74
     0
 49
0.0
 74
     0
 49
-0.12
 74
     0
  0
LTYPE
  5
77
330
5
100
AcDbSymbolTableRecord
100
AcDbLinetypeTableRecord
  2
FENCELINE1
 70
     0
  3
Fenceline circle ----0-----0----0-----0----0---
 72
    65
 73
     4
 40
1.45
 49
0.25
 74
     0
 49
-0.1
 74
     4
 75
   133
340
76
 46
0.1
 50
0.0
 44
-0.1
 45
0.0
 49
-0.1
 74
     0
 49
1.0
 74
     0
  0
LTYPE
  5
78
330
5
100
AcDbSymbolTableRecord
100
AcDbLinetypeTableRecord
  2
FENCELINE2
 70
     0
  3
Fenceline square ----[]-----[]----[]-----[]----
 72
    65
 73
     4
 40
1.45
 49
0.25
 74
     0
 49
-0.1
 74
     4
 75
   132
340
76
 46
0.1
 50
0.0
 44
-0.1
 45
0.0
 49
-0.1
 74
     0
 49
1.0
 74
     0
  0
LTYPE
  5
79
330
5
100
AcDbSymbolTableRecord
100
AcDbLinetypeTableRecord
  2
TRACKS
 70
     0
  3
Tracks -|-|-|-|-|-|-|-|-|-|-|-|-|-|-|-|-|-|-|-|
 72
    65
 73
     2
 40
0.3
 49
0.15
 74
     4
 75
   130
340
76
 46
0.25
 50
0.0
 44
0.0
 45
0.0
 49
0.15
 74
     0
  0
LTYPE
  5
7A
330
5
100
AcDbSymbolTableRecord
100
AcDbLinetypeTableRecord
  2
BATTING
 70
     0
  3
Batting SSSSSSSSSSSSSSSSSSSSSSSSSSSSSSSSSSSSSSS
 72
    65
 73
     4
 40
0.4001000000000001
 49
0.0001
 74
     0
 49
-0.1
 74
     4
 75
   134
340
76
 46
0.1
 50
0.0
 44
-0.1
 45
0.0
 49
-0.2
 74
     4
 75
   134
340
76
 46
0.1
 50
180.0
 44
0.1
 45
0.0
 49
-0.1
 74
     0
  0
LTYPE
  5
7B
330
5
100
AcDbSymbolTableRecord
100
AcDbLinetypeTableRecord
  2
HOT_WATER_SUPPLY
 70
     0
  3
Hot water supply ---- HW ---- HW ---- HW ----
 72
    65
 73
     3
 40
0.9
 49
0.5
 74
     0
 49
-0.2
 74
     2
 75
     0
340
26
 46
0.1
 50
0.0
 44
-0.1
 45
-0.05
  9
HW
 49
-0.2
 74
     0
  0
LTYPE
  5
7C
330
5
100
AcDbSymbolTableRecord
100
AcDbLinetypeTableRecord
  2
GAS_LINE
 70
     0
  3
Gas line ----GAS----GAS----GAS----GAS----GAS---
 72
    65
 73
     3
 40
0.95
 49
0.5
 74
     0
 49
-0.2
 74
     2
 75
     0
340
26
 46
0.1
 50
0.0
 44
-0.1
 45
-0.05
  9
GAS
 49
-0.25
 74
     0
  0
LTYPE
  5
7D
330
5
100
AcDbSymbolTableRecord
100
AcDbLinetypeTableRecord
  2
ZIGZAG
 70
     0
  3
Zig zag /\/\/\/\/\/\/\/\/\/\/\/\/\/\/\/\/\/\/\/
 72
    65
 73
     4
 40
0.8001000000000001
 49
0.0001
 74
     0
 49
-0.2
 74
     4
 75
   131
340
76
 46
0.2
 50
0.0
 44
-0.2
 45
0.0
 49
-0.4
 74
     4
 75
   131
340
76
 46
0.2
 50
180.0
 44
0.2
 45
0.0
 49
-0.2
 74
     0
  0
ENDTAB
  0
TABLE
  2
LAYER
  5
2
330
0
100
AcDbSymbolTable
 70
    26
  0
LAYER
  5
25
330
2
100
AcDbSymbolTableRecord
100
AcDbLayerTableRecord
  2
0
 70
     0
 62
     7
  6
Continuous
370
    -3
390
F
  0
LAYER
  5
81
330
2
100
AcDbSymbolTableRecord
100
AcDbLayerTableRecord
  2
Border (ANSI)
 70
     0
 62
     7
  6
Continuous
370
    70
390
F
  0
LAYER
  5
83
330
2
100
AcDbSymbolTableRecord
100
AcDbLayerTableRecord
  2
Center Mark (ANSI)
 70
     0
 62
     7
  6
Continuous
370
    25
390
F
  0
LAYER
  5
84
330
2
100
AcDbSymbolTableRecord
100
AcDbLayerTableRecord
  2
Centerline (ANSI)
 70
     0
 62
     7
  6
Continuous
370
    25
390
F
  0
LAYER
  5
86
330
2
100
AcDbSymbolTableRecord
100
AcDbLayerTableRecord
  2
Dimension (ANSI)
 70
     0
 62
     7
  6
Continuous
370
    25
390
F
  0
LAYER
  5
89
330
2
100
AcDbSymbolTableRecord
100
AcDbLayerTableRecord
  2
Hidden Narrow (ANSI)
 70
     0
 62
     7
  6
DASHED
370
    25
390
F
  0
LAYER
  5
8D
330
2
100
AcDbSymbolTableRecord
100
AcDbLayerTableRecord
  2
Sketch Geometry (ANSI)
 70
     0
 62
     7
  6
Continuous
370
    25
390
F
  0
LAYER
  5
8E
330
2
100
AcDbSymbolTableRecord
100
AcDbLayerTableRecord
  2
Symbol (ANSI)
 70
     0
 62
     7
  6
Continuous
370
    25
390
F
  0
LAYER
  5
91
330
2
100
AcDbSymbolTableRecord
100
AcDbLayerTableRecord
  2
Visible (ANSI)
 70
     0
 62
     7
  6
Continuous
370
    50
390
F
  0
LAYER
  5
14D
330
2
100
AcDbSymbolTableRecord
100
AcDbLayerTableRecord
  2
Defpoints
 70
     0
 62
     7
  6
Continuous
290
     0
370
    -3
390
F
  0
ENDTAB
  0
TABLE
  2
STYLE
  5
3
330
0
100
AcDbSymbolTable
 70
    13
  0
STYLE
  5
26
330
3
100
AcDbSymbolTableRecord
100
AcDbTextStyleTableRecord
  2
Standard
 70
     0
 40
0.0
 41
1.0
 50
0.0
 71
     0
 42
0.2
  3
TAHOMA.TTF
  4

1001
ACAD
1000
Tahoma
1071
      256
  0
STYLE
  5
76
330
3
100
AcDbSymbolTableRecord
100
AcDbTextStyleTableRecord
  2

 70
     1
 40
0.0
 41
1.0
 50
0.0
 71
     0
 42
0.2
  3
ltypeshp.shx
  4

  0
STYLE
  5
96
330
3
100
AcDbSymbolTableRecord
100
AcDbTextStyleTableRecord
  2
Label Text (ANSI)
 70
     0
 40
0.0
 41
1.0
 50
0.0
 71
     0
 42
0.2
  3
TAHOMA.TTF
  4

1001
ACAD
1000
Tahoma
1071
      256
  0
STYLE
  5
97
330
3
100
AcDbSymbolTableRecord
100
AcDbTextStyleTableRecord
  2
Label Text (DIN)
 70
     0
 40
0.0
 41
1.0
 50
0.0
 71
     0
 42
0.2
  3
isocpeur.ttf
  4

1001
ACAD
1000
ISOCPEUR
1071
      256
  0
STYLE
  5
98
330
3
100
AcDbSymbolTableRecord
100
AcDbTextStyleTableRecord
  2
Label Text (ISO)
 70
     0
 40
0.0
 41
1.0
 50
0.0
 71
     0
 42
0.2
  3
TAHOMA.TTF
  4

1001
ACAD
1000
Tahoma
1071
      256
  0
STYLE
  5
99
330
3
100
AcDbSymbolTableRecord
100
AcDbTextStyleTableRecord
  2
Label Text (JIS)
 70
     0
 40
0.0
 41
1.0
 50
0.0
 71
     0
 42
0.2
  3
TAHOMA.TTF
  4

1001
ACAD
1000
Tahoma
1071
      256
  0
STYLE
  5
9A
330
3
100
AcDbSymbolTableRecord
100
AcDbTextStyleTableRecord
  2
Note Text (ANSI)
 70
     0
 40
0.0
 41
1.0
 50
0.0
 71
     0
 42
0.2
  3
TAHOMA.TTF
  4

1001
ACAD
1000
Tahoma
1071
      256
  0
STYLE
  5
9B
330
3
100
AcDbSymbolTableRecord
100
AcDbTextStyleTableRecord
  2
Note Text (DIN)
 70
     0
 40
0.0
 41
1.0
 50
0.0
 71
     0
 42
0.2
  3
isocpeur.ttf
  4

1001
ACAD
1000
ISOCPEUR
1071
      256
  0
STYLE
  5
9C
330
3
100
AcDbSymbolTableRecord
100
AcDbTextStyleTableRecord
  2
Note Text (ISO)
 70
     0
 40
0.0
 41
1.0
 50
0.0
 71
     0
 42
0.2
  3
TAHOMA.TTF
  4

1001
ACAD
1000
Tahoma
1071
      256
  0
STYLE
  5
9D
330
3
100
AcDbSymbolTableRecord
100
AcDbTextStyleTableRecord
  2
Note Text (JIS)
 70
     0
 40
0.0
 41
1.0
 50
0.0
 71
     0
 42
0.2
  3
TAHOMA.TTF
  4

1001
ACAD
1000
Tahoma
1071
      256
  0
STYLE
  5
F1
330
3
100
AcDbSymbolTableRecord
100
AcDbTextStyleTableRecord
  2
Text Style29
 70
     0
 40
0.0
 41
1.0
 50
0.0
 71
     0
 42
0.2
  3
TAHOMA.TTF
  4

1001
ACAD
1000
Tahoma
1071
      256
  0
STYLE
  5
866
330
3
100
AcDbSymbolTableRecord
100
AcDbTextStyleTableRecord
  2
Text Style30
 70
     0
 40
0.0
 41
1.0
 50
0.0
 71
     0
 42
0.2
  3
TAHOMA.TTF
  4

1001
ACAD
1000
Tahoma
1071
      256
  0
STYLE
  5
EE7
330
3
100
AcDbSymbolTableRecord
100
AcDbTextStyleTableRecord
  2
Text Style6
 70
     0
 40
0.0
 41
1.0
 50
0.0
 71
     0
 42
0.2
  3
AIGDT___.TTF
  4

1001
ACAD
1000
AIGDT
1071
      514
  0
ENDTAB
  0
TABLE
  2
VIEW
  5
6
330
0
100
AcDbSymbolTable
 70
     0
  0
ENDTAB
  0
TABLE
  2
UCS
  5
7
330
0
100
AcDbSymbolTable
 70
     0
  0
ENDTAB
  0
TABLE
  2
APPID
  5
9
330
0
100
AcDbSymbolTable
 70
     1
  0
APPID
  5
27
330
9
100
AcDbSymbolTableRecord
100
AcDbRegAppTableRecord
  2
ACAD
 70
     0
  0
ENDTAB
  0
TABLE
  2
DIMSTYLE
  5
A
330
0
100
AcDbSymbolTable
 70
    15
100
AcDbDimStyleTable
 71
     2
340
A6
340
3F
  0
DIMSTYLE
105
3F
330
A
100
AcDbSymbolTableRecord
100
AcDbDimStyleTableRecord
  2
Standard
 70
     0
340
26
  0
DIMSTYLE
105
9E
330
A
100
AcDbSymbolTableRecord
100
AcDbDimStyleTableRecord
  2
Architectural (ANSI)
 70
     0
 40
0.2
 41
0.0984251946210861
 42
0.0625
 43
0.2362204724409449
 44
0.125
 45
0.00000001
 46
0.3937007874015748
 78
     4
 79
     3
140
0.1200000047683716
144
0.0833333333333333
147
0.031496062992126
171
     1
176
   256
177
   256
178
   256
272
     2
274
     1
276
     2
277
     4
284
    12
286
    12
340
9A
371
    -1
372
    -1
  0
DIMSTYLE
105
9F
330
A
100
AcDbSymbolTableRecord
100
AcDbDimStyleTableRecord
  2
Architectural (ANSI)$7
 70
     0
 40
0.2
 41
0.0984251946210861
 42
0.0625
 43
0.2362204724409449
 44
0.125
 45
0.00000001
 46
0.3937007874015748
 78
     4
 79
     3
140
0.1200000047683716
144
0.0833333333333333
147
0.031496062992126
171
     1
176
   256
177
   256
178
   256
272
     2
274
     1
276
     2
277
     4
284
    12
286
    12
340
9A
371
    -1
372
    -1
  0
DIMSTYLE
105
A0
330
A
100
AcDbSymbolTableRecord
100
AcDbDimStyleTableRecord
  2
Default - Fraction (ANSI)
 70
     0
 40
0.2
 41
0.0984251946210861
 42
0.0625
 43
0.2362204724409449
 44
0.125
 45
0.00000001
 46
0.3937007874015748
 78
    12
 79
     3
140
0.1200000047683716
147
0.031496062992126
171
     1
176
   256
177
   256
178
   256
272
     2
274
     1
276
     2
277
     5
284
    12
286
    12
340
9A
371
    -1
372
    -1
  0
DIMSTYLE
105
A1
330
A
100
AcDbSymbolTableRecord
100
AcDbDimStyleTableRecord
  2
Default - Fraction (ANSI)$7
 70
     0
 40
0.2
 41
0.0984251946210861
 42
0.0625
 43
0.2362204724409449
 44
0.125
 45
0.00000001
 46
0.3937007874015748
 78
    12
 79
     3
140
0.1200000047683716
147
0.031496062992126
171
     1
176
   256
177
   256
178
   256
272
     2
274
     1
276
     2
277
     5
284
    12
286
    12
340
9A
371
    -1
372
    -1
  0
DIMSTYLE
105
A2
330
A
100
AcDbSymbolTableRecord
100
AcDbDimStyleTableRecord
  2
Default - mm (ANSI)
 70
     0
 40
0.2
 41
0.0984251946210861
 42
0.063
 43
0.2362204724409449
 44
0.125
 45
0.00000001
 46
0.3937007874015748
 73
     0
140
0.1200000047683716
143
1.0
144
25.4
147
0.031496062992126
171
     1
176
   256
177
   256
178
   256
179
     1
271
     2
272
     2
274
     1
340
9A
371
    -1
372
    -1
  0
DIMSTYLE
105
A3
330
A
100
AcDbSymbolTableRecord
100
AcDbDimStyleTableRecord
  2
Default - mm (ANSI)$7
 70
     0
 40
0.2
 41
0.0984251946210861
 42
0.063
 43
0.2362204724409449
 44
0.125
 45
0.00000001
 46
0.3937007874015748
 73
     0
140
0.1200000047683716
143
1.0
144
25.4
147
0.031496062992126
171
     1
176
   256
177
   256
178
   256
179
     1
271
     2
272
     2
274
     1
340
9A
371
    -1
372
    -1
  0
DIMSTYLE
105
A4
330
A
100
AcDbSymbolTableRecord
100
AcDbDimStyleTableRecord
  2
Default - mm [in] (ANSI)
 70
     0
  4
 in
 40
0.2
 41
0.0984251946210861
 42
0.063
 43
0.25
 44
0.125
 45
0.00000001
 46
0.3937007874015748
 73
     0
 78
     4
 79
     1
140
0.1200000047683716
143
0.03937
144
25.4
147
0.031496062992126
170
     1
171
     3
176
   256
177
   256
178
   256
179
     1
271
     2
272
     2
274
     3
284
     4
286
     4
340
9A
371
    -1
372
    -1
  0
DIMSTYLE
105
A5
330
A
100
AcDbSymbolTableRecord
100
AcDbDimStyleTableRecord
  2
Default - mm [in] (ANSI)$7
 70
     0
  4
 in
 40
0.2
 41
0.0984251946210861
 42
0.063
 43
0.25
 44
0.125
 45
0.00000001
 46
0.3937007874015748
 73
     0
 78
     4
 79
     1
140
0.1200000047683716
143
0.03937
144
25.4
147
0.031496062992126
170
     1
171
     3
176
   256
177
   256
178
   256
179
     1
271
     2
272
     2
274
     3
284
     4
286
     4
340
9A
371
    -1
372
    -1
  0
DIMSTYLE
105
A6
102
{ACAD_REACTORS
330
14C
330
219
330
2B0
330
390
330
478
330
544
330
5E1
330
6C5
330
791
330
86F
330
93A
330
9FF
330
A96
330
B2D
330
BF6
330
CD6
330
DB3
330
F2E
330
1011
102
}
330
A
100
AcDbSymbolTableRecord
100
AcDbDimStyleTableRecord
  2
Default (ANSI)
 70
     0
 40
0.2
 41
0.0984251946210861
 42
0.0625
 43
0.2362204724409449
 44
0.125
 45
0.00000001
 46
0.3937007874015748
140
0.1200000047683716
147
0.031496062992126
171
     1
176
   256
177
   256
178
   256
179
     2
271
     3
272
     3
274
     1
340
9A
371
    -1
372
    -1
  0
DIMSTYLE
105
A7
330
A
100
AcDbSymbolTableRecord
100
AcDbDimStyleTableRecord
  2
Default (ANSI)$7
 70
     0
 40
0.2
 41
0.0984251946210861
 42
0.0625
 43
0.2362204724409449
 44
0.125
 45
0.00000001
 46
0.3937007874015748
140
0.1200000047683716
147
0.031496062992126
171
     1
176
   256
177
   256
178
   256
179
     2
271
     3
272
     3
274
     1
340
9A
371
    -1
372
    -1
  0
DIMSTYLE
105
B6
330
A
100
AcDbSymbolTableRecord
100
AcDbDimStyleTableRecord
  2
Miscellaneous Object (ANSI)
 70
     0
 40
0.2
 41
0.1968503892421722
 42
0.0625
 43
0.2362204724409449
 44
0.125
 45
0.00000001
 46
0.3937007874015748
140
0.1799999922513962
146
0.666666721856155
147
0.031496062992126
171
     1
176
   256
177
   256
178
   256
271
     2
272
     2
274
     1
340
96
341
A8
371
    -1
372
    -1
  0
DIMSTYLE
105
B7
330
A
100
AcDbSymbolTableRecord
100
AcDbDimStyleTableRecord
  2
Miscellaneous Object (ANSI)$7
 70
     0
 40
0.2
 41
0.1959999948740005
 42
0.0625
 43
0.2362204724409449
 44
0.125
 45
0.00000001
 46
0.3937007874015748
140
0.1799999922513962
146
0.666666721856155
147
0.031496062992126
171
     1
176
   256
177
   256
178
   256
271
     2
272
     2
274
     1
340
96
341
A8
371
    -1
372
    -1
  0
DIMSTYLE
105
B8
330
A
100
AcDbSymbolTableRecord
100
AcDbDimStyleTableRecord
  2
Alternate (ANSI)
 70
     0
 40
0.2
 41
0.0979999974370003
340
26
342
B9
  0
DIMSTYLE
105
CA
330
A
100
AcDbSymbolTableRecord
100
AcDbDimStyleTableRecord
  2
Datum (ANSI)
 70
     0
 40
0.2
 41
0.0979999974370003
340
26
342
B9
  0
ENDTAB
  0
TABLE
  2
BLOCK_RECORD
  5
1
330
0
100
AcDbSymbolTable
 70
    29
  0
BLOCK_RECORD
  5
37
330
1
100
AcDbSymbolTableRecord
100
AcDbBlockTableRecord
  2
*Model_Space
340
3A
  0
BLOCK_RECORD
  5
33
330
1
100
AcDbSymbolTableRecord
100
AcDbBlockTableRecord
  2
*Paper_Space
340
36
  0
BLOCK_RECORD
  5
3B
330
1
100
AcDbSymbolTableRecord
100
AcDbBlockTableRecord
  2
*Paper_Space0
340
3E
  0
BLOCK_RECORD
  5
A8
330
1
100
AcDbSymbolTableRecord
100
AcDbBlockTableRecord
  2
Filled-1
340
0
  0
BLOCK_RECORD
  5
B9
330
1
100
AcDbSymbolTableRecord
100
AcDbBlockTableRecord
  2
_Closed
340
0
  0
BLOCK_RECORD
  5
C0
330
1
100
AcDbSymbolTableRecord
100
AcDbBlockTableRecord
  2
DatumFilled45
340
0
  0
BLOCK_RECORD
  5
CB
330
1
100
AcDbSymbolTableRecord
100
AcDbBlockTableRecord
  2
Borders Default Border
340
0
102
{BLKREFS
331
FC
102
}
  0
BLOCK_RECORD
  5
14E
330
1
100
AcDbSymbolTableRecord
100
AcDbBlockTableRecord
  2
*D5
340
0
  0
BLOCK_RECORD
  5
21A
330
1
100
AcDbSymbolTableRecord
100
AcDbBlockTableRecord
  2
*D6
340
0
  0
BLOCK_RECORD
  5
2B1
330
1
100
AcDbSymbolTableRecord
100
AcDbBlockTableRecord
  2
*D7
340
0
  0
BLOCK_RECORD
  5
391
330
1
100
AcDbSymbolTableRecord
100
AcDbBlockTableRecord
  2
*D8
340
0
  0
BLOCK_RECORD
  5
479
330
1
100
AcDbSymbolTableRecord
100
AcDbBlockTableRecord
  2
*D9
340
0
  0
BLOCK_RECORD
  5
545
330
1
100
AcDbSymbolTableRecord
100
AcDbBlockTableRecord
  2
*D10
340
0
  0
BLOCK_RECORD
  5
5DB
330
1
100
AcDbSymbolTableRecord
100
AcDbBlockTableRecord
  2
_Dot
340
0
  0
BLOCK_RECORD
  5
5E2
330
1
100
AcDbSymbolTableRecord
100
AcDbBlockTableRecord
  2
*D12
340
0
  0
BLOCK_RECORD
  5
6C6
330
1
100
AcDbSymbolTableRecord
100
AcDbBlockTableRecord
  2
*D13
340
0
  0
BLOCK_RECORD
  5
792
330
1
100
AcDbSymbolTableRecord
100
AcDbBlockTableRecord
  2
*D14
340
0
  0
BLOCK_RECORD
  5
870
330
1
100
AcDbSymbolTableRecord
100
AcDbBlockTableRecord
  2
*D15
340
0
  0
BLOCK_RECORD
  5
93B
330
1
100
AcDbSymbolTableRecord
100
AcDbBlockTableRecord
  2
*D16
340
0
  0
BLOCK_RECORD
  5
A00
330
1
100
AcDbSymbolTableRecord
100
AcDbBlockTableRecord
  2
*D17
340
0
  0
BLOCK_RECORD
  5
A97
330
1
100
AcDbSymbolTableRecord
100
AcDbBlockTableRecord
  2
*D18
340
0
  0
BLOCK_RECORD
  5
B2E
330
1
100
AcDbSymbolTableRecord
100
AcDbBlockTableRecord
  2
*D19
340
0
  0
BLOCK_RECORD
  5
BF7
330
1
100
AcDbSymbolTableRecord
100
AcDbBlockTableRecord
  2
*D20
340
0
  0
BLOCK_RECORD
  5
CD7
330
1
100
AcDbSymbolTableRecord
100
AcDbBlockTableRecord
  2
*D21
340
0
  0
BLOCK_RECORD
  5
DB4
330
1
100
AcDbSymbolTableRecord
100
AcDbBlockTableRecord
  2
*D22
340
0
  0
BLOCK_RECORD
  5
E9C
330
1
100
AcDbSymbolTableRecord
100
AcDbBlockTableRecord
  2
Origin Indicator Symbol4
340
0
102
{BLKREFS
331
EC2
102
}
  0
BLOCK_RECORD
  5
EC3
330
1
100
AcDbSymbolTableRecord
100
AcDbBlockTableRecord
  2
Hole Table4
340
0
102
{BLKREFS
331
F09
102
}
  0
BLOCK_RECORD
  5
F0A
330
1
100
AcDbSymbolTableRecord
100
AcDbBlockTableRecord
  2
Leader Text14
340
0
102
{BLKREFS
331
F1B
102
}
  0
BLOCK_RECORD
  5
F1C
330
1
100
AcDbSymbolTableRecord
100
AcDbBlockTableRecord
  2
Leader Text15
340
0
102
{BLKREFS
331
F2D
102
}
  0
BLOCK_RECORD
  5
F2F
330
1
100
AcDbSymbolTableRecord
100
AcDbBlockTableRecord
  2
*D27
340
0
  0
BLOCK_RECORD
  5
1012
330
1
100
AcDbSymbolTableRecord
100
AcDbBlockTableRecord
  2
*D28
340
0
  0
ENDTAB
  0
ENDSEC
  0
SECTION
  2
BLOCKS
  0
BLOCK
  5
38
330
37
100
AcDbEntity
  8
0
100
AcDbBlockBegin
  2
*Model_Space
 70
     0
 10
0.0
 20
0.0
 30
0.0
  3
*Model_Space
  1

  0
ENDBLK
  5
39
330
37
100
AcDbEntity
  8
0
100
AcDbBlockEnd
  0
BLOCK
  5
34
330
33
100
AcDbEntity
 67
     1
  8
0
100
AcDbBlockBegin
  2
*Paper_Space
 70
     0
 10
0.0
 20
0.0
 30
0.0
  3
*Paper_Space
  1

  0
ENDBLK
  5
35
330
33
100
AcDbEntity
 67
     1
  8
0
100
AcDbBlockEnd
  0
BLOCK
  5
3C
330
3B
100
AcDbEntity
 67
     1
  8
0
100
AcDbBlockBegin
  2
*Paper_Space0
 70
     0
 10
0.0
 20
0.0
 30
0.0
  3
*Paper_Space0
  1

  0
ENDBLK
  5
3D
330
3B
100
AcDbEntity
 67
     1
  8
0
100
AcDbBlockEnd
  0
BLOCK
  5
A9
330
A8
100
AcDbEntity
  8
0
100
AcDbBlockBegin
  2
Filled-1
 70
     0
 10
0.0
 20
0.0
 30
0.0
  3
Filled-1
  1

  0
LINE
  5
AB
330
A8
100
AcDbEntity
  8
0
 62
     0
100
AcDbLine
 10
-0.9999999999999998
 20
0.0
 30
0.0
 11
0.0
 21
0.0
 31
0.0
  0
POLYLINE
  5
AC
330
A8
100
AcDbEntity
  8
0
 62
     0
100
AcDb2dPolyline
 66
     1
 10
0.0
 20
0.0
 30
0.0
 70
   128
  0
VERTEX
  5
AD
330
AC
100
AcDbEntity
  8
0
 62
     0
100
AcDbVertex
100
AcDb2dVertex
 10
-0.9999999999999998
 20
-0.0994897959183674
 30
0.0
  0
VERTEX
  5
AE
330
AC
100
AcDbEntity
  8
0
 62
     0
100
AcDbVertex
100
AcDb2dVertex
 10
0.0
 20
0.0
 30
0.0
  0
VERTEX
  5
B0
330
AC
100
AcDbEntity
  8
0
 62
     0
100
AcDbVertex
100
AcDb2dVertex
 10
-0.9999999999999998
 20
0.0994897959183674
 30
0.0
  0
VERTEX
  5
B1
330
AC
100
AcDbEntity
  8
0
 62
     0
100
AcDbVertex
100
AcDb2dVertex
 10
-0.9999999999999998
 20
-0.0994897959183674
 30
0.0
  0
SEQEND
  5
AF
330
AC
100
AcDbEntity
  8
0
 62
     0
  0
SOLID
  5
B2
330
A8
100
AcDbEntity
  8
0
 62
     0
100
AcDbTrace
 10
-0.9999999999999998
 20
-0.0994897959183674
 30
0.0
 11
0.0
 21
0.0
 31
0.0
 12
-0.9999999999999998
 22
0.0994897959183674
 32
0.0
 13
-0.9999999999999998
 23
-0.0994897959183674
 33
0.0
  0
LINE
  5
B3
330
A8
100
AcDbEntity
  8
0
 62
     0
100
AcDbLine
 10
-0.9999999999999998
 20
-0.0994897959183674
 30
0.0
 11
0.0
 21
0.0
 31
0.0
  0
LINE
  5
B4
330
A8
100
AcDbEntity
  8
0
 62
     0
100
AcDbLine
 10
0.0
 20
0.0
 30
0.0
 11
-0.9999999999999998
 21
0.0994897959183674
 31
0.0
  0
LINE
  5
B5
330
A8
100
AcDbEntity
  8
0
 62
     0
100
AcDbLine
 10
-0.9999999999999998
 20
0.0994897959183674
 30
0.0
 11
-0.9999999999999998
 21
-0.0994897959183674
 31
0.0
  0
ENDBLK
  5
AA
330
A8
100
AcDbEntity
  8
0
100
AcDbBlockEnd
  0
BLOCK
  5
BE
330
B9
100
AcDbEntity
  8
0
100
AcDbBlockBegin
  2
_Closed
 70
     0
 10
0.0
 20
0.0
 30
0.0
  3
_Closed
  1

  0
LINE
  5
BA
330
B9
100
AcDbEntity
  8
0
  6
ByBlock
 62
     0
370
    -2
100
AcDbLine
 10
-1.0
 20
0.1666666666666666
 30
0.0
 11
0.0
 21
0.0
 31
0.0
  0
LINE
  5
BB
330
B9
100
AcDbEntity
  8
0
  6
ByBlock
 62
     0
370
    -2
100
AcDbLine
 10
0.0
 20
0.0
 30
0.0
 11
-1.0
 21
-0.1666666666666666
 31
0.0
  0
LINE
  5
BC
330
B9
100
AcDbEntity
  8
0
  6
ByBlock
 62
     0
370
    -2
100
AcDbLine
 10
-1.0
 20
0.1666666666666666
 30
0.0
 11
-1.0
 21
-0.1666666666666666
 31
0.0
  0
LINE
  5
BD
330
B9
100
AcDbEntity
  8
0
  6
ByBlock
 62
     0
370
    -2
100
AcDbLine
 10
0.0
 20
0.0
 30
0.0
 11
-1.0
 21
0.0
 31
0.0
  0
ENDBLK
  5
BF
330
B9
100
AcDbEntity
  8
0
100
AcDbBlockEnd
  0
BLOCK
  5
C1
330
C0
100
AcDbEntity
  8
0
100
AcDbBlockBegin
  2
DatumFilled45
 70
     0
 10
0.0
 20
0.0
 30
0.0
  3
DatumFilled45
  1

  0
POLYLINE
  5
C3
330
C0
100
AcDbEntity
  8
0
 62
     0
100
AcDb2dPolyline
 66
     1
 10
0.0
 20
0.0
 30
0.0
 70
   128
  0
VERTEX
  5
C4
330
C3
100
AcDbEntity
  8
0
 62
     0
100
AcDbVertex
100
AcDb2dVertex
 10
0.0
 20
0.9999999999999998
 30
0.0
  0
VERTEX
  5
C5
330
C3
100
AcDbEntity
  8
0
 62
     0
100
AcDbVertex
100
AcDb2dVertex
 10
0.0
 20
-0.9999999999999998
 30
0.0
  0
VERTEX
  5
C7
330
C3
100
AcDbEntity
  8
0
 62
     0
100
AcDbVertex
100
AcDb2dVertex
 10
-0.9999999999999998
 20
0.0
 30
0.0
  0
VERTEX
  5
C8
330
C3
100
AcDbEntity
  8
0
 62
     0
100
AcDbVertex
100
AcDb2dVertex
 10
0.0
 20
0.9999999999999998
 30
0.0
  0
SEQEND
  5
C6
330
C3
100
AcDbEntity
  8
0
 62
     0
  0
SOLID
  5
C9
330
C0
100
AcDbEntity
  8
0
 62
     0
100
AcDbTrace
 10
0.0
 20
0.9999999999999998
 30
0.0
 11
0.0
 21
-0.9999999999999998
 31
0.0
 12
-0.9999999999999998
 22
0.0
 32
0.0
 13
0.0
 23
0.9999999999999998
 33
0.0
  0
ENDBLK
  5
C2
330
C0
100
AcDbEntity
  8
0
100
AcDbBlockEnd
  0
BLOCK
  5
CC
330
CB
100
AcDbEntity
  8
0
100
AcDbBlockBegin
  2
Borders Default Border
 70
     0
 10
0.0
 20
0.0
 30
0.0
  3
Borders Default Border
  1

  0
POLYLINE
  5
CE
330
CB
100
AcDbEntity
  8
Border (ANSI)
100
AcDb2dPolyline
 66
     1
 10
0.0
 20
0.0
 30
0.0
 70
   128
  0
VERTEX
  5
CF
330
CE
100
AcDbEntity
  8
Border (ANSI)
100
AcDbVertex
100
AcDb2dVertex
 10
0.380000002740875
 20
0.380000002740875
 30
0.0
  0
VERTEX
  5
D0
330
CE
100
AcDbEntity
  8
Border (ANSI)
100
AcDbVertex
100
AcDb2dVertex
 10
0.380000002740875
 20
8.119999893068328
 30
0.0
  0
VERTEX
  5
D2
330
CE
100
AcDbEntity
  8
Border (ANSI)
100
AcDbVertex
100
AcDb2dVertex
 10
10.62000004325326
 20
8.119999893068328
 30
0.0
  0
VERTEX
  5
D3
330
CE
100
AcDbEntity
  8
Border (ANSI)
100
AcDbVertex
100
AcDb2dVertex
 10
10.62000004325326
 20
0.380000002740875
 30
0.0
  0
VERTEX
  5
D4
330
CE
100
AcDbEntity
  8
Border (ANSI)
100
AcDbVertex
100
AcDb2dVertex
 10
0.380000002740875
 20
0.380000002740875
 30
0.0
  0
SEQEND
  5
D1
330
CE
100
AcDbEntity
  8
Border (ANSI)
  0
POLYLINE
  5
D5
330
CB
100
AcDbEntity
  8
Border (ANSI)
100
AcDb2dPolyline
 66
     1
 10
0.0
 20
0.0
 30
0.0
 70
   128
  0
VERTEX
  5
D6
330
D5
100
AcDbEntity
  8
Border (ANSI)
100
AcDbVertex
100
AcDb2dVertex
 10
5.500000105129451
 20
0.1299999947623005
 30
0.0
  0
VERTEX
  5
D7
330
D5
100
AcDbEntity
  8
Border (ANSI)
100
AcDbVertex
100
AcDb2dVertex
 10
5.500000105129451
 20
0.380000002740875
 30
0.0
  0
VERTEX
  5
D9
330
D5
100
AcDbEntity
  8
Border (ANSI)
100
AcDbVertex
100
AcDb2dVertex
 10
5.413397466103861
 20
0.2300000096869281
 30
0.0
  0
VERTEX
  5
DA
330
D5
100
AcDbEntity
  8
Border (ANSI)
100
AcDbVertex
100
AcDb2dVertex
 10
5.586602368692712
 20
0.2300000096869281
 30
0.0
  0
VERTEX
  5
DB
330
D5
100
AcDbEntity
  8
Border (ANSI)
100
AcDbVertex
100
AcDb2dVertex
 10
5.500000105129451
 20
0.380000002740875
 30
0.0
  0
SEQEND
  5
D8
330
D5
100
AcDbEntity
  8
Border (ANSI)
  0
POLYLINE
  5
DC
330
CB
100
AcDbEntity
  8
Border (ANSI)
100
AcDb2dPolyline
 66
     1
 10
0.0
 20
0.0
 30
0.0
 70
   128
  0
VERTEX
  5
DD
330
DC
100
AcDbEntity
  8
Border (ANSI)
100
AcDbVertex
100
AcDb2dVertex
 10
5.500000105129451
 20
8.369999983179287
 30
0.0
  0
VERTEX
  5
DE
330
DC
100
AcDbEntity
  8
Border (ANSI)
100
AcDbVertex
100
AcDb2dVertex
 10
5.500000105129451
 20
8.119999893068328
 30
0.0
  0
VERTEX
  5
E0
330
DC
100
AcDbEntity
  8
Border (ANSI)
100
AcDbVertex
100
AcDb2dVertex
 10
5.413397466103861
 20
8.270000097319835
 30
0.0
  0
VERTEX
  5
E1
330
DC
100
AcDbEntity
  8
Border (ANSI)
100
AcDbVertex
100
AcDb2dVertex
 10
5.586602368692712
 20
8.270000097319835
 30
0.0
  0
VERTEX
  5
E2
330
DC
100
AcDbEntity
  8
Border (ANSI)
100
AcDbVertex
100
AcDb2dVertex
 10
5.500000105129451
 20
8.119999893068328
 30
0.0
  0
SEQEND
  5
DF
330
DC
100
AcDbEntity
  8
Border (ANSI)
  0
POLYLINE
  5
E3
330
CB
100
AcDbEntity
  8
Border (ANSI)
100
AcDb2dPolyline
 66
     1
 10
0.0
 20
0.0
 30
0.0
 70
   128
  0
VERTEX
  5
E4
330
E3
100
AcDbEntity
  8
Border (ANSI)
100
AcDbVertex
100
AcDb2dVertex
 10
0.1299999947623005
 20
4.250000030036986
 30
0.0
  0
VERTEX
  5
E5
330
E3
100
AcDbEntity
  8
Border (ANSI)
100
AcDbVertex
100
AcDb2dVertex
 10
0.380000002740875
 20
4.250000030036986
 30
0.0
  0
VERTEX
  5
E7
330
E3
100
AcDbEntity
  8
Border (ANSI)
100
AcDbVertex
100
AcDb2dVertex
 10
0.2300000096869281
 20
4.336602669062576
 30
0.0
  0
VERTEX
  5
E8
330
E3
100
AcDbEntity
  8
Border (ANSI)
100
AcDbVertex
100
AcDb2dVertex
 10
0.2300000096869281
 20
4.163397391011395
 30
0.0
  0
VERTEX
  5
E9
330
E3
100
AcDbEntity
  8
Border (ANSI)
100
AcDbVertex
100
AcDb2dVertex
 10
0.380000002740875
 20
4.250000030036986
 30
0.0
  0
SEQEND
  5
E6
330
E3
100
AcDbEntity
  8
Border (ANSI)
  0
POLYLINE
  5
EA
330
CB
100
AcDbEntity
  8
Border (ANSI)
100
AcDb2dPolyline
 66
     1
 10
0.0
 20
0.0
 30
0.0
 70
   128
  0
VERTEX
  5
EB
330
EA
100
AcDbEntity
  8
Border (ANSI)
100
AcDbVertex
100
AcDb2dVertex
 10
10.87000013336422
 20
4.250000030036986
 30
0.0
  0
VERTEX
  5
EC
330
EA
100
AcDbEntity
  8
Border (ANSI)
100
AcDbVertex
100
AcDb2dVertex
 10
10.62000004325326
 20
4.250000030036986
 30
0.0
  0
VERTEX
  5
EE
330
EA
100
AcDbEntity
  8
Border (ANSI)
100
AcDbVertex
100
AcDb2dVertex
 10
10.77000024750476
 20
4.336602669062576
 30
0.0
  0
VERTEX
  5
EF
330
EA
100
AcDbEntity
  8
Border (ANSI)
100
AcDbVertex
100
AcDb2dVertex
 10
10.77000024750476
 20
4.163397391011395
 30
0.0
  0
VERTEX
  5
F0
330
EA
100
AcDbEntity
  8
Border (ANSI)
100
AcDbVertex
100
AcDb2dVertex
 10
10.62000004325326
 20
4.250000030036986
 30
0.0
  0
SEQEND
  5
ED
330
EA
100
AcDbEntity
  8
Border (ANSI)
  0
MTEXT
  5
F2
330
CB
100
AcDbEntity
  8
Border (ANSI)
100
AcDbMText
 10
8.24092395498058
 20
8.16
 30
0.0
 40
0.1200000014830762
 41
0.0
 71
     7
 72
     1
  1
1
  7
Text Style29
 73
     1
 44
1.0
1001
ACAD
1000
MTEXTBEGIN
1070
    73
1070
     1
1070
    44
1040
1.0
1070
    74
1070
     0
1000
MTEXTEND
  0
MTEXT
  5
F5
330
CB
100
AcDbEntity
  8
Border (ANSI)
100
AcDbMText
 10
8.24092395498058
 20
0.2199999985169238
 30
0.0
 40
0.1200000014830762
 41
0.0
 71
     7
 72
     1
  1
1
  7
Text Style29
 73
     1
 44
1.0
1001
ACAD
1000
MTEXTBEGIN
1070
    73
1070
     1
1070
    44
1040
1.0
1070
    74
1070
     0
1000
MTEXTEND
  0
MTEXT
  5
F6
330
CB
100
AcDbEntity
  8
Border (ANSI)
100
AcDbMText
 10
2.722276993858532
 20
8.16
 30
0.0
 40
0.1200000014830762
 41
0.0
 71
     7
 72
     1
  1
2
  7
Text Style29
 73
     1
 44
2.828585147857666
1001
ACAD
1000
MTEXTBEGIN
1070
    73
1070
     1
1070
    44
1040
2.828585147857666
1070
    74
1070
     0
1000
MTEXTEND
  0
MTEXT
  5
F7
330
CB
100
AcDbEntity
  8
Border (ANSI)
100
AcDbMText
 10
2.722276993858532
 20
0.2199999985169238
 30
0.0
 40
0.1200000014830762
 41
0.0
 71
     7
 72
     1
  1
2
  7
Text Style29
 73
     1
 44
1.0
1001
ACAD
1000
MTEXTBEGIN
1070
    73
1070
     1
1070
    44
1040
1.0
1070
    74
1070
     0
1000
MTEXTEND
  0
MTEXT
  5
F8
330
CB
100
AcDbEntity
  8
Border (ANSI)
100
AcDbMText
 10
0.2281865791448458
 20
2.064999999258461
 30
0.0
 40
0.1200000014830762
 41
0.0
 71
     7
 72
     1
  1
A
  7
Text Style29
 73
     1
 44
1.0
1001
ACAD
1000
MTEXTBEGIN
1070
    73
1070
     1
1070
    44
1040
1.0
1070
    74
1070
     0
1000
MTEXTEND
  0
MTEXT
  5
F9
330
CB
100
AcDbEntity
  8
Border (ANSI)
100
AcDbMText
 10
10.66818658062792
 20
2.064999999258461
 30
0.0
 40
0.1200000014830762
 41
0.0
 71
     7
 72
     1
  1
A
  7
Text Style29
 73
     1
 44
1.0
1001
ACAD
1000
MTEXTBEGIN
1070
    73
1070
     1
1070
    44
1040
1.0
1070
    74
1070
     0
1000
MTEXTEND
  0
MTEXT
  5
FA
330
CB
100
AcDbEntity
  8
Border (ANSI)
100
AcDbMText
 10
0.2554072225563169
 20
6.314999999258461
 30
0.0
 40
0.1200000014830762
 41
0.0
 71
     7
 72
     1
  1
B
  7
Text Style29
 73
     1
 44
1.0
1001
ACAD
1000
MTEXTBEGIN
1070
    73
1070
     1
1070
    44
1040
1.0
1070
    74
1070
     0
1000
MTEXTEND
  0
MTEXT
  5
FB
330
CB
100
AcDbEntity
  8
Border (ANSI)
100
AcDbMText
 10
10.69540722403939
 20
6.314999999258461
 30
0.0
 40
0.1200000014830762
 41
0.0
 71
     7
 72
     1
  1
B
  7
Text Style29
 73
     1
 44
1.821098923683166
1001
ACAD
1000
MTEXTBEGIN
1070
    73
1070
     1
1070
    44
1040
1.821098923683166
1070
    74
1070
     0
1000
MTEXTEND
  0
ENDBLK
  5
CD
330
CB
100
AcDbEntity
  8
0
100
AcDbBlockEnd
  0
BLOCK
  5
159
330
14E
100
AcDbEntity
  8
0
100
AcDbBlockBegin
  2
*D5
 70
     1
 10
0.0
 20
0.0
 30
0.0
  3
*D5
  1

  0
LINE
  5
20F
330
14E
100
AcDbEntity
  8
Dimension (ANSI)
100
AcDbLine
 10
1.043718454006448
 20
0.7488828693525082
 30
0.0
 11
1.396919422643976
 21
0.7488828693525081
 31
0.0
  0
LINE
  5
210
330
14E
100
AcDbEntity
  8
Dimension (ANSI)
100
AcDbLine
 10
1.004768454006448
 20
0.4538828693525078
 30
0.0
 11
1.396919422643976
 21
0.4538828693525077
 31
0.0
  0
LINE
  5
211
330
14E
100
AcDbEntity
  8
Dimension (ANSI)
100
AcDbLine
 10
1.371919422643976
 20
0.7291978304282908
 30
0.0
 11
1.371919422643976
 21
0.6201817466517889
 31
0.0
  0
LINE
  5
212
330
14E
100
AcDbEntity
  8
Dimension (ANSI)
100
AcDbLine
 10
1.371919422643976
 20
0.4735679082767251
 30
0.0
 11
1.371919422643976
 21
0.5825839920532267
 31
0.0
  0
SOLID
  5
213
330
14E
100
AcDbEntity
  8
Dimension (ANSI)
100
AcDbTrace
 10
1.368638582823273
 20
0.7291978304282908
 30
0.0
 11
1.375200262464679
 21
0.7291978304282908
 31
0.0
 12
1.371919422643976
 22
0.7488828693525081
 32
0.0
 13
1.371919422643976
 23
0.7488828693525081
 33
0.0
  0
SOLID
  5
214
330
14E
100
AcDbEntity
  8
Dimension (ANSI)
100
AcDbTrace
 10
1.368638582823273
 20
0.4735679082767251
 30
0.0
 11
1.375200262464679
 21
0.473567908276725
 31
0.0
 12
1.371919422643976
 22
0.4538828693525078
 32
0.0
 13
1.371919422643976
 23
0.4538828693525078
 33
0.0
  0
MTEXT
  5
215
330
14E
100
AcDbEntity
  8
Dimension (ANSI)
100
AcDbMText
 10
1.332413712544946
 20
0.613882534053364
 30
0.0
 40
0.0240000009536743
 41
0.0
 71
     1
 72
     1
  1
\A1;0.295
  7
Note Text (ANSI)
 73
     1
 44
1.0
1001
ACAD
1000
MTEXTBEGIN
1070
    73
1070
     1
1070
    44
1040
1.0
1070
    74
1070
     0
1000
MTEXTEND
  0
POINT
  5
216
330
14E
100
AcDbEntity
  8
Defpoints
 62
     0
100
AcDbPoint
 10
1.031218454006448
 20
0.7488828693525082
 30
0.0
  0
POINT
  5
217
330
14E
100
AcDbEntity
  8
Defpoints
 62
     0
100
AcDbPoint
 10
0.9922684540064484
 20
0.4538828693525078
 30
0.0
  0
POINT
  5
218
330
14E
100
AcDbEntity
  8
Defpoints
 62
     0
100
AcDbPoint
 10
1.371919422643976
 20
0.4538828693525078
 30
0.0
  0
ENDBLK
  5
15A
330
14E
100
AcDbEntity
  8
0
100
AcDbBlockEnd
  0
BLOCK
  5
220
330
21A
100
AcDbEntity
  8
0
100
AcDbBlockBegin
  2
*D6
 70
     1
 10
0.0
 20
0.0
 30
0.0
  3
*D6
  1

  0
LINE
  5
2AA
330
21A
100
AcDbEntity
  8
Dimension (ANSI)
100
AcDbLine
 10
1.168923269625472
 20
0.3026358301150709
 30
0.0
 11
1.143515493243927
 21
0.302635830115071
 31
0.0
  0
LINE
  5
2AB
330
21A
100
AcDbEntity
  8
Dimension (ANSI)
100
AcDbLine
 10
1.143515493243927
 20
0.302635830115071
 30
0.0
 11
1.027931412039174
 21
0.4182199113197913
 31
0.0
  0
MTEXT
  5
2AC
330
21A
100
AcDbEntity
  8
Dimension (ANSI)
100
AcDbMText
 10
1.175222482223897
 20
0.3151838494182514
 30
0.0
 40
0.0240000009536743
 41
0.0
 71
     1
 72
     1
  1
\A1;R0.0308
  7
Note Text (ANSI)
 73
     1
 44
1.0
1001
ACAD
1000
MTEXTBEGIN
1070
    73
1070
     1
1070
    44
1040
1.0
1070
    74
1070
     0
1000
MTEXTEND
  0
SOLID
  5
2AD
330
21A
100
AcDbEntity
  8
Dimension (ANSI)
100
AcDbTrace
 10
1.03025131612438
 20
0.4205398154049976
 30
0.0
 11
1.025611507953968
 21
0.4159000072345851
 31
0.0
 12
1.014011987527937
 22
0.4321393358310245
 32
0.0
 13
1.014011987527937
 23
0.4321393358310245
 33
0.0
  0
POINT
  5
2AE
330
21A
100
AcDbEntity
  8
Defpoints
 62
     0
100
AcDbPoint
 10
1.014011987527937
 20
0.4321393358310245
 30
0.0
  0
POINT
  5
2AF
330
21A
100
AcDbEntity
  8
Defpoints
 62
     0
100
AcDbPoint
 10
0.992268454006448
 20
0.4538828693525077
 30
0.0
  0
ENDBLK
  5
221
330
21A
100
AcDbEntity
  8
0
100
AcDbBlockEnd
  0
BLOCK
  5
2BC
330
2B1
100
AcDbEntity
  8
0
100
AcDbBlockBegin
  2
*D7
 70
     1
 10
0.0
 20
0.0
 30
0.0
  3
*D7
  1

  0
LINE
  5
386
330
2B1
100
AcDbEntity
  8
Dimension (ANSI)
100
AcDbLine
 10
1.031218454006448
 20
0.7528828693525078
 30
0.0
 11
1.031218454006448
 21
0.8943298045758275
 31
0.0
  0
LINE
  5
387
330
2B1
100
AcDbEntity
  8
Dimension (ANSI)
100
AcDbLine
 10
0.6631426640064485
 20
0.2863828693525078
 30
0.0
 11
0.6631426640064485
 21
0.8943298045758275
 31
0.0
  0
LINE
  5
388
330
2B1
100
AcDbEntity
  8
Dimension (ANSI)
100
AcDbLine
 10
1.011533415082231
 20
0.8693298045758275
 30
0.0
 11
0.6828277029306657
 21
0.8693298045758275
 31
0.0
  0
LINE
  5
389
330
2B1
100
AcDbEntity
  8
Dimension (ANSI)
100
AcDbLine
 10
0.6631426640064485
 20
0.8693298045758275
 30
0.0
 11
0.591098665483875
 21
0.8693298045758275
 31
0.0
  0
SOLID
  5
38A
330
2B1
100
AcDbEntity
  8
Dimension (ANSI)
100
AcDbTrace
 10
1.011533415082231
 20
0.8726106443965305
 30
0.0
 11
1.011533415082231
 21
0.8660489647551248
 31
0.0
 12
1.031218454006448
 22
0.8693298045758275
 32
0.0
 13
1.031218454006448
 23
0.8693298045758275
 33
0.0
  0
SOLID
  5
38B
330
2B1
100
AcDbEntity
  8
Dimension (ANSI)
100
AcDbTrace
 10
0.6828277029306657
 20
0.8726106443965305
 30
0.0
 11
0.6828277029306657
 21
0.8660489647551248
 31
0.0
 12
0.6631426640064485
 22
0.8693298045758275
 32
0.0
 13
0.6631426640064485
 23
0.8693298045758275
 33
0.0
  0
MTEXT
  5
38C
330
2B1
100
AcDbEntity
  8
Dimension (ANSI)
100
AcDbMText
 10
0.4887188580668786
 20
0.8818778238790079
 30
0.0
 40
0.0240000009536743
 41
0.0
 71
     1
 72
     1
  1
\A1;0.3681
  7
Note Text (ANSI)
 73
     1
 44
1.0
1001
ACAD
1000
MTEXTBEGIN
1070
    73
1070
     1
1070
    44
1040
1.0
1070
    74
1070
     0
1000
MTEXTEND
  0
POINT
  5
38D
330
2B1
100
AcDbEntity
  8
Defpoints
 62
     0
100
AcDbPoint
 10
1.031218454006448
 20
0.7403828693525078
 30
0.0
  0
POINT
  5
38E
330
2B1
100
AcDbEntity
  8
Defpoints
 62
     0
100
AcDbPoint
 10
0.6631426640064485
 20
0.2738828693525078
 30
0.0
  0
POINT
  5
38F
330
2B1
100
AcDbEntity
  8
Defpoints
 62
     0
100
AcDbPoint
 10
0.6631426640064485
 20
0.8693298045758275
 30
0.0
  0
ENDBLK
  5
2BD
330
2B1
100
AcDbEntity
  8
0
100
AcDbBlockEnd
  0
BLOCK
  5
39C
330
391
100
AcDbEntity
  8
0
100
AcDbBlockBegin
  2
*D8
 70
     1
 10
0.0
 20
0.0
 30
0.0
  3
*D8
  1

  0
LINE
  5
46D
330
391
100
AcDbEntity
  8
Dimension (ANSI)
100
AcDbLine
 10
0.7675232306763573
 20
0.5828179082767253
 30
0.0
 11
0.7675232306763573
 21
0.6025029472009426
 31
0.0
  0
LINE
  5
46E
330
391
100
AcDbEntity
  8
Dimension (ANSI)
100
AcDbLine
 10
0.7675232306763573
 20
0.5249478304282907
 30
0.0
 11
0.7675232306763573
 21
0.5052627915040734
 31
0.0
  0
LINE
  5
46F
330
391
100
AcDbEntity
  8
Dimension (ANSI)
100
AcDbLine
 10
0.7478381917521401
 20
0.7132024230457337
 30
0.0
 11
0.7675232306763573
 21
0.7132024230457336
 31
0.0
  0
LINE
  5
470
330
391
100
AcDbEntity
  8
Dimension (ANSI)
100
AcDbLine
 10
0.7675232306763573
 20
0.7132024230457336
 30
0.0
 11
0.7675232306763573
 21
0.6025029472009426
 31
0.0
  0
MTEXT
  5
471
330
391
100
AcDbEntity
  8
Dimension (ANSI)
100
AcDbMText
 10
0.6445074104894304
 20
0.7257504423489141
 30
0.0
 40
0.0240000009536743
 41
0.0
 71
     1
 72
     1
  1
\A1;0.0185
  7
Note Text (ANSI)
 73
     1
 44
1.0
1001
ACAD
1000
MTEXTBEGIN
1070
    73
1070
     1
1070
    44
1040
1.0
1070
    74
1070
     0
1000
MTEXTEND
  0
SOLID
  5
472
330
391
100
AcDbEntity
  8
Dimension (ANSI)
100
AcDbTrace
 10
0.7642423908556545
 20
0.5828179082767253
 30
0.0
 11
0.7708040704970602
 21
0.5828179082767253
 31
0.0
 12
0.7675232306763573
 22
0.5631328693525081
 32
0.0
 13
0.7675232306763573
 23
0.5631328693525081
 33
0.0
  0
SOLID
  5
473
330
391
100
AcDbEntity
  8
Dimension (ANSI)
100
AcDbTrace
 10
0.7642423908556545
 20
0.5249478304282907
 30
0.0
 11
0.7708040704970602
 21
0.5249478304282907
 31
0.0
 12
0.7675232306763573
 22
0.5446328693525079
 32
0.0
 13
0.7675232306763573
 23
0.5446328693525079
 33
0.0
  0
POINT
  5
474
330
391
100
AcDbEntity
  8
Defpoints
 62
     0
100
AcDbPoint
 10
0.7577844840763334
 20
0.5631328693525081
 30
0.0
  0
POINT
  5
475
330
391
100
AcDbEntity
  8
Defpoints
 62
     0
100
AcDbPoint
 10
0.7577844840763334
 20
0.5446328693525079
 30
0.0
  0
POINT
  5
476
330
391
100
AcDbEntity
  8
Defpoints
 62
     0
100
AcDbPoint
 10
0.7675232306763573
 20
0.5446328693525079
 30
0.0
  0
ENDBLK
  5
39D
330
391
100
AcDbEntity
  8
0
100
AcDbBlockEnd
  0
BLOCK
  5
484
330
479
100
AcDbEntity
  8
0
100
AcDbBlockBegin
  2
*D9
 70
     1
 10
0.0
 20
0.0
 30
0.0
  3
*D9
  1

  0
LINE
  5
53A
330
479
100
AcDbEntity
  8
Dimension (ANSI)
100
AcDbLine
 10
0.7557314046146684
 20
0.7488828693525081
 30
0.0
 11
1.273647915226511
 21
0.7488828693525079
 31
0.0
  0
LINE
  5
53B
330
479
100
AcDbEntity
  8
Dimension (ANSI)
100
AcDbLine
 10
0.8175620237610011
 20
0.553882869352508
 30
0.0
 11
1.273647915226511
 21
0.5538828693525079
 31
0.0
  0
LINE
  5
53C
330
479
100
AcDbEntity
  8
Dimension (ANSI)
100
AcDbLine
 10
1.248647915226511
 20
0.7291978304282908
 30
0.0
 11
1.248647915226511
 21
0.6486671170506666
 31
0.0
  0
LINE
  5
53D
330
479
100
AcDbEntity
  8
Dimension (ANSI)
100
AcDbLine
 10
1.248647915226511
 20
0.5735679082767252
 30
0.0
 11
1.248647915226511
 21
0.6110854806528792
 31
0.0
  0
SOLID
  5
53E
330
479
100
AcDbEntity
  8
Dimension (ANSI)
100
AcDbTrace
 10
1.245367075405808
 20
0.7291978304282908
 30
0.0
 11
1.251928755047214
 21
0.7291978304282907
 31
0.0
 12
1.248647915226511
 22
0.7488828693525081
 32
0.0
 13
1.248647915226511
 23
0.7488828693525081
 33
0.0
  0
SOLID
  5
53F
330
479
100
AcDbEntity
  8
Dimension (ANSI)
100
AcDbTrace
 10
1.245367075405808
 20
0.5735679082767252
 30
0.0
 11
1.251928755047214
 21
0.5735679082767251
 31
0.0
 12
1.248647915226511
 22
0.553882869352508
 32
0.0
 13
1.248647915226511
 23
0.553882869352508
 33
0.0
  0
MTEXT
  5
540
330
479
100
AcDbEntity
  8
Dimension (ANSI)
100
AcDbMText
 10
1.189913191603146
 20
0.6423679044522415
 30
0.0
 40
0.0240000009536743
 41
0.0
 71
     1
 72
     1
  1
\A1;0.195*B
  7
Note Text (ANSI)
 73
     1
 44
1.0
1001
ACAD
1000
MTEXTBEGIN
1070
    73
1070
     1
1070
    44
1040
1.0
1070
    74
1070
     0
1000
MTEXTEND
  0
POINT
  5
541
330
479
100
AcDbEntity
  8
Defpoints
 62
     0
100
AcDbPoint
 10
0.7432314046146685
 20
0.7488828693525082
 30
0.0
  0
POINT
  5
542
330
479
100
AcDbEntity
  8
Defpoints
 62
     0
100
AcDbPoint
 10
0.8050620237610011
 20
0.553882869352508
 30
0.0
  0
POINT
  5
543
330
479
100
AcDbEntity
  8
Defpoints
 62
     0
100
AcDbPoint
 10
1.248647915226511
 20
0.553882869352508
 30
0.0
  0
ENDBLK
  5
485
330
479
100
AcDbEntity
  8
0
100
AcDbBlockEnd
  0
BLOCK
  5
54B
330
545
100
AcDbEntity
  8
0
100
AcDbBlockBegin
  2
*D10
 70
     1
 10
0.0
 20
0.0
 30
0.0
  3
*D10
  1

  0
LINE
  5
5D3
330
545
100
AcDbEntity
  8
Dimension (ANSI)
100
AcDbLine
 10
0.7395123509188503
 20
0.4946960218104979
 30
0.0
 11
0.7141045745373097
 21
0.4946960218104979
 31
0.0
  0
LINE
  5
5D4
330
545
100
AcDbEntity
  8
Dimension (ANSI)
100
AcDbLine
 10
0.7141045745373097
 20
0.4946960218104979
 30
0.0
 11
0.6976536618224387
 21
0.5234903778033254
 31
0.0
  0
MTEXT
  5
5D5
330
545
100
AcDbEntity
  8
Dimension (ANSI)
100
AcDbMText
 10
0.7458115635172755
 20
0.507244041113678
 30
0.0
 40
0.0240000009536743
 41
0.0
 71
     1
 72
     1
  1
\A1;R0.0308
  7
Note Text (ANSI)
 73
     1
 44
1.0
1001
ACAD
1000
MTEXTBEGIN
1070
    73
1070
     1
1070
    44
1040
1.0
1070
    74
1070
     0
1000
MTEXTEND
  0
SOLID
  5
5D6
330
545
100
AcDbEntity
  8
Dimension (ANSI)
100
AcDbTrace
 10
0.7005023565523431
 20
0.5251179060718738
 30
0.0
 11
0.6948049670925343
 21
0.5218628495347772
 31
0.0
 12
0.6878884922111486
 22
0.5405825461827524
 32
0.0
 13
0.6878884922111486
 23
0.5405825461827524
 33
0.0
  0
POINT
  5
5D7
330
545
100
AcDbEntity
  8
Defpoints
 62
     0
100
AcDbPoint
 10
0.6878884922111486
 20
0.5405825461827524
 30
0.0
  0
POINT
  5
5D8
330
545
100
AcDbEntity
  8
Defpoints
 62
     0
100
AcDbPoint
 10
0.7031426640064483
 20
0.5138828693525081
 30
0.0
  0
ENDBLK
  5
54C
330
545
100
AcDbEntity
  8
0
100
AcDbBlockEnd
  0
BLOCK
  5
5DE
330
5DB
100
AcDbEntity
  8
0
100
AcDbBlockBegin
  2
_Dot
 70
     0
 10
0.0
 20
0.0
 30
0.0
  3
_Dot
  1

  0
LWPOLYLINE
  5
5DC
330
5DB
100
AcDbEntity
  8
0
  6
ByBlock
 62
     0
100
AcDbPolyline
 90
        2
 70
     1
 43
0.5
 10
-0.25
 20
0.0
 42
1.0
 10
0.25
 20
0.0
 42
1.0
  0
LINE
  5
5DD
330
5DB
100
AcDbEntity
  8
0
  6
ByBlock
 62
     0
370
    -2
100
AcDbLine
 10
-0.5
 20
0.0
 30
0.0
 11
-1.0
 21
0.0
 31
0.0
  0
ENDBLK
  5
5DF
330
5DB
100
AcDbEntity
  8
0
100
AcDbBlockEnd
  0
BLOCK
  5
5ED
330
5E2
100
AcDbEntity
  8
0
100
AcDbBlockBegin
  2
*D12
 70
     1
 10
0.0
 20
0.0
 30
0.0
  3
*D12
  1

  0
LINE
  5
6B7
330
5E2
100
AcDbEntity
  8
Dimension (ANSI)
100
AcDbLine
 10
1.031218454006448
 20
0.7613828693525081
 30
0.0
 11
1.031218454006448
 21
0.8212440042796929
 31
0.0
  0
LINE
  5
6B8
330
5E2
100
AcDbEntity
  8
Dimension (ANSI)
100
AcDbLine
 10
1.032268454006448
 20
0.795630637208828
 30
0.0
 11
1.032268454006448
 21
0.8212440042796929
 31
0.0
  0
LINE
  5
6B9
330
5E2
100
AcDbEntity
  8
Dimension (ANSI)
100
AcDbLine
 10
1.051953492930665
 20
0.796244004279693
 30
0.0
 11
1.071638531854882
 21
0.796244004279693
 31
0.0
  0
LINE
  5
6BA
330
5E2
100
AcDbEntity
  8
Dimension (ANSI)
100
AcDbLine
 10
1.011533415082231
 20
0.796244004279693
 30
0.0
 11
0.9099888684691043
 21
0.796244004279693
 31
0.0
  0
SOLID
  5
6BB
330
5E2
100
AcDbEntity
  8
Dimension (ANSI)
100
AcDbTrace
 10
1.051953492930665
 20
0.7995248441003958
 30
0.0
 11
1.051953492930665
 21
0.7929631644589902
 31
0.0
 12
1.032268454006448
 22
0.796244004279693
 32
0.0
 13
1.032268454006448
 23
0.796244004279693
 33
0.0
  0
SOLID
  5
6BC
330
5E2
100
AcDbEntity
  8
Dimension (ANSI)
100
AcDbTrace
 10
1.011533415082231
 20
0.7995248441003958
 30
0.0
 11
1.011533415082231
 21
0.7929631644589902
 31
0.0
 12
1.031218454006448
 22
0.796244004279693
 32
0.0
 13
1.031218454006448
 23
0.796244004279693
 33
0.0
  0
MTEXT
  5
6BD
330
5E2
100
AcDbEntity
  8
Dimension (ANSI)
100
AcDbMText
 10
0.825629209518332
 20
0.8087356098801613
 30
0.0
 40
0.0240000009536743
 41
0.0
 71
     1
 72
     1
  1
\A1;0.001
  7
Note Text (ANSI)
 73
     1
 44
1.0
1001
ACAD
1000
MTEXTBEGIN
1070
    73
1070
     1
1070
    44
1040
1.0
1070
    74
1070
     0
1000
MTEXTEND
  0
POINT
  5
6BE
330
5E2
100
AcDbEntity
  8
Defpoints
 62
     0
100
AcDbPoint
 10
1.031218454006448
 20
0.7488828693525082
 30
0.0
  0
POINT
  5
6BF
330
5E2
100
AcDbEntity
  8
Defpoints
 62
     0
100
AcDbPoint
 10
1.032268454006448
 20
0.783130637208828
 30
0.0
  0
POINT
  5
6C0
330
5E2
100
AcDbEntity
  8
Defpoints
 62
     0
100
AcDbPoint
 10
1.032268454006448
 20
0.796244004279693
 30
0.0
  0
ENDBLK
  5
5EE
330
5E2
100
AcDbEntity
  8
0
100
AcDbBlockEnd
  0
BLOCK
  5
6D1
330
6C6
100
AcDbEntity
  8
0
100
AcDbBlockBegin
  2
*D13
 70
     1
 10
0.0
 20
0.0
 30
0.0
  3
*D13
  1

  0
LINE
  5
787
330
6C6
100
AcDbEntity
  8
Dimension (ANSI)
100
AcDbLine
 10
1.031218454006448
 20
0.7571328693525079
 30
0.0
 11
1.031218454006448
 21
0.8490277899793849
 31
0.0
  0
LINE
  5
788
330
6C6
100
AcDbEntity
  8
Dimension (ANSI)
100
AcDbLine
 10
0.9122684540064485
 20
0.615632869352508
 30
0.0
 11
0.9122684540064485
 21
0.8490277899793849
 31
0.0
  0
LINE
  5
789
330
6C6
100
AcDbEntity
  8
Dimension (ANSI)
100
AcDbLine
 10
1.011533415082231
 20
0.8240277899793849
 30
0.0
 11
0.9319534929306657
 21
0.8240277899793849
 31
0.0
  0
LINE
  5
78A
330
6C6
100
AcDbEntity
  8
Dimension (ANSI)
100
AcDbLine
 10
0.9122684540064485
 20
0.8240277899793849
 30
0.0
 11
0.794327292689912
 21
0.8240277899793849
 31
0.0
  0
SOLID
  5
78B
330
6C6
100
AcDbEntity
  8
Dimension (ANSI)
100
AcDbTrace
 10
1.011533415082231
 20
0.8273086298000878
 30
0.0
 11
1.011533415082231
 21
0.8207469501586821
 31
0.0
 12
1.031218454006448
 22
0.8240277899793849
 32
0.0
 13
1.031218454006448
 23
0.8240277899793849
 33
0.0
  0
SOLID
  5
78C
330
6C6
100
AcDbEntity
  8
Dimension (ANSI)
100
AcDbTrace
 10
0.9319534929306657
 20
0.8273086298000878
 30
0.0
 11
0.9319534929306657
 21
0.8207469501586821
 31
0.0
 12
0.9122684540064485
 22
0.8240277899793849
 32
0.0
 13
0.9122684540064485
 23
0.8240277899793849
 33
0.0
  0
MTEXT
  5
78D
330
6C6
100
AcDbEntity
  8
Dimension (ANSI)
100
AcDbMText
 10
0.669478713392847
 20
0.8365193955798535
 30
0.0
 40
0.0240000009536743
 41
0.0
 71
     1
 72
     1
  1
\A1;0.119*A
  7
Note Text (ANSI)
 73
     1
 44
1.0
1001
ACAD
1000
MTEXTBEGIN
1070
    73
1070
     1
1070
    44
1040
1.0
1070
    74
1070
     0
1000
MTEXTEND
  0
POINT
  5
78E
330
6C6
100
AcDbEntity
  8
Defpoints
 62
     0
100
AcDbPoint
 10
1.031218454006448
 20
0.744632869352508
 30
0.0
  0
POINT
  5
78F
330
6C6
100
AcDbEntity
  8
Defpoints
 62
     0
100
AcDbPoint
 10
0.9122684540064485
 20
0.603132869352508
 30
0.0
  0
POINT
  5
790
330
6C6
100
AcDbEntity
  8
Defpoints
 62
     0
100
AcDbPoint
 10
0.9122684540064485
 20
0.8240277899793849
 30
0.0
  0
ENDBLK
  5
6D2
330
6C6
100
AcDbEntity
  8
0
100
AcDbBlockEnd
  0
BLOCK
  5
79D
330
792
100
AcDbEntity
  8
0
100
AcDbBlockBegin
  2
*D14
 70
     1
 10
0.0
 20
0.0
 30
0.0
  3
*D14
  1

  0
LINE
  5
85E
330
792
100
AcDbEntity
  8
Dimension (ANSI)
100
AcDbLine
 10
0.9719534929306657
 20
0.6794927910288296
 30
0.0
 11
1.012583415082231
 21
0.6794927910288296
 31
0.0
  0
LINE
  5
85F
330
792
100
AcDbEntity
  8
Dimension (ANSI)
100
AcDbLine
 10
1.032268454006448
 20
0.6794927910288296
 30
0.0
 11
1.137932414142453
 21
0.6794927910288296
 31
0.0
  0
SOLID
  5
860
330
792
100
AcDbEntity
  8
Dimension (ANSI)
100
AcDbTrace
 10
0.9719534929306657
 20
0.6827736308495324
 30
0.0
 11
0.9719534929306657
 21
0.6762119512081268
 31
0.0
 12
0.9522684540064483
 22
0.6794927910288296
 32
0.0
 13
0.9522684540064483
 23
0.6794927910288296
 33
0.0
  0
SOLID
  5
861
330
792
100
AcDbEntity
  8
Dimension (ANSI)
100
AcDbTrace
 10
1.012583415082231
 20
0.6827736308495324
 30
0.0
 11
1.012583415082231
 21
0.6762119512081268
 31
0.0
 12
1.032268454006448
 22
0.6794927910288296
 32
0.0
 13
1.032268454006448
 23
0.6794927910288296
 33
0.0
  0
MTEXT
  5
862
330
792
100
AcDbEntity
  8
Dimension (ANSI)
100
AcDbMText
 10
1.144231626740878
 20
0.6920408103320099
 30
0.0
 40
0.0240000009536743
 41
0.0
 71
     1
 72
     1
  1
\A1;0.080
  7
Note Text (ANSI)
 73
     1
 44
1.0
1001
ACAD
1000
MTEXTBEGIN
1070
    73
1070
     1
1070
    44
1040
1.0
1070
    74
1070
     0
1000
MTEXTEND
  0
POINT
  5
863
330
792
100
AcDbEntity
  8
Defpoints
 62
     0
100
AcDbPoint
 10
0.9522684540064483
 20
0.6262167417966904
 30
0.0
  0
POINT
  5
864
330
792
100
AcDbEntity
  8
Defpoints
 62
     0
100
AcDbPoint
 10
1.032268454006448
 20
0.662319234221005
 30
0.0
  0
POINT
  5
865
330
792
100
AcDbEntity
  8
Defpoints
 62
     0
100
AcDbPoint
 10
1.032268454006448
 20
0.6794927910288296
 30
0.0
  0
ENDBLK
  5
79E
330
792
100
AcDbEntity
  8
0
100
AcDbBlockEnd
  0
BLOCK
  5
87B
330
870
100
AcDbEntity
  8
0
100
AcDbBlockBegin
  2
*D15
 70
     1
 10
0.0
 20
0.0
 30
0.0
  3
*D15
  1

  0
LINE
  5
92F
330
870
100
AcDbEntity
  8
Dimension (ANSI)
100
AcDbLine
 10
0.9922684540064484
 20
0.4663828693525078
 30
0.0
 11
0.9922684540064484
 21
0.7969563411435844
 31
0.0
  0
LINE
  5
930
330
870
100
AcDbEntity
  8
Dimension (ANSI)
100
AcDbLine
 10
1.050903492930665
 20
0.7719563411435844
 30
0.0
 11
1.070588531854882
 21
0.7719563411435844
 31
0.0
  0
LINE
  5
931
330
870
100
AcDbEntity
  8
Dimension (ANSI)
100
AcDbLine
 10
0.9725834150822311
 20
0.7719563411435844
 30
0.0
 11
0.8027797223049766
 21
0.7719563411435844
 31
0.0
  0
SOLID
  5
932
330
870
100
AcDbEntity
  8
Dimension (ANSI)
100
AcDbTrace
 10
1.050903492930665
 20
0.7752371809642872
 30
0.0
 11
1.050903492930665
 21
0.7686755013228816
 31
0.0
 12
1.031218454006448
 22
0.7719563411435844
 32
0.0
 13
1.031218454006448
 23
0.7719563411435844
 33
0.0
  0
SOLID
  5
933
330
870
100
AcDbEntity
  8
Dimension (ANSI)
100
AcDbTrace
 10
0.9725834150822311
 20
0.7752371809642872
 30
0.0
 11
0.9725834150822311
 21
0.7686755013228816
 31
0.0
 12
0.9922684540064484
 22
0.7719563411435844
 32
0.0
 13
0.9922684540064484
 23
0.7719563411435844
 33
0.0
  0
MTEXT
  5
934
330
870
100
AcDbEntity
  8
Dimension (ANSI)
100
AcDbMText
 10
0.7171144890914457
 20
0.7844560058444403
 30
0.0
 40
0.0240000009536743
 41
0.0
 71
     1
 72
     1
  1
\A1;0.039
  7
Note Text (ANSI)
 73
     1
 44
1.0
1001
ACAD
1000
MTEXTBEGIN
1070
    73
1070
     1
1070
    44
1040
1.0
1070
    74
1070
     0
1000
MTEXTEND
  0
POINT
  5
935
330
870
100
AcDbEntity
  8
Defpoints
 62
     0
100
AcDbPoint
 10
1.031218454006448
 20
0.744632869352508
 30
0.0
  0
POINT
  5
936
330
870
100
AcDbEntity
  8
Defpoints
 62
     0
100
AcDbPoint
 10
0.9922684540064484
 20
0.4538828693525078
 30
0.0
  0
POINT
  5
937
330
870
100
AcDbEntity
  8
Defpoints
 62
     0
100
AcDbPoint
 10
0.9922684540064484
 20
0.7719563411435844
 30
0.0
  0
ENDBLK
  5
87C
330
870
100
AcDbEntity
  8
0
100
AcDbBlockEnd
  0
BLOCK
  5
941
330
93B
100
AcDbEntity
  8
0
100
AcDbBlockBegin
  2
*D16
 70
     1
 10
0.0
 20
0.0
 30
0.0
  3
*D16
  1

  0
LINE
  5
9CB
330
93B
100
AcDbEntity
  8
Dimension (ANSI)
100
AcDbLine
 10
1.04992812192362
 20
0.2232941977611922
 30
0.0
 11
1.024181863325803
 21
0.2232941977611922
 31
0.0
  0
LINE
  5
9CC
330
93B
100
AcDbEntity
  8
Dimension (ANSI)
100
AcDbLine
 10
1.024181863325803
 20
0.2232941977611922
 30
0.0
 11
1.001718964101129
 21
0.3855987024436727
 31
0.0
  0
MTEXT
  5
9CD
330
93B
100
AcDbEntity
  8
Dimension (ANSI)
100
AcDbMText
 10
1.056227334522045
 20
0.235793862462048
 30
0.0
 40
0.0240000009536743
 41
0.0
 71
     1
 72
     1
  1
\A1;R0.0493
  7
Note Text (ANSI)
 73
     1
 44
1.0
1001
ACAD
1000
MTEXTBEGIN
1070
    73
1070
     1
1070
    44
1040
1.0
1070
    74
1070
     0
1000
MTEXTEND
  0
SOLID
  5
9CE
330
93B
100
AcDbEntity
  8
Dimension (ANSI)
100
AcDbTrace
 10
1.004968826832973
 20
0.3860484825602643
 30
0.0
 11
0.9984691013692856
 21
0.385148922327081
 31
0.0
 12
0.9990202834015798
 22
0.4050978788347366
 32
0.0
 13
0.9990202834015798
 23
0.4050978788347366
 33
0.0
  0
POINT
  5
9CF
330
93B
100
AcDbEntity
  8
Defpoints
 62
     0
100
AcDbPoint
 10
0.9990202834015798
 20
0.4050978788347366
 30
0.0
  0
POINT
  5
9D0
330
93B
100
AcDbEntity
  8
Defpoints
 62
     0
100
AcDbPoint
 10
0.9922684540064487
 20
0.4538828693525085
 30
0.0
  0
ENDBLK
  5
942
330
93B
100
AcDbEntity
  8
0
100
AcDbBlockEnd
  0
BLOCK
  5
A06
330
A00
100
AcDbEntity
  8
0
100
AcDbBlockBegin
  2
*D17
 70
     1
 10
0.0
 20
0.0
 30
0.0
  3
*D17
  1

  0
LINE
  5
A90
330
A00
100
AcDbEntity
  8
Dimension (ANSI)
100
AcDbLine
 10
0.8036858287974478
 20
1.271284598135579
 30
0.0
 11
0.8290936051789882
 21
1.271284598135579
 31
0.0
  0
LINE
  5
A91
330
A00
100
AcDbEntity
  8
Dimension (ANSI)
100
AcDbLine
 10
0.8290936051789882
 20
1.271284598135579
 30
0.0
 11
0.9047434727473323
 21
1.220222892510788
 31
0.0
  0
MTEXT
  5
A92
330
A00
100
AcDbEntity
  8
Dimension (ANSI)
100
AcDbMText
 10
0.6804329513770881
 20
1.283832617438759
 30
0.0
 40
0.0240000009536743
 41
0.0
 71
     1
 72
     1
  1
\A1;R0.0558
  7
Note Text (ANSI)
 73
     1
 44
1.0
1001
ACAD
1000
MTEXTBEGIN
1070
    73
1070
     1
1070
    44
1040
1.0
1070
    74
1070
     0
1000
MTEXTEND
  0
SOLID
  5
A93
330
A00
100
AcDbEntity
  8
Dimension (ANSI)
100
AcDbTrace
 10
0.9065789652901434
 20
1.222942244833381
 30
0.0
 11
0.9029079802045208
 21
1.217503540188194
 31
0.0
 12
0.9210595866828924
 22
1.20920993725392
 32
0.0
 13
0.9210595866828924
 23
1.20920993725392
 33
0.0
  0
POINT
  5
A94
330
A00
100
AcDbEntity
  8
Defpoints
 62
     0
100
AcDbPoint
 10
0.9210595866828924
 20
1.20920993725392
 30
0.0
  0
POINT
  5
A95
330
A00
100
AcDbEntity
  8
Defpoints
 62
     0
100
AcDbPoint
 10
0.9672684540064125
 20
1.178020145964504
 30
0.0
  0
ENDBLK
  5
A07
330
A00
100
AcDbEntity
  8
0
100
AcDbBlockEnd
  0
BLOCK
  5
A9D
330
A97
100
AcDbEntity
  8
0
100
AcDbBlockBegin
  2
*D18
 70
     1
 10
0.0
 20
0.0
 30
0.0
  3
*D18
  1

  0
LINE
  5
B27
330
A97
100
AcDbEntity
  8
Dimension (ANSI)
100
AcDbLine
 10
1.118908206671486
 20
1.33556717323005
 30
0.0
 11
1.093161948073676
 21
1.33556717323005
 31
0.0
  0
LINE
  5
B28
330
A97
100
AcDbEntity
  8
Dimension (ANSI)
100
AcDbLine
 10
1.093161948073676
 20
1.33556717323005
 30
0.0
 11
1.025908263644759
 21
1.251403824417364
 31
0.0
  0
MTEXT
  5
B29
330
A97
100
AcDbEntity
  8
Dimension (ANSI)
100
AcDbMText
 10
1.125207419269912
 20
1.348066837930906
 30
0.0
 40
0.0240000009536743
 41
0.0
 71
     1
 72
     1
  1
\A1;R0.0743
  7
Note Text (ANSI)
 73
     1
 44
1.0
1001
ACAD
1000
MTEXTBEGIN
1070
    73
1070
     1
1070
    44
1040
1.0
1070
    74
1070
     0
1000
MTEXTEND
  0
SOLID
  5
B2A
330
A97
100
AcDbEntity
  8
Dimension (ANSI)
100
AcDbTrace
 10
1.02334521478445
 20
1.25345191876792
 30
0.0
 11
1.028471312505068
 21
1.249355730066808
 31
0.0
 12
1.013619697541425
 22
1.23602553125551
 32
0.0
 13
1.013619697541425
 23
1.23602553125551
 33
0.0
  0
POINT
  5
B2B
330
A97
100
AcDbEntity
  8
Defpoints
 62
     0
100
AcDbPoint
 10
1.013619697541425
 20
1.23602553125551
 30
0.0
  0
POINT
  5
B2C
330
A97
100
AcDbEntity
  8
Defpoints
 62
     0
100
AcDbPoint
 10
0.9672684540064128
 20
1.178020145964504
 30
0.0
  0
ENDBLK
  5
A9E
330
A97
100
AcDbEntity
  8
0
100
AcDbBlockEnd
  0
BLOCK
  5
B39
330
B2E
100
AcDbEntity
  8
0
100
AcDbBlockBegin
  2
*D19
 70
     1
 10
0.0
 20
0.0
 30
0.0
  3
*D19
  1

  0
LINE
  5
BED
330
B2E
100
AcDbEntity
  8
Dimension (ANSI)
100
AcDbLine
 10
0.9547684540064128
 20
1.178020145964504
 30
0.0
 11
0.8109723960671699
 21
1.178020145964504
 31
0.0
  0
LINE
  5
BEE
330
B2E
100
AcDbEntity
  8
Dimension (ANSI)
100
AcDbLine
 10
0.8359723960671699
 20
1.097705184888721
 30
0.0
 11
0.8359723960671699
 21
1.10922932776561
 31
0.0
  0
LINE
  5
BEF
330
B2E
100
AcDbEntity
  8
Dimension (ANSI)
100
AcDbLine
 10
0.8359723960671699
 20
1.158335107040287
 30
0.0
 11
0.8359723960671699
 21
1.146810964163398
 31
0.0
  0
SOLID
  5
BF0
330
B2E
100
AcDbEntity
  8
Dimension (ANSI)
100
AcDbTrace
 10
0.832691556246467
 20
1.097705184888721
 30
0.0
 11
0.8392532358878726
 21
1.097705184888721
 31
0.0
 12
0.8359723960671699
 22
1.078020145964504
 32
0.0
 13
0.8359723960671699
 23
1.078020145964504
 33
0.0
  0
SOLID
  5
BF1
330
B2E
100
AcDbEntity
  8
Dimension (ANSI)
100
AcDbTrace
 10
0.832691556246467
 20
1.158335107040287
 30
0.0
 11
0.8392532358878726
 21
1.158335107040287
 31
0.0
 12
0.8359723960671699
 22
1.178020145964504
 32
0.0
 13
0.8359723960671699
 23
1.178020145964504
 33
0.0
  0
MTEXT
  5
BF2
330
B2E
100
AcDbEntity
  8
Dimension (ANSI)
100
AcDbMText
 10
0.7962732675588422
 20
1.140511751564973
 30
0.0
 40
0.0240000009536743
 41
0.0
 71
     1
 72
     1
  1
\A1;0.100
  7
Note Text (ANSI)
 73
     1
 44
1.0
1001
ACAD
1000
MTEXTBEGIN
1070
    73
1070
     1
1070
    44
1040
1.0
1070
    74
1070
     0
1000
MTEXTEND
  0
POINT
  5
BF3
330
B2E
100
AcDbEntity
  8
Defpoints
 62
     0
100
AcDbPoint
 10
0.8359723960671697
 20
1.078020145964504
 30
0.0
  0
POINT
  5
BF4
330
B2E
100
AcDbEntity
  8
Defpoints
 62
     0
100
AcDbPoint
 10
0.9672684540064128
 20
1.178020145964504
 30
0.0
  0
POINT
  5
BF5
330
B2E
100
AcDbEntity
  8
Defpoints
 62
     0
100
AcDbPoint
 10
0.8359723960671699
 20
1.178020145964504
 30
0.0
  0
ENDBLK
  5
B3A
330
B2E
100
AcDbEntity
  8
0
100
AcDbBlockEnd
  0
BLOCK
  5
C02
330
BF7
100
AcDbEntity
  8
0
100
AcDbBlockBegin
  2
*D20
 70
     1
 10
0.0
 20
0.0
 30
0.0
  3
*D20
  1

  0
LINE
  5
CCC
330
BF7
100
AcDbEntity
  8
Dimension (ANSI)
100
AcDbLine
 10
1.031218454006412
 20
1.065520145964504
 30
0.0
 11
1.031218454006412
 21
1.005432687180218
 31
0.0
  0
LINE
  5
CCD
330
BF7
100
AcDbEntity
  8
Dimension (ANSI)
100
AcDbLine
 10
0.9672684540064128
 20
1.165520145964504
 30
0.0
 11
0.9672684540064128
 21
1.005432687180218
 31
0.0
  0
LINE
  5
CCE
330
BF7
100
AcDbEntity
  8
Dimension (ANSI)
100
AcDbLine
 10
0.9869534929306301
 20
1.030432687180218
 30
0.0
 11
1.011533415082195
 21
1.030432687180218
 31
0.0
  0
LINE
  5
CCF
330
BF7
100
AcDbEntity
  8
Dimension (ANSI)
100
AcDbLine
 10
1.031218454006412
 20
1.030432687180218
 30
0.0
 11
1.149667520137257
 21
1.030432687180218
 31
0.0
  0
SOLID
  5
CD0
330
BF7
100
AcDbEntity
  8
Dimension (ANSI)
100
AcDbTrace
 10
0.9869534929306301
 20
1.033713527000921
 30
0.0
 11
0.9869534929306301
 21
1.027151847359515
 31
0.0
 12
0.9672684540064128
 22
1.030432687180218
 32
0.0
 13
0.9672684540064128
 23
1.030432687180218
 33
0.0
  0
SOLID
  5
CD1
330
BF7
100
AcDbEntity
  8
Dimension (ANSI)
100
AcDbTrace
 10
1.011533415082195
 20
1.033713527000921
 30
0.0
 11
1.011533415082195
 21
1.027151847359515
 31
0.0
 12
1.031218454006412
 22
1.030432687180218
 32
0.0
 13
1.031218454006412
 23
1.030432687180218
 33
0.0
  0
MTEXT
  5
CD2
330
BF7
100
AcDbEntity
  8
Dimension (ANSI)
100
AcDbMText
 10
1.155966732735683
 20
1.042924292780686
 30
0.0
 40
0.0240000009536743
 41
0.0
 71
     1
 72
     1
  1
\A1;0.064
  7
Note Text (ANSI)
 73
     1
 44
1.0
1001
ACAD
1000
MTEXTBEGIN
1070
    73
1070
     1
1070
    44
1040
1.0
1070
    74
1070
     0
1000
MTEXTEND
  0
POINT
  5
CD3
330
BF7
100
AcDbEntity
  8
Defpoints
 62
     0
100
AcDbPoint
 10
1.031218454006412
 20
1.078020145964504
 30
0.0
  0
POINT
  5
CD4
330
BF7
100
AcDbEntity
  8
Defpoints
 62
     0
100
AcDbPoint
 10
0.9672684540064128
 20
1.178020145964504
 30
0.0
  0
POINT
  5
CD5
330
BF7
100
AcDbEntity
  8
Defpoints
 62
     0
100
AcDbPoint
 10
0.9672684540064128
 20
1.030432687180218
 30
0.0
  0
ENDBLK
  5
C03
330
BF7
100
AcDbEntity
  8
0
100
AcDbBlockEnd
  0
BLOCK
  5
CE2
330
CD7
100
AcDbEntity
  8
0
100
AcDbBlockBegin
  2
*D21
 70
     1
 10
0.0
 20
0.0
 30
0.0
  3
*D21
  1

  0
LINE
  5
DA8
330
CD7
100
AcDbEntity
  8
Dimension (ANSI)
100
AcDbLine
 10
1.031218454006412
 20
1.065520145964504
 30
0.0
 11
1.031218454006412
 21
1.040473108808252
 31
0.0
  0
LINE
  5
DA9
330
CD7
100
AcDbEntity
  8
Dimension (ANSI)
100
AcDbLine
 10
1.011533415082195
 20
1.065473108808252
 30
0.0
 11
0.9918483761579782
 21
1.065473108808252
 31
0.0
  0
LINE
  5
DAA
330
CD7
100
AcDbEntity
  8
Dimension (ANSI)
100
AcDbLine
 10
1.051953492930629
 20
1.065473108808252
 30
0.0
 11
1.150419144298478
 21
1.065473108808252
 31
0.0
  0
SOLID
  5
DAB
330
CD7
100
AcDbEntity
  8
Dimension (ANSI)
100
AcDbTrace
 10
1.011533415082195
 20
1.068753948628955
 30
0.0
 11
1.011533415082195
 21
1.062192268987549
 31
0.0
 12
1.031218454006412
 22
1.065473108808252
 32
0.0
 13
1.031218454006412
 23
1.065473108808252
 33
0.0
  0
SOLID
  5
DAC
330
CD7
100
AcDbEntity
  8
Dimension (ANSI)
100
AcDbTrace
 10
1.051953492930629
 20
1.068753948628955
 30
0.0
 11
1.051953492930629
 21
1.062192268987549
 31
0.0
 12
1.032268454006412
 22
1.065473108808252
 32
0.0
 13
1.032268454006412
 23
1.065473108808252
 33
0.0
  0
MTEXT
  5
DAD
330
CD7
100
AcDbEntity
  8
Dimension (ANSI)
100
AcDbMText
 10
1.156718356896903
 20
1.07796471440872
 30
0.0
 40
0.0240000009536743
 41
0.0
 71
     1
 72
     1
  1
\A1;0.001
  7
Note Text (ANSI)
 73
     1
 44
1.0
1001
ACAD
1000
MTEXTBEGIN
1070
    73
1070
     1
1070
    44
1040
1.0
1070
    74
1070
     0
1000
MTEXTEND
  0
POINT
  5
DAE
330
CD7
100
AcDbEntity
  8
Defpoints
 62
     0
100
AcDbPoint
 10
1.031218454006412
 20
1.078020145964504
 30
0.0
  0
POINT
  5
DAF
330
CD7
100
AcDbEntity
  8
Defpoints
 62
     0
100
AcDbPoint
 10
1.032268454006412
 20
1.070020145964504
 30
0.0
  0
POINT
  5
DB0
330
CD7
100
AcDbEntity
  8
Defpoints
 62
     0
100
AcDbPoint
 10
1.032268454006412
 20
1.065473108808252
 30
0.0
  0
ENDBLK
  5
CE3
330
CD7
100
AcDbEntity
  8
0
100
AcDbBlockEnd
  0
BLOCK
  5
DBF
330
DB4
100
AcDbEntity
  8
0
100
AcDbBlockBegin
  2
*D22
 70
     1
 10
0.0
 20
0.0
 30
0.0
  3
*D22
  1

  0
LINE
  5
E80
330
DB4
100
AcDbEntity
  8
Dimension (ANSI)
100
AcDbLine
 10
0.92195349293063
 20
1.163961671821062
 30
0.0
 11
1.012583415082195
 21
1.163961671821062
 31
0.0
  0
LINE
  5
E81
330
DB4
100
AcDbEntity
  8
Dimension (ANSI)
100
AcDbLine
 10
1.032268454006412
 20
1.163961671821061
 30
0.0
 11
1.138098560026342
 21
1.163961671821061
 31
0.0
  0
SOLID
  5
E82
330
DB4
100
AcDbEntity
  8
Dimension (ANSI)
100
AcDbTrace
 10
0.92195349293063
 20
1.167242511641765
 30
0.0
 11
0.92195349293063
 21
1.160680832000359
 31
0.0
 12
0.9022684540064128
 22
1.163961671821062
 32
0.0
 13
0.9022684540064128
 23
1.163961671821062
 33
0.0
  0
SOLID
  5
E83
330
DB4
100
AcDbEntity
  8
Dimension (ANSI)
100
AcDbTrace
 10
1.012583415082195
 20
1.167242511641765
 30
0.0
 11
1.012583415082195
 21
1.160680832000359
 31
0.0
 12
1.032268454006412
 22
1.163961671821061
 32
0.0
 13
1.032268454006412
 23
1.163961671821061
 33
0.0
  0
MTEXT
  5
E84
330
DB4
100
AcDbEntity
  8
Dimension (ANSI)
100
AcDbMText
 10
1.144397772624767
 20
1.176461336521917
 30
0.0
 40
0.0240000009536743
 41
0.0
 71
     1
 72
     1
  1
\A1;0.130
  7
Note Text (ANSI)
 73
     1
 44
1.0
1001
ACAD
1000
MTEXTBEGIN
1070
    73
1070
     1
1070
    44
1040
1.0
1070
    74
1070
     0
1000
MTEXTEND
  0
POINT
  5
E85
330
DB4
100
AcDbEntity
  8
Defpoints
 62
     0
100
AcDbPoint
 10
0.9022684540064128
 20
1.158349797424313
 30
0.0
  0
POINT
  5
E86
330
DB4
100
AcDbEntity
  8
Defpoints
 62
     0
100
AcDbPoint
 10
1.032268454006412
 20
1.158349797424311
 30
0.0
  0
POINT
  5
E87
330
DB4
100
AcDbEntity
  8
Defpoints
 62
     0
100
AcDbPoint
 10
1.032268454006412
 20
1.163961671821061
 30
0.0
  0
ENDBLK
  5
DC0
330
DB4
100
AcDbEntity
  8
0
100
AcDbBlockEnd
  0
BLOCK
  5
E9D
330
E9C
100
AcDbEntity
  8
0
100
AcDbBlockBegin
  2
Origin Indicator Symbol4
 70
     0
 10
0.0
 20
0.0
 30
0.0
  3
Origin Indicator Symbol4
  1

  0
CIRCLE
  5
E9F
330
E9C
100
AcDbEntity
  8
Dimension (ANSI)
100
AcDbCircle
 10
7.755694685441073
 20
3.74441434676254
 30
0.0
 40
0.0984251968503937
  0
LINE
  5
EA0
102
{ACAD_REACTORS
330
EA2
102
}
330
E9C
100
AcDbEntity
  8
Dimension (ANSI)
100
AcDbLine
 10
7.755694685441073
 20
3.842839543612933
 30
0.0
 11
7.854119882291468
 21
3.74441434676254
 31
0.0
  0
ARC
  5
EA1
102
{ACAD_REACTORS
330
EA2
102
}
330
E9C
100
AcDbEntity
  8
Dimension (ANSI)
100
AcDbCircle
 10
7.755694685441073
 20
3.74441434676254
 30
0.0
 40
0.0984251968503937
100
AcDbArc
 50
0.0
 51
90.0
  0
HATCH
  5
EA2
330
E9C
100
AcDbEntity
  8
Dimension (ANSI)
100
AcDbHatch
 10
0.0
 20
0.0
 30
0.0
210
0.0
220
0.0
230
1.0
  2
SOLID
 70
     1
 71
     1
 91
        1
 92
        0
 93
        2
 72
     1
 10
7.755694685441073
 20
3.842839543612933
 11
7.854119882291467
 21
3.74441434676254
 72
     2
 10
7.755694685441073
 20
3.74441434676254
 40
0.0984251968503937
 50
0.0
 51
90.0
 73
     1
 97
        2
330
EA0
330
EA1
 75
     0
 76
     1
 98
        1
 10
0.0
 20
0.0
  0
LINE
  5
EA3
102
{ACAD_REACTORS
330
EA5
102
}
330
E9C
100
AcDbEntity
  8
Dimension (ANSI)
100
AcDbLine
 10
7.755694685441073
 20
3.645989149912146
 30
0.0
 11
7.65726948859068
 21
3.74441434676254
 31
0.0
  0
ARC
  5
EA4
102
{ACAD_REACTORS
330
EA5
102
}
330
E9C
100
AcDbEntity
  8
Dimension (ANSI)
100
AcDbCircle
 10
7.755694685441073
 20
3.74441434676254
 30
0.0
 40
0.0984251968503937
100
AcDbArc
 50
180.0
 51
270.0
  0
HATCH
  5
EA5
330
E9C
100
AcDbEntity
  8
Dimension (ANSI)
100
AcDbHatch
 10
0.0
 20
0.0
 30
0.0
210
0.0
220
0.0
230
1.0
  2
SOLID
 70
     1
 71
     1
 91
        1
 92
        0
 93
        2
 72
     1
 10
7.755694685441073
 20
3.645989149912146
 11
7.65726948859068
 21
3.744414346762539
 72
     2
 10
7.755694685441073
 20
3.74441434676254
 40
0.0984251968503937
 50
180.0
 51
270.0
 73
     1
 97
        2
330
EA3
330
EA4
 75
     0
 76
     1
 98
        1
 10
0.0
 20
0.0
  0
POLYLINE
  5
EA6
330
E9C
100
AcDbEntity
  8
Dimension (ANSI)
100
AcDb2dPolyline
 66
     1
 10
0.0
 20
0.0
 30
0.0
 70
   128
  0
VERTEX
  5
EA7
330
EA6
100
AcDbEntity
  8
Dimension (ANSI)
100
AcDbVertex
100
AcDb2dVertex
 10
7.755694802351823
 20
3.744414472204493
 30
0.0
  0
VERTEX
  5
EA8
330
EA6
100
AcDbEntity
  8
Dimension (ANSI)
100
AcDbVertex
100
AcDb2dVertex
 10
7.854119999202216
 20
3.744414472204493
 30
0.0
  0
VERTEX
  5
EAA
330
EA6
100
AcDbEntity
  8
Dimension (ANSI)
100
AcDbVertex
100
AcDb2dVertex
 10
7.755694802351823
 20
3.842839669054887
 30
0.0
  0
VERTEX
  5
EAB
330
EA6
100
AcDbEntity
  8
Dimension (ANSI)
100
AcDbVertex
100
AcDb2dVertex
 10
7.755694802351823
 20
3.744414472204493
 30
0.0
  0
SEQEND
  5
EA9
330
EA6
100
AcDbEntity
  8
Dimension (ANSI)
  0
SOLID
  5
EAC
330
E9C
100
AcDbEntity
  8
Dimension (ANSI)
100
AcDbTrace
 10
7.755694802351823
 20
3.744414472204493
 30
0.0
 11
7.854119999202216
 21
3.744414472204493
 31
0.0
 12
7.755694802351823
 22
3.842839669054887
 32
0.0
 13
7.755694802351823
 23
3.744414472204493
 33
0.0
  0
POLYLINE
  5
EAD
330
E9C
100
AcDbEntity
  8
Dimension (ANSI)
100
AcDb2dPolyline
 66
     1
 10
0.0
 20
0.0
 30
0.0
 70
   128
  0
VERTEX
  5
EAE
330
EAD
100
AcDbEntity
  8
Dimension (ANSI)
100
AcDbVertex
100
AcDb2dVertex
 10
7.755694802351823
 20
3.744414472204493
 30
0.0
  0
VERTEX
  5
EAF
330
EAD
100
AcDbEntity
  8
Dimension (ANSI)
100
AcDbVertex
100
AcDb2dVertex
 10
7.755694802351823
 20
3.842839669054887
 30
0.0
  0
VERTEX
  5
EB1
330
EAD
100
AcDbEntity
  8
Dimension (ANSI)
100
AcDbVertex
100
AcDb2dVertex
 10
7.755694802351823
 20
3.645989275354099
 30
0.0
  0
VERTEX
  5
EB2
330
EAD
100
AcDbEntity
  8
Dimension (ANSI)
100
AcDbVertex
100
AcDb2dVertex
 10
7.755694802351823
 20
3.744414472204493
 30
0.0
  0
SEQEND
  5
EB0
330
EAD
100
AcDbEntity
  8
Dimension (ANSI)
  0
SOLID
  5
EB3
330
E9C
100
AcDbEntity
  8
Dimension (ANSI)
100
AcDbTrace
 10
7.755694802351823
 20
3.744414472204493
 30
0.0
 11
7.755694802351823
 21
3.842839669054887
 31
0.0
 12
7.755694802351823
 22
3.645989275354099
 32
0.0
 13
7.755694802351823
 23
3.744414472204493
 33
0.0
  0
POLYLINE
  5
EB4
330
E9C
100
AcDbEntity
  8
Dimension (ANSI)
100
AcDb2dPolyline
 66
     1
 10
0.0
 20
0.0
 30
0.0
 70
   128
  0
VERTEX
  5
EB5
330
EB4
100
AcDbEntity
  8
Dimension (ANSI)
100
AcDbVertex
100
AcDb2dVertex
 10
7.755694802351823
 20
3.744414472204493
 30
0.0
  0
VERTEX
  5
EB6
330
EB4
100
AcDbEntity
  8
Dimension (ANSI)
100
AcDbVertex
100
AcDb2dVertex
 10
7.755694802351823
 20
3.645989275354099
 30
0.0
  0
VERTEX
  5
EB8
330
EB4
100
AcDbEntity
  8
Dimension (ANSI)
100
AcDbVertex
100
AcDb2dVertex
 10
7.657269605501429
 20
3.744414472204493
 30
0.0
  0
VERTEX
  5
EB9
330
EB4
100
AcDbEntity
  8
Dimension (ANSI)
100
AcDbVertex
100
AcDb2dVertex
 10
7.755694802351823
 20
3.744414472204493
 30
0.0
  0
SEQEND
  5
EB7
330
EB4
100
AcDbEntity
  8
Dimension (ANSI)
  0
SOLID
  5
EBA
330
E9C
100
AcDbEntity
  8
Dimension (ANSI)
100
AcDbTrace
 10
7.755694802351823
 20
3.744414472204493
 30
0.0
 11
7.755694802351823
 21
3.645989275354099
 31
0.0
 12
7.657269605501429
 22
3.744414472204493
 32
0.0
 13
7.755694802351823
 23
3.744414472204493
 33
0.0
  0
POLYLINE
  5
EBB
330
E9C
100
AcDbEntity
  8
Dimension (ANSI)
100
AcDb2dPolyline
 66
     1
 10
0.0
 20
0.0
 30
0.0
 70
   128
  0
VERTEX
  5
EBC
330
EBB
100
AcDbEntity
  8
Dimension (ANSI)
100
AcDbVertex
100
AcDb2dVertex
 10
7.755694802351823
 20
3.744414472204493
 30
0.0
  0
VERTEX
  5
EBD
330
EBB
100
AcDbEntity
  8
Dimension (ANSI)
100
AcDbVertex
100
AcDb2dVertex
 10
7.657269605501429
 20
3.744414472204493
 30
0.0
  0
VERTEX
  5
EBF
330
EBB
100
AcDbEntity
  8
Dimension (ANSI)
100
AcDbVertex
100
AcDb2dVertex
 10
7.755694802351823
 20
3.744414472204493
 30
0.0
  0
VERTEX
  5
EC0
330
EBB
100
AcDbEntity
  8
Dimension (ANSI)
100
AcDbVertex
100
AcDb2dVertex
 10
7.755694802351823
 20
3.744414472204493
 30
0.0
  0
SEQEND
  5
EBE
330
EBB
100
AcDbEntity
  8
Dimension (ANSI)
  0
SOLID
  5
EC1
330
E9C
100
AcDbEntity
  8
Dimension (ANSI)
100
AcDbTrace
 10
7.755694802351823
 20
3.744414472204493
 30
0.0
 11
7.657269605501429
 21
3.744414472204493
 31
0.0
 12
7.755694802351823
 22
3.744414472204493
 32
0.0
 13
7.755694802351823
 23
3.744414472204493
 33
0.0
  0
ENDBLK
  5
E9E
330
E9C
100
AcDbEntity
  8
0
100
AcDbBlockEnd
  0
BLOCK
  5
EC4
330
EC3
100
AcDbEntity
  8
0
100
AcDbBlockBegin
  2
Hole Table4
 70
     0
 10
0.0
 20
0.0
 30
0.0
  3
Hole Table4
  1

  0
MTEXT
  5
EC6
330
EC3
100
AcDbEntity
  8
Symbol (ANSI)
100
AcDbMText
 10
8.126956435788761
 20
6.24928091108894
 30
0.0
 40
0.1200000014830762
 41
0.0
 71
     7
 72
     1
  1
Hole Table
  7
Text Style29
 73
     1
 44
1.0
1001
ACAD
1000
MTEXTBEGIN
1070
    73
1070
     1
1070
    44
1040
1.0
1070
    74
1070
     0
1000
MTEXTEND
  0
LINE
  5
EC7
330
EC3
100
AcDbEntity
  8
Symbol (ANSI)
100
AcDbLine
 10
6.521911462594791
 20
6.204429244544132
 30
0.0
 11
6.92479638710043
 21
6.204429244544132
 31
0.0
  0
LINE
  5
EC8
330
EC3
100
AcDbEntity
  8
Symbol (ANSI)
100
AcDbLine
 10
6.92479638710043
 20
6.204429244544132
 30
0.0
 11
6.92479638710043
 21
5.986849089099522
 31
0.0
  0
LINE
  5
EC9
330
EC3
100
AcDbEntity
  8
Symbol (ANSI)
100
AcDbLine
 10
6.521911462594791
 20
5.986849089099522
 30
0.0
 11
6.92479638710043
 21
5.986849089099522
 31
0.0
  0
MTEXT
  5
ECA
330
EC3
100
AcDbEntity
  8
Symbol (ANSI)
100
AcDbMText
 10
6.545941051669594
 20
6.033110804255849
 30
0.0
 40
0.1200000014830762
 41
0.0
 71
     7
 72
     1
  1
HOLE
  7
Text Style29
 73
     1
 44
1.0
1001
ACAD
1000
MTEXTBEGIN
1070
    73
1070
     1
1070
    44
1040
1.0
1070
    74
1070
     0
1000
MTEXTEND
  0
LINE
  5
ECB
330
EC3
100
AcDbEntity
  8
Symbol (ANSI)
100
AcDbLine
 10
6.92479638710043
 20
6.204429244544132
 30
0.0
 11
7.515347568202792
 21
6.204429244544132
 31
0.0
  0
LINE
  5
ECC
330
EC3
100
AcDbEntity
  8
Symbol (ANSI)
100
AcDbLine
 10
6.92479638710043
 20
6.204429244544132
 30
0.0
 11
6.92479638710043
 21
5.986849089099522
 31
0.0
  0
LINE
  5
ECD
330
EC3
100
AcDbEntity
  8
Symbol (ANSI)
100
AcDbLine
 10
7.515347568202792
 20
6.204429244544132
 30
0.0
 11
7.515347568202792
 21
5.986849089099522
 31
0.0
  0
LINE
  5
ECE
330
EC3
100
AcDbEntity
  8
Symbol (ANSI)
100
AcDbLine
 10
6.92479638710043
 20
5.986849089099522
 30
0.0
 11
7.515347568202792
 21
5.986849089099522
 31
0.0
  0
MTEXT
  5
ECF
330
EC3
100
AcDbEntity
  8
Symbol (ANSI)
100
AcDbMText
 10
7.023184248915455
 20
6.0356391672834
 30
0.0
 40
0.1200000014830762
 41
0.0
 71
     7
 72
     1
  1
XDIM
  7
Text Style29
 73
     1
 44
1.0
1001
ACAD
1000
MTEXTBEGIN
1070
    73
1070
     1
1070
    44
1040
1.0
1070
    74
1070
     0
1000
MTEXTEND
  0
LINE
  5
ED0
330
EC3
100
AcDbEntity
  8
Symbol (ANSI)
100
AcDbLine
 10
7.515347568202792
 20
6.204429244544132
 30
0.0
 11
8.075477242603662
 21
6.204429244544132
 31
0.0
  0
LINE
  5
ED1
330
EC3
100
AcDbEntity
  8
Symbol (ANSI)
100
AcDbLine
 10
7.515347568202792
 20
6.204429244544132
 30
0.0
 11
7.515347568202792
 21
5.986849089099522
 31
0.0
  0
LINE
  5
ED2
330
EC3
100
AcDbEntity
  8
Symbol (ANSI)
100
AcDbLine
 10
8.075477242603662
 20
6.204429244544132
 30
0.0
 11
8.075477242603662
 21
5.986849089099522
 31
0.0
  0
LINE
  5
ED3
330
EC3
100
AcDbEntity
  8
Symbol (ANSI)
100
AcDbLine
 10
7.515347568202792
 20
5.986849089099522
 30
0.0
 11
8.075477242603662
 21
5.986849089099522
 31
0.0
  0
MTEXT
  5
ED4
330
EC3
100
AcDbEntity
  8
Symbol (ANSI)
100
AcDbMText
 10
7.595789245867001
 20
6.0356391672834
 30
0.0
 40
0.1200000014830762
 41
0.0
 71
     7
 72
     1
  1
YDIM
  7
Text Style29
 73
     1
 44
1.0
1001
ACAD
1000
MTEXTBEGIN
1070
    73
1070
     1
1070
    44
1040
1.0
1070
    74
1070
     0
1000
MTEXTEND
  0
LINE
  5
ED5
330
EC3
100
AcDbEntity
  8
Symbol (ANSI)
100
AcDbLine
 10
8.075477242603662
 20
6.204429244544132
 30
0.0
 11
10.45985794365527
 21
6.204429244544132
 31
0.0
  0
LINE
  5
ED6
330
EC3
100
AcDbEntity
  8
Symbol (ANSI)
100
AcDbLine
 10
8.075477242603662
 20
6.204429244544132
 30
0.0
 11
8.075477242603662
 21
5.986849089099522
 31
0.0
  0
LINE
  5
ED7
330
EC3
100
AcDbEntity
  8
Symbol (ANSI)
100
AcDbLine
 10
8.075477242603662
 20
5.986849089099522
 30
0.0
 11
10.45985794365527
 21
5.986849089099522
 31
0.0
  0
MTEXT
  5
ED8
330
EC3
100
AcDbEntity
  8
Symbol (ANSI)
100
AcDbMText
 10
8.774014838248215
 20
6.033110804255849
 30
0.0
 40
0.1200000014830762
 41
0.0
 71
     7
 72
     1
  1
DESCRIPTION
  7
Text Style29
 73
     1
 44
1.0
1001
ACAD
1000
MTEXTBEGIN
1070
    73
1070
     1
1070
    44
1040
1.0
1070
    74
1070
     0
1000
MTEXTEND
  0
LINE
  5
ED9
330
EC3
100
AcDbEntity
  8
Symbol (ANSI)
100
AcDbLine
 10
6.521911462594791
 20
5.986849089099522
 30
0.0
 11
6.92479638710043
 21
5.986849089099522
 31
0.0
  0
LINE
  5
EDA
330
EC3
100
AcDbEntity
  8
Symbol (ANSI)
100
AcDbLine
 10
6.92479638710043
 20
5.986849089099522
 30
0.0
 11
6.92479638710043
 21
5.741056061257445
 31
0.0
  0
LINE
  5
EDB
330
EC3
100
AcDbEntity
  8
Symbol (ANSI)
100
AcDbLine
 10
6.521911462594791
 20
5.741056061257445
 30
0.0
 11
6.92479638710043
 21
5.741056061257445
 31
0.0
  0
MTEXT
  5
EDC
330
EC3
100
AcDbEntity
  8
Symbol (ANSI)
100
AcDbMText
 10
6.71427787982819
 20
5.803758086176399
 30
0.0
 40
0.1200000014830762
 41
0.0
 71
     7
 72
     1
  1
1
  7
Text Style29
 73
     1
 44
1.0
1001
ACAD
1000
MTEXTBEGIN
1070
    73
1070
     1
1070
    44
1040
1.0
1070
    74
1070
     0
1000
MTEXTEND
  0
LINE
  5
EDD
330
EC3
100
AcDbEntity
  8
Symbol (ANSI)
100
AcDbLine
 10
6.92479638710043
 20
5.986849089099522
 30
0.0
 11
7.515347568202792
 21
5.986849089099522
 31
0.0
  0
LINE
  5
EDE
330
EC3
100
AcDbEntity
  8
Symbol (ANSI)
100
AcDbLine
 10
6.92479638710043
 20
5.986849089099522
 30
0.0
 11
6.92479638710043
 21
5.741056061257445
 31
0.0
  0
LINE
  5
EDF
330
EC3
100
AcDbEntity
  8
Symbol (ANSI)
100
AcDbLine
 10
7.515347568202792
 20
5.986849089099522
 30
0.0
 11
7.515347568202792
 21
5.741056061257445
 31
0.0
  0
LINE
  5
EE0
330
EC3
100
AcDbEntity
  8
Symbol (ANSI)
100
AcDbLine
 10
6.92479638710043
 20
5.741056061257445
 30
0.0
 11
7.515347568202792
 21
5.741056061257445
 31
0.0
  0
MTEXT
  5
EE1
330
EC3
100
AcDbEntity
  8
Symbol (ANSI)
100
AcDbMText
 10
6.983222854552892
 20
5.801229723148848
 30
0.0
 40
0.1200000014830762
 41
0.0
 71
     7
 72
     1
  1
0.1989
  7
Text Style29
 73
     1
 44
1.0
1001
ACAD
1000
MTEXTBEGIN
1070
    73
1070
     1
1070
    44
1040
1.0
1070
    74
1070
     0
1000
MTEXTEND
  0
LINE
  5
EE2
330
EC3
100
AcDbEntity
  8
Symbol (ANSI)
100
AcDbLine
 10
7.515347568202792
 20
5.986849089099522
 30
0.0
 11
8.075477242603662
 21
5.986849089099522
 31
0.0
  0
LINE
  5
EE3
330
EC3
100
AcDbEntity
  8
Symbol (ANSI)
100
AcDbLine
 10
7.515347568202792
 20
5.986849089099522
 30
0.0
 11
7.515347568202792
 21
5.741056061257445
 31
0.0
  0
LINE
  5
EE4
330
EC3
100
AcDbEntity
  8
Symbol (ANSI)
100
AcDbLine
 10
8.075477242603662
 20
5.986849089099522
 30
0.0
 11
8.075477242603662
 21
5.741056061257445
 31
0.0
  0
LINE
  5
EE5
330
EC3
100
AcDbEntity
  8
Symbol (ANSI)
100
AcDbLine
 10
7.515347568202792
 20
5.741056061257445
 30
0.0
 11
8.075477242603662
 21
5.741056061257445
 31
0.0
  0
MTEXT
  5
EE6
330
EC3
100
AcDbEntity
  8
Symbol (ANSI)
100
AcDbMText
 10
7.529765321647674
 20
5.801229723148848
 30
0.0
 40
0.1200000014830762
 41
0.0
 71
     7
 72
     1
  1
-0.1989
  7
Text Style29
 73
     1
 44
1.0
1001
ACAD
1000
MTEXTBEGIN
1070
    73
1070
     1
1070
    44
1040
1.0
1070
    74
1070
     0
1000
MTEXTEND
  0
MTEXT
  5
EE8
330
EC3
100
AcDbEntity
  8
Symbol (ANSI)
100
AcDbMText
 10
8.682589866663954
 20
5.776095431336186
 30
0.0
 40
0.1200000014830762
 41
0.0
 71
     7
 72
     1
  1
n
  7
Text Style6
 73
     1
 44
1.0
1001
ACAD
1000
MTEXTBEGIN
1070
    73
1070
     1
1070
    44
1040
1.0
1070
    74
1070
     0
1000
MTEXTEND
  0
MTEXT
  5
EEA
330
EC3
100
AcDbEntity
  8
Symbol (ANSI)
100
AcDbMText
 10
8.816491924082628
 20
5.803682898762158
 30
0.0
 40
0.1200000014830762
 41
0.0
 71
     7
 72
     1
  1
0.0635 
  7
Text Style29
 73
     1
 44
1.0
1001
ACAD
1000
MTEXTBEGIN
1070
    73
1070
     1
1070
    44
1040
1.0
1070
    74
1070
     0
1000
MTEXTEND
  0
MTEXT
  5
EEB
330
EC3
100
AcDbEntity
  8
Symbol (ANSI)
100
AcDbMText
 10
9.375371308926949
 20
5.798103153590684
 30
0.0
 40
0.1200000014830762
 41
0.0
 71
     7
 72
     1
  1
x
  7
Text Style6
 73
     1
 44
1.0
1001
ACAD
1000
MTEXTBEGIN
1070
    73
1070
     1
1070
    44
1040
1.0
1070
    74
1070
     0
1000
MTEXTEND
  0
MTEXT
  5
EEC
330
EC3
100
AcDbEntity
  8
Symbol (ANSI)
100
AcDbMText
 10
9.494917000991579
 20
5.803682898762158
 30
0.0
 40
0.1200000014830762
 41
0.0
 71
     7
 72
     1
  1
 0.20
  7
Text Style29
 73
     1
 44
1.0
1001
ACAD
1000
MTEXTBEGIN
1070
    73
1070
     1
1070
    44
1040
1.0
1070
    74
1070
     0
1000
MTEXTEND
  0
LINE
  5
EED
330
EC3
100
AcDbEntity
  8
Symbol (ANSI)
100
AcDbLine
 10
6.521911462594791
 20
5.741056061257445
 30
0.0
 11
6.92479638710043
 21
5.741056061257445
 31
0.0
  0
LINE
  5
EEE
330
EC3
100
AcDbEntity
  8
Symbol (ANSI)
100
AcDbLine
 10
6.92479638710043
 20
5.741056061257445
 30
0.0
 11
6.92479638710043
 21
4.952097476683848
 31
0.0
  0
MTEXT
  5
EEF
330
EC3
100
AcDbEntity
  8
Symbol (ANSI)
100
AcDbMText
 10
6.652559757601205
 20
5.285312587918444
 30
0.0
 40
0.1200000014830762
 41
0.0
 71
     7
 72
     1
  1
 2
  7
Text Style29
 73
     1
 44
1.0
1001
ACAD
1000
MTEXTBEGIN
1070
    73
1070
     1
1070
    44
1040
1.0
1070
    74
1070
     0
1000
MTEXTEND
  0
LINE
  5
EF0
330
EC3
100
AcDbEntity
  8
Symbol (ANSI)
100
AcDbLine
 10
6.92479638710043
 20
5.741056061257445
 30
0.0
 11
7.515347568202792
 21
5.741056061257445
 31
0.0
  0
LINE
  5
EF1
330
EC3
100
AcDbEntity
  8
Symbol (ANSI)
100
AcDbLine
 10
6.92479638710043
 20
5.741056061257445
 30
0.0
 11
6.92479638710043
 21
4.952097476683848
 31
0.0
  0
LINE
  5
EF2
330
EC3
100
AcDbEntity
  8
Symbol (ANSI)
100
AcDbLine
 10
7.515347568202792
 20
5.741056061257445
 30
0.0
 11
7.515347568202792
 21
4.952097476683848
 31
0.0
  0
MTEXT
  5
EF3
330
EC3
100
AcDbEntity
  8
Symbol (ANSI)
100
AcDbMText
 10
7.028247170694817
 20
5.284048406404669
 30
0.0
 40
0.1200000014830762
 41
0.0
 71
     7
 72
     1
  1
0.330
  7
Text Style29
 73
     1
 44
1.0
1001
ACAD
1000
MTEXTBEGIN
1070
    73
1070
     1
1070
    44
1040
1.0
1070
    74
1070
     0
1000
MTEXTEND
  0
LINE
  5
EF4
330
EC3
100
AcDbEntity
  8
Symbol (ANSI)
100
AcDbLine
 10
7.515347568202792
 20
5.741056061257445
 30
0.0
 11
8.075477242603662
 21
5.741056061257445
 31
0.0
  0
LINE
  5
EF5
330
EC3
100
AcDbEntity
  8
Symbol (ANSI)
100
AcDbLine
 10
7.515347568202792
 20
5.741056061257445
 30
0.0
 11
7.515347568202792
 21
4.952097476683848
 31
0.0
  0
LINE
  5
EF6
330
EC3
100
AcDbEntity
  8
Symbol (ANSI)
100
AcDbLine
 10
8.075477242603662
 20
5.741056061257445
 30
0.0
 11
8.075477242603662
 21
4.952097476683848
 31
0.0
  0
MTEXT
  5
EF7
330
EC3
100
AcDbEntity
  8
Symbol (ANSI)
100
AcDbMText
 10
7.574789637789599
 20
5.284048406404669
 30
0.0
 40
0.1200000014830762
 41
0.0
 71
     7
 72
     1
  1
-0.330
  7
Text Style29
 73
     1
 44
1.0
1001
ACAD
1000
MTEXTBEGIN
1070
    73
1070
     1
1070
    44
1040
1.0
1070
    74
1070
     0
1000
MTEXTEND
  0
LINE
  5
EF8
330
EC3
100
AcDbEntity
  8
Symbol (ANSI)
100
AcDbLine
 10
8.075477242603662
 20
5.741056061257445
 30
0.0
 11
10.45985794365527
 21
5.741056061257445
 31
0.0
  0
LINE
  5
EF9
330
EC3
100
AcDbEntity
  8
Symbol (ANSI)
100
AcDbLine
 10
8.075477242603662
 20
5.741056061257445
 30
0.0
 11
8.075477242603662
 21
4.952097476683848
 31
0.0
  0
MTEXT
  5
EFA
330
EC3
100
AcDbEntity
  8
Symbol (ANSI)
100
AcDbMText
 10
8.727614182805879
 20
5.530302403494109
 30
0.0
 40
0.1200000014830762
 41
0.0
 71
     7
 72
     1
  1
n
  7
Text Style6
 73
     1
 44
1.0
1001
ACAD
1000
MTEXTBEGIN
1070
    73
1070
     1
1070
    44
1040
1.0
1070
    74
1070
     0
1000
MTEXTEND
  0
MTEXT
  5
EFB
330
EC3
100
AcDbEntity
  8
Symbol (ANSI)
100
AcDbMText
 10
8.861516240224551
 20
5.557889870920082
 30
0.0
 40
0.1200000014830762
 41
0.0
 71
     7
 72
     1
  1
0.067 
  7
Text Style29
 73
     1
 44
1.0
1001
ACAD
1000
MTEXTBEGIN
1070
    73
1070
     1
1070
    44
1040
1.0
1070
    74
1070
     0
1000
MTEXTEND
  0
MTEXT
  5
EFC
330
EC3
100
AcDbEntity
  8
Symbol (ANSI)
100
AcDbMText
 10
9.330346992785024
 20
5.552310125748607
 30
0.0
 40
0.1200000014830762
 41
0.0
 71
     7
 72
     1
  1
x
  7
Text Style6
 73
     1
 44
1.0
1001
ACAD
1000
MTEXTBEGIN
1070
    73
1070
     1
1070
    44
1040
1.0
1070
    74
1070
     0
1000
MTEXTEND
  0
MTEXT
  5
EFD
330
EC3
100
AcDbEntity
  8
Symbol (ANSI)
100
AcDbMText
 10
9.449892684849656
 20
5.557889870920082
 30
0.0
 40
0.1200000014830762
 41
0.0
 71
     7
 72
     1
  1
 0.25
  7
Text Style29
 73
     1
 44
1.0
1001
ACAD
1000
MTEXTBEGIN
1070
    73
1070
     1
1070
    44
1040
1.0
1070
    74
1070
     0
1000
MTEXTEND
  0
MTEXT
  5
EFE
330
EC3
100
AcDbEntity
  8
Symbol (ANSI)
100
AcDbMText
 10
8.478719002064245
 20
5.231235882658373
 30
0.0
 40
0.1200000014830762
 41
0.0
 71
     7
 72
     1
  1
2-56 UNC - 2B 
  7
Text Style29
 73
     1
 44
1.0
1001
ACAD
1000
MTEXTBEGIN
1070
    73
1070
     1
1070
    44
1040
1.0
1070
    74
1070
     0
1000
MTEXTEND
  0
MTEXT
  5
EFF
330
EC3
100
AcDbEntity
  8
Symbol (ANSI)
100
AcDbMText
 10
9.582702434353429
 20
5.225656137486899
 30
0.0
 40
0.1200000014830762
 41
0.0
 71
     7
 72
     1
  1
x
  7
Text Style6
 73
     1
 44
1.0
1001
ACAD
1000
MTEXTBEGIN
1070
    73
1070
     1
1070
    44
1040
1.0
1070
    74
1070
     0
1000
MTEXTEND
  0
MTEXT
  5
F00
330
EC3
100
AcDbEntity
  8
Symbol (ANSI)
100
AcDbMText
 10
9.70224812641806
 20
5.231235882658373
 30
0.0
 40
0.1200000014830762
 41
0.0
 71
     7
 72
     1
  1
 0.19
  7
Text Style29
 73
     1
 44
1.0
1001
ACAD
1000
MTEXTBEGIN
1070
    73
1070
     1
1070
    44
1040
1.0
1070
    74
1070
     0
1000
MTEXTEND
  0
MTEXT
  5
F01
330
EC3
100
AcDbEntity
  8
Symbol (ANSI)
100
AcDbMText
 10
9.241897739091683
 20
4.987136846762587
 30
0.0
 40
0.1200000014830762
 41
0.0
 71
     7
 72
     1
  1
 
  7
Text Style29
 73
     1
 44
1.0
1001
ACAD
1000
MTEXTBEGIN
1070
    73
1070
     1
1070
    44
1040
1.0
1070
    74
1070
     0
1000
MTEXTEND
  0
LINE
  5
F02
330
EC3
100
AcDbEntity
  8
Symbol (ANSI)
100
AcDbLine
 10
8.075477242603662
 20
5.741056061257445
 30
0.0
 11
10.45985794365527
 21
5.741056061257445
 31
0.0
  0
LINE
  5
F03
330
EC3
100
AcDbEntity
  8
Symbol (ANSI)
100
AcDbLine
 10
8.075477242603662
 20
5.741056061257445
 30
0.0
 11
8.075477242603662
 21
4.952097476683848
 31
0.0
  0
LINE
  5
F04
330
EC3
100
AcDbEntity
  8
Symbol (ANSI)
100
AcDbLine
 10
10.45985794365527
 20
5.741056061257445
 30
0.0
 11
10.45985794365527
 21
4.952097476683848
 31
0.0
  0
LINE
  5
F05
330
EC3
100
AcDbEntity
  8
Symbol (ANSI)
100
AcDbLine
 10
6.521911462594791
 20
4.952097476683848
 30
0.0
 11
6.521911462594791
 21
6.422009399988741
 31
0.0
  0
LINE
  5
F06
330
EC3
100
AcDbEntity
  8
Symbol (ANSI)
100
AcDbLine
 10
6.521911462594791
 20
6.422009399988741
 30
0.0
 11
10.45985794365527
 21
6.422009399988741
 31
0.0
  0
LINE
  5
F07
330
EC3
100
AcDbEntity
  8
Symbol (ANSI)
100
AcDbLine
 10
10.45985794365527
 20
6.422009399988741
 30
0.0
 11
10.45985794365527
 21
4.952097476683848
 31
0.0
  0
LINE
  5
F08
330
EC3
100
AcDbEntity
  8
Symbol (ANSI)
100
AcDbLine
 10
10.45985794365527
 20
4.952097476683848
 30
0.0
 11
6.521911462594791
 21
4.952097476683848
 31
0.0
  0
ENDBLK
  5
EC5
330
EC3
100
AcDbEntity
  8
0
100
AcDbBlockEnd
  0
BLOCK
  5
F0B
330
F0A
100
AcDbEntity
  8
0
100
AcDbBlockBegin
  2
Leader Text14
 70
     0
 10
0.0
 20
0.0
 30
0.0
  3
Leader Text14
  1

  0
LINE
  5
F0D
330
F0A
100
AcDbEntity
  8
Symbol (ANSI)
100
AcDbLine
 10
9.524943975666525
 20
2.332102834284801
 30
0.0
 11
9.480806996532036
 21
2.244128710544234
 31
0.0
  0
POLYLINE
  5
F0E
330
F0A
100
AcDbEntity
  8
Symbol (ANSI)
100
AcDb2dPolyline
 66
     1
 10
0.0
 20
0.0
 30
0.0
 70
   128
  0
VERTEX
  5
F0F
330
F0E
100
AcDbEntity
  8
Symbol (ANSI)
100
AcDbVertex
100
AcDb2dVertex
 10
9.507348969226745
 20
2.340930277907003
 30
0.0
  0
VERTEX
  5
F10
330
F0E
100
AcDbEntity
  8
Symbol (ANSI)
100
AcDbVertex
100
AcDb2dVertex
 10
9.480806786244308
 20
2.24412876789964
 30
0.0
  0
VERTEX
  5
F12
330
F0E
100
AcDbEntity
  8
Symbol (ANSI)
100
AcDbVertex
100
AcDb2dVertex
 10
9.542538800577478
 20
2.323275475990115
 30
0.0
  0
VERTEX
  5
F13
330
F0E
100
AcDbEntity
  8
Symbol (ANSI)
100
AcDbVertex
100
AcDb2dVertex
 10
9.507348969226745
 20
2.340930277907003
 30
0.0
  0
SEQEND
  5
F11
330
F0E
100
AcDbEntity
  8
Symbol (ANSI)
  0
SOLID
  5
F14
330
F0A
100
AcDbEntity
  8
Symbol (ANSI)
100
AcDbTrace
 10
9.507348969226745
 20
2.340930277907003
 30
0.0
 11
9.480806786244308
 21
2.24412876789964
 31
0.0
 12
9.542538800577478
 22
2.323275475990115
 32
0.0
 13
9.507348969226745
 23
2.340930277907003
 33
0.0
  0
LINE
  5
F15
330
F0A
100
AcDbEntity
  8
Symbol (ANSI)
100
AcDbLine
 10
9.507349150918411
 20
2.340930230111699
 30
0.0
 11
9.480806996532036
 21
2.244128710544234
 31
0.0
  0
LINE
  5
F16
330
F0A
100
AcDbEntity
  8
Symbol (ANSI)
100
AcDbLine
 10
9.480806996532036
 20
2.244128710544234
 30
0.0
 11
9.542538800414638
 21
2.323275438457903
 31
0.0
  0
LINE
  5
F17
330
F0A
100
AcDbEntity
  8
Symbol (ANSI)
100
AcDbLine
 10
9.542538800414638
 20
2.323275438457903
 30
0.0
 11
9.507349150918411
 21
2.340930230111699
 31
0.0
  0
LINE
  5
F18
330
F0A
100
AcDbEntity
  8
Symbol (ANSI)
100
AcDbLine
 10
9.524943975666525
 20
2.332102834284801
 30
0.0
 11
9.598321395688961
 21
2.478359201517081
 31
0.0
  0
LINE
  5
F19
330
F0A
100
AcDbEntity
  8
Symbol (ANSI)
100
AcDbLine
 10
9.598321395688961
 20
2.478359201517081
 30
0.0
 11
9.696746592539355
 21
2.478359201517081
 31
0.0
  0
MTEXT
  5
F1A
330
F0A
100
AcDbEntity
  8
Symbol (ANSI)
100
AcDbMText
 10
9.696746592539355
 20
2.417095020464878
 30
0.0
 40
0.1200000014830762
 41
0.0
 71
     7
 72
     1
  1
 2
  7
Text Style29
 73
     1
 44
1.0
1001
ACAD
1000
MTEXTBEGIN
1070
    73
1070
     1
1070
    44
1040
1.0
1070
    74
1070
     0
1000
MTEXTEND
  0
ENDBLK
  5
F0C
330
F0A
100
AcDbEntity
  8
0
100
AcDbBlockEnd
  0
BLOCK
  5
F1D
330
F1C
100
AcDbEntity
  8
0
100
AcDbBlockBegin
  2
Leader Text15
 70
     0
 10
0.0
 20
0.0
 30
0.0
  3
Leader Text15
  1

  0
LINE
  5
F1F
330
F1C
100
AcDbEntity
  8
Symbol (ANSI)
100
AcDbLine
 10
8.875449989174748
 20
2.974583483127664
 30
0.0
 11
8.827462544435732
 21
2.888649063234011
 31
0.0
  0
POLYLINE
  5
F20
330
F1C
100
AcDbEntity
  8
Symbol (ANSI)
100
AcDb2dPolyline
 66
     1
 10
0.0
 20
0.0
 30
0.0
 70
   128
  0
VERTEX
  5
F21
330
F20
100
AcDbEntity
  8
Symbol (ANSI)
100
AcDbVertex
100
AcDb2dVertex
 10
8.85826321098748
 20
2.984180976086713
 30
0.0
  0
VERTEX
  5
F22
330
F20
100
AcDbEntity
  8
Symbol (ANSI)
100
AcDbVertex
100
AcDb2dVertex
 10
8.827462534266192
 20
2.888649091945858
 30
0.0
  0
VERTEX
  5
F24
330
F20
100
AcDbEntity
  8
Symbol (ANSI)
100
AcDbVertex
100
AcDb2dVertex
 10
8.892636787234328
 20
2.964986027695062
 30
0.0
  0
VERTEX
  5
F25
330
F20
100
AcDbEntity
  8
Symbol (ANSI)
100
AcDbVertex
100
AcDb2dVertex
 10
8.85826321098748
 20
2.984180976086713
 30
0.0
  0
SEQEND
  5
F23
330
F20
100
AcDbEntity
  8
Symbol (ANSI)
  0
SOLID
  5
F26
330
F1C
100
AcDbEntity
  8
Symbol (ANSI)
100
AcDbTrace
 10
8.85826321098748
 20
2.984180976086713
 30
0.0
 11
8.827462534266192
 21
2.888649091945858
 31
0.0
 12
8.892636787234328
 22
2.964986027695062
 32
0.0
 13
8.85826321098748
 23
2.984180976086713
 33
0.0
  0
LINE
  5
F27
330
F1C
100
AcDbEntity
  8
Symbol (ANSI)
100
AcDbLine
 10
8.858263105196018
 20
2.984180972075467
 30
0.0
 11
8.827462544435732
 21
2.888649063234011
 31
0.0
  0
LINE
  5
F28
330
F1C
100
AcDbEntity
  8
Symbol (ANSI)
100
AcDbLine
 10
8.827462544435732
 20
2.888649063234011
 30
0.0
 11
8.892636873153477
 21
2.96498599417986
 31
0.0
  0
LINE
  5
F29
330
F1C
100
AcDbEntity
  8
Symbol (ANSI)
100
AcDbLine
 10
8.892636873153477
 20
2.96498599417986
 30
0.0
 11
8.858263105196018
 21
2.984180972075467
 31
0.0
  0
LINE
  5
F2A
330
F1C
100
AcDbEntity
  8
Symbol (ANSI)
100
AcDbLine
 10
8.875449989174748
 20
2.974583483127664
 30
0.0
 11
8.992823858916832
 21
3.184772949597803
 31
0.0
  0
LINE
  5
F2B
330
F1C
100
AcDbEntity
  8
Symbol (ANSI)
100
AcDbLine
 10
8.992823858916832
 20
3.184772949597803
 30
0.0
 11
9.091249055767226
 21
3.184772949597803
 31
0.0
  0
MTEXT
  5
F2C
330
F1C
100
AcDbEntity
  8
Symbol (ANSI)
100
AcDbMText
 10
9.127197321023132
 20
3.124578460595718
 30
0.0
 40
0.1200000014830762
 41
0.0
 71
     7
 72
     1
  1
1
  7
Text Style29
 73
     1
 44
1.0
1001
ACAD
1000
MTEXTBEGIN
1070
    73
1070
     1
1070
    44
1040
1.0
1070
    74
1070
     0
1000
MTEXTEND
  0
ENDBLK
  5
F1E
330
F1C
100
AcDbEntity
  8
0
100
AcDbBlockEnd
  0
BLOCK
  5
F3A
330
F2F
100
AcDbEntity
  8
0
100
AcDbBlockBegin
  2
*D27
 70
     1
 10
0.0
 20
0.0
 30
0.0
  3
*D27
  1

  0
LINE
  5
1004
330
F2F
100
AcDbEntity
  8
Dimension (ANSI)
100
AcDbLine
 10
0.8930184540064123
 20
1.065520145964504
 30
0.0
 11
0.8930184540064123
 21
1.011134422168359
 31
0.0
  0
LINE
  5
1005
330
F2F
100
AcDbEntity
  8
Dimension (ANSI)
100
AcDbLine
 10
0.9115184540064126
 20
1.065520145964504
 30
0.0
 11
0.9115184540064126
 21
1.011134422168359
 31
0.0
  0
LINE
  5
1006
330
F2F
100
AcDbEntity
  8
Dimension (ANSI)
100
AcDbLine
 10
0.9312034929306298
 20
1.036134422168359
 30
0.0
 11
0.950888531854847
 21
1.036134422168359
 31
0.0
  0
LINE
  5
1007
330
F2F
100
AcDbEntity
  8
Dimension (ANSI)
100
AcDbLine
 10
0.8733334150821951
 20
1.036134422168359
 30
0.0
 11
0.8039882648290557
 21
1.036134422168359
 31
0.0
  0
SOLID
  5
1008
330
F2F
100
AcDbEntity
  8
Dimension (ANSI)
100
AcDbTrace
 10
0.9312034929306298
 20
1.039415261989062
 30
0.0
 11
0.9312034929306298
 21
1.032853582347656
 31
0.0
 12
0.9115184540064126
 22
1.036134422168359
 32
0.0
 13
0.9115184540064126
 23
1.036134422168359
 33
0.0
  0
SOLID
  5
1009
330
F2F
100
AcDbEntity
  8
Dimension (ANSI)
100
AcDbTrace
 10
0.8733334150821951
 20
1.039415261989062
 30
0.0
 11
0.8733334150821951
 21
1.032853582347656
 31
0.0
 12
0.8930184540064123
 22
1.036134422168359
 32
0.0
 13
0.8930184540064123
 23
1.036134422168359
 33
0.0
  0
MTEXT
  5
100A
330
F2F
100
AcDbEntity
  8
Dimension (ANSI)
100
AcDbMText
 10
0.718323031615525
 20
1.048626027768828
 30
0.0
 40
0.0240000009536743
 41
0.0
 71
     1
 72
     1
  1
\A1;0.019
  7
Note Text (ANSI)
 73
     1
 44
1.0
1001
ACAD
1000
MTEXTBEGIN
1070
    73
1070
     1
1070
    44
1040
1.0
1070
    74
1070
     0
1000
MTEXTEND
  0
POINT
  5
100B
330
F2F
100
AcDbEntity
  8
Defpoints
 62
     0
100
AcDbPoint
 10
0.8930184540064123
 20
1.078020145964504
 30
0.0
  0
POINT
  5
100C
330
F2F
100
AcDbEntity
  8
Defpoints
 62
     0
100
AcDbPoint
 10
0.9115184540064126
 20
1.078020145964504
 30
0.0
  0
POINT
  5
100D
330
F2F
100
AcDbEntity
  8
Defpoints
 62
     0
100
AcDbPoint
 10
0.9115184540064126
 20
1.036134422168359
 30
0.0
  0
ENDBLK
  5
F3B
330
F2F
100
AcDbEntity
  8
0
100
AcDbBlockEnd
  0
BLOCK
  5
1018
330
1012
100
AcDbEntity
  8
0
100
AcDbBlockBegin
  2
*D28
 70
     1
 10
0.0
 20
0.0
 30
0.0
  3
*D28
  1

  0
LINE
  5
10A2
330
1012
100
AcDbEntity
  8
Dimension (ANSI)
100
AcDbLine
 10
0.5712618019010965
 20
0.575159711257907
 30
0.0
 11
0.5970080604989076
 21
0.575159711257907
 31
0.0
  0
LINE
  5
10A3
330
1012
100
AcDbEntity
  8
Dimension (ANSI)
100
AcDbLine
 10
0.5970080604989076
 20
0.575159711257907
 30
0.0
 11
0.6434431690872038
 21
0.5483503888146108
 31
0.0
  0
MTEXT
  5
10A4
330
1012
100
AcDbEntity
  8
Dimension (ANSI)
100
AcDbMText
 10
0.448685888913278
 20
0.587659375958763
 30
0.0
 40
0.0240000009536743
 41
0.0
 71
     1
 72
     1
  1
\A1;R0.0493
  7
Note Text (ANSI)
 73
     1
 44
1.0
1001
ACAD
1000
MTEXTBEGIN
1070
    73
1070
     1
1070
    44
1040
1.0
1070
    74
1070
     0
1000
MTEXTEND
  0
SOLID
  5
10A5
330
1012
100
AcDbEntity
  8
Dimension (ANSI)
100
AcDbTrace
 10
0.6450835889975549
 20
0.5511916794450871
 30
0.0
 11
0.6418027491768527
 21
0.5455090981841343
 31
0.0
 12
0.6604909128700625
 22
0.5385078693525039
 32
0.0
 13
0.6604909128700625
 23
0.5385078693525039
 33
0.0
  0
POINT
  5
10A6
330
1012
100
AcDbEntity
  8
Defpoints
 62
     0
100
AcDbPoint
 10
0.6604909128700625
 20
0.5385078693525039
 30
0.0
  0
POINT
  5
10A7
330
1012
100
AcDbEntity
  8
Defpoints
 62
     0
100
AcDbPoint
 10
0.7031426640064485
 20
0.5138828693525081
 30
0.0
  0
ENDBLK
  5
1019
330
1012
100
AcDbEntity
  8
0
100
AcDbBlockEnd
  0
ENDSEC
  0
SECTION
  2
ENTITIES
  0
INSERT
  5
FC
330
37
100
AcDbEntity
  8
0
100
AcDbBlockReference
  2
Borders Default Border
 10
0.0
 20
0.0
 30
0.0
 41
0.2
 42
0.2
 43
0.2
  0
LINE
  5
FD
330
37
100
AcDbEntity
  8
Visible (ANSI)
100
AcDbLine
 10
0.2015184640064485
 20
0.298882869352508
 30
0.0
 11
0.6538936640064485
 21
0.298882869352508
 31
0.0
  0
LINE
  5
FE
330
37
100
AcDbEntity
  8
Visible (ANSI)
100
AcDbLine
 10
0.6723916640064484
 20
0.298882869352508
 30
0.0
 11
1.101518454006448
 21
0.298882869352508
 31
0.0
  0
LINE
  5
FF
330
37
100
AcDbEntity
  8
Visible (ANSI)
100
AcDbLine
 10
0.6723916640064484
 20
0.298882869352508
 30
0.0
 11
0.6538936640064485
 21
0.298882869352508
 31
0.0
  0
LINE
  5
100
330
37
100
AcDbEntity
  8
Visible (ANSI)
100
AcDbLine
 10
0.9430184540064486
 20
0.6031328693525082
 30
0.0
 11
0.9430184540064486
 21
0.7488828693525082
 31
0.0
  0
LINE
  5
101
330
37
100
AcDbEntity
  8
Visible (ANSI)
100
AcDbLine
 10
0.9430184540064486
 20
0.7488828693525082
 30
0.0
 11
0.9115184540064484
 21
0.7488828693525082
 31
0.0
  0
LINE
  5
102
330
37
100
AcDbEntity
  8
Visible (ANSI)
100
AcDbLine
 10
0.9115184540064484
 20
0.7488828693525082
 30
0.0
 11
0.9115184540064484
 21
0.730382869352508
 31
0.0
  0
LINE
  5
103
330
37
100
AcDbEntity
  8
Visible (ANSI)
100
AcDbLine
 10
0.9115184540064484
 20
0.730382869352508
 30
0.0
 11
0.8930184540064484
 21
0.730382869352508
 31
0.0
  0
LINE
  5
104
330
37
100
AcDbEntity
  8
Visible (ANSI)
100
AcDbLine
 10
0.8930184540064484
 20
0.730382869352508
 30
0.0
 11
0.8930184540064484
 21
0.7488828693525082
 31
0.0
  0
LINE
  5
105
330
37
100
AcDbEntity
  8
Visible (ANSI)
100
AcDbLine
 10
0.8930184540064484
 20
0.7488828693525082
 30
0.0
 11
0.2015184640064489
 21
0.7488828693525082
 31
0.0
  0
LINE
  5
106
330
37
100
AcDbEntity
  8
Visible (ANSI)
100
AcDbLine
 10
0.2015184640064489
 20
0.7488828693525082
 30
0.0
 11
0.2015184640064485
 21
0.298882869352508
 31
0.0
  0
LINE
  5
107
330
37
100
AcDbEntity
  8
Visible (ANSI)
100
AcDbLine
 10
0.6538936640064485
 20
0.298882869352508
 30
0.0
 11
0.6538936640064485
 21
0.3888828693531219
 31
0.0
  0
LINE
  5
108
330
37
100
AcDbEntity
  8
Visible (ANSI)
100
AcDbLine
 10
0.6538936640064485
 20
0.3888828693531219
 30
0.0
 11
0.6538926640064487
 21
0.4138828693525081
 31
0.0
  0
LINE
  5
109
330
37
100
AcDbEntity
  8
Visible (ANSI)
100
AcDbLine
 10
0.6538926640064487
 20
0.4138828693525081
 30
0.0
 11
0.6538926640064487
 21
0.5138828693525081
 31
0.0
  0
ARC
  5
10A
330
37
100
AcDbEntity
  8
Visible (ANSI)
100
AcDbCircle
 10
0.7031426640064485
 20
0.5138828693525081
 30
0.0
 40
0.04925
100
AcDbArc
 50
90.0
 51
180.0
  0
LINE
  5
10B
330
37
100
AcDbEntity
  8
Visible (ANSI)
100
AcDbLine
 10
0.7031426640064485
 20
0.5631328693525082
 30
0.0
 11
0.8595669127020178
 21
0.5631328693525082
 31
0.0
  0
ARC
  5
10C
330
37
100
AcDbEntity
  8
Visible (ANSI)
100
AcDbCircle
 10
0.8641426640064489
 20
0.5553828693525075
 30
0.0
 40
0.0090000000000006
100
AcDbArc
 50
90.0000000000009
 51
120.5584317859344
  0
LINE
  5
10D
330
37
100
AcDbEntity
  8
Visible (ANSI)
100
AcDbLine
 10
0.8641426640064487
 20
0.564382869352508
 30
0.0
 11
0.8719177142074544
 21
0.564382869352508
 31
0.0
  0
ARC
  5
10E
330
37
100
AcDbEntity
  8
Visible (ANSI)
100
AcDbCircle
 10
0.8781426640064484
 20
0.5578828693525085
 30
0.0
 40
0.0089999999999997
100
AcDbArc
 50
90.0
 51
133.7617426926819
  0
LINE
  5
10F
330
37
100
AcDbEntity
  8
Visible (ANSI)
100
AcDbLine
 10
0.8781426640064484
 20
0.5668828693525079
 30
0.0
 11
0.8850187605820611
 21
0.5668828693525079
 31
0.0
  0
ARC
  5
110
330
37
100
AcDbEntity
  8
Visible (ANSI)
100
AcDbCircle
 10
0.8921426640064485
 20
0.5613828693525083
 30
0.0
 40
0.0089999999999999
100
AcDbArc
 50
90.0000000000009
 51
142.3301130356726
  0
LINE
  5
111
330
37
100
AcDbEntity
  8
Visible (ANSI)
100
AcDbLine
 10
0.8921426640064485
 20
0.5703828693525081
 30
0.0
 11
0.8994858097569562
 21
0.5703828693525081
 31
0.0
  0
ARC
  5
112
330
37
100
AcDbEntity
  8
Visible (ANSI)
100
AcDbCircle
 10
0.9051426640064493
 20
0.5633828693525058
 30
0.0
 40
0.0090000000000021
100
AcDbArc
 50
90.00000000000444
 51
128.9424412689765
  0
LINE
  5
113
330
37
100
AcDbEntity
  8
Visible (ANSI)
100
AcDbLine
 10
0.9051426640064484
 20
0.5723828693525081
 30
0.0
 11
0.9122684540064485
 21
0.5723828693525081
 31
0.0
  0
ARC
  5
114
330
37
100
AcDbEntity
  8
Visible (ANSI)
100
AcDbCircle
 10
0.9122684540064483
 20
0.6031328693525082
 30
0.0
 40
0.0307500000000001
100
AcDbArc
 50
270.0000000000002
 51
0.0
  0
LINE
  5
115
330
37
100
AcDbEntity
  8
Visible (ANSI)
100
AcDbLine
 10
0.8930184540064487
 20
0.7488828693525082
 30
0.0
 11
0.9115184540064483
 21
0.7488828693525082
 31
0.0
  0
LINE
  5
116
330
37
100
AcDbEntity
  8
Visible (ANSI)
100
AcDbLine
 10
1.031218454006448
 20
0.7488828693525082
 30
0.0
 11
1.041518454006449
 21
0.7488828693525082
 31
0.0
  0
LINE
  5
117
330
37
100
AcDbEntity
  8
Visible (ANSI)
100
AcDbLine
 10
1.041518454006448
 20
0.7488828693525082
 30
0.0
 11
1.101518454006448
 21
0.7488828693525082
 31
0.0
  0
LINE
  5
118
330
37
100
AcDbEntity
  8
Visible (ANSI)
100
AcDbLine
 10
0.6723916640064484
 20
0.3888828693524113
 30
0.0
 11
0.6723916640064484
 21
0.298882869352508
 31
0.0
  0
LINE
  5
119
330
37
100
AcDbEntity
  8
Visible (ANSI)
100
AcDbLine
 10
1.101518454006448
 20
0.298882869352508
 30
0.0
 11
1.101518454006448
 21
0.7268828693525081
 31
0.0
  0
LINE
  5
11A
330
37
100
AcDbEntity
  8
Visible (ANSI)
100
AcDbLine
 10
1.101518454006448
 20
0.7268828693525081
 30
0.0
 11
1.041518454006448
 21
0.7268828693525081
 31
0.0
  0
LINE
  5
11B
330
37
100
AcDbEntity
  8
Visible (ANSI)
100
AcDbLine
 10
1.041518454006448
 20
0.7268828693525081
 30
0.0
 11
1.041518454006448
 21
0.4538828693525079
 31
0.0
  0
ARC
  5
11C
330
37
100
AcDbEntity
  8
Visible (ANSI)
100
AcDbCircle
 10
0.9922684540064484
 20
0.4538828693525079
 30
0.0
 40
0.04925
100
AcDbArc
 50
180.0
 51
0.0
  0
LINE
  5
11D
330
37
100
AcDbEntity
  8
Visible (ANSI)
100
AcDbLine
 10
0.9430184540064486
 20
0.4538828693525079
 30
0.0
 11
0.9430184540064486
 21
0.5046328693525082
 31
0.0
  0
ARC
  5
11E
330
37
100
AcDbEntity
  8
Visible (ANSI)
100
AcDbCircle
 10
0.9122684540064483
 20
0.5046328693525079
 30
0.0
 40
0.0307500000000001
100
AcDbArc
 50
0.0
 51
89.99999999999948
  0
LINE
  5
11F
330
37
100
AcDbEntity
  8
Visible (ANSI)
100
AcDbLine
 10
0.9122684540064485
 20
0.5353828693525081
 30
0.0
 11
0.9051426640064484
 21
0.5353828693525081
 31
0.0
  0
ARC
  5
120
330
37
100
AcDbEntity
  8
Visible (ANSI)
100
AcDbCircle
 10
0.9051426640064491
 20
0.5443828693525096
 30
0.0
 40
0.0090000000000016
100
AcDbArc
 50
231.057558731022
 51
269.9999999999964
  0
LINE
  5
121
330
37
100
AcDbEntity
  8
Visible (ANSI)
100
AcDbLine
 10
0.8994858097569562
 20
0.5373828693525081
 30
0.0
 11
0.8921426640064485
 21
0.5373828693525081
 31
0.0
  0
ARC
  5
122
330
37
100
AcDbEntity
  8
Visible (ANSI)
100
AcDbCircle
 10
0.8921426640064488
 20
0.5463828693525081
 30
0.0
 40
0.009
100
AcDbArc
 50
217.6698869643294
 51
269.9999999999991
  0
LINE
  5
123
330
37
100
AcDbEntity
  8
Visible (ANSI)
100
AcDbLine
 10
0.8850187605820611
 20
0.5408828693525078
 30
0.0
 11
0.8781426640064484
 21
0.5408828693525078
 31
0.0
  0
ARC
  5
124
330
37
100
AcDbEntity
  8
Visible (ANSI)
100
AcDbCircle
 10
0.8781426640064484
 20
0.5498828693525077
 30
0.0
 40
0.0089999999999997
100
AcDbArc
 50
226.2382573073184
 51
270.0
  0
LINE
  5
125
330
37
100
AcDbEntity
  8
Visible (ANSI)
100
AcDbLine
 10
0.8719177142074544
 20
0.5433828693525083
 30
0.0
 11
0.8641426640064487
 21
0.5433828693525083
 31
0.0
  0
ARC
  5
126
330
37
100
AcDbEntity
  8
Visible (ANSI)
100
AcDbCircle
 10
0.8641426640064489
 20
0.5523828693525087
 30
0.0
 40
0.0090000000000004
100
AcDbArc
 50
239.4415682140651
 51
269.9999999999991
  0
LINE
  5
127
330
37
100
AcDbEntity
  8
Visible (ANSI)
100
AcDbLine
 10
0.8595669127020178
 20
0.5446328693525082
 30
0.0
 11
0.7031426640064485
 21
0.5446328693525082
 31
0.0
  0
ARC
  5
128
330
37
100
AcDbEntity
  8
Visible (ANSI)
100
AcDbCircle
 10
0.7031426640064488
 20
0.5138828693525081
 30
0.0
 40
0.0307500000000001
100
AcDbArc
 50
90.00000000000024
 51
180.0
  0
LINE
  5
129
330
37
100
AcDbEntity
  8
Visible (ANSI)
100
AcDbLine
 10
0.6723926640064486
 20
0.5138828693525081
 30
0.0
 11
0.6723926640064486
 21
0.4138828693525081
 31
0.0
  0
LINE
  5
12A
330
37
100
AcDbEntity
  8
Visible (ANSI)
100
AcDbLine
 10
0.6723926640064486
 20
0.4138828693525081
 30
0.0
 11
0.6723916640064484
 21
0.3888828693524113
 31
0.0
  0
LINE
  5
12B
330
37
100
AcDbEntity
  8
Visible (ANSI)
100
AcDbLine
 10
1.101518454006448
 20
0.7488828693525082
 30
0.0
 11
1.101518454006448
 21
0.726882869352508
 31
0.0
  0
LINE
  5
12C
330
37
100
AcDbEntity
  8
Visible (ANSI)
100
AcDbLine
 10
0.9430184540064486
 20
0.7488828693525082
 30
0.0
 11
0.9615184540064486
 21
0.7488828693525082
 31
0.0
  0
LINE
  5
12D
330
37
100
AcDbEntity
  8
Visible (ANSI)
100
AcDbLine
 10
1.023018454006448
 20
0.730382869352508
 30
0.0
 11
1.041518454006448
 21
0.730382869352508
 31
0.0
  0
LINE
  5
12E
330
37
100
AcDbEntity
  8
Visible (ANSI)
100
AcDbLine
 10
0.9615184540064486
 20
0.7488828693525082
 30
0.0
 11
0.9615184540064486
 21
0.6031328693525082
 31
0.0
  0
ARC
  5
12F
330
37
100
AcDbEntity
  8
Visible (ANSI)
100
AcDbCircle
 10
0.9122684540064485
 20
0.6031328693525082
 30
0.0
 40
0.04925
100
AcDbArc
 50
281.5657063836214
 51
0.0
  0
LINE
  5
130
330
37
100
AcDbEntity
  8
Visible (ANSI)
100
AcDbLine
 10
0.9221426640064485
 20
0.5548828695921362
 30
0.0
 11
0.9221426640064485
 21
0.5528828691128802
 31
0.0
  0
ARC
  5
131
330
37
100
AcDbEntity
  8
Visible (ANSI)
100
AcDbCircle
 10
0.9122684540064488
 20
0.5046328693525083
 30
0.0
 40
0.0492499999999998
100
AcDbArc
 50
0.0
 51
78.43429361637849
  0
LINE
  5
132
330
37
100
AcDbEntity
  8
Visible (ANSI)
100
AcDbLine
 10
0.9615184540064486
 20
0.5046328693525082
 30
0.0
 11
0.9615184540064486
 21
0.4538828693525079
 31
0.0
  0
ARC
  5
133
330
37
100
AcDbEntity
  8
Visible (ANSI)
100
AcDbCircle
 10
0.9922684540064484
 20
0.4538828693525079
 30
0.0
 40
0.03075
100
AcDbArc
 50
180.0
 51
0.0
  0
ARC
  5
134
330
37
100
AcDbEntity
  8
Visible (ANSI)
100
AcDbCircle
 10
1.026518454006448
 20
0.7368828693525082
 30
0.0
 40
0.0035
100
AcDbArc
 50
90.0
 51
180.0
  0
LINE
  5
135
330
37
100
AcDbEntity
  8
Visible (ANSI)
100
AcDbLine
 10
1.026518454006448
 20
0.7403828693525078
 30
0.0
 11
1.031218454006448
 21
0.7403828693525078
 31
0.0
  0
LINE
  5
136
330
37
100
AcDbEntity
  8
Visible (ANSI)
100
AcDbLine
 10
1.031218454006448
 20
0.7403828693525078
 30
0.0
 11
1.031218454006448
 21
0.7488828693525082
 31
0.0
  0
LINE
  5
137
330
37
100
AcDbEntity
  8
Visible (ANSI)
100
AcDbLine
 10
1.023018454006448
 20
0.4538828693525079
 30
0.0
 11
1.023018454006448
 21
0.7368828693525082
 31
0.0
  0
LINE
  5
138
330
37
100
AcDbEntity
  8
Visible (ANSI)
100
AcDbLine
 10
1.041518454006448
 20
0.726882869352508
 30
0.0
 11
1.041518454006448
 21
0.7488828693525082
 31
0.0
  0
LINE
  5
139
330
37
100
AcDbEntity
  8
Visible (ANSI)
100
AcDbLine
 10
1.031218454006448
 20
0.7488828693525082
 30
0.0
 11
0.9615184540064486
 21
0.7488828693525082
 31
0.0
  0
CIRCLE
  5
13A
330
37
100
AcDbEntity
  8
Visible (ANSI)
100
AcDbCircle
 10
0.6631376132064489
 20
0.649887920152508
 30
0.0
 40
0.0445
  0
CIRCLE
  5
13B
330
37
100
AcDbEntity
  8
Visible (ANSI)
100
AcDbCircle
 10
0.6631376132064489
 20
0.649887920152508
 30
0.0
 40
0.0475000000000001
  0
CIRCLE
  5
13C
330
37
100
AcDbEntity
  8
Visible (ANSI)
100
AcDbCircle
 10
0.4651477148064487
 20
0.649887920152508
 30
0.0
 40
0.0475000000000001
  0
CIRCLE
  5
13D
330
37
100
AcDbEntity
  8
Visible (ANSI)
100
AcDbCircle
 10
0.3161578640064484
 20
0.4018828693525082
 30
0.0
 40
0.0475000000000001
  0
CIRCLE
  5
13E
330
37
100
AcDbEntity
  8
Visible (ANSI)
100
AcDbCircle
 10
0.4561426640064486
 20
0.4988828693525081
 30
0.0
 40
0.0500000000000001
  0
CIRCLE
  5
13F
330
37
100
AcDbEntity
  8
Visible (ANSI)
100
AcDbCircle
 10
0.8621426640064486
 20
0.6488828693525082
 30
0.0
 40
0.0500000000000001
  0
CIRCLE
  5
140
330
37
100
AcDbEntity
  8
Visible (ANSI)
100
AcDbCircle
 10
0.4651477148064487
 20
0.649887920152508
 30
0.0
 40
0.0445
  0
CIRCLE
  5
141
330
37
100
AcDbEntity
  8
Visible (ANSI)
100
AcDbCircle
 10
0.8621426640064486
 20
0.6488828693525082
 30
0.0
 40
0.047
  0
CIRCLE
  5
142
330
37
100
AcDbEntity
  8
Visible (ANSI)
100
AcDbCircle
 10
0.3161578640064484
 20
0.4018828693525082
 30
0.0
 40
0.0445
  0
CIRCLE
  5
143
330
37
100
AcDbEntity
  8
Visible (ANSI)
100
AcDbCircle
 10
0.4561426640064486
 20
0.4988828693525081
 30
0.0
 40
0.047
  0
CIRCLE
  5
144
330
37
100
AcDbEntity
  8
Visible (ANSI)
100
AcDbCircle
 10
0.8621426640064486
 20
0.4018828693525082
 30
0.0
 40
0.0445
  0
CIRCLE
  5
145
330
37
100
AcDbEntity
  8
Visible (ANSI)
100
AcDbCircle
 10
0.8621426640064486
 20
0.4018828693525082
 30
0.0
 40
0.0475000000000001
  0
CIRCLE
  5
146
330
37
100
AcDbEntity
  8
Visible (ANSI)
100
AcDbCircle
 10
0.4561426640064486
 20
0.4988828693525081
 30
0.0
 40
0.046875
  0
CIRCLE
  5
147
330
37
100
AcDbEntity
  8
Visible (ANSI)
100
AcDbCircle
 10
0.8621426640064486
 20
0.6488828693525082
 30
0.0
 40
0.046875
  0
LINE
  5
148
330
37
100
AcDbEntity
  8
Centerline (ANSI)
  6
CHAIN
 48
0.9524481296539306
100
AcDbLine
 10
0.9522684540064483
 20
0.3570846957179329
 30
0.0
 11
0.9522684540064483
 21
0.7738828693525082
 31
0.0
  0
LINE
  5
149
330
37
100
AcDbEntity
  8
Centerline (ANSI)
  6
CHAIN
 48
0.3887677192687988
100
AcDbLine
 10
0.6631426640064485
 20
0.2738828693525078
 30
0.0
 11
0.6631426640064485
 21
0.4138828693527665
 31
0.0
  0
LINE
  5
14A
330
37
100
AcDbEntity
  8
Center Mark (ANSI)
  6
CHAIN
 48
0.3096053600311279
100
AcDbLine
 10
1.048018454006448
 20
0.4538828693525078
 30
0.0
 11
0.9365184540064484
 21
0.4538828693525078
 31
0.0
  0
LINE
  5
14B
330
37
100
AcDbEntity
  8
Center Mark (ANSI)
  6
CHAIN
 48
0.1547526866197586
100
AcDbLine
 10
0.9922684540064484
 20
0.4538828693525078
 30
0.0
 11
0.9922684540064484
 21
0.3981328693525078
 31
0.0
  0
DIMENSION
  5
14C
330
37
100
AcDbEntity
  8
Dimension (ANSI)
100
AcDbDimension
  2
*D5
 10
1.371919422643976
 20
0.4538828693525078
 30
0.0
 11
1.371919422643976
 21
0.601382869352508
 31
0.0
 70
   160
  1
<>
 42
0.2950000000000003
  3
Default (ANSI)
100
AcDbAlignedDimension
 13
1.031218454006448
 23
0.7488828693525082
 33
0.0
 14
0.9922684540064484
 24
0.4538828693525078
 34
0.0
 50
90.0
100
AcDbRotatedDimension
1001
ACAD
1000
DSTYLE
1002
{
1070
   271
1070
     3
1070
   272
1070
     3
1070
    48
1040
0.0
1070
    47
1040
0.0
1002
}
  0
DIMENSION
  5
219
330
37
100
AcDbEntity
  8
Dimension (ANSI)
100
AcDbDimension
  2
*D6
 10
0.992268454006448
 20
0.4538828693525077
 30
0.0
 11
1.233699314634864
 21
0.3026358301150711
 31
0.0
 70
   164
  1
<>
 42
0.0307499999999999
  3
Default (ANSI)
100
AcDbRadialDimension
 15
1.014011987527937
 25
0.4321393358310245
 35
0.0
 40
0.0
1001
ACAD
1000
DSTYLE
1002
{
1070
   271
1070
     4
1070
   141
1040
0.0
1070
   272
1070
     3
1070
    48
1040
0.0
1070
    47
1040
0.0
1002
}
  0
DIMENSION
  5
2B0
330
37
100
AcDbEntity
  8
Dimension (ANSI)
100
AcDbDimension
  2
*D7
 10
0.6631426640064485
 20
0.8693298045758275
 30
0.0
 11
0.5367591554761642
 21
0.8693298045758275
 31
0.0
 70
   160
  1
<>
 42
0.36807579
  3
Default (ANSI)
100
AcDbAlignedDimension
 13
1.031218454006448
 23
0.7403828693525078
 33
0.0
 14
0.6631426640064485
 24
0.2738828693525078
 34
0.0
100
AcDbRotatedDimension
1001
ACAD
1000
DSTYLE
1002
{
1070
    73
1070
     0
1070
    74
1070
     0
1070
   271
1070
     4
1070
   272
1070
     3
1070
    48
1040
0.0
1070
    47
1040
0.0
1002
}
  0
DIMENSION
  5
390
330
37
100
AcDbEntity
  8
Dimension (ANSI)
100
AcDbDimension
  2
*D8
 10
0.7675232306763573
 20
0.5446328693525079
 30
0.0
 11
0.7647425799016027
 21
0.7132024230457338
 31
0.0
 70
   160
  1
<>
 42
0.0185000000000002
  3
Default (ANSI)
100
AcDbAlignedDimension
 13
0.7577844840763334
 23
0.5631328693525081
 33
0.0
 14
0.7577844840763334
 24
0.5446328693525079
 34
0.0
 50
270.0
100
AcDbRotatedDimension
1001
ACAD
1000
DSTYLE
1002
{
1070
   279
1070
     1
1070
   271
1070
     4
1070
    76
1070
     1
1070
    75
1070
     1
1070
   272
1070
     3
1070
    48
1040
0.0
1070
    47
1040
0.0
1002
}
  0
LINE
  5
477
330
37
100
AcDbEntity
  8
Centerline (ANSI)
  6
CHAIN
 48
0.9524481296539306
100
AcDbLine
 10
0.6454752782129499
 20
0.553882869352508
 30
0.0
 11
1.222719227199819
 21
0.553882869352508
 31
0.0
  0
DIMENSION
  5
478
330
37
100
AcDbEntity
  8
Dimension (ANSI)
100
AcDbDimension
  2
*D9
 10
1.248647915226511
 20
0.553882869352508
 30
0.0
 11
1.24864791522651
 21
0.629876298851773
 31
0.0
 70
   160
  1
<>*B
 42
0.1950000000000001
  3
Default (ANSI)
100
AcDbAlignedDimension
 13
0.7432314046146685
 23
0.7488828693525082
 33
0.0
 14
0.8050620237610011
 24
0.553882869352508
 34
0.0
 50
90.0
100
AcDbRotatedDimension
1001
ACAD
1000
DSTYLE
1002
{
1070
   271
1070
     3
1070
   272
1070
     3
1070
    48
1040
0.0
1070
    47
1040
0.0
1002
}
  0
DIMENSION
  5
544
330
37
100
AcDbEntity
  8
Dimension (ANSI)
100
AcDbDimension
  2
*D10
 10
0.7031426640064483
 20
0.5138828693525081
 30
0.0
 11
0.8042883959282429
 21
0.4946960218104978
 31
0.0
 70
   164
  1
<>
 42
0.0307500000000001
  3
Default (ANSI)
100
AcDbRadialDimension
 15
0.6878884922111486
 25
0.5405825461827524
 35
0.0
 40
0.0
1001
ACAD
1000
DSTYLE
1002
{
1070
   271
1070
     4
1070
   141
1040
0.0
1070
   272
1070
     3
1070
    48
1040
0.0
1070
    47
1040
0.0
1002
}
  0
MTEXT
  5
5D9
102
{ACAD_REACTORS
330
5DA
102
}
330
37
100
AcDbEntity
  8
Symbol (ANSI)
100
AcDbMText
 10
0.5942406449484795
 20
0.2585012125323452
 30
0.0
 40
0.0240000002966153
 41
0.1468395435903955
 71
     3
 72
     1
  1
{dp 0.0185}
  7
Note Text (ANSI)
 73
     1
 44
1.0
1001
ACAD
1000
MTEXTBEGIN
1070
    73
1070
     1
1070
    44
1040
1.0
1070
    74
1070
     0
1000
MTEXTEND
  0
LEADER
  5
5DA
330
37
100
AcDbEntity
  8
Symbol (ANSI)
100
AcDbLeader
  3
Default (ANSI)$7
 73
     0
 40
0.0317206182563726
 41
0.1442256565843607
 76
     3
 10
0.6604238904608181
 20
0.3112071122339735
 30
0.0
 10
0.6139256843185582
 20
0.2465012123840376
 30
0.0
 10
0.6005398575469046
 20
0.2465012123840376
 30
0.0
340
5D9
213
0.0
223
-0.0120000001483076
233
0.0
1001
ACAD
1000
DSTYLE
1002
{
1070
    77
1070
     0
1070
    41
1040
0.0492125984251969
1070
   341
1005
5DB
1002
}
  0
LINE
  5
5E0
330
37
100
AcDbEntity
  8
Centerline (ANSI)
  6
CHAIN
 48
0.9524481296539306
100
AcDbLine
 10
1.032268454006448
 20
0.4288828693525078
 30
0.0
 11
1.032268454006448
 21
0.783130637208828
 31
0.0
  0
DIMENSION
  5
5E1
330
37
100
AcDbEntity
  8
Dimension (ANSI)
100
AcDbDimension
  2
*D12
 10
1.032268454006448
 20
0.796244004279693
 30
0.0
 11
0.8646594326945056
 21
0.796244004279693
 31
0.0
 70
   160
  1
<>
 42
0.00105
  3
Default (ANSI)
100
AcDbAlignedDimension
 13
1.031218454006448
 23
0.7488828693525082
 33
0.0
 14
1.032268454006448
 24
0.783130637208828
 34
0.0
100
AcDbRotatedDimension
1001
ACAD
1000
DSTYLE
1002
{
1070
    73
1070
     0
1070
    74
1070
     0
1070
   271
1070
     3
1070
   272
1070
     3
1070
    48
1040
0.0
1070
    47
1040
0.0
1002
}
  0
LINE
  5
6C1
330
37
100
AcDbEntity
  8
Center Mark (ANSI)
  6
CHAIN
 48
0.1547526866197586
100
AcDbLine
 10
0.9680184540064484
 20
0.603132869352508
 30
0.0
 11
0.9122684540064485
 21
0.603132869352508
 31
0.0
  0
LINE
  5
6C2
330
37
100
AcDbEntity
  8
Center Mark (ANSI)
  6
CHAIN
 48
0.1547526866197586
100
AcDbLine
 10
0.9122684540064485
 20
0.603132869352508
 30
0.0
 11
0.9122684540064485
 21
0.547382869352508
 31
0.0
  0
LINE
  5
6C3
330
37
100
AcDbEntity
  8
Center Mark (ANSI)
  6
CHAIN
 48
0.1547526866197586
100
AcDbLine
 10
0.9680184540064484
 20
0.504632869352508
 30
0.0
 11
0.9122684540064485
 21
0.504632869352508
 31
0.0
  0
LINE
  5
6C4
330
37
100
AcDbEntity
  8
Center Mark (ANSI)
  6
CHAIN
 48
0.1547526866197586
100
AcDbLine
 10
0.9122684540064485
 20
0.560382869352508
 30
0.0
 11
0.9122684540064485
 21
0.504632869352508
 31
0.0
  0
DIMENSION
  5
6C5
330
37
100
AcDbEntity
  8
Dimension (ANSI)
100
AcDbDimension
  2
*D13
 10
0.9122684540064485
 20
0.8240277899793849
 30
0.0
 11
0.7287533967421669
 21
0.8240277899793849
 31
0.0
 70
   160
  1
<>*A
 42
0.1189499999999999
  3
Default (ANSI)
100
AcDbAlignedDimension
 13
1.031218454006448
 23
0.744632869352508
 33
0.0
 14
0.9122684540064485
 24
0.603132869352508
 34
0.0
 50
180.0
100
AcDbRotatedDimension
1001
ACAD
1000
DSTYLE
1002
{
1070
   271
1070
     3
1070
   272
1070
     3
1070
    48
1040
0.0
1070
    47
1040
0.0
1002
}
  0
DIMENSION
  5
791
330
37
100
AcDbEntity
  8
Dimension (ANSI)
100
AcDbDimension
  2
*D14
 10
1.032268454006448
 20
0.6794927910288296
 30
0.0
 11
1.183930755249206
 21
0.6794927910288296
 31
0.0
 70
   160
  1
<>
 42
0.08
  3
Default (ANSI)
100
AcDbAlignedDimension
 13
0.9522684540064483
 23
0.6262167417966904
 33
0.0
 14
1.032268454006448
 24
0.662319234221005
 34
0.0
100
AcDbRotatedDimension
1001
ACAD
1000
DSTYLE
1002
{
1070
    73
1070
     0
1070
    74
1070
     0
1070
   271
1070
     3
1070
    76
1070
     1
1070
    75
1070
     1
1070
   272
1070
     3
1070
    48
1040
0.0
1070
    47
1040
0.0
1002
}
  0
MTEXT
  5
867
330
37
100
AcDbEntity
  8
Symbol (ANSI)
100
AcDbMText
 10
0.7082599754755225
 20
0.1585043939517557
 30
0.0
 40
0.0359999992716031
 41
0.0
 71
     7
 72
     1
  1
 Y Junction
  7
Text Style30
 73
     1
 44
1.0
1001
ACAD
1000
MTEXTBEGIN
1070
    73
1070
     1
1070
    44
1040
1.0
1070
    74
1070
     0
1000
MTEXTEND
  0
MTEXT
  5
868
330
37
100
AcDbEntity
  8
Symbol (ANSI)
100
AcDbMText
 10
0.820767263621729
 20
0.0999898527302419
 30
0.0
 40
0.0359999992716031
 41
0.0
 71
     7
 72
     1
  1
 
  7
Text Style30
 73
     1
 44
2.572359800338745
1001
ACAD
1000
MTEXTBEGIN
1070
    73
1070
     1
1070
    44
1040
2.572359800338745
1070
    74
1070
     0
1000
MTEXTEND
  0
LINE
  5
869
330
37
100
AcDbEntity
  8
Sketch Geometry (ANSI)
100
AcDbLine
 10
0.8806212333423735
 20
0.6116036738839132
 30
0.0
 11
0.9758385582413321
 21
0.6116036738839132
 31
0.0
  0
LINE
  5
86A
330
37
100
AcDbEntity
  8
Sketch Geometry (ANSI)
100
AcDbLine
 10
0.9758385582413321
 20
0.6116036738839132
 30
0.0
 11
0.9758385582413321
 21
0.4956255788304198
 31
0.0
  0
LINE
  5
86B
330
37
100
AcDbEntity
  8
Sketch Geometry (ANSI)
100
AcDbLine
 10
0.9758385582413321
 20
0.4956255788304198
 30
0.0
 11
0.8806212333423735
 21
0.4956255788304198
 31
0.0
  0
LINE
  5
86C
330
37
100
AcDbEntity
  8
Sketch Geometry (ANSI)
100
AcDbLine
 10
0.8806212333423735
 20
0.4956255788304198
 30
0.0
 11
0.8806212333423735
 21
0.6116036738839132
 31
0.0
  0
LINE
  5
86D
330
37
100
AcDbEntity
  8
Sketch Geometry (ANSI)
100
AcDbLine
 10
0.8806212333423735
 20
0.4956255788304198
 30
0.0
 11
0.7702800854411612
 21
0.2138081230452669
 31
0.0
  0
MTEXT
  5
86E
330
37
100
AcDbEntity
  8
Symbol (ANSI)
100
AcDbMText
 10
1.816505439539577
 20
0.151752536228328
 30
0.0
 40
0.0240000002966153
 41
0.0717626710248449
 71
     1
 72
     1
  1
{B1}
  7
Note Text (ANSI)
 73
     1
 44
1.0
1001
ACAD
1000
MTEXTBEGIN
1070
    73
1070
     1
1070
    44
1040
1.0
1070
    74
1070
     0
1000
MTEXTEND
  0
DIMENSION
  5
86F
330
37
100
AcDbEntity
  8
Dimension (ANSI)
100
AcDbDimension
  2
*D15
 10
0.9922684540064484
 20
0.7719563411435844
 30
0.0
 11
0.7567974993989985
 21
0.7719563411435844
 31
0.0
 70
   160
  1
<>
 42
0.0389500000000001
  3
Default (ANSI)
100
AcDbAlignedDimension
 13
1.031218454006448
 23
0.744632869352508
 33
0.0
 14
0.9922684540064484
 24
0.4538828693525078
 34
0.0
 50
180.0
100
AcDbRotatedDimension
1001
ACAD
1000
DSTYLE
1002
{
1070
   271
1070
     3
1070
    75
1070
     1
1070
   272
1070
     3
1070
    48
1040
0.0
1070
    47
1040
0.0
1002
}
  0
MTEXT
  5
938
102
{ACAD_REACTORS
330
939
102
}
330
37
100
AcDbEntity
  8
Symbol (ANSI)
100
AcDbMText
 10
1.213355970449822
 20
0.8213681848662702
 30
0.0
 40
0.0240000002966153
 41
0.208395466091126
 71
     1
 72
     1
  1
{TUNING STUB}
  7
Note Text (ANSI)
 73
     1
 44
1.0
1001
ACAD
1000
MTEXTBEGIN
1070
    73
1070
     1
1070
    44
1040
1.0
1070
    74
1070
     0
1000
MTEXTEND
  0
LEADER
  5
939
330
37
100
AcDbEntity
  8
Symbol (ANSI)
100
AcDbLeader
  3
Default (ANSI)$7
 73
     0
 40
0.0249348559159596
 41
0.2077152476981065
 76
     3
 10
1.027958859991888
 20
0.7437148723806675
 30
0.0
 10
1.141673732645297
 20
0.8093681847179626
 30
0.0
 10
1.207056757851396
 20
0.8093681847179626
 30
0.0
340
938
213
0.0
223
-0.0120000001483076
233
0.0
1001
ACAD
1000
DSTYLE
1002
{
1070
    77
1070
     0
1070
    41
1040
0.0492125984251969
1070
   341
1005
5DB
1002
}
  0
DIMENSION
  5
93A
330
37
100
AcDbEntity
  8
Dimension (ANSI)
100
AcDbDimension
  2
*D16
 10
0.9922684540064487
 20
0.4538828693525085
 30
0.0
 11
1.114365684716742
 21
0.2232941977611921
 31
0.0
 70
   164
  1
<>
 42
0.0492500000000005
  3
Default (ANSI)
100
AcDbRadialDimension
 15
0.9990202834015798
 25
0.4050978788347366
 35
0.0
 40
0.0
1001
ACAD
1000
DSTYLE
1002
{
1070
   271
1070
     4
1070
   141
1040
0.0
1070
   272
1070
     3
1070
    48
1040
0.0
1070
    47
1040
0.0
1002
}
  0
CIRCLE
  5
9D1
330
37
100
AcDbEntity
  8
Visible (ANSI)
100
AcDbCircle
 10
0.7621376132064129
 20
1.177015095164503
 30
0.0
 40
0.0445
  0
CIRCLE
  5
9D2
330
37
100
AcDbEntity
  8
Visible (ANSI)
100
AcDbCircle
 10
0.5641477148064129
 20
1.177015095164503
 30
0.0
 40
0.0445
  0
CIRCLE
  5
9D3
330
37
100
AcDbEntity
  8
Visible (ANSI)
100
AcDbCircle
 10
0.7621376132064129
 20
1.177015095164504
 30
0.0
 40
0.0475000000000001
  0
CIRCLE
  5
9D4
330
37
100
AcDbEntity
  8
Visible (ANSI)
100
AcDbCircle
 10
0.5641477148064129
 20
1.177015095164504
 30
0.0
 40
0.0475000000000001
  0
CIRCLE
  5
9D5
330
37
100
AcDbEntity
  8
Visible (ANSI)
100
AcDbCircle
 10
0.9081426640064126
 20
1.446020145964504
 30
0.0
 40
0.0500000000000001
  0
CIRCLE
  5
9D6
330
37
100
AcDbEntity
  8
Visible (ANSI)
100
AcDbCircle
 10
0.3461578640064128
 20
1.328020145964504
 30
0.0
 40
0.0500000000000001
  0
CIRCLE
  5
9D7
330
37
100
AcDbEntity
  8
Visible (ANSI)
100
AcDbCircle
 10
0.3161578640064127
 20
1.177015095964504
 30
0.0
 40
0.046
  0
CIRCLE
  5
9D8
330
37
100
AcDbEntity
  8
Visible (ANSI)
100
AcDbCircle
 10
0.7621375640064131
 20
1.418020145964504
 30
0.0
 40
0.046
  0
CIRCLE
  5
9D9
330
37
100
AcDbEntity
  8
Visible (ANSI)
100
AcDbCircle
 10
0.7621375640064131
 20
1.418020145964503
 30
0.0
 40
0.043
  0
CIRCLE
  5
9DA
330
37
100
AcDbEntity
  8
Visible (ANSI)
100
AcDbCircle
 10
0.9081426640064126
 20
1.446020145964503
 30
0.0
 40
0.047
  0
CIRCLE
  5
9DB
330
37
100
AcDbEntity
  8
Visible (ANSI)
100
AcDbCircle
 10
0.3161578640064127
 20
1.177015095964504
 30
0.0
 40
0.043
  0
CIRCLE
  5
9DC
330
37
100
AcDbEntity
  8
Visible (ANSI)
100
AcDbCircle
 10
0.3461578640064128
 20
1.328020145964503
 30
0.0
 40
0.047
  0
LINE
  5
9DD
330
37
100
AcDbEntity
  8
Visible (ANSI)
100
AcDbLine
 10
0.9430184540064127
 20
1.078020145964504
 30
0.0
 11
0.9115184540064127
 21
1.078020145964504
 31
0.0
  0
LINE
  5
9DE
330
37
100
AcDbEntity
  8
Visible (ANSI)
100
AcDbLine
 10
0.9115184540064127
 20
1.078020145964499
 30
0.0
 11
0.8930184540064127
 21
1.078020145964499
 31
0.0
  0
LINE
  5
9DF
330
37
100
AcDbEntity
  8
Visible (ANSI)
100
AcDbLine
 10
0.8930184540064127
 20
1.078020145964504
 30
0.0
 11
0.201518464006413
 21
1.078020145964504
 31
0.0
  0
LINE
  5
9E0
330
37
100
AcDbEntity
  8
Visible (ANSI)
100
AcDbLine
 10
0.201518464006413
 20
1.528020145964504
 30
0.0
 11
1.101518454006413
 21
1.528020145964504
 31
0.0
  0
LINE
  5
9E1
330
37
100
AcDbEntity
  8
Visible (ANSI)
100
AcDbLine
 10
0.8930184540064127
 20
1.078020145964504
 30
0.0
 11
0.8930184540064129
 21
1.178020145964504
 31
0.0
  0
ARC
  5
9E2
330
37
100
AcDbEntity
  8
Visible (ANSI)
100
AcDbCircle
 10
0.9672684540064128
 20
1.178020145964504
 30
0.0
 40
0.0742500000000001
100
AcDbArc
 50
0.0
 51
180.0
  0
LINE
  5
9E3
330
37
100
AcDbEntity
  8
Visible (ANSI)
100
AcDbLine
 10
1.041518454006412
 20
1.178020145964504
 30
0.0
 11
1.041518454006412
 21
1.100020145964504
 31
0.0
  0
LINE
  5
9E4
330
37
100
AcDbEntity
  8
Visible (ANSI)
100
AcDbLine
 10
1.041518454006412
 20
1.100020145964504
 30
0.0
 11
1.101518454006412
 21
1.100020145964504
 31
0.0
  0
LINE
  5
9E5
330
37
100
AcDbEntity
  8
Visible (ANSI)
100
AcDbLine
 10
1.101518454006413
 20
1.528020145964504
 30
0.0
 11
1.101518454006412
 21
1.100020145964504
 31
0.0
  0
LINE
  5
9E6
330
37
100
AcDbEntity
  8
Visible (ANSI)
100
AcDbLine
 10
0.201518464006413
 20
1.528020145964504
 30
0.0
 11
0.201518464006413
 21
1.078020145964504
 31
0.0
  0
LINE
  5
9E7
330
37
100
AcDbEntity
  8
Visible (ANSI)
100
AcDbLine
 10
1.101518454006412
 20
1.078020145964498
 30
0.0
 11
1.041518454006412
 21
1.078020145964498
 31
0.0
  0
LINE
  5
9E8
330
37
100
AcDbEntity
  8
Visible (ANSI)
100
AcDbLine
 10
1.041518454006412
 20
1.078020145964416
 30
0.0
 11
1.031218454006412
 21
1.078020145964408
 31
0.0
  0
LINE
  5
9E9
330
37
100
AcDbEntity
  8
Visible (ANSI)
100
AcDbLine
 10
1.101518454006412
 20
1.100020145964504
 30
0.0
 11
1.101518454006412
 21
1.078020145964498
 31
0.0
  0
LINE
  5
9EA
330
37
100
AcDbEntity
  8
Visible (ANSI)
100
AcDbLine
 10
0.9430184540064127
 20
1.078020145964504
 30
0.0
 11
0.9430184540064127
 21
1.096520145964504
 31
0.0
  0
LINE
  5
9EB
330
37
100
AcDbEntity
  8
Visible (ANSI)
100
AcDbLine
 10
0.9430184540064127
 20
1.096520145964504
 30
0.0
 11
0.9615184540064129
 21
1.096520145964504
 31
0.0
  0
LINE
  5
9EC
330
37
100
AcDbEntity
  8
Visible (ANSI)
100
AcDbLine
 10
1.023018454006412
 20
1.096520145964499
 30
0.0
 11
1.041518454006412
 21
1.096520145964499
 31
0.0
  0
LINE
  5
9ED
330
37
100
AcDbEntity
  8
Visible (ANSI)
100
AcDbLine
 10
0.9615184540064129
 20
1.096520145964504
 30
0.0
 11
0.9615184540064129
 21
1.078020145964504
 31
0.0
  0
LINE
  5
9EE
330
37
100
AcDbEntity
  8
Visible (ANSI)
100
AcDbLine
 10
0.9615184540064126
 20
1.078020145964461
 30
0.0
 11
0.9430184540064127
 21
1.078020145964449
 31
0.0
  0
LINE
  5
9EF
330
37
100
AcDbEntity
  8
Visible (ANSI)
100
AcDbLine
 10
1.031218454006412
 20
1.078020145964504
 30
0.0
 11
1.031218454006412
 21
1.086520145964504
 31
0.0
  0
LINE
  5
9F0
330
37
100
AcDbEntity
  8
Visible (ANSI)
100
AcDbLine
 10
1.031218454006412
 20
1.086520145964504
 30
0.0
 11
1.026518454006412
 21
1.086520145964504
 31
0.0
  0
ARC
  5
9F1
330
37
100
AcDbEntity
  8
Visible (ANSI)
100
AcDbCircle
 10
1.026518454006412
 20
1.090020145964504
 30
0.0
 40
0.0035
100
AcDbArc
 50
180.0
 51
270.0
  0
LINE
  5
9F2
330
37
100
AcDbEntity
  8
Visible (ANSI)
100
AcDbLine
 10
1.023018454006412
 20
1.090020145964504
 30
0.0
 11
1.023018454006412
 21
1.178020145964504
 31
0.0
  0
ARC
  5
9F3
330
37
100
AcDbEntity
  8
Visible (ANSI)
100
AcDbCircle
 10
0.9672684540064128
 20
1.178020145964504
 30
0.0
 40
0.0557500000000001
100
AcDbArc
 50
0.0
 51
180.0
  0
LINE
  5
9F4
330
37
100
AcDbEntity
  8
Visible (ANSI)
100
AcDbLine
 10
0.9115184540064127
 20
1.178020145964504
 30
0.0
 11
0.9115184540064127
 21
1.078020145964504
 31
0.0
  0
LINE
  5
9F5
330
37
100
AcDbEntity
  8
Visible (ANSI)
100
AcDbLine
 10
1.041518454006412
 20
1.078020145964498
 30
0.0
 11
1.041518454006412
 21
1.100020145964504
 31
0.0
  0
LINE
  5
9F6
330
37
100
AcDbEntity
  8
Visible (ANSI)
100
AcDbLine
 10
1.031218454006412
 20
1.078020145964504
 30
0.0
 11
0.9615184540064129
 21
1.078020145964504
 31
0.0
  0
CIRCLE
  5
9F7
330
37
100
AcDbEntity
  8
Visible (ANSI)
100
AcDbCircle
 10
0.3161578640064127
 20
1.177015095964421
 30
0.0
 40
0.0002144103529895
  0
CIRCLE
  5
9F8
330
37
100
AcDbEntity
  8
Visible (ANSI)
100
AcDbCircle
 10
0.3461578640064128
 20
1.328020145964436
 30
0.0
 40
0.046875
  0
CIRCLE
  5
9F9
330
37
100
AcDbEntity
  8
Hidden Narrow (ANSI)
 48
1.14316713809967
100
AcDbCircle
 10
0.7621375640064131
 20
1.418020145964504
 30
0.0
 40
0.05265
  0
CIRCLE
  5
9FA
330
37
100
AcDbEntity
  8
Hidden Narrow (ANSI)
 48
1.14316713809967
100
AcDbCircle
 10
0.3161578640064127
 20
1.177015095964504
 30
0.0
 40
0.05265
  0
LINE
  5
9FB
330
37
100
AcDbEntity
  8
Centerline (ANSI)
  6
CHAIN
 48
0.3693243265151977
100
AcDbLine
 10
1.032268454006412
 20
1.203020145964504
 30
0.0
 11
1.032268454006412
 21
1.070020145964504
 31
0.0
  0
LINE
  5
9FC
330
37
100
AcDbEntity
  8
Centerline (ANSI)
  6
CHAIN
 48
0.4165439903736115
100
AcDbLine
 10
0.902268454006413
 20
1.203020145964504
 30
0.0
 11
0.9022684540064124
 21
1.053020145964504
 31
0.0
  0
LINE
  5
9FD
330
37
100
AcDbEntity
  8
Center Mark (ANSI)
  6
CHAIN
 48
0.4484866857528687
100
AcDbLine
 10
1.048018454006412
 20
1.178020145964504
 30
0.0
 11
0.8865184540064127
 21
1.178020145964504
 31
0.0
  0
LINE
  5
9FE
330
37
100
AcDbEntity
  8
Center Mark (ANSI)
  6
CHAIN
 48
0.224193349480629
100
AcDbLine
 10
0.9672684540064128
 20
1.258770145964504
 30
0.0
 11
0.9672684540064128
 21
1.178020145964504
 31
0.0
  0
DIMENSION
  5
9FF
330
37
100
AcDbEntity
  8
Dimension (ANSI)
100
AcDbDimension
  2
*D17
 10
0.9672684540064125
 20
1.178020145964504
 30
0.0
 11
0.7389097837880555
 21
1.271284598135579
 31
0.0
 70
   164
  1
<>
 42
0.0557500000000002
  3
Default (ANSI)
100
AcDbRadialDimension
 15
0.9210595866828924
 25
1.20920993725392
 35
0.0
 40
0.0
1001
ACAD
1000
DSTYLE
1002
{
1070
   271
1070
     4
1070
   141
1040
0.0
1070
   272
1070
     3
1070
    48
1040
0.0
1070
    47
1040
0.0
1002
}
  0
DIMENSION
  5
A96
330
37
100
AcDbEntity
  8
Dimension (ANSI)
100
AcDbDimension
  2
*D18
 10
0.9672684540064128
 20
1.178020145964504
 30
0.0
 11
1.183345769464608
 21
1.33556717323005
 31
0.0
 70
   164
  1
<>
 42
0.0742500000000002
  3
Default (ANSI)
100
AcDbRadialDimension
 15
1.013619697541425
 25
1.23602553125551
 35
0.0
 40
0.0
1001
ACAD
1000
DSTYLE
1002
{
1070
   271
1070
     4
1070
   141
1040
0.0
1070
   272
1070
     3
1070
    48
1040
0.0
1070
    47
1040
0.0
1002
}
  0
DIMENSION
  5
B2D
330
37
100
AcDbEntity
  8
Dimension (ANSI)
100
AcDbDimension
  2
*D19
 10
0.8359723960671699
 20
1.178020145964504
 30
0.0
 11
0.8359723960671697
 21
1.128020145964504
 31
0.0
 70
   160
  1
<>
 42
0.0999999999999999
  3
Default (ANSI)
100
AcDbAlignedDimension
 13
0.8359723960671697
 23
1.078020145964504
 33
0.0
 14
0.9672684540064128
 24
1.178020145964504
 34
0.0
 50
90.0
100
AcDbRotatedDimension
1001
ACAD
1000
DSTYLE
1002
{
1070
   271
1070
     3
1070
    75
1070
     1
1070
   272
1070
     3
1070
    48
1040
0.0
1070
    47
1040
0.0
1002
}
  0
DIMENSION
  5
BF6
330
37
100
AcDbEntity
  8
Dimension (ANSI)
100
AcDbDimension
  2
*D20
 10
0.9672684540064128
 20
1.030432687180218
 30
0.0
 11
1.195923752456407
 21
1.030432687180218
 31
0.0
 70
   160
  1
<>
 42
0.0639499999999998
  3
Default (ANSI)
100
AcDbAlignedDimension
 13
1.031218454006412
 23
1.078020145964504
 33
0.0
 14
0.9672684540064128
 24
1.178020145964504
 34
0.0
100
AcDbRotatedDimension
1001
ACAD
1000
DSTYLE
1002
{
1070
    73
1070
     0
1070
    74
1070
     0
1070
   271
1070
     3
1070
   272
1070
     3
1070
    48
1040
0.0
1070
    47
1040
0.0
1002
}
  0
DIMENSION
  5
CD6
330
37
100
AcDbEntity
  8
Dimension (ANSI)
100
AcDbDimension
  2
*D21
 10
1.032268454006412
 20
1.065473108808252
 30
0.0
 11
1.195748580073077
 21
1.065473108808252
 31
0.0
 70
   160
  1
<>
 42
0.00105
  3
Default (ANSI)
100
AcDbAlignedDimension
 13
1.031218454006412
 23
1.078020145964504
 33
0.0
 14
1.032268454006412
 24
1.070020145964504
 34
0.0
100
AcDbRotatedDimension
1001
ACAD
1000
DSTYLE
1002
{
1070
    73
1070
     0
1070
    74
1070
     0
1070
   271
1070
     3
1070
    76
1070
     1
1070
   272
1070
     3
1070
    48
1040
0.0
1070
    47
1040
0.0
1002
}
  0
MTEXT
  5
DB1
102
{ACAD_REACTORS
330
DB2
102
}
330
37
100
AcDbEntity
  8
Symbol (ANSI)
100
AcDbMText
 10
0.8927243769714941
 20
0.9789457214411056
 30
0.0
 40
0.0240000002966153
 41
0.208395466091126
 71
     3
 72
     1
  1
{TUNING STUB}
  7
Note Text (ANSI)
 73
     1
 44
1.0
1001
ACAD
1000
MTEXTBEGIN
1070
    73
1070
     1
1070
    44
1040
1.0
1070
    74
1070
     0
1000
MTEXTEND
  0
LEADER
  5
DB2
330
37
100
AcDbEntity
  8
Symbol (ANSI)
100
AcDbLeader
  3
Default (ANSI)$7
 73
     0
 40
0.0249348559159596
 41
0.2077152476981065
 76
     3
 10
1.028009841636763
 20
1.082546146587954
 30
0.0
 10
0.9124094163415728
 20
0.966945721292798
 30
0.0
 10
0.8990235895699195
 20
0.966945721292798
 30
0.0
340
DB1
213
0.0
223
-0.0120000001483076
233
0.0
1001
ACAD
1000
DSTYLE
1002
{
1070
    77
1070
     0
1070
    41
1040
0.0984251968503937
1070
   341
1005
B9
1002
}
  0
DIMENSION
  5
DB3
330
37
100
AcDbEntity
  8
Dimension (ANSI)
100
AcDbDimension
  2
*D22
 10
1.032268454006412
 20
1.163961671821061
 30
0.0
 11
1.184096901133094
 21
1.163961671821061
 31
0.0
 70
   160
  1
<>
 42
0.1299999999999997
  3
Default (ANSI)
100
AcDbAlignedDimension
 13
0.9022684540064128
 23
1.158349797424313
 33
0.0
 14
1.032268454006412
 24
1.158349797424311
 34
0.0
 50
179.9999999999998
100
AcDbRotatedDimension
1001
ACAD
1000
DSTYLE
1002
{
1070
    73
1070
     0
1070
    74
1070
     0
1070
   271
1070
     3
1070
    76
1070
     1
1070
    75
1070
     1
1070
   272
1070
     3
1070
    48
1040
0.0
1070
    47
1040
0.0
1002
}
  0
LINE
  5
E88
330
37
100
AcDbEntity
  8
Visible (ANSI)
100
AcDbLine
 10
2.001138937088235
 20
0.298882869352508
 30
0.0
 11
1.551138937088235
 21
0.298882869352508
 31
0.0
  0
LINE
  5
E89
330
37
100
AcDbEntity
  8
Visible (ANSI)
100
AcDbLine
 10
2.001138937088235
 20
0.7488828693525082
 30
0.0
 11
2.001138937088235
 21
0.298882869352508
 31
0.0
  0
LINE
  5
E8A
330
37
100
AcDbEntity
  8
Visible (ANSI)
100
AcDbLine
 10
2.001138937088235
 20
0.7488828693525082
 30
0.0
 11
1.573138937088235
 21
0.7488828693525082
 31
0.0
  0
LINE
  5
E8B
330
37
100
AcDbEntity
  8
Visible (ANSI)
100
AcDbLine
 10
1.551138937088235
 20
0.298882869352508
 30
0.0
 11
1.551138937088235
 21
0.7268828693525081
 31
0.0
  0
ARC
  5
E8C
330
37
100
AcDbEntity
  8
Visible (ANSI)
100
AcDbCircle
 10
1.551138937088235
 20
0.7488828693525082
 30
0.0
 40
0.0220000000000001
100
AcDbArc
 50
270.0
 51
0.0
  0
LINE
  5
E8D
330
37
100
AcDbEntity
  8
Visible (ANSI)
100
AcDbLine
 10
1.551138937088212
 20
0.7368828693525082
 30
0.0
 11
1.551138937088213
 21
0.7403828693525082
 31
0.0
  0
LINE
  5
E8E
330
37
100
AcDbEntity
  8
Visible (ANSI)
100
AcDbLine
 10
1.559638937088213
 20
0.7403828693525081
 30
0.0
 11
1.563138937088212
 21
0.7368828693525082
 31
0.0
  0
LINE
  5
E8F
330
37
100
AcDbEntity
  8
Visible (ANSI)
100
AcDbLine
 10
1.559638937088214
 20
0.7403828693525078
 30
0.0
 11
1.551138937088214
 21
0.7403828693525078
 31
0.0
  0
LINE
  5
E90
330
37
100
AcDbEntity
  8
Visible (ANSI)
100
AcDbLine
 10
1.551138937088214
 20
0.7403828693525078
 30
0.0
 11
1.551138937088214
 21
0.7488828693525082
 31
0.0
  0
LINE
  5
E91
330
37
100
AcDbEntity
  8
Visible (ANSI)
100
AcDbLine
 10
1.559638937088214
 20
0.7488828693525082
 30
0.0
 11
1.559638937088214
 21
0.7403828693525078
 31
0.0
  0
LINE
  5
E92
330
37
100
AcDbEntity
  8
Visible (ANSI)
100
AcDbLine
 10
1.551138937088214
 20
0.7488828693525082
 30
0.0
 11
1.559638937088214
 21
0.7488828693525082
 31
0.0
  0
LINE
  5
E93
330
37
100
AcDbEntity
  8
Visible (ANSI)
100
AcDbLine
 10
1.559638937088213
 20
0.7488828693525082
 30
0.0
 11
1.563138937088212
 21
0.7488828693525082
 31
0.0
  0
LINE
  5
E94
330
37
100
AcDbEntity
  8
Visible (ANSI)
100
AcDbLine
 10
1.551138937088212
 20
0.7268828693525081
 30
0.0
 11
1.551138937088212
 21
0.7368828693525082
 31
0.0
  0
LINE
  5
E95
330
37
100
AcDbEntity
  8
Visible (ANSI)
100
AcDbLine
 10
1.563138937088212
 20
0.7488828693525082
 30
0.0
 11
1.573138937088212
 21
0.7488828693525082
 31
0.0
  0
CIRCLE
  5
E96
330
37
100
AcDbEntity
  8
Visible (ANSI)
100
AcDbCircle
 10
1.750012718963234
 20
0.550009087477508
 30
0.0
 40
0.03175
  0
CIRCLE
  5
E97
330
37
100
AcDbEntity
  8
Visible (ANSI)
100
AcDbCircle
 10
1.750012718963235
 20
0.550009087477508
 30
0.0
 40
0.03475
  0
CIRCLE
  5
E98
330
37
100
AcDbEntity
  8
Visible (ANSI)
100
AcDbCircle
 10
1.881138937088235
 20
0.418882869352508
 30
0.0
 40
0.046
  0
CIRCLE
  5
E99
330
37
100
AcDbEntity
  8
Visible (ANSI)
100
AcDbCircle
 10
1.881138937088234
 20
0.418882869352508
 30
0.0
 40
0.043
  0
CIRCLE
  5
E9A
330
37
100
AcDbEntity
  8
Hidden Narrow (ANSI)
 48
1.089247584342956
100
AcDbCircle
 10
1.881138937088234
 20
0.418882869352508
 30
0.0
 40
0.043
  0
CIRCLE
  5
E9B
330
37
100
AcDbEntity
  8
Hidden Narrow (ANSI)
 48
1.14316713809967
100
AcDbCircle
 10
1.881138937088235
 20
0.418882869352508
 30
0.0
 40
0.05265
  0
INSERT
  5
EC2
330
37
100
AcDbEntity
  8
Dimension (ANSI)
100
AcDbBlockReference
  2
Origin Indicator Symbol4
 10
0.0
 20
0.0
 30
0.0
 41
0.2
 42
0.2
 43
0.2
  0
INSERT
  5
F09
330
37
100
AcDbEntity
  8
Symbol (ANSI)
100
AcDbBlockReference
  2
Hole Table4
 10
0.0
 20
0.0
 30
0.0
 41
0.2
 42
0.2
 43
0.2
  0
INSERT
  5
F1B
330
37
100
AcDbEntity
  8
Symbol (ANSI)
100
AcDbBlockReference
  2
Leader Text14
 10
0.0
 20
0.0
 30
0.0
 41
0.2
 42
0.2
 43
0.2
  0
INSERT
  5
F2D
330
37
100
AcDbEntity
  8
Symbol (ANSI)
100
AcDbBlockReference
  2
Leader Text15
 10
0.0
 20
0.0
 30
0.0
 41
0.2
 42
0.2
 43
0.2
  0
DIMENSION
  5
F2E
330
37
100
AcDbEntity
  8
Dimension (ANSI)
100
AcDbDimension
  2
*D27
 10
0.9115184540064126
 20
1.036134422168359
 30
0.0
 11
0.7580060419230778
 21
1.036134422168359
 31
0.0
 70
   160
  1
<>
 42
0.0185000000000002
  3
Default (ANSI)
100
AcDbAlignedDimension
 13
0.8930184540064123
 23
1.078020145964504
 33
0.0
 14
0.9115184540064126
 24
1.078020145964504
 34
0.0
 50
359.9999999999997
100
AcDbRotatedDimension
1001
ACAD
1000
DSTYLE
1002
{
1070
    73
1070
     0
1070
    74
1070
     0
1070
   271
1070
     3
1070
   272
1070
     3
1070
    48
1040
0.0
1070
    47
1040
0.0
1002
}
  0
MTEXT
  5
100E
102
{ACAD_REACTORS
330
100F
102
}
330
37
100
AcDbEntity
  8
Symbol (ANSI)
100
AcDbMText
 10
0.8915248036112457
 20
1.341305533327662
 30
0.0
 40
0.0240000002966153
 41
0.1468395435903955
 71
     3
 72
     1
  1
{dp 0.0185\P }
  7
Note Text (ANSI)
 73
     2
 44
0.9878842234611511
1001
ACAD
1000
MTEXTBEGIN
1070
    73
1070
     2
1070
    44
1040
0.9878842234611511
1070
    74
1070
     0
1000
MTEXTEND
  0
LEADER
  5
100F
330
37
100
AcDbEntity
  8
Symbol (ANSI)
100
AcDbLeader
  3
Default (ANSI)$7
 73
     0
 40
0.0715153698223022
 41
0.1442256565843607
 76
     3
 10
0.9581078650244714
 20
1.243914645600685
 30
0.0
 10
0.9112098429813244
 20
1.329305533179355
 30
0.0
 10
0.8978240162096708
 20
1.329305533179355
 30
0.0
340
100E
210
0.0
220
0.0
230
-1.0
213
0.0
223
-0.0120000001483076
233
0.0
1001
ACAD
1000
DSTYLE
1002
{
1070
    77
1070
     0
1070
    41
1040
0.0492125984251969
1070
   341
1005
5DB
1002
}
  0
MTEXT
  5
1010
330
37
100
AcDbEntity
  8
Symbol (ANSI)
100
AcDbMText
 10
1.706618849532783
 20
1.538473087470196
 30
0.0
 40
0.0240000002966153
 41
0.2492576884472464
 71
     1
 72
     1
  1
{3 OF 3 (BLOCK1)}
  7
Note Text (ANSI)
 73
     1
 44
1.0
1001
ACAD
1000
MTEXTBEGIN
1070
    73
1070
     1
1070
    44
1040
1.0
1070
    74
1070
     0
1000
MTEXTEND
  0
DIMENSION
  5
1011
330
37
100
AcDbEntity
  8
Dimension (ANSI)
100
AcDbDimension
  2
*D28
 10
0.7031426640064485
 20
0.5138828693525081
 30
0.0
 11
0.5068242391079746
 21
0.575159711257907
 31
0.0
 70
   164
  1
<>
 42
0.04925
  3
Default (ANSI)
100
AcDbRadialDimension
 15
0.6604909128700625
 25
0.5385078693525039
 35
0.0
 40
0.0
1001
ACAD
1000
DSTYLE
1002
{
1070
   271
1070
     4
1070
   141
1040
0.0
1070
   272
1070
     3
1070
    48
1040
0.0
1070
    47
1040
0.0
1002
}
  0
ENDSEC
  0
SECTION
  2
OBJECTS
  0
DICTIONARY
  5
C
330
0
100
AcDbDictionary
281
     1
  3
ACAD_COLOR
350
30
  3
ACAD_GROUP
350
D
  3
ACAD_LAYOUT
350
2F
  3
ACAD_MATERIAL
350
10
  3
ACAD_MLINESTYLE
350
2C
  3
ACAD_PLOTSETTINGS
350
2E
  3
ACAD_PLOTSTYLENAME
350
E
  3
ACAD_TABLESTYLE
350
31
  3
ACAD_VISUALSTYLE
350
14
  3
AcDbVariableDictionary
350
10A8
  3
DWGPROPS
350
10AE
  0
DICTIONARY
  5
30
102
{ACAD_REACTORS
330
C
102
}
330
C
100
AcDbDictionary
281
     1
  0
DICTIONARY
  5
D
102
{ACAD_REACTORS
330
C
102
}
330
C
100
AcDbDictionary
281
     1
  0
DICTIONARY
  5
2F
102
{ACAD_REACTORS
330
C
102
}
330
C
100
AcDbDictionary
281
     1
  3
Layout1
350
36
  3
Layout2
350
3E
  3
Model
350
3A
  0
DICTIONARY
  5
10
102
{ACAD_REACTORS
330
C
102
}
330
C
100
AcDbDictionary
281
     1
  3
ByBlock
350
12
  3
ByLayer
350
11
  3
Global
350
13
  0
DICTIONARY
  5
2C
102
{ACAD_REACTORS
330
C
102
}
330
C
100
AcDbDictionary
281
     1
  3
Standard
350
2D
  0
DICTIONARY
  5
2E
102
{ACAD_REACTORS
330
C
102
}
330
C
100
AcDbDictionary
281
     1
  0
ACDBDICTIONARYWDFLT
  5
E
102
{ACAD_REACTORS
330
C
102
}
330
C
100
AcDbDictionary
281
     1
  3
Normal
350
F
100
AcDbDictionaryWithDefault
340
F
  0
DICTIONARY
  5
31
102
{ACAD_REACTORS
330
C
102
}
330
C
100
AcDbDictionary
281
     1
  3
Standard
350
32
  0
DICTIONARY
  5
14
102
{ACAD_REACTORS
330
C
102
}
330
C
100
AcDbDictionary
281
     1
  3
2dWireframe
350
1A
  3
3D Hidden
350
1C
  3
3dWireframe
350
1B
  3
Basic
350
19
  3
Brighten
350
20
  3
ColorChange
350
24
  3
Conceptual
350
1D
  3
Dim
350
1F
  3
Facepattern
350
23
  3
Flat
350
15
  3
FlatWithEdges
350
16
  3
Gouraud
350
17
  3
GouraudWithEdges
350
18
  3
Linepattern
350
22
  3
Realistic
350
1E
  3
Thicken
350
21
  0
DICTIONARY
  5
10A8
102
{ACAD_REACTORS
330
C
102
}
330
C
100
AcDbDictionary
281
     1
  3
CTABLESTYLE
350
10A9
  3
DIMASSOC
350
10AD
  3
HIDETEXT
350
10AC
  3
INDEXCTL
350
10AB
  3
SORTENTS
350
10AA
  0
XRECORD
  5
10AE
102
{ACAD_REACTORS
330
C
102
}
330
C
100
AcDbXrecord
280
     1
  1
DWGPROPS COOKIE
  2

  3

  4
D Chow
  6

  7

  8

  9

300
Manager=
301
Company=RADIO ASTRONOMY LABORATORY
302
Category=
303
Part Number=Block1-V61
304
Description=
305
Project=
306
Designer=D Chow
307
Engineer=
308
Authority=
309
Cost Center=
 40
0.0000441319444444
 41
2454846.69453088
 42
2454846.69453088
  1

 90
       17
300
Vendor=
300
User Status=
300
Design Status=WorkInProgress
300
Checked by=
300
Date Checked=01/14/2009
300
Engr Approved by=
300
Mfg Approved by=
  0
LAYOUT
  5
36
102
{ACAD_XDICTIONARY
360
10B7
102
}
102
{ACAD_REACTORS
330
2F
102
}
330
2F
100
AcDbPlotSettings
  1

  2

  4

  6

 40
0.0
 41
0.0
 42
0.0
 43
0.0
 44
0.0
 45
0.0
 46
0.0
 47
0.0
 48
0.0
 49
0.0
140
0.0
141
0.0
142
1.0
143
1.0
 70
   688
 72
     0
 73
     0
 74
     5
  7

 75
    16
147
1.0
148
0.0
149
0.0
100
AcDbLayout
  1
Layout1
 70
     1
 71
     1
 10
0.0
 20
0.0
 11
12.0
 21
9.0
 12
0.0
 22
0.0
 32
0.0
 14
0.0
 24
0.0
 34
0.0
 15
0.0
 25
0.0
 35
0.0
146
0.0
 13
0.0
 23
0.0
 33
0.0
 16
1.0
 26
0.0
 36
0.0
 17
0.0
 27
1.0
 37
0.0
 76
     0
330
33
  0
LAYOUT
  5
3E
102
{ACAD_XDICTIONARY
360
10BB
102
}
102
{ACAD_REACTORS
330
2F
102
}
330
2F
100
AcDbPlotSettings
  1

  2

  4

  6

 40
0.0
 41
0.0
 42
0.0
 43
0.0
 44
0.0
 45
0.0
 46
0.0
 47
0.0
 48
0.0
 49
0.0
140
0.0
141
0.0
142
1.0
143
1.0
 70
   688
 72
     0
 73
     0
 74
     5
  7

 75
    16
147
1.0
148
0.0
149
0.0
100
AcDbLayout
  1
Layout2
 70
     1
 71
     2
 10
0.0
 20
0.0
 11
12.0
 21
9.0
 12
0.0
 22
0.0
 32
0.0
 14
0.0
 24
0.0
 34
0.0
 15
0.0
 25
0.0
 35
0.0
146
0.0
 13
0.0
 23
0.0
 33
0.0
 16
1.0
 26
0.0
 36
0.0
 17
0.0
 27
1.0
 37
0.0
 76
     0
330
3B
  0
LAYOUT
  5
3A
102
{ACAD_XDICTIONARY
360
10B9
102
}
102
{ACAD_REACTORS
330
2F
102
}
330
2F
100
AcDbPlotSettings
  1

  2

  4

  6

 40
0.0
 41
0.0
 42
0.0
 43
0.0
 44
0.0
 45
0.0
 46
0.0
 47
0.0
 48
0.0
 49
0.0
140
0.0
141
0.0
142
1.0
143
1.0
 70
  1712
 72
     0
 73
     0
 74
     0
  7

 75
     0
147
1.0
148
0.0
149
0.0
100
AcDbLayout
  1
Model
 70
     1
 71
     0
 10
0.0
 20
0.0
 11
12.0
 21
9.0
 12
0.0
 22
0.0
 32
0.0
 14
0.0
 24
0.0
 34
0.0
 15
0.0
 25
0.0
 35
0.0
146
0.0
 13
0.0
 23
0.0
 33
0.0
 16
1.0
 26
0.0
 36
0.0
 17
0.0
 27
1.0
 37
0.0
 76
     0
330
37
  0
MATERIAL
  5
12
102
{ACAD_XDICTIONARY
360
10B1
102
}
102
{ACAD_REACTORS
330
10
102
}
330
10
100
AcDbMaterial
  1
ByBlock
  0
MATERIAL
  5
11
102
{ACAD_XDICTIONARY
360
10AF
102
}
102
{ACAD_REACTORS
330
10
102
}
330
10
100
AcDbMaterial
  1
ByLayer
  0
MATERIAL
  5
13
102
{ACAD_XDICTIONARY
360
10B3
102
}
102
{ACAD_REACTORS
330
10
102
}
330
10
100
AcDbMaterial
  1
Global
  0
MLINESTYLE
  5
2D
102
{ACAD_REACTORS
330
2C
102
}
330
2C
100
AcDbMlineStyle
  2
STANDARD
 70
     0
  3

 62
   256
 51
90.0
 52
90.0
 71
     2
 49
0.5
 62
   256
  6
BYLAYER
 49
-0.5
 62
   256
  6
BYLAYER
  0
ACDBPLACEHOLDER
  5
F
102
{ACAD_REACTORS
330
E
102
}
330
E
  0
TABLESTYLE
  5
32
102
{ACAD_XDICTIONARY
360
10B5
102
}
102
{ACAD_REACTORS
330
31
102
}
330
31
100
AcDbTableStyle
  3
Standard
 70
     0
 71
     0
 40
0.06
 41
0.06
280
     0
281
     0
  7
Standard
140
0.18
170
     2
 62
     0
 63
     7
283
     0
274
    -2
284
     1
 64
     0
275
    -2
285
     1
 65
     0
276
    -2
286
     1
 66
     0
277
    -2
287
     1
 67
     0
278
    -2
288
     1
 68
     0
279
    -2
289
     1
 69
     0
  7
Standard
140
0.25
170
     5
 62
     0
 63
     7
283
     0
274
    -2
284
     1
 64
     0
275
    -2
285
     1
 65
     0
276
    -2
286
     1
 66
     0
277
    -2
287
     1
 67
     0
278
    -2
288
     1
 68
     0
279
    -2
289
     1
 69
     0
  7
Standard
140
0.18
170
     5
 62
     0
 63
     7
283
     0
274
    -2
284
     1
 64
     0
275
    -2
285
     1
 65
     0
276
    -2
286
     1
 66
     0
277
    -2
287
     1
 67
     0
278
    -2
288
     1
 68
     0
279
    -2
289
     1
 69
     0
  0
VISUALSTYLE
  5
1A
102
{ACAD_REACTORS
330
14
102
}
330
14
100
AcDbVisualStyle
  2
2dWireframe
 70
     4
 71
     0
 72
     2
 73
     0
 90
        0
 40
-0.6
 41
-30.0
 62
     5
 63
     7
 74
     1
 91
        4
 64
     7
 65
   257
 75
     1
175
     1
 42
1.0
 92
        0
 66
   257
 43
1.0
 76
     1
 77
     6
 78
     2
 67
     7
 79
     5
170
     0
171
     0
290
     0
174
     0
 93
        1
 44
0.0
173
     0
291
     0
 45
0.0
1001
ACAD
1000
AcDbSavedByObjectVersion
1070
     0
  0
VISUALSTYLE
  5
1C
102
{ACAD_REACTORS
330
14
102
}
330
14
100
AcDbVisualStyle
  2
3D Hidden
 70
     6
 71
     1
 72
     2
 73
     2
 90
        0
 40
-0.6
 41
-30.0
 62
     5
 63
     7
 74
     2
 91
        2
 64
     7
 65
   257
 75
     2
175
     1
 42
40.0
 92
        0
 66
   257
 43
1.0
 76
     1
 77
     6
 78
     2
 67
     7
 79
     3
170
     0
171
     0
290
     0
174
     0
 93
        1
 44
0.0
173
     0
291
     0
 45
0.0
1001
ACAD
1000
AcDbSavedByObjectVersion
1070
     0
  0
VISUALSTYLE
  5
1B
102
{ACAD_REACTORS
330
14
102
}
330
14
100
AcDbVisualStyle
  2
3dWireframe
 70
     5
 71
     0
 72
     2
 73
     0
 90
        0
 40
-0.6
 41
-30.0
 62
     5
 63
     7
 74
     1
 91
        4
 64
     7
 65
   257
 75
     1
175
     1
 42
1.0
 92
        0
 66
   257
 43
1.0
 76
     1
 77
     6
 78
     2
 67
     7
 79
     5
170
     0
171
     0
290
     0
174
     0
 93
        1
 44
0.0
173
     0
291
     0
 45
0.0
1001
ACAD
1000
AcDbSavedByObjectVersion
1070
     0
  0
VISUALSTYLE
  5
19
102
{ACAD_REACTORS
330
14
102
}
330
14
100
AcDbVisualStyle
  2
Basic
 70
     7
 71
     1
 72
     0
 73
     1
 90
        0
 40
-0.6
 41
-30.0
 62
     5
 63
     7
 74
     0
 91
        4
 64
     7
 65
   257
 75
     1
175
     1
 42
1.0
 92
        8
 66
     7
 43
1.0
 76
     1
 77
     6
 78
     2
 67
     7
 79
     5
170
     0
171
     0
290
     0
174
     0
 93
        1
 44
0.0
173
     0
291
     1
 45
0.0
1001
ACAD
1000
AcDbSavedByObjectVersion
1070
     0
  0
VISUALSTYLE
  5
20
102
{ACAD_REACTORS
330
14
102
}
330
14
100
AcDbVisualStyle
  2
Brighten
 70
    12
 71
     2
 72
     2
 73
     0
 90
        0
 40
-0.6
 41
-30.0
 62
     5
 63
     7
 74
     1
 91
        4
 64
     7
 65
   257
 75
     1
175
     1
 42
1.0
 92
        8
 66
     7
 43
1.0
 76
     1
 77
     6
 78
     2
 67
     7
 79
     5
170
     0
171
     0
290
     0
174
     0
 93
        1
 44
50.0
173
     0
291
     1
 45
0.0
1001
ACAD
1000
AcDbSavedByObjectVersion
1070
     0
  0
VISUALSTYLE
  5
24
102
{ACAD_REACTORS
330
14
102
}
330
14
100
AcDbVisualStyle
  2
ColorChange
 70
    16
 71
     2
 72
     2
 73
     3
 90
        0
 40
-0.6
 41
-30.0
 62
     5
 63
     8
 74
     1
 91
        4
 64
     7
 65
   257
 75
     1
175
     1
 42
1.0
 92
        8
 66
     8
 43
1.0
 76
     1
 77
     6
 78
     2
 67
     7
 79
     5
170
     0
171
     0
290
     0
174
     0
 93
        1
 44
0.0
173
     0
291
     1
 45
0.0
1001
ACAD
1000
AcDbSavedByObjectVersion
1070
     0
  0
VISUALSTYLE
  5
1D
102
{ACAD_REACTORS
330
14
102
}
330
14
100
AcDbVisualStyle
  2
Conceptual
 70
     9
 71
     3
 72
     2
 73
     0
 90
        0
 40
-0.6
 41
-30.0
 62
     5
 63
     7
 74
     2
 91
        2
 64
     7
 65
   257
 75
     1
175
     1
 42
40.0
 92
        8
 66
     7
 43
1.0
 76
     1
 77
     6
 78
     2
 67
     7
 79
     3
170
     0
171
     0
290
     0
174
     0
 93
        1
 44
0.0
173
     0
291
     0
 45
0.0
1001
ACAD
1000
AcDbSavedByObjectVersion
1070
     0
  0
VISUALSTYLE
  5
1F
102
{ACAD_REACTORS
330
14
102
}
330
14
100
AcDbVisualStyle
  2
Dim
 70
    11
 71
     2
 72
     2
 73
     0
 90
        0
 40
-0.6
 41
-30.0
 62
     5
 63
     7
 74
     1
 91
        4
 64
     7
 65
   257
 75
     1
175
     1
 42
1.0
 92
        8
 66
     7
 43
1.0
 76
     1
 77
     6
 78
     2
 67
     7
 79
     5
170
     0
171
     0
290
     0
174
     0
 93
        1
 44
-50.0
173
     0
291
     1
 45
0.0
1001
ACAD
1000
AcDbSavedByObjectVersion
1070
     0
  0
VISUALSTYLE
  5
23
102
{ACAD_REACTORS
330
14
102
}
330
14
100
AcDbVisualStyle
  2
Facepattern
 70
    15
 71
     2
 72
     2
 73
     0
 90
        0
 40
-0.6
 41
-30.0
 62
     5
 63
     7
 74
     1
 91
        4
 64
     7
 65
   257
 75
     1
175
     1
 42
1.0
 92
        8
 66
     7
 43
1.0
 76
     1
 77
     6
 78
     2
 67
     7
 79
     5
170
     0
171
     0
290
     0
174
     0
 93
        1
 44
0.0
173
     0
291
     1
 45
0.0
1001
ACAD
1000
AcDbSavedByObjectVersion
1070
     0
  0
VISUALSTYLE
  5
15
102
{ACAD_REACTORS
330
14
102
}
330
14
100
AcDbVisualStyle
  2
Flat
 70
     0
 71
     2
 72
     1
 73
     1
 90
        2
 40
-0.6
 41
30.0
 62
     5
 63
     7
 74
     0
 91
        4
 64
     7
 65
   257
 75
     1
175
     1
 42
1.0
 92
        8
 66
     7
 43
1.0
 76
     1
 77
     6
 78
     2
 67
     7
 79
     5
170
     0
171
     0
290
     0
174
     0
 93
       13
 44
0.0
173
     0
291
     1
 45
0.0
1001
ACAD
1000
AcDbSavedByObjectVersion
1070
     0
  0
VISUALSTYLE
  5
16
102
{ACAD_REACTORS
330
14
102
}
330
14
100
AcDbVisualStyle
  2
FlatWithEdges
 70
     1
 71
     2
 72
     1
 73
     1
 90
        2
 40
-0.6
 41
30.0
 62
     5
 63
     7
 74
     1
 91
        4
 64
     7
 65
   257
 75
     1
175
     1
 42
1.0
 92
        0
 66
   257
 43
1.0
 76
     1
 77
     6
 78
     2
 67
     7
 79
     5
170
     0
171
     0
290
     0
174
     0
 93
       13
 44
0.0
173
     0
291
     1
 45
0.0
1001
ACAD
1000
AcDbSavedByObjectVersion
1070
     0
  0
VISUALSTYLE
  5
17
102
{ACAD_REACTORS
330
14
102
}
330
14
100
AcDbVisualStyle
  2
Gouraud
 70
     2
 71
     2
 72
     2
 73
     1
 90
        2
 40
-0.6
 41
30.0
 62
     5
 63
     7
 74
     0
 91
        4
 64
     7
 65
   257
 75
     1
175
     1
 42
1.0
 92
        0
 66
     7
 43
1.0
 76
     1
 77
     6
 78
     2
 67
     7
 79
     5
170
     0
171
     0
290
     0
174
     0
 93
       13
 44
0.0
173
     0
291
     1
 45
0.0
1001
ACAD
1000
AcDbSavedByObjectVersion
1070
     0
  0
VISUALSTYLE
  5
18
102
{ACAD_REACTORS
330
14
102
}
330
14
100
AcDbVisualStyle
  2
GouraudWithEdges
 70
     3
 71
     2
 72
     2
 73
     1
 90
        2
 40
-0.6
 41
30.0
 62
     5
 63
     7
 74
     1
 91
        4
 64
     7
 65
   257
 75
     1
175
     1
 42
1.0
 92
        0
 66
   257
 43
1.0
 76
     1
 77
     6
 78
     2
 67
     7
 79
     5
170
     0
171
     0
290
     0
174
     0
 93
       13
 44
0.0
173
     0
291
     1
 45
0.0
1001
ACAD
1000
AcDbSavedByObjectVersion
1070
     0
  0
VISUALSTYLE
  5
22
102
{ACAD_REACTORS
330
14
102
}
330
14
100
AcDbVisualStyle
  2
Linepattern
 70
    14
 71
     2
 72
     2
 73
     0
 90
        0
 40
-0.6
 41
-30.0
 62
     5
 63
     7
 74
     1
 91
        4
 64
     7
 65
   257
 75
     7
175
     7
 42
1.0
 92
        8
 66
     7
 43
1.0
 76
     1
 77
     6
 78
     2
 67
     7
 79
     5
170
     0
171
     0
290
     0
174
     0
 93
        1
 44
0.0
173
     0
291
     1
 45
0.0
1001
ACAD
1000
AcDbSavedByObjectVersion
1070
     0
  0
VISUALSTYLE
  5
1E
102
{ACAD_REACTORS
330
14
102
}
330
14
100
AcDbVisualStyle
  2
Realistic
 70
     8
 71
     2
 72
     2
 73
     0
 90
        0
 40
-0.6
 41
-30.0
 62
     5
 63
     7
 74
     1
 91
        0
 64
     7
 65
   257
 75
     1
175
     1
 42
1.0
 92
        8
 66
     8
 43
1.0
 76
     1
 77
     6
 78
     2
 67
     7
 79
     5
170
     0
171
     0
290
     0
174
     0
 93
       13
 44
0.0
173
     0
291
     0
 45
0.0
1001
ACAD
1000
AcDbSavedByObjectVersion
1070
     0
  0
VISUALSTYLE
  5
21
102
{ACAD_REACTORS
330
14
102
}
330
14
100
AcDbVisualStyle
  2
Thicken
 70
    13
 71
     2
 72
     2
 73
     0
 90
        0
 40
-0.6
 41
-30.0
 62
     5
 63
     7
 74
     1
 91
        4
 64
     7
 65
   257
 75
     1
175
     1
 42
1.0
 92
       12
 66
     7
 43
1.0
 76
     1
 77
     6
 78
     2
 67
     7
 79
     5
170
     0
171
     0
290
     0
174
     0
 93
        1
 44
0.0
173
     0
291
     1
 45
0.0
1001
ACAD
1000
AcDbSavedByObjectVersion
1070
     0
  0
DICTIONARYVAR
  5
10A9
102
{ACAD_REACTORS
330
10A8
102
}
330
10A8
100
DictionaryVariables
280
     0
  1
STANDARD
  0
DICTIONARYVAR
  5
10AD
102
{ACAD_REACTORS
330
10A8
102
}
330
10A8
100
DictionaryVariables
280
     0
  1
1
  0
DICTIONARYVAR
  5
10AC
102
{ACAD_REACTORS
330
10A8
102
}
330
10A8
100
DictionaryVariables
280
     0
  1
1
  0
DICTIONARYVAR
  5
10AB
102
{ACAD_REACTORS
330
10A8
102
}
330
10A8
100
DictionaryVariables
280
     0
  1
0
  0
DICTIONARYVAR
  5
10AA
102
{ACAD_REACTORS
330
10A8
102
}
330
10A8
100
DictionaryVariables
280
     0
  1
127
  0
DICTIONARY
  5
10B7
330
36
100
AcDbDictionary
280
     1
281
     1
  3
ACAD_XREC_ROUNDTRIP
360
10B8
  0
DICTIONARY
  5
10BB
330
3E
100
AcDbDictionary
280
     1
281
     1
  3
ACAD_XREC_ROUNDTRIP
360
10BC
  0
DICTIONARY
  5
10B9
330
3A
100
AcDbDictionary
280
     1
281
     1
  3
ACAD_XREC_ROUNDTRIP
360
10BA
  0
DICTIONARY
  5
10B1
330
12
100
AcDbDictionary
280
     1
281
     1
  3
ACAD_XREC_ROUNDTRIP
360
10B2
  0
DICTIONARY
  5
10AF
330
11
100
AcDbDictionary
280
     1
281
     1
  3
ACAD_XREC_ROUNDTRIP
360
10B0
  0
DICTIONARY
  5
10B3
330
13
100
AcDbDictionary
280
     1
281
     1
  3
ACAD_XREC_ROUNDTRIP
360
10B4
  0
DICTIONARY
  5
10B5
330
32
100
AcDbDictionary
280
     1
281
     1
  3
ACAD_XREC_ROUNDTRIP
360
10B6
  0
XRECORD
  5
10B8
102
{ACAD_REACTORS
330
10B7
102
}
330
10B7
100
AcDbXrecord
280
     1
102
SHADEPLOT
 70
     0
102
SHADEPLOTRESLEVEL
 70
     2
102
SHADEPLOTCUSTOMDPI
 70
   300
  0
XRECORD
  5
10BC
102
{ACAD_REACTORS
330
10BB
102
}
330
10BB
100
AcDbXrecord
280
     1
102
SHADEPLOT
 70
     0
102
SHADEPLOTRESLEVEL
 70
     2
102
SHADEPLOTCUSTOMDPI
 70
   300
  0
XRECORD
  5
10BA
102
{ACAD_REACTORS
330
10B9
102
}
330
10B9
100
AcDbXrecord
280
     1
102
SHADEPLOT
 70
     0
102
SHADEPLOTRESLEVEL
 70
     2
102
SHADEPLOTCUSTOMDPI
 70
   300
  0
XRECORD
  5
10B2
102
{ACAD_REACTORS
330
10B1
102
}
330
10B1
100
AcDbXrecord
280
     1
102
MATERIAL
148
0.0
149
0.0
149
0.0
 93
        0
 94
       63
282
     0
 72
     1
 77
     1
171
     1
175
     1
179
     1
273
     0
  0
XRECORD
  5
10B0
102
{ACAD_REACTORS
330
10AF
102
}
330
10AF
100
AcDbXrecord
280
     1
102
MATERIAL
148
0.0
149
0.0
149
0.0
 93
        0
 94
       63
282
     0
 72
     1
 77
     1
171
     1
175
     1
179
     1
273
     0
  0
XRECORD
  5
10B4
102
{ACAD_REACTORS
330
10B3
102
}
330
10B3
100
AcDbXrecord
280
     1
102
MATERIAL
148
0.0
149
0.0
149
0.0
 93
        0
 94
       63
282
     0
 72
     1
 77
     1
171
     1
175
     1
179
     1
273
     0
  0
XRECORD
  5
10B6
102
{ACAD_REACTORS
330
10B5
102
}
330
10B5
100
AcDbXrecord
280
     1
102
ACAD_ROUNDTRIP_PRE2007_TABLESTYLE
 90
      512
 91
        0
  1

 92
      512
 93
        0
  2

 94
      512
 95
        0
  3

  0
ENDSEC
  0
EOF
