  0
SECTION
  2
HEADER
  9
$ACADVER
  1
AC1015
  9
$ACADMAINTVER
 70
    18
  9
$DWGCODEPAGE
  3
ANSI_1252
  9
$INSBASE
 10
0.0
 20
0.0
 30
0.0
  9
$EXTMIN
 10
0.0
 20
0.0
 30
0.0
  9
$EXTMAX
 10
2.75
 20
2.125
 30
0.0
  9
$LIMMIN
 10
0.0
 20
0.0
  9
$LIMMAX
 10
2.75
 20
2.125
  9
$ORTHOMODE
 70
     0
  9
$REGENMODE
 70
     1
  9
$FILLMODE
 70
     1
  9
$QTEXTMODE
 70
     0
  9
$MIRRTEXT
 70
     0
  9
$LTSCALE
 40
0.25
  9
$ATTMODE
 70
     1
  9
$TEXTSIZE
 40
0.2
  9
$TRACEWID
 40
0.05
  9
$TEXTSTYLE
  7
Standard
  9
$CLAYER
  8
0
  9
$CELTYPE
  6
ByLayer
  9
$CECOLOR
 62
   256
  9
$CELTSCALE
 40
1.0
  9
$DISPSILH
 70
     0
  9
$DIMSCALE
 40
1.0
  9
$DIMASZ
 40
0.0708661417322835
  9
$DIMEXO
 40
0.0625
  9
$DIMDLI
 40
0.38
  9
$DIMRND
 40
0.0
  9
$DIMDLE
 40
0.0
  9
$DIMEXE
 40
0.18
  9
$DIMTP
 40
0.0
  9
$DIMTM
 40
0.0
  9
$DIMTXT
 40
0.3048000037670135
  9
$DIMCEN
 40
0.09
  9
$DIMTSZ
 40
0.0
  9
$DIMTOL
 70
     0
  9
$DIMLIM
 70
     0
  9
$DIMTIH
 70
     1
  9
$DIMTOH
 70
     1
  9
$DIMSE1
 70
     0
  9
$DIMSE2
 70
     0
  9
$DIMTAD
 70
     0
  9
$DIMZIN
 70
     0
  9
$DIMBLK
  1

  9
$DIMASO
 70
     1
  9
$DIMSHO
 70
     1
  9
$DIMPOST
  1

  9
$DIMAPOST
  1

  9
$DIMALT
 70
     0
  9
$DIMALTD
 70
     2
  9
$DIMALTF
 40
25.4
  9
$DIMLFAC
 40
1.0
  9
$DIMTOFL
 70
     0
  9
$DIMTVP
 40
0.0
  9
$DIMTIX
 70
     0
  9
$DIMSOXD
 70
     0
  9
$DIMSAH
 70
     0
  9
$DIMBLK1
  1

  9
$DIMBLK2
  1

  9
$DIMSTYLE
  2
Standard
  9
$DIMCLRD
 70
     0
  9
$DIMCLRE
 70
     0
  9
$DIMCLRT
 70
     0
  9
$DIMTFAC
 40
1.0
  9
$DIMGAP
 40
0.09
  9
$DIMJUST
 70
     0
  9
$DIMSD1
 70
     0
  9
$DIMSD2
 70
     0
  9
$DIMTOLJ
 70
     1
  9
$DIMTZIN
 70
     0
  9
$DIMALTZ
 70
     0
  9
$DIMALTTZ
 70
     0
  9
$DIMUPT
 70
     0
  9
$DIMDEC
 70
     4
  9
$DIMTDEC
 70
     4
  9
$DIMALTU
 70
     2
  9
$DIMALTTD
 70
     2
  9
$DIMTXSTY
  7
Standard
  9
$DIMAUNIT
 70
     0
  9
$DIMADEC
 70
     0
  9
$DIMALTRND
 40
0.0
  9
$DIMAZIN
 70
     0
  9
$DIMDSEP
 70
    46
  9
$DIMATFIT
 70
     3
  9
$DIMFRAC
 70
     0
  9
$DIMLDRBLK
  1

  9
$DIMLUNIT
 70
     2
  9
$DIMLWD
 70
    -2
  9
$DIMLWE
 70
    -2
  9
$DIMTMOVE
 70
     0
  9
$LUNITS
 70
     2
  9
$LUPREC
 70
     4
  9
$SKETCHINC
 40
0.1
  9
$FILLETRAD
 40
0.0
  9
$AUNITS
 70
     0
  9
$AUPREC
 70
     0
  9
$MENU
  1
.
  9
$ELEVATION
 40
0.0
  9
$PELEVATION
 40
0.0
  9
$THICKNESS
 40
0.0
  9
$LIMCHECK
 70
     0
  9
$CHAMFERA
 40
0.0
  9
$CHAMFERB
 40
0.0
  9
$CHAMFERC
 40
0.0
  9
$CHAMFERD
 40
0.0
  9
$SKPOLY
 70
     0
  9
$TDCREATE
 40
2454846.692638704
  9
$TDUCREATE
 40
2454847.025972037
  9
$TDUPDATE
 40
2454846.692638704
  9
$TDUUPDATE
 40
2454847.025972037
  9
$TDINDWG
 40
0.0000332755
  9
$TDUSRTIMER
 40
0.0000332755
  9
$USRTIMER
 70
     1
  9
$ANGBASE
 50
0.0
  9
$ANGDIR
 70
     0
  9
$PDMODE
 70
     0
  9
$PDSIZE
 40
0.0
  9
$PLINEWID
 40
0.0
  9
$SPLFRAME
 70
     0
  9
$SPLINETYPE
 70
     6
  9
$SPLINESEGS
 70
     8
  9
$HANDSEED
  5
5E8
  9
$SURFTAB1
 70
     6
  9
$SURFTAB2
 70
     6
  9
$SURFTYPE
 70
     6
  9
$SURFU
 70
     6
  9
$SURFV
 70
     6
  9
$UCSBASE
  2

  9
$UCSNAME
  2

  9
$UCSORG
 10
0.0
 20
0.0
 30
0.0
  9
$UCSXDIR
 10
1.0
 20
0.0
 30
0.0
  9
$UCSYDIR
 10
0.0
 20
1.0
 30
0.0
  9
$UCSORTHOREF
  2

  9
$UCSORTHOVIEW
 70
     0
  9
$UCSORGTOP
 10
0.0
 20
0.0
 30
0.0
  9
$UCSORGBOTTOM
 10
0.0
 20
0.0
 30
0.0
  9
$UCSORGLEFT
 10
0.0
 20
0.0
 30
0.0
  9
$UCSORGRIGHT
 10
0.0
 20
0.0
 30
0.0
  9
$UCSORGFRONT
 10
0.0
 20
0.0
 30
0.0
  9
$UCSORGBACK
 10
0.0
 20
0.0
 30
0.0
  9
$PUCSBASE
  2

  9
$PUCSNAME
  2

  9
$PUCSORG
 10
0.0
 20
0.0
 30
0.0
  9
$PUCSXDIR
 10
1.0
 20
0.0
 30
0.0
  9
$PUCSYDIR
 10
0.0
 20
1.0
 30
0.0
  9
$PUCSORTHOREF
  2

  9
$PUCSORTHOVIEW
 70
     0
  9
$PUCSORGTOP
 10
0.0
 20
0.0
 30
0.0
  9
$PUCSORGBOTTOM
 10
0.0
 20
0.0
 30
0.0
  9
$PUCSORGLEFT
 10
0.0
 20
0.0
 30
0.0
  9
$PUCSORGRIGHT
 10
0.0
 20
0.0
 30
0.0
  9
$PUCSORGFRONT
 10
0.0
 20
0.0
 30
0.0
  9
$PUCSORGBACK
 10
0.0
 20
0.0
 30
0.0
  9
$USERI1
 70
     0
  9
$USERI2
 70
     0
  9
$USERI3
 70
     0
  9
$USERI4
 70
     0
  9
$USERI5
 70
     0
  9
$USERR1
 40
0.0
  9
$USERR2
 40
0.0
  9
$USERR3
 40
0.0
  9
$USERR4
 40
0.0
  9
$USERR5
 40
0.0
  9
$WORLDVIEW
 70
     1
  9
$SHADEDGE
 70
     3
  9
$SHADEDIF
 70
    70
  9
$TILEMODE
 70
     1
  9
$MAXACTVP
 70
    64
  9
$PINSBASE
 10
0.0
 20
0.0
 30
0.0
  9
$PLIMCHECK
 70
     0
  9
$PEXTMIN
 10
0.0
 20
0.0
 30
0.0
  9
$PEXTMAX
 10
2.75
 20
2.125
 30
0.0
  9
$PLIMMIN
 10
0.0
 20
0.0
  9
$PLIMMAX
 10
2.75
 20
2.125
  9
$UNITMODE
 70
     0
  9
$VISRETAIN
 70
     1
  9
$PLINEGEN
 70
     0
  9
$PSLTSCALE
 70
     1
  9
$TREEDEPTH
 70
  3020
  9
$CMLSTYLE
  2
Standard
  9
$CMLJUST
 70
     0
  9
$CMLSCALE
 40
1.0
  9
$PROXYGRAPHICS
 70
     1
  9
$MEASUREMENT
 70
     0
  9
$CELWEIGHT
370
    -1
  9
$ENDCAPS
280
     0
  9
$JOINSTYLE
280
     0
  9
$LWDISPLAY
290
     0
  9
$INSUNITS
 70
     0
  9
$HYPERLINKBASE
  1

  9
$STYLESHEET
  1

  9
$XEDIT
290
     1
  9
$CEPSNTYPE
380
     0
  9
$PSTYLEMODE
290
     1
  9
$FINGERPRINTGUID
  2
{79D2F174-073E-446C-BE9B-1A0C65B81393}
  9
$VERSIONGUID
  2
{32C42F9A-24D2-4B07-9050-2A01641EA8F5}
  9
$EXTNAMES
290
     1
  9
$PSVPSCALE
 40
0.0
  9
$OLESTARTUP
290
     0
  0
ENDSEC
  0
SECTION
  2
CLASSES
  0
CLASS
  1
ACDBDICTIONARYWDFLT
  2
AcDbDictionaryWithDefault
  3
ObjectDBX Classes
 90
        0
280
     0
281
     0
  0
CLASS
  1
MATERIAL
  2
AcDbMaterial
  3
ObjectDBX Classes
 90
     1024
280
     0
281
     0
  0
CLASS
  1
VISUALSTYLE
  2
AcDbVisualStyle
  3
ObjectDBX Classes
 90
     4095
280
     0
281
     0
  0
CLASS
  1
TABLESTYLE
  2
AcDbTableStyle
  3
ObjectDBX Classes
 90
     4095
280
     0
281
     0
  0
CLASS
  1
DICTIONARYVAR
  2
AcDbDictionaryVar
  3
ObjectDBX Classes
 90
        0
280
     0
281
     0
  0
CLASS
  1
ACDBPLACEHOLDER
  2
AcDbPlaceHolder
  3
ObjectDBX Classes
 90
        0
280
     0
281
     0
  0
CLASS
  1
LAYOUT
  2
AcDbLayout
  3
ObjectDBX Classes
 90
        0
280
     0
281
     0
  0
ENDSEC
  0
SECTION
  2
TABLES
  0
TABLE
  2
VPORT
  5
8
330
0
100
AcDbSymbolTable
 70
     1
  0
VPORT
  5
28
330
8
100
AcDbSymbolTableRecord
100
AcDbViewportTableRecord
  2
*Active
 70
     0
 10
0.0
 20
0.0
 11
1.0
 21
1.0
 12
1.375
 22
1.0625
 13
0.0
 23
0.0
 14
1.0
 24
1.0
 15
0.0
 25
0.0
 16
0.0
 26
0.0
 36
1.0
 17
0.0
 27
0.0
 37
0.0
 40
2.125
 41
1.294117647058823
 42
50.0
 43
0.0
 44
0.0
 50
0.0
 51
0.0
 71
     0
 72
   100
 73
     1
 74
     1
 75
     0
 76
     0
 77
     0
 78
     0
281
     0
 65
     1
110
0.0
120
0.0
130
0.0
111
1.0
121
0.0
131
0.0
112
0.0
122
1.0
132
0.0
 79
     0
146
0.0
  0
ENDTAB
  0
TABLE
  2
LTYPE
  5
5
330
0
100
AcDbSymbolTable
 70
    59
  0
LTYPE
  5
29
330
5
100
AcDbSymbolTableRecord
100
AcDbLinetypeTableRecord
  2
ByBlock
 70
     0
  3

 72
    65
 73
     0
 40
0.0
  0
LTYPE
  5
2A
330
5
100
AcDbSymbolTableRecord
100
AcDbLinetypeTableRecord
  2
ByLayer
 70
     0
  3

 72
    65
 73
     0
 40
0.0
  0
LTYPE
  5
2B
330
5
100
AcDbSymbolTableRecord
100
AcDbLinetypeTableRecord
  2
Continuous
 70
     0
  3
Solid line
 72
    65
 73
     0
 40
0.0
  0
LTYPE
  5
40
330
5
100
AcDbSymbolTableRecord
100
AcDbLinetypeTableRecord
  2
BY_STANDARD
 70
     0
  3
By Standard ____________    ____    ____   _
 72
    65
 73
     6
 40
1.240299999999999
 49
0.6614
 74
     0
 49
-0.0827
 74
     0
 49
0.1654
 74
     0
 49
-0.0827
 74
     0
 49
0.1654
 74
     0
 49
-0.0827
 74
     0
  0
LTYPE
  5
41
330
5
100
AcDbSymbolTableRecord
100
AcDbLinetypeTableRecord
  2
CHAIN
 70
     0
  3
Chain ____ _ ____ _ ____ _ ____ _ ____ _ ____
 72
    65
 73
     4
 40
0.7087
 49
0.4724000000000001
 74
     0
 49
-0.0591
 74
     0
 49
0.1181
 74
     0
 49
-0.0591
 74
     0
  0
LTYPE
  5
42
330
5
100
AcDbSymbolTableRecord
100
AcDbLinetypeTableRecord
  2
DASH_DOT
 70
     0
  3
Dash dot __ . __ . __ . __ . __ . __ . __ . __
 72
    65
 73
     4
 40
0.37
 49
0.24
 74
     0
 49
-0.06
 74
     0
 49
0.01
 74
     0
 49
-0.06
 74
     0
  0
LTYPE
  5
43
330
5
100
AcDbSymbolTableRecord
100
AcDbLinetypeTableRecord
  2
DOUBLE_DASH_DOT
 70
     0
  3
Double-Dash Dot __ __ . __ __ . __ __ . __ _
 72
    65
 73
     6
 40
0.4398
 49
0.24
 74
     0
 49
-0.06
 74
     0
 49
0.0098
 74
     0
 49
-0.06
 74
     0
 49
0.01
 74
     0
 49
-0.06
 74
     0
  0
LTYPE
  5
44
330
5
100
AcDbSymbolTableRecord
100
AcDbLinetypeTableRecord
  2
DASH_TRIPLE_DOT
 70
     0
  3
Dash Triple-Dot _ . . . _ . . . _ . . . _
 72
    65
 73
     8
 40
0.51
 49
0.24
 74
     0
 49
-0.06
 74
     0
 49
0.01
 74
     0
 49
-0.06
 74
     0
 49
0.01
 74
     0
 49
-0.06
 74
     0
 49
0.01
 74
     0
 49
-0.06
 74
     0
  0
LTYPE
  5
45
330
5
100
AcDbSymbolTableRecord
100
AcDbLinetypeTableRecord
  2
DASHED
 70
     0
  3
Dashed __ __ __ __ __ __ __ __ __ __ __ __ __ _
 72
    65
 73
     2
 40
0.2067
 49
0.1654
 74
     0
 49
-0.0413
 74
     0
  0
LTYPE
  5
46
330
5
100
AcDbSymbolTableRecord
100
AcDbLinetypeTableRecord
  2
DASH_DOUBLE_DOT
 70
     0
  3
Dash Double-Dot __ . . __ . . __ . . __ . .
 72
    65
 73
     6
 40
0.4398
 49
0.24
 74
     0
 49
-0.06
 74
     0
 49
0.0098
 74
     0
 49
-0.06
 74
     0
 49
0.01
 74
     0
 49
-0.06
 74
     0
  0
LTYPE
  5
47
330
5
100
AcDbSymbolTableRecord
100
AcDbLinetypeTableRecord
  2
DASHED_SPACE
 70
     0
  3
Dashed Space __ __ __ __ __ __ __ __ __ __ __ _
 72
    65
 73
     2
 40
0.2067
 49
0.1654
 74
     0
 49
-0.0413
 74
     0
  0
LTYPE
  5
48
330
5
100
AcDbSymbolTableRecord
100
AcDbLinetypeTableRecord
  2
DOTTED
 70
     0
  3
Dotted . . . . . . . . . . . . . . . . . . . . 
 72
    65
 73
     2
 40
0.0482
 49
0.0069
 74
     0
 49
-0.0413
 74
     0
  0
LTYPE
  5
49
330
5
100
AcDbSymbolTableRecord
100
AcDbLinetypeTableRecord
  2
DOUBLE_DASH_CHAIN
 70
     0
  3
Double-Dash Chain ______  __  __  ______  __  _
 72
    65
 73
     6
 40
1.240299999999999
 49
0.6614
 74
     0
 49
-0.0827
 74
     0
 49
0.1654
 74
     0
 49
-0.0827
 74
     0
 49
0.1654
 74
     0
 49
-0.0827
 74
     0
  0
LTYPE
  5
4B
330
5
100
AcDbSymbolTableRecord
100
AcDbLinetypeTableRecord
  2
DOUBLE_DASH_DOUBLE_DOT
 70
     0
  3
Double-Dash Double-dot _ _ . . _ _ . . _
 72
    65
 73
     8
 40
0.7400000000000001
 49
0.24
 74
     0
 49
-0.06
 74
     0
 49
0.24
 74
     0
 49
-0.06
 74
     0
 49
0.01
 74
     0
 49
-0.06
 74
     0
 49
0.01
 74
     0
 49
-0.06
 74
     0
  0
LTYPE
  5
4C
330
5
100
AcDbSymbolTableRecord
100
AcDbLinetypeTableRecord
  2
DOUBLE_DASH_TRIPLE_DOT
 70
     0
  3
Double Dash Triple Dot __ __ . . . __ __ . .
 72
    65
 73
    10
 40
0.8100000000000001
 49
0.24
 74
     0
 49
-0.06
 74
     0
 49
0.24
 74
     0
 49
-0.06
 74
     0
 49
0.01
 74
     0
 49
-0.06
 74
     0
 49
0.01
 74
     0
 49
-0.06
 74
     0
 49
0.01
 74
     0
 49
-0.06
 74
     0
  0
LTYPE
  5
4D
330
5
100
AcDbSymbolTableRecord
100
AcDbLinetypeTableRecord
  2
LONG_DASH_DOTTED
 70
     0
  3
Long Dash Dotted ____ . ____ . ____ . ____ . _
 72
    65
 73
     4
 40
0.3543
 49
0.2362
 74
     0
 49
-0.0295
 74
     0
 49
0.0591
 74
     0
 49
-0.0295
 74
     0
  0
LTYPE
  5
4E
330
5
100
AcDbSymbolTableRecord
100
AcDbLinetypeTableRecord
  2
LONG_DASH_DOUBLE_DOT
 70
     0
  3
Long Dash Double Dot ________  .  .  ________  
 72
    65
 73
     6
 40
0.6799999999999999
 49
0.48
 74
     0
 49
-0.06
 74
     0
 49
0.01
 74
     0
 49
-0.06
 74
     0
 49
0.01
 74
     0
 49
-0.06
 74
     0
  0
LTYPE
  5
4F
330
5
100
AcDbSymbolTableRecord
100
AcDbLinetypeTableRecord
  2
LONG_DASH_TRIPLE_DOT
 70
     0
  3
Long Dash Triple Dot ____ ... ____ ... ____
 72
    65
 73
     8
 40
0.3689
 49
0.2362
 74
     0
 49
-0.0295
 74
     0
 49
0.0049
 74
     0
 49
-0.0295
 74
     0
 49
0.0049
 74
     0
 49
-0.0295
 74
     0
 49
0.0049
 74
     0
 49
-0.0295
 74
     0
  0
LTYPE
  5
50
330
5
100
AcDbSymbolTableRecord
100
AcDbLinetypeTableRecord
  2
BORDER
 70
     0
  3
Border __ __ . __ __ . __ __ . __ __ . __ __ .
 72
    65
 73
     6
 40
1.75
 49
0.5
 74
     0
 49
-0.25
 74
     0
 49
0.5
 74
     0
 49
-0.25
 74
     0
 49
0.0
 74
     0
 49
-0.25
 74
     0
  0
LTYPE
  5
51
330
5
100
AcDbSymbolTableRecord
100
AcDbLinetypeTableRecord
  2
BORDER2
 70
     0
  3
Border (.5x) __.__.__.__.__.__.__.__.__.__.__.
 72
    65
 73
     6
 40
0.875
 49
0.25
 74
     0
 49
-0.125
 74
     0
 49
0.25
 74
     0
 49
-0.125
 74
     0
 49
0.0
 74
     0
 49
-0.125
 74
     0
  0
LTYPE
  5
52
330
5
100
AcDbSymbolTableRecord
100
AcDbLinetypeTableRecord
  2
BORDERX2
 70
     0
  3
Border (2x) ____  ____  .  ____  ____  .  ___
 72
    65
 73
     6
 40
3.5
 49
1.0
 74
     0
 49
-0.5
 74
     0
 49
1.0
 74
     0
 49
-0.5
 74
     0
 49
0.0
 74
     0
 49
-0.5
 74
     0
  0
LTYPE
  5
53
330
5
100
AcDbSymbolTableRecord
100
AcDbLinetypeTableRecord
  2
CENTER
 70
     0
  3
Center ____ _ ____ _ ____ _ ____ _ ____ _ ____
 72
    65
 73
     4
 40
2.0
 49
1.25
 74
     0
 49
-0.25
 74
     0
 49
0.25
 74
     0
 49
-0.25
 74
     0
  0
LTYPE
  5
54
330
5
100
AcDbSymbolTableRecord
100
AcDbLinetypeTableRecord
  2
CENTER2
 70
     0
  3
Center (.5x) ___ _ ___ _ ___ _ ___ _ ___ _ ___
 72
    65
 73
     4
 40
1.125
 49
0.75
 74
     0
 49
-0.125
 74
     0
 49
0.125
 74
     0
 49
-0.125
 74
     0
  0
LTYPE
  5
55
330
5
100
AcDbSymbolTableRecord
100
AcDbLinetypeTableRecord
  2
CENTERX2
 70
     0
  3
Center (2x) ________  __  ________  __  _____
 72
    65
 73
     4
 40
4.0
 49
2.5
 74
     0
 49
-0.5
 74
     0
 49
0.5
 74
     0
 49
-0.5
 74
     0
  0
LTYPE
  5
56
330
5
100
AcDbSymbolTableRecord
100
AcDbLinetypeTableRecord
  2
DASHDOT2
 70
     0
  3
Dash dot (.5x) _._._._._._._._._._._._._._._.
 72
    65
 73
     4
 40
0.5
 49
0.25
 74
     0
 49
-0.125
 74
     0
 49
0.0
 74
     0
 49
-0.125
 74
     0
  0
LTYPE
  5
57
330
5
100
AcDbSymbolTableRecord
100
AcDbLinetypeTableRecord
  2
DASHDOTX2
 70
     0
  3
Dash dot (2x) ____  .  ____  .  ____  .  ___
 72
    65
 73
     4
 40
2.0
 49
1.0
 74
     0
 49
-0.5
 74
     0
 49
0.0
 74
     0
 49
-0.5
 74
     0
  0
LTYPE
  5
59
330
5
100
AcDbSymbolTableRecord
100
AcDbLinetypeTableRecord
  2
DASHED2
 70
     0
  3
Dashed (.5x) _ _ _ _ _ _ _ _ _ _ _ _ _ _ _ _ _
 72
    65
 73
     2
 40
0.375
 49
0.25
 74
     0
 49
-0.125
 74
     0
  0
LTYPE
  5
5A
330
5
100
AcDbSymbolTableRecord
100
AcDbLinetypeTableRecord
  2
DASHEDX2
 70
     0
  3
Dashed (2x) ____  ____  ____  ____  ____  ___
 72
    65
 73
     2
 40
1.5
 49
1.0
 74
     0
 49
-0.5
 74
     0
  0
LTYPE
  5
5B
330
5
100
AcDbSymbolTableRecord
100
AcDbLinetypeTableRecord
  2
DIVIDE
 70
     0
  3
Divide ____ . . ____ . . ____ . . ____ . . ____
 72
    65
 73
     6
 40
1.25
 49
0.5
 74
     0
 49
-0.25
 74
     0
 49
0.0
 74
     0
 49
-0.25
 74
     0
 49
0.0
 74
     0
 49
-0.25
 74
     0
  0
LTYPE
  5
5C
330
5
100
AcDbSymbolTableRecord
100
AcDbLinetypeTableRecord
  2
DIVIDE2
 70
     0
  3
Divide (.5x) __..__..__..__..__..__..__..__.._
 72
    65
 73
     6
 40
0.625
 49
0.25
 74
     0
 49
-0.125
 74
     0
 49
0.0
 74
     0
 49
-0.125
 74
     0
 49
0.0
 74
     0
 49
-0.125
 74
     0
  0
LTYPE
  5
5D
330
5
100
AcDbSymbolTableRecord
100
AcDbLinetypeTableRecord
  2
DIVIDEX2
 70
     0
  3
Divide (2x) ________  .  .  ________  .  .  _
 72
    65
 73
     6
 40
2.5
 49
1.0
 74
     0
 49
-0.5
 74
     0
 49
0.0
 74
     0
 49
-0.5
 74
     0
 49
0.0
 74
     0
 49
-0.5
 74
     0
  0
LTYPE
  5
5E
330
5
100
AcDbSymbolTableRecord
100
AcDbLinetypeTableRecord
  2
DOT
 70
     0
  3
Dot . . . . . . . . . . . . . . . . . . . . . .
 72
    65
 73
     2
 40
0.25
 49
0.0
 74
     0
 49
-0.25
 74
     0
  0
LTYPE
  5
5F
330
5
100
AcDbSymbolTableRecord
100
AcDbLinetypeTableRecord
  2
DOT2
 70
     0
  3
Dot (.5x) .....................................
 72
    65
 73
     2
 40
0.125
 49
0.0
 74
     0
 49
-0.125
 74
     0
  0
LTYPE
  5
60
330
5
100
AcDbSymbolTableRecord
100
AcDbLinetypeTableRecord
  2
DOTX2
 70
     0
  3
Dot (2x) .  .  .  .  .  .  .  .  .  .  .  .  . 
 72
    65
 73
     2
 40
0.5
 49
0.0
 74
     0
 49
-0.5
 74
     0
  0
LTYPE
  5
61
330
5
100
AcDbSymbolTableRecord
100
AcDbLinetypeTableRecord
  2
HIDDEN
 70
     0
  3
Hidden __ __ __ __ __ __ __ __ __ __ __ __ __ _
 72
    65
 73
     2
 40
0.375
 49
0.25
 74
     0
 49
-0.125
 74
     0
  0
LTYPE
  5
62
330
5
100
AcDbSymbolTableRecord
100
AcDbLinetypeTableRecord
  2
HIDDEN2
 70
     0
  3
Hidden (.5x) _ _ _ _ _ _ _ _ _ _ _ _ _ _ _ _ _
 72
    65
 73
     2
 40
0.1875
 49
0.125
 74
     0
 49
-0.0625
 74
     0
  0
LTYPE
  5
63
330
5
100
AcDbSymbolTableRecord
100
AcDbLinetypeTableRecord
  2
HIDDENX2
 70
     0
  3
Hidden (2x) ____ ____ ____ ____ ____ ____ ____
 72
    65
 73
     2
 40
0.75
 49
0.5
 74
     0
 49
-0.25
 74
     0
  0
LTYPE
  5
64
330
5
100
AcDbSymbolTableRecord
100
AcDbLinetypeTableRecord
  2
PHANTOM
 70
     0
  3
Phantom ______  __  __  ______  __  __  ______
 72
    65
 73
     6
 40
2.5
 49
1.25
 74
     0
 49
-0.25
 74
     0
 49
0.25
 74
     0
 49
-0.25
 74
     0
 49
0.25
 74
     0
 49
-0.25
 74
     0
  0
LTYPE
  5
65
330
5
100
AcDbSymbolTableRecord
100
AcDbLinetypeTableRecord
  2
PHANTOM2
 70
     0
  3
Phantom (.5x) ___ _ _ ___ _ _ ___ _ _ ___ _ _
 72
    65
 73
     6
 40
1.25
 49
0.625
 74
     0
 49
-0.125
 74
     0
 49
0.125
 74
     0
 49
-0.125
 74
     0
 49
0.125
 74
     0
 49
-0.125
 74
     0
  0
LTYPE
  5
66
330
5
100
AcDbSymbolTableRecord
100
AcDbLinetypeTableRecord
  2
PHANTOMX2
 70
     0
  3
Phantom (2x) ____________    ____    ____   _
 72
    65
 73
     6
 40
5.0
 49
2.5
 74
     0
 49
-0.5
 74
     0
 49
0.5
 74
     0
 49
-0.5
 74
     0
 49
0.5
 74
     0
 49
-0.5
 74
     0
  0
LTYPE
  5
67
330
5
100
AcDbSymbolTableRecord
100
AcDbLinetypeTableRecord
  2
ACAD_ISO02W100
 70
     0
  3
ISO dash __ __ __ __ __ __ __ __ __ __ __ __ __
 72
    65
 73
     2
 40
0.59
 49
0.47
 74
     0
 49
-0.12
 74
     0
  0
LTYPE
  5
68
330
5
100
AcDbSymbolTableRecord
100
AcDbLinetypeTableRecord
  2
ACAD_ISO03W100
 70
     0
  3
ISO dash space __    __    __    __    __    __
 72
    65
 73
     2
 40
1.179999999999999
 49
0.47
 74
     0
 49
-0.71
 74
     0
  0
LTYPE
  5
69
330
5
100
AcDbSymbolTableRecord
100
AcDbLinetypeTableRecord
  2
ACAD_ISO04W100
 70
     0
  3
ISO long-dash dot ____ . ____ . ____ . ____ . _
 72
    65
 73
     4
 40
1.179999999999999
 49
0.9399999999999998
 74
     0
 49
-0.12
 74
     0
 49
0.0
 74
     0
 49
-0.12
 74
     0
  0
LTYPE
  5
6A
330
5
100
AcDbSymbolTableRecord
100
AcDbLinetypeTableRecord
  2
ACAD_ISO05W100
 70
     0
  3
ISO long-dash double-dot ____ .. ____ .. ____ .
 72
    65
 73
     6
 40
1.299999999999999
 49
0.9399999999999998
 74
     0
 49
-0.12
 74
     0
 49
0.0
 74
     0
 49
-0.12
 74
     0
 49
0.0
 74
     0
 49
-0.12
 74
     0
  0
LTYPE
  5
6B
330
5
100
AcDbSymbolTableRecord
100
AcDbLinetypeTableRecord
  2
ACAD_ISO06W100
 70
     0
  3
ISO long-dash triple-dot ____ ... ____ ... ____
 72
    65
 73
     8
 40
1.419999999999999
 49
0.9399999999999998
 74
     0
 49
-0.12
 74
     0
 49
0.0
 74
     0
 49
-0.12
 74
     0
 49
0.0
 74
     0
 49
-0.12
 74
     0
 49
0.0
 74
     0
 49
-0.12
 74
     0
  0
LTYPE
  5
6C
330
5
100
AcDbSymbolTableRecord
100
AcDbLinetypeTableRecord
  2
ACAD_ISO07W100
 70
     0
  3
ISO dot . . . . . . . . . . . . . . . . . . . .
 72
    65
 73
     2
 40
0.12
 49
0.0
 74
     0
 49
-0.12
 74
     0
  0
LTYPE
  5
6D
330
5
100
AcDbSymbolTableRecord
100
AcDbLinetypeTableRecord
  2
ACAD_ISO08W100
 70
     0
  3
ISO long-dash short-dash ____ __ ____ __ ____ _
 72
    65
 73
     4
 40
0.95
 49
0.47
 74
     0
 49
-0.12
 74
     0
 49
0.24
 74
     0
 49
-0.12
 74
     0
  0
LTYPE
  5
6E
330
5
100
AcDbSymbolTableRecord
100
AcDbLinetypeTableRecord
  2
ACAD_ISO09W100
 70
     0
  3
ISO long-dash double-short-dash ____ __ __ ____
 72
    65
 73
     6
 40
1.31
 49
0.47
 74
     0
 49
-0.12
 74
     0
 49
0.24
 74
     0
 49
-0.12
 74
     0
 49
0.24
 74
     0
 49
-0.12
 74
     0
  0
LTYPE
  5
6F
330
5
100
AcDbSymbolTableRecord
100
AcDbLinetypeTableRecord
  2
ACAD_ISO10W100
 70
     0
  3
ISO dash dot __ . __ . __ . __ . __ . __ . __ .
 72
    65
 73
     4
 40
0.71
 49
0.47
 74
     0
 49
-0.12
 74
     0
 49
0.0
 74
     0
 49
-0.12
 74
     0
  0
LTYPE
  5
70
330
5
100
AcDbSymbolTableRecord
100
AcDbLinetypeTableRecord
  2
ACAD_ISO11W100
 70
     0
  3
ISO double-dash dot __ __ . __ __ . __ __ . __ 
 72
    65
 73
     6
 40
1.299999999999999
 49
0.47
 74
     0
 49
-0.12
 74
     0
 49
0.47
 74
     0
 49
-0.12
 74
     0
 49
0.0
 74
     0
 49
-0.12
 74
     0
  0
LTYPE
  5
71
330
5
100
AcDbSymbolTableRecord
100
AcDbLinetypeTableRecord
  2
ACAD_ISO12W100
 70
     0
  3
ISO dash double-dot __ . . __ . . __ . . __ . .
 72
    65
 73
     6
 40
0.8299999999999998
 49
0.47
 74
     0
 49
-0.12
 74
     0
 49
0.0
 74
     0
 49
-0.12
 74
     0
 49
0.0
 74
     0
 49
-0.12
 74
     0
  0
LTYPE
  5
72
330
5
100
AcDbSymbolTableRecord
100
AcDbLinetypeTableRecord
  2
ACAD_ISO13W100
 70
     0
  3
ISO double-dash double-dot __ __ . . __ __ . . 
 72
    65
 73
     8
 40
1.419999999999999
 49
0.47
 74
     0
 49
-0.12
 74
     0
 49
0.47
 74
     0
 49
-0.12
 74
     0
 49
0.0
 74
     0
 49
-0.12
 74
     0
 49
0.0
 74
     0
 49
-0.12
 74
     0
  0
LTYPE
  5
73
330
5
100
AcDbSymbolTableRecord
100
AcDbLinetypeTableRecord
  2
ACAD_ISO14W100
 70
     0
  3
ISO dash triple-dot __ . . . __ . . . __ . . . 
 72
    65
 73
     8
 40
0.95
 49
0.47
 74
     0
 49
-0.12
 74
     0
 49
0.0
 74
     0
 49
-0.12
 74
     0
 49
0.0
 74
     0
 49
-0.12
 74
     0
 49
0.0
 74
     0
 49
-0.12
 74
     0
  0
LTYPE
  5
74
330
5
100
AcDbSymbolTableRecord
100
AcDbLinetypeTableRecord
  2
ACAD_ISO15W100
 70
     0
  3
ISO double-dash triple-dot __ __ . . . __ __ . 
 72
    65
 73
    10
 40
1.539999999999999
 49
0.47
 74
     0
 49
-0.12
 74
     0
 49
0.47
 74
     0
 49
-0.12
 74
     0
 49
0.0
 74
     0
 49
-0.12
 74
     0
 49
0.0
 74
     0
 49
-0.12
 74
     0
 49
0.0
 74
     0
 49
-0.12
 74
     0
  0
LTYPE
  5
77
330
5
100
AcDbSymbolTableRecord
100
AcDbLinetypeTableRecord
  2
FENCELINE1
 70
     0
  3
Fenceline circle ----0-----0----0-----0----0---
 72
    65
 73
     4
 40
1.45
 49
0.25
 74
     0
 49
-0.1
 74
     4
 75
   133
340
76
 46
0.1
 50
0.0
 44
-0.1
 45
0.0
 49
-0.1
 74
     0
 49
1.0
 74
     0
  0
LTYPE
  5
78
330
5
100
AcDbSymbolTableRecord
100
AcDbLinetypeTableRecord
  2
FENCELINE2
 70
     0
  3
Fenceline square ----[]-----[]----[]-----[]----
 72
    65
 73
     4
 40
1.45
 49
0.25
 74
     0
 49
-0.1
 74
     4
 75
   132
340
76
 46
0.1
 50
0.0
 44
-0.1
 45
0.0
 49
-0.1
 74
     0
 49
1.0
 74
     0
  0
LTYPE
  5
79
330
5
100
AcDbSymbolTableRecord
100
AcDbLinetypeTableRecord
  2
TRACKS
 70
     0
  3
Tracks -|-|-|-|-|-|-|-|-|-|-|-|-|-|-|-|-|-|-|-|
 72
    65
 73
     2
 40
0.3
 49
0.15
 74
     4
 75
   130
340
76
 46
0.25
 50
0.0
 44
0.0
 45
0.0
 49
0.15
 74
     0
  0
LTYPE
  5
7A
330
5
100
AcDbSymbolTableRecord
100
AcDbLinetypeTableRecord
  2
BATTING
 70
     0
  3
Batting SSSSSSSSSSSSSSSSSSSSSSSSSSSSSSSSSSSSSSS
 72
    65
 73
     4
 40
0.4001000000000001
 49
0.0001
 74
     0
 49
-0.1
 74
     4
 75
   134
340
76
 46
0.1
 50
0.0
 44
-0.1
 45
0.0
 49
-0.2
 74
     4
 75
   134
340
76
 46
0.1
 50
180.0
 44
0.1
 45
0.0
 49
-0.1
 74
     0
  0
LTYPE
  5
7B
330
5
100
AcDbSymbolTableRecord
100
AcDbLinetypeTableRecord
  2
HOT_WATER_SUPPLY
 70
     0
  3
Hot water supply ---- HW ---- HW ---- HW ----
 72
    65
 73
     3
 40
0.9
 49
0.5
 74
     0
 49
-0.2
 74
     2
 75
     0
340
26
 46
0.1
 50
0.0
 44
-0.1
 45
-0.05
  9
HW
 49
-0.2
 74
     0
  0
LTYPE
  5
7C
330
5
100
AcDbSymbolTableRecord
100
AcDbLinetypeTableRecord
  2
GAS_LINE
 70
     0
  3
Gas line ----GAS----GAS----GAS----GAS----GAS---
 72
    65
 73
     3
 40
0.95
 49
0.5
 74
     0
 49
-0.2
 74
     2
 75
     0
340
26
 46
0.1
 50
0.0
 44
-0.1
 45
-0.05
  9
GAS
 49
-0.25
 74
     0
  0
LTYPE
  5
7D
330
5
100
AcDbSymbolTableRecord
100
AcDbLinetypeTableRecord
  2
ZIGZAG
 70
     0
  3
Zig zag /\/\/\/\/\/\/\/\/\/\/\/\/\/\/\/\/\/\/\/
 72
    65
 73
     4
 40
0.8001000000000001
 49
0.0001
 74
     0
 49
-0.2
 74
     4
 75
   131
340
76
 46
0.2
 50
0.0
 44
-0.2
 45
0.0
 49
-0.4
 74
     4
 75
   131
340
76
 46
0.2
 50
180.0
 44
0.2
 45
0.0
 49
-0.2
 74
     0
  0
ENDTAB
  0
TABLE
  2
LAYER
  5
2
330
0
100
AcDbSymbolTable
 70
    26
  0
LAYER
  5
25
330
2
100
AcDbSymbolTableRecord
100
AcDbLayerTableRecord
  2
0
 70
     0
 62
     7
  6
Continuous
370
    -3
390
F
  0
LAYER
  5
81
330
2
100
AcDbSymbolTableRecord
100
AcDbLayerTableRecord
  2
Border (ANSI)
 70
     0
 62
     7
  6
Continuous
370
    70
390
F
  0
LAYER
  5
86
330
2
100
AcDbSymbolTableRecord
100
AcDbLayerTableRecord
  2
Dimension (ANSI)
 70
     0
 62
     7
  6
Continuous
370
    25
390
F
  0
LAYER
  5
89
330
2
100
AcDbSymbolTableRecord
100
AcDbLayerTableRecord
  2
Hidden Narrow (ANSI)
 70
     0
 62
     7
  6
DASHED
370
    25
390
F
  0
LAYER
  5
8E
330
2
100
AcDbSymbolTableRecord
100
AcDbLayerTableRecord
  2
Symbol (ANSI)
 70
     0
 62
     7
  6
Continuous
370
    25
390
F
  0
LAYER
  5
8F
330
2
100
AcDbSymbolTableRecord
100
AcDbLayerTableRecord
  2
Title (ANSI)
 70
     0
 62
     7
  6
Continuous
370
    50
390
F
  0
LAYER
  5
91
330
2
100
AcDbSymbolTableRecord
100
AcDbLayerTableRecord
  2
Visible (ANSI)
 70
     0
 62
     7
  6
Continuous
370
    50
390
F
  0
LAYER
  5
92
330
2
100
AcDbSymbolTableRecord
100
AcDbLayerTableRecord
  2
Visible Narrow (ANSI)
 70
     0
 62
     7
  6
Continuous
370
    35
390
F
  0
LAYER
  5
2C6
330
2
100
AcDbSymbolTableRecord
100
AcDbLayerTableRecord
  2
Defpoints
 70
     0
 62
     7
  6
Continuous
290
     0
370
    -3
390
F
  0
ENDTAB
  0
TABLE
  2
STYLE
  5
3
330
0
100
AcDbSymbolTable
 70
    12
  0
STYLE
  5
26
330
3
100
AcDbSymbolTableRecord
100
AcDbTextStyleTableRecord
  2
Standard
 70
     0
 40
0.0
 41
1.0
 50
0.0
 71
     0
 42
0.2
  3
TAHOMA.TTF
  4

1001
ACAD
1000
Tahoma
1071
      256
  0
STYLE
  5
76
330
3
100
AcDbSymbolTableRecord
100
AcDbTextStyleTableRecord
  2

 70
     1
 40
0.0
 41
1.0
 50
0.0
 71
     0
 42
0.2
  3
ltypeshp.shx
  4

  0
STYLE
  5
96
330
3
100
AcDbSymbolTableRecord
100
AcDbTextStyleTableRecord
  2
Label Text (ANSI)
 70
     0
 40
0.0
 41
1.0
 50
0.0
 71
     0
 42
0.2
  3
TAHOMA.TTF
  4

1001
ACAD
1000
Tahoma
1071
      256
  0
STYLE
  5
97
330
3
100
AcDbSymbolTableRecord
100
AcDbTextStyleTableRecord
  2
Label Text (DIN)
 70
     0
 40
0.0
 41
1.0
 50
0.0
 71
     0
 42
0.2
  3
isocpeur.ttf
  4

1001
ACAD
1000
ISOCPEUR
1071
      256
  0
STYLE
  5
98
330
3
100
AcDbSymbolTableRecord
100
AcDbTextStyleTableRecord
  2
Label Text (ISO)
 70
     0
 40
0.0
 41
1.0
 50
0.0
 71
     0
 42
0.2
  3
TAHOMA.TTF
  4

1001
ACAD
1000
Tahoma
1071
      256
  0
STYLE
  5
99
330
3
100
AcDbSymbolTableRecord
100
AcDbTextStyleTableRecord
  2
Label Text (JIS)
 70
     0
 40
0.0
 41
1.0
 50
0.0
 71
     0
 42
0.2
  3
TAHOMA.TTF
  4

1001
ACAD
1000
Tahoma
1071
      256
  0
STYLE
  5
9A
330
3
100
AcDbSymbolTableRecord
100
AcDbTextStyleTableRecord
  2
Note Text (ANSI)
 70
     0
 40
0.0
 41
1.0
 50
0.0
 71
     0
 42
0.2
  3
TAHOMA.TTF
  4

1001
ACAD
1000
Tahoma
1071
      256
  0
STYLE
  5
9B
330
3
100
AcDbSymbolTableRecord
100
AcDbTextStyleTableRecord
  2
Note Text (DIN)
 70
     0
 40
0.0
 41
1.0
 50
0.0
 71
     0
 42
0.2
  3
isocpeur.ttf
  4

1001
ACAD
1000
ISOCPEUR
1071
      256
  0
STYLE
  5
9C
330
3
100
AcDbSymbolTableRecord
100
AcDbTextStyleTableRecord
  2
Note Text (ISO)
 70
     0
 40
0.0
 41
1.0
 50
0.0
 71
     0
 42
0.2
  3
TAHOMA.TTF
  4

1001
ACAD
1000
Tahoma
1071
      256
  0
STYLE
  5
9D
330
3
100
AcDbSymbolTableRecord
100
AcDbTextStyleTableRecord
  2
Note Text (JIS)
 70
     0
 40
0.0
 41
1.0
 50
0.0
 71
     0
 42
0.2
  3
TAHOMA.TTF
  4

1001
ACAD
1000
Tahoma
1071
      256
  0
STYLE
  5
F3
330
3
100
AcDbSymbolTableRecord
100
AcDbTextStyleTableRecord
  2
Text Style29
 70
     0
 40
0.0
 41
1.0
 50
0.0
 71
     0
 42
0.2
  3
TAHOMA.TTF
  4

1001
ACAD
1000
Tahoma
1071
      256
  0
STYLE
  5
58C
330
3
100
AcDbSymbolTableRecord
100
AcDbTextStyleTableRecord
  2
Text Style6
 70
     0
 40
0.0
 41
1.0
 50
0.0
 71
     0
 42
0.2
  3
AIGDT___.TTF
  4

1001
ACAD
1000
AIGDT
1071
      514
  0
ENDTAB
  0
TABLE
  2
VIEW
  5
6
330
0
100
AcDbSymbolTable
 70
     0
  0
ENDTAB
  0
TABLE
  2
UCS
  5
7
330
0
100
AcDbSymbolTable
 70
     0
  0
ENDTAB
  0
TABLE
  2
APPID
  5
9
330
0
100
AcDbSymbolTable
 70
     1
  0
APPID
  5
27
330
9
100
AcDbSymbolTableRecord
100
AcDbRegAppTableRecord
  2
ACAD
 70
     0
  0
ENDTAB
  0
TABLE
  2
DIMSTYLE
  5
A
330
0
100
AcDbSymbolTable
 70
    17
100
AcDbDimStyleTable
 71
     3
340
A6
340
3F
340
A8
  0
DIMSTYLE
105
3F
330
A
100
AcDbSymbolTableRecord
100
AcDbDimStyleTableRecord
  2
Standard
 70
     0
340
26
  0
DIMSTYLE
105
9E
330
A
100
AcDbSymbolTableRecord
100
AcDbDimStyleTableRecord
  2
Architectural (ANSI)
 70
     0
 40
0.25
 41
0.0984251946210861
 42
0.0625
 43
0.2362204724409449
 44
0.125
 45
0.00000001
 46
0.3937007874015748
 78
     4
 79
     3
140
0.1200000047683716
144
0.0833333333333333
147
0.031496062992126
171
     1
176
   256
177
   256
178
   256
272
     2
274
     1
276
     2
277
     4
284
    12
286
    12
340
9A
371
    -1
372
    -1
  0
DIMSTYLE
105
9F
330
A
100
AcDbSymbolTableRecord
100
AcDbDimStyleTableRecord
  2
Architectural (ANSI)$7
 70
     0
 40
0.25
 41
0.0984251946210861
 42
0.0625
 43
0.2362204724409449
 44
0.125
 45
0.00000001
 46
0.3937007874015748
 78
     4
 79
     3
140
0.1200000047683716
144
0.0833333333333333
147
0.031496062992126
171
     1
176
   256
177
   256
178
   256
272
     2
274
     1
276
     2
277
     4
284
    12
286
    12
340
9A
371
    -1
372
    -1
  0
DIMSTYLE
105
A0
330
A
100
AcDbSymbolTableRecord
100
AcDbDimStyleTableRecord
  2
Default - Fraction (ANSI)
 70
     0
 40
0.25
 41
0.0984251946210861
 42
0.0625
 43
0.2362204724409449
 44
0.125
 45
0.00000001
 46
0.3937007874015748
 78
    12
 79
     3
140
0.1200000047683716
147
0.031496062992126
171
     1
176
   256
177
   256
178
   256
272
     2
274
     1
276
     2
277
     5
284
    12
286
    12
340
9A
371
    -1
372
    -1
  0
DIMSTYLE
105
A1
330
A
100
AcDbSymbolTableRecord
100
AcDbDimStyleTableRecord
  2
Default - Fraction (ANSI)$7
 70
     0
 40
0.25
 41
0.0984251946210861
 42
0.0625
 43
0.2362204724409449
 44
0.125
 45
0.00000001
 46
0.3937007874015748
 78
    12
 79
     3
140
0.1200000047683716
147
0.031496062992126
171
     1
176
   256
177
   256
178
   256
272
     2
274
     1
276
     2
277
     5
284
    12
286
    12
340
9A
371
    -1
372
    -1
  0
DIMSTYLE
105
A2
330
A
100
AcDbSymbolTableRecord
100
AcDbDimStyleTableRecord
  2
Default - mm (ANSI)
 70
     0
 40
0.25
 41
0.0984251946210861
 42
0.063
 43
0.2362204724409449
 44
0.125
 45
0.00000001
 46
0.3937007874015748
 73
     0
140
0.1200000047683716
143
1.0
144
25.4
147
0.031496062992126
171
     1
176
   256
177
   256
178
   256
179
     1
271
     2
272
     2
274
     1
340
9A
371
    -1
372
    -1
  0
DIMSTYLE
105
A3
330
A
100
AcDbSymbolTableRecord
100
AcDbDimStyleTableRecord
  2
Default - mm (ANSI)$7
 70
     0
 40
0.25
 41
0.0984251946210861
 42
0.063
 43
0.2362204724409449
 44
0.125
 45
0.00000001
 46
0.3937007874015748
 73
     0
140
0.1200000047683716
143
1.0
144
25.4
147
0.031496062992126
171
     1
176
   256
177
   256
178
   256
179
     1
271
     2
272
     2
274
     1
340
9A
371
    -1
372
    -1
  0
DIMSTYLE
105
A4
330
A
100
AcDbSymbolTableRecord
100
AcDbDimStyleTableRecord
  2
Default - mm [in] (ANSI)
 70
     0
  4
 in
 40
0.25
 41
0.0984251946210861
 42
0.063
 43
0.25
 44
0.125
 45
0.00000001
 46
0.3937007874015748
 73
     0
 78
     4
 79
     1
140
0.1200000047683716
143
0.03937
144
25.4
147
0.031496062992126
170
     1
171
     3
176
   256
177
   256
178
   256
179
     1
271
     2
272
     2
274
     3
284
     4
286
     4
340
9A
371
    -1
372
    -1
  0
DIMSTYLE
105
A5
330
A
100
AcDbSymbolTableRecord
100
AcDbDimStyleTableRecord
  2
Default - mm [in] (ANSI)$7
 70
     0
  4
 in
 40
0.25
 41
0.0984251946210861
 42
0.063
 43
0.25
 44
0.125
 45
0.00000001
 46
0.3937007874015748
 73
     0
 78
     4
 79
     1
140
0.1200000047683716
143
0.03937
144
25.4
147
0.031496062992126
170
     1
171
     3
176
   256
177
   256
178
   256
179
     1
271
     2
272
     2
274
     3
284
     4
286
     4
340
9A
371
    -1
372
    -1
  0
DIMSTYLE
105
A6
102
{ACAD_REACTORS
330
2C5
330
45E
102
}
330
A
100
AcDbSymbolTableRecord
100
AcDbDimStyleTableRecord
  2
Default (ANSI)
 70
     0
  3
 in
 40
0.25
 41
0.0984251946210861
 42
0.0625
 43
0.2362204724409449
 44
0.125
 45
0.00000001
 46
0.3937007874015748
140
0.1200000047683716
143
1.0
147
0.031496062992126
171
     3
176
   256
177
   256
178
   256
271
     3
272
     3
274
     3
340
9A
371
    -1
372
    -1
  0
DIMSTYLE
105
A7
330
A
100
AcDbSymbolTableRecord
100
AcDbDimStyleTableRecord
  2
Default (ANSI)$7
 70
     0
  3
 in
 40
0.25
 41
0.0984251946210861
 42
0.0625
 43
0.2362204724409449
 44
0.125
 45
0.00000001
 46
0.3937007874015748
140
0.1200000047683716
143
1.0
147
0.031496062992126
171
     3
176
   256
177
   256
178
   256
271
     3
272
     3
274
     3
340
9A
371
    -1
372
    -1
  0
DIMSTYLE
105
A8
102
{ACAD_REACTORS
330
392
102
}
330
A
100
AcDbSymbolTableRecord
100
AcDbDimStyleTableRecord
  2
Default (ANSI)-01
 70
     0
  3
 in
 40
0.25
 41
0.0984251946210861
 42
0.0625
 43
0.2362204724409449
 44
0.125
 45
0.00000001
 46
0.3937007874015748
140
0.1200000047683716
143
1.0
147
0.031496062992126
171
     3
176
   256
177
   256
178
   256
271
     3
272
     3
274
     3
340
9A
371
    -1
372
    -1
  0
DIMSTYLE
105
A9
330
A
100
AcDbSymbolTableRecord
100
AcDbDimStyleTableRecord
  2
Default (ANSI)-01$7
 70
     0
  3
 in
 40
0.25
 41
0.0984251946210861
 42
0.0625
 43
0.2362204724409449
 44
0.125
 45
0.00000001
 46
0.3937007874015748
140
0.1200000047683716
143
1.0
147
0.031496062992126
171
     3
176
   256
177
   256
178
   256
271
     3
272
     3
274
     3
340
9A
371
    -1
372
    -1
  0
DIMSTYLE
105
B8
330
A
100
AcDbSymbolTableRecord
100
AcDbDimStyleTableRecord
  2
Miscellaneous Object (ANSI)
 70
     0
 40
0.25
 41
0.1968503892421722
 42
0.0625
 43
0.2362204724409449
 44
0.125
 45
0.00000001
 46
0.3937007874015748
140
0.1799999922513962
146
0.666666721856155
147
0.031496062992126
171
     1
176
   256
177
   256
178
   256
271
     3
272
     2
274
     1
340
96
341
AA
371
    -1
372
    -1
  0
DIMSTYLE
105
B9
330
A
100
AcDbSymbolTableRecord
100
AcDbDimStyleTableRecord
  2
Miscellaneous Object (ANSI)$7
 70
     0
 40
0.25
 41
0.1959999948740005
 42
0.0625
 43
0.2362204724409449
 44
0.125
 45
0.00000001
 46
0.3937007874015748
140
0.1799999922513962
146
0.666666721856155
147
0.031496062992126
171
     1
176
   256
177
   256
178
   256
271
     3
272
     2
274
     1
340
96
341
AA
371
    -1
372
    -1
  0
DIMSTYLE
105
BA
330
A
100
AcDbSymbolTableRecord
100
AcDbDimStyleTableRecord
  2
Alternate (ANSI)
 70
     0
 40
0.25
 41
0.0979999974370003
340
26
342
BB
  0
DIMSTYLE
105
CC
330
A
100
AcDbSymbolTableRecord
100
AcDbDimStyleTableRecord
  2
Datum (ANSI)
 70
     0
 40
0.25
 41
0.0979999974370003
340
26
342
BB
  0
ENDTAB
  0
TABLE
  2
BLOCK_RECORD
  5
1
330
0
100
AcDbSymbolTable
 70
    13
  0
BLOCK_RECORD
  5
37
330
1
100
AcDbSymbolTableRecord
100
AcDbBlockTableRecord
  2
*Model_Space
340
3A
  0
BLOCK_RECORD
  5
33
330
1
100
AcDbSymbolTableRecord
100
AcDbBlockTableRecord
  2
*Paper_Space
340
36
  0
BLOCK_RECORD
  5
3B
330
1
100
AcDbSymbolTableRecord
100
AcDbBlockTableRecord
  2
*Paper_Space0
340
3E
  0
BLOCK_RECORD
  5
AA
330
1
100
AcDbSymbolTableRecord
100
AcDbBlockTableRecord
  2
Filled-1
340
0
  0
BLOCK_RECORD
  5
BB
330
1
100
AcDbSymbolTableRecord
100
AcDbBlockTableRecord
  2
_Closed
340
0
  0
BLOCK_RECORD
  5
C2
330
1
100
AcDbSymbolTableRecord
100
AcDbBlockTableRecord
  2
DatumFilled45
340
0
  0
BLOCK_RECORD
  5
CD
330
1
100
AcDbSymbolTableRecord
100
AcDbBlockTableRecord
  2
Borders Default Border
340
0
102
{BLKREFS
331
FE
102
}
  0
BLOCK_RECORD
  5
FF
330
1
100
AcDbSymbolTableRecord
100
AcDbBlockTableRecord
  2
Title Blocks ANSI A
340
0
102
{BLKREFS
331
12F
102
}
  0
BLOCK_RECORD
  5
2C7
330
1
100
AcDbSymbolTableRecord
100
AcDbBlockTableRecord
  2
*D6
340
0
  0
BLOCK_RECORD
  5
393
330
1
100
AcDbSymbolTableRecord
100
AcDbBlockTableRecord
  2
*D7
340
0
  0
BLOCK_RECORD
  5
45F
330
1
100
AcDbSymbolTableRecord
100
AcDbBlockTableRecord
  2
*D8
340
0
  0
BLOCK_RECORD
  5
540
330
1
100
AcDbSymbolTableRecord
100
AcDbBlockTableRecord
  2
Origin Indicator Symbol1
340
0
102
{BLKREFS
331
566
102
}
  0
BLOCK_RECORD
  5
567
330
1
100
AcDbSymbolTableRecord
100
AcDbBlockTableRecord
  2
Hole Table1
340
0
102
{BLKREFS
331
5AE
102
}
  0
BLOCK_RECORD
  5
5AF
330
1
100
AcDbSymbolTableRecord
100
AcDbBlockTableRecord
  2
Leader Text1
340
0
102
{BLKREFS
331
5C0
102
}
  0
BLOCK_RECORD
  5
5C1
330
1
100
AcDbSymbolTableRecord
100
AcDbBlockTableRecord
  2
Leader Text2
340
0
102
{BLKREFS
331
5D2
102
}
  0
ENDTAB
  0
ENDSEC
  0
SECTION
  2
BLOCKS
  0
BLOCK
  5
38
330
37
100
AcDbEntity
  8
0
100
AcDbBlockBegin
  2
*Model_Space
 70
     0
 10
0.0
 20
0.0
 30
0.0
  3
*Model_Space
  1

  0
ENDBLK
  5
39
330
37
100
AcDbEntity
  8
0
100
AcDbBlockEnd
  0
BLOCK
  5
34
330
33
100
AcDbEntity
 67
     1
  8
0
100
AcDbBlockBegin
  2
*Paper_Space
 70
     0
 10
0.0
 20
0.0
 30
0.0
  3
*Paper_Space
  1

  0
ENDBLK
  5
35
330
33
100
AcDbEntity
 67
     1
  8
0
100
AcDbBlockEnd
  0
BLOCK
  5
3C
330
3B
100
AcDbEntity
 67
     1
  8
0
100
AcDbBlockBegin
  2
*Paper_Space0
 70
     0
 10
0.0
 20
0.0
 30
0.0
  3
*Paper_Space0
  1

  0
ENDBLK
  5
3D
330
3B
100
AcDbEntity
 67
     1
  8
0
100
AcDbBlockEnd
  0
BLOCK
  5
AB
330
AA
100
AcDbEntity
  8
0
100
AcDbBlockBegin
  2
Filled-1
 70
     0
 10
0.0
 20
0.0
 30
0.0
  3
Filled-1
  1

  0
LINE
  5
AD
330
AA
100
AcDbEntity
  8
0
 62
     0
100
AcDbLine
 10
-0.9999999999999998
 20
0.0
 30
0.0
 11
0.0
 21
0.0
 31
0.0
  0
POLYLINE
  5
AE
330
AA
100
AcDbEntity
  8
0
 62
     0
100
AcDb2dPolyline
 66
     1
 10
0.0
 20
0.0
 30
0.0
 70
   128
  0
VERTEX
  5
AF
330
AE
100
AcDbEntity
  8
0
 62
     0
100
AcDbVertex
100
AcDb2dVertex
 10
-0.9999999999999998
 20
-0.0994897959183674
 30
0.0
  0
VERTEX
  5
B0
330
AE
100
AcDbEntity
  8
0
 62
     0
100
AcDbVertex
100
AcDb2dVertex
 10
0.0
 20
0.0
 30
0.0
  0
VERTEX
  5
B2
330
AE
100
AcDbEntity
  8
0
 62
     0
100
AcDbVertex
100
AcDb2dVertex
 10
-0.9999999999999998
 20
0.0994897959183674
 30
0.0
  0
VERTEX
  5
B3
330
AE
100
AcDbEntity
  8
0
 62
     0
100
AcDbVertex
100
AcDb2dVertex
 10
-0.9999999999999998
 20
-0.0994897959183674
 30
0.0
  0
SEQEND
  5
B1
330
AE
100
AcDbEntity
  8
0
 62
     0
  0
SOLID
  5
B4
330
AA
100
AcDbEntity
  8
0
 62
     0
100
AcDbTrace
 10
-0.9999999999999998
 20
-0.0994897959183674
 30
0.0
 11
0.0
 21
0.0
 31
0.0
 12
-0.9999999999999998
 22
0.0994897959183674
 32
0.0
 13
-0.9999999999999998
 23
-0.0994897959183674
 33
0.0
  0
LINE
  5
B5
330
AA
100
AcDbEntity
  8
0
 62
     0
100
AcDbLine
 10
-0.9999999999999998
 20
-0.0994897959183674
 30
0.0
 11
0.0
 21
0.0
 31
0.0
  0
LINE
  5
B6
330
AA
100
AcDbEntity
  8
0
 62
     0
100
AcDbLine
 10
0.0
 20
0.0
 30
0.0
 11
-0.9999999999999998
 21
0.0994897959183674
 31
0.0
  0
LINE
  5
B7
330
AA
100
AcDbEntity
  8
0
 62
     0
100
AcDbLine
 10
-0.9999999999999998
 20
0.0994897959183674
 30
0.0
 11
-0.9999999999999998
 21
-0.0994897959183674
 31
0.0
  0
ENDBLK
  5
AC
330
AA
100
AcDbEntity
  8
0
100
AcDbBlockEnd
  0
BLOCK
  5
C0
330
BB
100
AcDbEntity
  8
0
100
AcDbBlockBegin
  2
_Closed
 70
     0
 10
0.0
 20
0.0
 30
0.0
  3
_Closed
  1

  0
LINE
  5
BC
330
BB
100
AcDbEntity
  8
0
  6
ByBlock
 62
     0
370
    -2
100
AcDbLine
 10
-1.0
 20
0.1666666666666666
 30
0.0
 11
0.0
 21
0.0
 31
0.0
  0
LINE
  5
BD
330
BB
100
AcDbEntity
  8
0
  6
ByBlock
 62
     0
370
    -2
100
AcDbLine
 10
0.0
 20
0.0
 30
0.0
 11
-1.0
 21
-0.1666666666666666
 31
0.0
  0
LINE
  5
BE
330
BB
100
AcDbEntity
  8
0
  6
ByBlock
 62
     0
370
    -2
100
AcDbLine
 10
-1.0
 20
0.1666666666666666
 30
0.0
 11
-1.0
 21
-0.1666666666666666
 31
0.0
  0
LINE
  5
BF
330
BB
100
AcDbEntity
  8
0
  6
ByBlock
 62
     0
370
    -2
100
AcDbLine
 10
0.0
 20
0.0
 30
0.0
 11
-1.0
 21
0.0
 31
0.0
  0
ENDBLK
  5
C1
330
BB
100
AcDbEntity
  8
0
100
AcDbBlockEnd
  0
BLOCK
  5
C3
330
C2
100
AcDbEntity
  8
0
100
AcDbBlockBegin
  2
DatumFilled45
 70
     0
 10
0.0
 20
0.0
 30
0.0
  3
DatumFilled45
  1

  0
POLYLINE
  5
C5
330
C2
100
AcDbEntity
  8
0
 62
     0
100
AcDb2dPolyline
 66
     1
 10
0.0
 20
0.0
 30
0.0
 70
   128
  0
VERTEX
  5
C6
330
C5
100
AcDbEntity
  8
0
 62
     0
100
AcDbVertex
100
AcDb2dVertex
 10
0.0
 20
0.9999999999999998
 30
0.0
  0
VERTEX
  5
C7
330
C5
100
AcDbEntity
  8
0
 62
     0
100
AcDbVertex
100
AcDb2dVertex
 10
0.0
 20
-0.9999999999999998
 30
0.0
  0
VERTEX
  5
C9
330
C5
100
AcDbEntity
  8
0
 62
     0
100
AcDbVertex
100
AcDb2dVertex
 10
-0.9999999999999998
 20
0.0
 30
0.0
  0
VERTEX
  5
CA
330
C5
100
AcDbEntity
  8
0
 62
     0
100
AcDbVertex
100
AcDb2dVertex
 10
0.0
 20
0.9999999999999998
 30
0.0
  0
SEQEND
  5
C8
330
C5
100
AcDbEntity
  8
0
 62
     0
  0
SOLID
  5
CB
330
C2
100
AcDbEntity
  8
0
 62
     0
100
AcDbTrace
 10
0.0
 20
0.9999999999999998
 30
0.0
 11
0.0
 21
-0.9999999999999998
 31
0.0
 12
-0.9999999999999998
 22
0.0
 32
0.0
 13
0.0
 23
0.9999999999999998
 33
0.0
  0
ENDBLK
  5
C4
330
C2
100
AcDbEntity
  8
0
100
AcDbBlockEnd
  0
BLOCK
  5
CE
330
CD
100
AcDbEntity
  8
0
100
AcDbBlockBegin
  2
Borders Default Border
 70
     0
 10
0.0
 20
0.0
 30
0.0
  3
Borders Default Border
  1

  0
POLYLINE
  5
D0
330
CD
100
AcDbEntity
  8
Border (ANSI)
100
AcDb2dPolyline
 66
     1
 10
0.0
 20
0.0
 30
0.0
 70
   128
  0
VERTEX
  5
D1
330
D0
100
AcDbEntity
  8
Border (ANSI)
100
AcDbVertex
100
AcDb2dVertex
 10
0.380000002740875
 20
0.380000002740875
 30
0.0
  0
VERTEX
  5
D2
330
D0
100
AcDbEntity
  8
Border (ANSI)
100
AcDbVertex
100
AcDb2dVertex
 10
0.380000002740875
 20
8.119999893068328
 30
0.0
  0
VERTEX
  5
D4
330
D0
100
AcDbEntity
  8
Border (ANSI)
100
AcDbVertex
100
AcDb2dVertex
 10
10.62000004325326
 20
8.119999893068328
 30
0.0
  0
VERTEX
  5
D5
330
D0
100
AcDbEntity
  8
Border (ANSI)
100
AcDbVertex
100
AcDb2dVertex
 10
10.62000004325326
 20
0.380000002740875
 30
0.0
  0
VERTEX
  5
D6
330
D0
100
AcDbEntity
  8
Border (ANSI)
100
AcDbVertex
100
AcDb2dVertex
 10
0.380000002740875
 20
0.380000002740875
 30
0.0
  0
SEQEND
  5
D3
330
D0
100
AcDbEntity
  8
Border (ANSI)
  0
POLYLINE
  5
D7
330
CD
100
AcDbEntity
  8
Border (ANSI)
100
AcDb2dPolyline
 66
     1
 10
0.0
 20
0.0
 30
0.0
 70
   128
  0
VERTEX
  5
D8
330
D7
100
AcDbEntity
  8
Border (ANSI)
100
AcDbVertex
100
AcDb2dVertex
 10
5.500000105129451
 20
0.1299999947623005
 30
0.0
  0
VERTEX
  5
D9
330
D7
100
AcDbEntity
  8
Border (ANSI)
100
AcDbVertex
100
AcDb2dVertex
 10
5.500000105129451
 20
0.380000002740875
 30
0.0
  0
VERTEX
  5
DB
330
D7
100
AcDbEntity
  8
Border (ANSI)
100
AcDbVertex
100
AcDb2dVertex
 10
5.413397466103861
 20
0.2300000096869281
 30
0.0
  0
VERTEX
  5
DC
330
D7
100
AcDbEntity
  8
Border (ANSI)
100
AcDbVertex
100
AcDb2dVertex
 10
5.586602368692712
 20
0.2300000096869281
 30
0.0
  0
VERTEX
  5
DD
330
D7
100
AcDbEntity
  8
Border (ANSI)
100
AcDbVertex
100
AcDb2dVertex
 10
5.500000105129451
 20
0.380000002740875
 30
0.0
  0
SEQEND
  5
DA
330
D7
100
AcDbEntity
  8
Border (ANSI)
  0
POLYLINE
  5
DE
330
CD
100
AcDbEntity
  8
Border (ANSI)
100
AcDb2dPolyline
 66
     1
 10
0.0
 20
0.0
 30
0.0
 70
   128
  0
VERTEX
  5
DF
330
DE
100
AcDbEntity
  8
Border (ANSI)
100
AcDbVertex
100
AcDb2dVertex
 10
5.500000105129451
 20
8.369999983179287
 30
0.0
  0
VERTEX
  5
E0
330
DE
100
AcDbEntity
  8
Border (ANSI)
100
AcDbVertex
100
AcDb2dVertex
 10
5.500000105129451
 20
8.119999893068328
 30
0.0
  0
VERTEX
  5
E2
330
DE
100
AcDbEntity
  8
Border (ANSI)
100
AcDbVertex
100
AcDb2dVertex
 10
5.413397466103861
 20
8.270000097319835
 30
0.0
  0
VERTEX
  5
E3
330
DE
100
AcDbEntity
  8
Border (ANSI)
100
AcDbVertex
100
AcDb2dVertex
 10
5.586602368692712
 20
8.270000097319835
 30
0.0
  0
VERTEX
  5
E4
330
DE
100
AcDbEntity
  8
Border (ANSI)
100
AcDbVertex
100
AcDb2dVertex
 10
5.500000105129451
 20
8.119999893068328
 30
0.0
  0
SEQEND
  5
E1
330
DE
100
AcDbEntity
  8
Border (ANSI)
  0
POLYLINE
  5
E5
330
CD
100
AcDbEntity
  8
Border (ANSI)
100
AcDb2dPolyline
 66
     1
 10
0.0
 20
0.0
 30
0.0
 70
   128
  0
VERTEX
  5
E6
330
E5
100
AcDbEntity
  8
Border (ANSI)
100
AcDbVertex
100
AcDb2dVertex
 10
0.1299999947623005
 20
4.250000030036986
 30
0.0
  0
VERTEX
  5
E7
330
E5
100
AcDbEntity
  8
Border (ANSI)
100
AcDbVertex
100
AcDb2dVertex
 10
0.380000002740875
 20
4.250000030036986
 30
0.0
  0
VERTEX
  5
E9
330
E5
100
AcDbEntity
  8
Border (ANSI)
100
AcDbVertex
100
AcDb2dVertex
 10
0.2300000096869281
 20
4.336602669062576
 30
0.0
  0
VERTEX
  5
EA
330
E5
100
AcDbEntity
  8
Border (ANSI)
100
AcDbVertex
100
AcDb2dVertex
 10
0.2300000096869281
 20
4.163397391011395
 30
0.0
  0
VERTEX
  5
EB
330
E5
100
AcDbEntity
  8
Border (ANSI)
100
AcDbVertex
100
AcDb2dVertex
 10
0.380000002740875
 20
4.250000030036986
 30
0.0
  0
SEQEND
  5
E8
330
E5
100
AcDbEntity
  8
Border (ANSI)
  0
POLYLINE
  5
EC
330
CD
100
AcDbEntity
  8
Border (ANSI)
100
AcDb2dPolyline
 66
     1
 10
0.0
 20
0.0
 30
0.0
 70
   128
  0
VERTEX
  5
ED
330
EC
100
AcDbEntity
  8
Border (ANSI)
100
AcDbVertex
100
AcDb2dVertex
 10
10.87000013336422
 20
4.250000030036986
 30
0.0
  0
VERTEX
  5
EE
330
EC
100
AcDbEntity
  8
Border (ANSI)
100
AcDbVertex
100
AcDb2dVertex
 10
10.62000004325326
 20
4.250000030036986
 30
0.0
  0
VERTEX
  5
F0
330
EC
100
AcDbEntity
  8
Border (ANSI)
100
AcDbVertex
100
AcDb2dVertex
 10
10.77000024750476
 20
4.336602669062576
 30
0.0
  0
VERTEX
  5
F1
330
EC
100
AcDbEntity
  8
Border (ANSI)
100
AcDbVertex
100
AcDb2dVertex
 10
10.77000024750476
 20
4.163397391011395
 30
0.0
  0
VERTEX
  5
F2
330
EC
100
AcDbEntity
  8
Border (ANSI)
100
AcDbVertex
100
AcDb2dVertex
 10
10.62000004325326
 20
4.250000030036986
 30
0.0
  0
SEQEND
  5
EF
330
EC
100
AcDbEntity
  8
Border (ANSI)
  0
MTEXT
  5
F4
330
CD
100
AcDbEntity
  8
Border (ANSI)
100
AcDbMText
 10
8.24092395498058
 20
8.16
 30
0.0
 40
0.1200000014830762
 41
0.0
 71
     7
 72
     1
  1
1
  7
Text Style29
 73
     1
 44
1.0
1001
ACAD
1000
MTEXTBEGIN
1070
    73
1070
     1
1070
    44
1040
1.0
1070
    74
1070
     0
1000
MTEXTEND
  0
MTEXT
  5
F7
330
CD
100
AcDbEntity
  8
Border (ANSI)
100
AcDbMText
 10
8.24092395498058
 20
0.2199999985169238
 30
0.0
 40
0.1200000014830762
 41
0.0
 71
     7
 72
     1
  1
1
  7
Text Style29
 73
     1
 44
1.0
1001
ACAD
1000
MTEXTBEGIN
1070
    73
1070
     1
1070
    44
1040
1.0
1070
    74
1070
     0
1000
MTEXTEND
  0
MTEXT
  5
F8
330
CD
100
AcDbEntity
  8
Border (ANSI)
100
AcDbMText
 10
2.722276993858532
 20
8.16
 30
0.0
 40
0.1200000014830762
 41
0.0
 71
     7
 72
     1
  1
2
  7
Text Style29
 73
     1
 44
1.0
1001
ACAD
1000
MTEXTBEGIN
1070
    73
1070
     1
1070
    44
1040
1.0
1070
    74
1070
     0
1000
MTEXTEND
  0
MTEXT
  5
F9
330
CD
100
AcDbEntity
  8
Border (ANSI)
100
AcDbMText
 10
2.722276993858532
 20
0.2199999985169238
 30
0.0
 40
0.1200000014830762
 41
0.0
 71
     7
 72
     1
  1
2
  7
Text Style29
 73
     1
 44
1.0
1001
ACAD
1000
MTEXTBEGIN
1070
    73
1070
     1
1070
    44
1040
1.0
1070
    74
1070
     0
1000
MTEXTEND
  0
MTEXT
  5
FA
330
CD
100
AcDbEntity
  8
Border (ANSI)
100
AcDbMText
 10
0.2281865791448458
 20
2.064999999258461
 30
0.0
 40
0.1200000014830762
 41
0.0
 71
     7
 72
     1
  1
A
  7
Text Style29
 73
     1
 44
1.0
1001
ACAD
1000
MTEXTBEGIN
1070
    73
1070
     1
1070
    44
1040
1.0
1070
    74
1070
     0
1000
MTEXTEND
  0
MTEXT
  5
FB
330
CD
100
AcDbEntity
  8
Border (ANSI)
100
AcDbMText
 10
10.66818658062792
 20
2.064999999258461
 30
0.0
 40
0.1200000014830762
 41
0.0
 71
     7
 72
     1
  1
A
  7
Text Style29
 73
     1
 44
1.0
1001
ACAD
1000
MTEXTBEGIN
1070
    73
1070
     1
1070
    44
1040
1.0
1070
    74
1070
     0
1000
MTEXTEND
  0
MTEXT
  5
FC
330
CD
100
AcDbEntity
  8
Border (ANSI)
100
AcDbMText
 10
0.2554072225563169
 20
6.314999999258461
 30
0.0
 40
0.1200000014830762
 41
0.0
 71
     7
 72
     1
  1
B
  7
Text Style29
 73
     1
 44
1.0
1001
ACAD
1000
MTEXTBEGIN
1070
    73
1070
     1
1070
    44
1040
1.0
1070
    74
1070
     0
1000
MTEXTEND
  0
MTEXT
  5
FD
330
CD
100
AcDbEntity
  8
Border (ANSI)
100
AcDbMText
 10
10.69540722403939
 20
6.314999999258461
 30
0.0
 40
0.1200000014830762
 41
0.0
 71
     7
 72
     1
  1
B
  7
Text Style29
 73
     1
 44
1.0
1001
ACAD
1000
MTEXTBEGIN
1070
    73
1070
     1
1070
    44
1040
1.0
1070
    74
1070
     0
1000
MTEXTEND
  0
ENDBLK
  5
CF
330
CD
100
AcDbEntity
  8
0
100
AcDbBlockEnd
  0
BLOCK
  5
100
330
FF
100
AcDbEntity
  8
0
100
AcDbBlockBegin
  2
Title Blocks ANSI A
 70
     2
 10
0.0
 20
0.0
 30
0.0
  3
Title Blocks ANSI A
  1

  0
LINE
  5
102
330
FF
100
AcDbEntity
  8
Title (ANSI)
100
AcDbLine
 10
5.00001003937008
 20
4.998596178778405
 30
0.0
 11
11.25002258858267
 21
4.998596178778412
 31
0.0
  0
LINE
  5
103
330
FF
100
AcDbEntity
  8
Title (ANSI)
100
AcDbLine
 10
11.25002258858267
 20
4.998596178778412
 30
0.0
 11
11.25002258858267
 21
6.998596178778411
 31
0.0
  0
LINE
  5
104
330
FF
100
AcDbEntity
  8
Title (ANSI)
100
AcDbLine
 10
11.25002258858267
 20
6.998596178778411
 30
0.0
 11
5.000010039370079
 21
6.99859617877841
 31
0.0
  0
LINE
  5
105
330
FF
100
AcDbEntity
  8
Title (ANSI)
100
AcDbLine
 10
5.000010039370079
 20
6.99859617877841
 30
0.0
 11
5.00001003937008
 21
4.998596178778405
 31
0.0
  0
LINE
  5
106
330
FF
100
AcDbEntity
  8
Title (ANSI)
100
AcDbLine
 10
7.13006861284011
 20
4.998596178778412
 30
0.0
 11
7.13006861284011
 21
6.99859617877841
 31
0.0
  0
LINE
  5
107
330
FF
100
AcDbEntity
  8
Title (ANSI)
100
AcDbLine
 10
7.130068612840111
 20
5.248596178778411
 30
0.0
 11
11.25002258858267
 21
5.248596178778419
 31
0.0
  0
LINE
  5
108
330
FF
100
AcDbEntity
  8
Title (ANSI)
100
AcDbLine
 10
8.08900076038086
 20
4.998596178778412
 30
0.0
 11
8.08900076038086
 21
5.248596178778413
 31
0.0
  0
LINE
  5
109
330
FF
100
AcDbEntity
  8
Title (ANSI)
100
AcDbLine
 10
9.500019074803146
 20
4.998596178778412
 30
0.0
 11
9.500019074803146
 21
5.248596178778416
 31
0.0
  0
LINE
  5
10A
330
FF
100
AcDbEntity
  8
Title (ANSI)
100
AcDbLine
 10
6.250012549212597
 20
4.998596178778411
 30
0.0
 11
6.250012549212597
 21
6.99859617877841
 31
0.0
  0
LINE
  5
10B
330
FF
100
AcDbEntity
  8
Title (ANSI)
100
AcDbLine
 10
7.13006861284011
 20
5.618596921691798
 30
0.0
 11
11.25002258858267
 21
5.618596921691803
 31
0.0
  0
LINE
  5
10C
330
FF
100
AcDbEntity
  8
Title (ANSI)
100
AcDbLine
 10
10.87002182559055
 20
5.248596178778418
 30
0.0
 11
10.87002182559055
 21
5.618596921691803
 31
0.0
  0
LINE
  5
10D
330
FF
100
AcDbEntity
  8
Title (ANSI)
100
AcDbLine
 10
8.500017066929132
 20
5.248596178778415
 30
0.0
 11
8.500017066929132
 21
5.6185969216918
 31
0.0
  0
LINE
  5
10E
330
FF
100
AcDbEntity
  8
Title (ANSI)
100
AcDbLine
 10
7.544294259443292
 20
5.248596178778413
 30
0.0
 11
7.544294259443292
 21
5.618596921691799
 31
0.0
  0
LINE
  5
10F
330
FF
100
AcDbEntity
  8
Title (ANSI)
100
AcDbLine
 10
7.130068612840108
 20
6.378598447676052
 30
0.0
 11
11.25002258858267
 21
6.378598447676055
 31
0.0
  0
LINE
  5
110
330
FF
100
AcDbEntity
  8
Title (ANSI)
100
AcDbLine
 10
7.130068612840111
 20
5.248596178778411
 30
0.0
 11
5.000010039370079
 21
5.248596178778406
 31
0.0
  0
LINE
  5
111
330
FF
100
AcDbEntity
  8
Title (ANSI)
100
AcDbLine
 10
7.130068612840111
 20
5.498596178778411
 30
0.0
 11
5.000010039370079
 21
5.498596178778406
 31
0.0
  0
LINE
  5
112
330
FF
100
AcDbEntity
  8
Title (ANSI)
100
AcDbLine
 10
7.13006861284011
 20
5.74859617877841
 30
0.0
 11
5.000010039370078
 21
5.748596178778406
 31
0.0
  0
LINE
  5
113
330
FF
100
AcDbEntity
  8
Title (ANSI)
100
AcDbLine
 10
7.13006861284011
 20
5.99859617877841
 30
0.0
 11
5.000010039370077
 21
5.998596178778406
 31
0.0
  0
LINE
  5
114
330
FF
100
AcDbEntity
  8
Title (ANSI)
100
AcDbLine
 10
7.13006861284011
 20
6.24859617877841
 30
0.0
 11
5.000010039370077
 21
6.248596178778406
 31
0.0
  0
LINE
  5
115
330
FF
100
AcDbEntity
  8
Title (ANSI)
100
AcDbLine
 10
7.130068612840108
 20
6.498596178778409
 30
0.0
 11
5.000010039370076
 21
6.498596178778406
 31
0.0
  0
LINE
  5
116
330
FF
100
AcDbEntity
  8
Title (ANSI)
100
AcDbLine
 10
7.130068612840108
 20
6.748596178778411
 30
0.0
 11
5.000010039370076
 21
6.748596178778405
 31
0.0
  0
TEXT
  5
117
330
FF
100
AcDbEntity
  8
Title (ANSI)
100
AcDbText
 10
5.020010039370077
 20
6.898596179745229
 30
0.0
 40
0.0799999990331845
  1
DRAWN
  7
Note Text (ANSI)
 11
5.020010039370077
 21
6.978596178778413
 31
0.0
100
AcDbText
 73
     3
  0
TEXT
  5
118
330
FF
100
AcDbEntity
  8
Title (ANSI)
100
AcDbText
 10
5.020010039370077
 20
6.648596179745221
 30
0.0
 40
0.0799999990331845
  1
CHECKED
  7
Note Text (ANSI)
 11
5.020010039370077
 21
6.728596178778405
 31
0.0
100
AcDbText
 73
     3
  0
TEXT
  5
119
330
FF
100
AcDbEntity
  8
Title (ANSI)
100
AcDbText
 10
5.020010039370077
 20
6.398596179745222
 30
0.0
 40
0.0799999990331845
  1
QA
  7
Note Text (ANSI)
 11
5.020010039370077
 21
6.478596178778406
 31
0.0
100
AcDbText
 73
     3
  0
TEXT
  5
11A
330
FF
100
AcDbEntity
  8
Title (ANSI)
100
AcDbText
 10
5.020010039370077
 20
6.148596179745221
 30
0.0
 40
0.0799999990331845
  1
MFG
  7
Note Text (ANSI)
 11
5.020010039370077
 21
6.228596178778405
 31
0.0
100
AcDbText
 73
     3
  0
TEXT
  5
11B
330
FF
100
AcDbEntity
  8
Title (ANSI)
100
AcDbText
 10
5.020010039370077
 20
5.898596179745221
 30
0.0
 40
0.0799999990331845
  1
APPROVED
  7
Note Text (ANSI)
 11
5.020010039370077
 21
5.978596178778405
 31
0.0
100
AcDbText
 73
     3
  0
TEXT
  5
11C
330
FF
100
AcDbEntity
  8
Title (ANSI)
100
AcDbText
 10
7.150068612840111
 20
6.278598448642869
 30
0.0
 40
0.0799999990331845
  1
TITLE
  7
Note Text (ANSI)
 11
7.150068612840111
 21
6.358598447676053
 31
0.0
100
AcDbText
 73
     3
  0
TEXT
  5
11D
330
FF
100
AcDbEntity
  8
Title (ANSI)
100
AcDbText
 10
7.22438090023158
 20
5.518596922658614
 30
0.0
 40
0.0799999990331845
  1
SIZE
  7
Note Text (ANSI)
 72
     1
 11
7.337181436141702
 21
5.598596921691798
 31
0.0
100
AcDbText
 73
     3
  0
TEXT
  5
11E
330
FF
100
AcDbEntity
  8
Title (ANSI)
100
AcDbText
 10
7.150068612840111
 20
5.148596179745227
 30
0.0
 40
0.0799999990331845
  1
SCALE
  7
Note Text (ANSI)
 11
7.150068612840111
 21
5.228596178778412
 31
0.0
100
AcDbText
 73
     3
  0
TEXT
  5
11F
330
FF
100
AcDbEntity
  8
Title (ANSI)
100
AcDbText
 10
8.520017066929131
 20
5.518596922658616
 30
0.0
 40
0.0799999990331845
  1
DWG NO
  7
Note Text (ANSI)
 11
8.520017066929131
 21
5.5985969216918
 31
0.0
100
AcDbText
 73
     3
  0
TEXT
  5
120
330
FF
100
AcDbEntity
  8
Title (ANSI)
100
AcDbText
 10
10.96196982412116
 20
5.518596922658621
 30
0.0
 40
0.0799999990331845
  1
REV
  7
Note Text (ANSI)
 72
     1
 11
11.06002220708661
 21
5.598596921691805
 31
0.0
100
AcDbText
 73
     3
  0
TEXT
  5
121
330
FF
100
AcDbEntity
  8
Title (ANSI)
100
AcDbText
 10
9.520019074803148
 20
5.027783552743943
 30
0.0
 40
0.0799999990331845
  1
SHEET 1  OF 4 
  7
Note Text (ANSI)
 11
9.520019074803148
 21
5.018596178778413
 31
0.0
100
AcDbText
 73
     1
  0
ATTDEF
  5
122
330
FF
100
AcDbEntity
  8
Title (ANSI)
100
AcDbText
 10
5.020010039370077
 20
6.780080396740618
 30
0.0
 40
0.1000000031914298
  1
Da Chow
  7
Note Text (ANSI)
 11
5.020010039370077
 21
6.768596178778405
 31
0.0
100
AcDbAttributeDefinition
  3
AUTHOR
  2
AUTHOR
 70
     0
 74
     1
  0
ATTDEF
  5
123
330
FF
100
AcDbEntity
  8
Title (ANSI)
100
AcDbText
 10
5.020010039370077
 20
6.530080396740618
 30
0.0
 40
0.1000000031914298
  1

  7
Note Text (ANSI)
 11
5.020010039370077
 21
6.518596178778405
 31
0.0
100
AcDbAttributeDefinition
  3
CHECKED BY
  2
CHECKED_BY
 70
     0
 74
     1
  0
ATTDEF
  5
124
330
FF
100
AcDbEntity
  8
Title (ANSI)
100
AcDbText
 10
5.020010039370077
 20
6.030080396740618
 30
0.0
 40
0.1000000031914298
  1

  7
Note Text (ANSI)
 11
5.020010039370077
 21
6.018596178778405
 31
0.0
100
AcDbAttributeDefinition
  3
MFG APPROVED BY
  2
MFG_APPROVED_BY
 70
     0
 74
     1
  0
ATTDEF
  5
125
330
FF
100
AcDbEntity
  8
Title (ANSI)
100
AcDbText
 10
5.020010039370077
 20
5.780080396740619
 30
0.0
 40
0.1000000031914298
  1

  7
Note Text (ANSI)
 11
5.020010039370077
 21
5.768596178778406
 31
0.0
100
AcDbAttributeDefinition
  3
ENG APPROVED BY
  2
ENG_APPROVED_BY
 70
     0
 74
     1
  0
ATTDEF
  5
126
330
FF
100
AcDbEntity
  8
Title (ANSI)
100
AcDbText
 10
6.270012549212596
 20
6.780080396740621
 30
0.0
 40
0.1000000031914298
  1
12/3/2008
  7
Note Text (ANSI)
 11
6.270012549212596
 21
6.768596178778408
 31
0.0
100
AcDbAttributeDefinition
  3
CREATION DATE
  2
CREATION_DATE
 70
     0
 74
     1
  0
ATTDEF
  5
127
330
FF
100
AcDbEntity
  8
Title (ANSI)
100
AcDbText
 10
6.270012549212596
 20
6.53008039674062
 30
0.0
 40
0.1000000031914298
  1
1/14/2009
  7
Note Text (ANSI)
 11
6.270012549212596
 21
6.518596178778407
 31
0.0
100
AcDbAttributeDefinition
  3
CHECKED DATE
  2
CHECKED_DATE
 70
     0
 74
     1
  0
ATTDEF
  5
128
330
FF
100
AcDbEntity
  8
Title (ANSI)
100
AcDbText
 10
6.270012549212596
 20
6.030080396740622
 30
0.0
 40
0.1000000031914298
  1

  7
Note Text (ANSI)
 11
6.270012549212596
 21
6.018596178778409
 31
0.0
100
AcDbAttributeDefinition
  3
MFG APPROVED DATE
  2
MFG_APPROVED_DATE
 70
     0
 74
     1
  0
ATTDEF
  5
129
330
FF
100
AcDbEntity
  8
Title (ANSI)
100
AcDbText
 10
6.270012549212596
 20
5.780080396740622
 30
0.0
 40
0.1000000031914298
  1

  7
Note Text (ANSI)
 11
6.270012549212596
 21
5.768596178778409
 31
0.0
100
AcDbAttributeDefinition
  3
ENG APPROVAL DATE
  2
ENG_APPROVAL_DATE
 70
     0
 74
     1
  0
ATTDEF
  5
12A
330
FF
100
AcDbEntity
  8
Title (ANSI)
100
AcDbText
 10
7.910623153737196
 20
6.628597312485691
 30
0.0
 40
0.1200000014830762
  1
RADIO ASTRONOMY LABORATORY
  7
Note Text (ANSI)
 72
     1
 11
9.190045600711391
 21
6.688597313227229
 31
0.0
100
AcDbAttributeDefinition
  3
COMPANY
  2
COMPANY
 70
     0
 74
     2
  0
ATTDEF
  5
12B
330
FF
100
AcDbEntity
  8
Title (ANSI)
100
AcDbText
 10
7.150068612840111
 20
5.878597683942388
 30
0.0
 40
0.1200000014830762
  1

  7
Note Text (ANSI)
 11
7.150068612840111
 21
5.938597684683926
 31
0.0
100
AcDbAttributeDefinition
  3
TITLE
  2
TITLE
 70
     0
 74
     2
  0
ATTDEF
  5
12C
330
FF
100
AcDbEntity
  8
Title (ANSI)
100
AcDbText
 10
7.287698561117785
 20
5.323596549493566
 30
0.0
 40
0.1200000014830762
  1
A
  7
Note Text (ANSI)
 72
     1
 11
7.3371814361417
 21
5.383596550235104
 31
0.0
100
AcDbAttributeDefinition
  3
Sheet Size
  2
Sheet_Size
 70
     0
 74
     2
  0
ATTDEF
  5
12D
330
FF
100
AcDbEntity
  8
Title (ANSI)
100
AcDbText
 10
8.520017066929131
 20
5.282377240063576
 30
0.0
 40
0.1200000014830762
  1
Block2-V61
  7
Note Text (ANSI)
 11
8.520017066929131
 21
5.268596178778414
 31
0.0
100
AcDbAttributeDefinition
  3
PART NUMBER
  2
PART_NUMBER
 70
     0
 74
     1
  0
ATTDEF
  5
12E
330
FF
100
AcDbEntity
  8
Title (ANSI)
100
AcDbText
 10
11.06002220708661
 20
5.323596549493571
 30
0.0
 40
0.1200000014830762
  1

  7
Note Text (ANSI)
 72
     1
 11
11.06002220708661
 21
5.383596550235109
 31
0.0
100
AcDbAttributeDefinition
  3
REVISION NUMBER
  2
REVISION_NUMBER
 70
     0
 74
     2
  0
ENDBLK
  5
101
330
FF
100
AcDbEntity
  8
0
100
AcDbBlockEnd
  0
BLOCK
  5
2D2
330
2C7
100
AcDbEntity
  8
0
100
AcDbBlockBegin
  2
*D6
 70
     1
 10
0.0
 20
0.0
 30
0.0
  3
*D6
  1

  0
LINE
  5
388
330
2C7
100
AcDbEntity
  8
Dimension (ANSI)
100
AcDbLine
 10
0.4067046837151433
 20
1.177728337379921
 30
0.0
 11
0.2926544868647497
 21
1.177728337379921
 31
0.0
  0
LINE
  5
389
330
2C7
100
AcDbEntity
  8
Dimension (ANSI)
100
AcDbLine
 10
0.4067046837151433
 20
0.7277283373799214
 30
0.0
 11
0.2926544868647496
 21
0.7277283373799214
 31
0.0
  0
LINE
  5
38A
330
2C7
100
AcDbEntity
  8
Dimension (ANSI)
100
AcDbLine
 10
0.3239044868647497
 20
1.153122038724649
 30
0.0
 11
0.3239044868647496
 21
0.9762168601285383
 31
0.0
  0
LINE
  5
38B
330
2C7
100
AcDbEntity
  8
Dimension (ANSI)
100
AcDbLine
 10
0.3239044868647496
 20
0.7523346360351929
 30
0.0
 11
0.3239044868647496
 21
0.929239814631304
 31
0.0
  0
SOLID
  5
38C
330
2C7
100
AcDbEntity
  8
Dimension (ANSI)
100
AcDbTrace
 10
0.3198034370888711
 20
1.153122038724649
 30
0.0
 11
0.3280055366406283
 21
1.153122038724649
 31
0.0
 12
0.3239044868647497
 22
1.177728337379921
 32
0.0
 13
0.3239044868647497
 23
1.177728337379921
 33
0.0
  0
SOLID
  5
38D
330
2C7
100
AcDbEntity
  8
Dimension (ANSI)
100
AcDbTrace
 10
0.319803437088871
 20
0.7523346360351929
 30
0.0
 11
0.3280055366406282
 21
0.7523346360351929
 31
0.0
 12
0.3239044868647496
 22
0.7277283373799214
 32
0.0
 13
0.3239044868647496
 23
0.7277283373799214
 33
0.0
  0
MTEXT
  5
38E
330
2C7
100
AcDbEntity
  8
Dimension (ANSI)
100
AcDbMText
 10
0.2520676807865714
 20
0.9683428443805068
 30
0.0
 40
0.0300000011920929
 41
0.0
 71
     1
 72
     1
  1
\A1;0.450 in
  7
Note Text (ANSI)
 73
     1
 44
1.0
1001
ACAD
1000
MTEXTBEGIN
1070
    73
1070
     1
1070
    44
1040
1.0
1070
    74
1070
     0
1000
MTEXTEND
  0
POINT
  5
38F
330
2C7
100
AcDbEntity
  8
Defpoints
 62
     0
100
AcDbPoint
 10
0.4223296837151433
 20
1.177728337379921
 30
0.0
  0
POINT
  5
390
330
2C7
100
AcDbEntity
  8
Defpoints
 62
     0
100
AcDbPoint
 10
0.4223296837151433
 20
0.7277283373799214
 30
0.0
  0
POINT
  5
391
330
2C7
100
AcDbEntity
  8
Defpoints
 62
     0
100
AcDbPoint
 10
0.3239044868647496
 20
0.7277283373799214
 30
0.0
  0
ENDBLK
  5
2D3
330
2C7
100
AcDbEntity
  8
0
100
AcDbBlockEnd
  0
BLOCK
  5
39E
330
393
100
AcDbEntity
  8
0
100
AcDbBlockBegin
  2
*D7
 70
     1
 10
0.0
 20
0.0
 30
0.0
  3
*D7
  1

  0
LINE
  5
454
330
393
100
AcDbEntity
  8
Dimension (ANSI)
100
AcDbLine
 10
0.4067046837150805
 20
1.865949757524438
 30
0.0
 11
0.2587730544632038
 21
1.865949757524438
 31
0.0
  0
LINE
  5
455
330
393
100
AcDbEntity
  8
Dimension (ANSI)
100
AcDbLine
 10
0.4067046837150805
 20
1.415949757524438
 30
0.0
 11
0.2587730544632038
 21
1.415949757524438
 31
0.0
  0
LINE
  5
456
330
393
100
AcDbEntity
  8
Dimension (ANSI)
100
AcDbLine
 10
0.2900230544632038
 20
1.841343458869166
 30
0.0
 11
0.2900230544632038
 21
1.664438280273055
 31
0.0
  0
LINE
  5
457
330
393
100
AcDbEntity
  8
Dimension (ANSI)
100
AcDbLine
 10
0.2900230544632038
 20
1.440556056179709
 30
0.0
 11
0.2900230544632038
 21
1.617461234775821
 31
0.0
  0
SOLID
  5
458
330
393
100
AcDbEntity
  8
Dimension (ANSI)
100
AcDbTrace
 10
0.2859220046873252
 20
1.841343458869166
 30
0.0
 11
0.2941241042390824
 21
1.841343458869166
 31
0.0
 12
0.2900230544632038
 22
1.865949757524438
 32
0.0
 13
0.2900230544632038
 23
1.865949757524438
 33
0.0
  0
SOLID
  5
459
330
393
100
AcDbEntity
  8
Dimension (ANSI)
100
AcDbTrace
 10
0.2859220046873252
 20
1.440556056179709
 30
0.0
 11
0.2941241042390823
 21
1.440556056179709
 31
0.0
 12
0.2900230544632038
 22
1.415949757524438
 32
0.0
 13
0.2900230544632038
 23
1.415949757524438
 33
0.0
  0
MTEXT
  5
45A
330
393
100
AcDbEntity
  8
Dimension (ANSI)
100
AcDbMText
 10
0.2181862483850254
 20
1.656564264525023
 30
0.0
 40
0.0300000011920929
 41
0.0
 71
     1
 72
     1
  1
\A1;0.450 in
  7
Note Text (ANSI)
 73
     1
 44
1.0
1001
ACAD
1000
MTEXTBEGIN
1070
    73
1070
     1
1070
    44
1040
1.0
1070
    74
1070
     0
1000
MTEXTEND
  0
POINT
  5
45B
330
393
100
AcDbEntity
  8
Defpoints
 62
     0
100
AcDbPoint
 10
0.4223296837150805
 20
1.865949757524438
 30
0.0
  0
POINT
  5
45C
330
393
100
AcDbEntity
  8
Defpoints
 62
     0
100
AcDbPoint
 10
0.4223296837150805
 20
1.415949757524438
 30
0.0
  0
POINT
  5
45D
330
393
100
AcDbEntity
  8
Defpoints
 62
     0
100
AcDbPoint
 10
0.2900230544632038
 20
1.415949757524438
 30
0.0
  0
ENDBLK
  5
39F
330
393
100
AcDbEntity
  8
0
100
AcDbBlockEnd
  0
BLOCK
  5
46A
330
45F
100
AcDbEntity
  8
0
100
AcDbBlockBegin
  2
*D8
 70
     1
 10
0.0
 20
0.0
 30
0.0
  3
*D8
  1

  0
LINE
  5
534
330
45F
100
AcDbEntity
  8
Dimension (ANSI)
100
AcDbLine
 10
0.4223296837150805
 20
1.881574757524438
 30
0.0
 11
0.4223296837150805
 21
1.980580147765679
 31
0.0
  0
LINE
  5
535
330
45F
100
AcDbEntity
  8
Dimension (ANSI)
100
AcDbLine
 10
1.32232967371508
 20
1.667574757524438
 30
0.0
 11
1.32232967371508
 21
1.980580147765679
 31
0.0
  0
LINE
  5
536
330
45F
100
AcDbEntity
  8
Dimension (ANSI)
100
AcDbLine
 10
0.446935982370352
 20
1.949330147765679
 30
0.0
 11
0.792618856888871
 21
1.949330147765679
 31
0.0
  0
LINE
  5
537
330
45F
100
AcDbEntity
  8
Dimension (ANSI)
100
AcDbLine
 10
1.297723375059808
 20
1.949330147765679
 30
0.0
 11
0.95204050054129
 21
1.949330147765679
 31
0.0
  0
SOLID
  5
538
330
45F
100
AcDbEntity
  8
Dimension (ANSI)
100
AcDbTrace
 10
0.446935982370352
 20
1.953431197541558
 30
0.0
 11
0.446935982370352
 21
1.9452290979898
 31
0.0
 12
0.4223296837150805
 22
1.949330147765679
 32
0.0
 13
0.4223296837150805
 23
1.949330147765679
 33
0.0
  0
SOLID
  5
539
330
45F
100
AcDbEntity
  8
Dimension (ANSI)
100
AcDbTrace
 10
1.297723375059808
 20
1.953431197541558
 30
0.0
 11
1.297723375059808
 21
1.9452290979898
 31
0.0
 12
1.32232967371508
 22
1.949330147765679
 32
0.0
 13
1.32232967371508
 23
1.949330147765679
 33
0.0
  0
MTEXT
  5
53A
330
45F
100
AcDbEntity
  8
Dimension (ANSI)
100
AcDbMText
 10
0.8004928726369023
 20
1.964944654766264
 30
0.0
 40
0.0300000011920929
 41
0.0
 71
     1
 72
     1
  1
\A1;0.900 in
  7
Note Text (ANSI)
 73
     1
 44
1.0
1001
ACAD
1000
MTEXTBEGIN
1070
    73
1070
     1
1070
    44
1040
1.0
1070
    74
1070
     0
1000
MTEXTEND
  0
POINT
  5
53B
330
45F
100
AcDbEntity
  8
Defpoints
 62
     0
100
AcDbPoint
 10
0.4223296837150805
 20
1.865949757524438
 30
0.0
  0
POINT
  5
53C
330
45F
100
AcDbEntity
  8
Defpoints
 62
     0
100
AcDbPoint
 10
1.32232967371508
 20
1.651949757524438
 30
0.0
  0
POINT
  5
53D
330
45F
100
AcDbEntity
  8
Defpoints
 62
     0
100
AcDbPoint
 10
1.32232967371508
 20
1.949330147765679
 30
0.0
  0
ENDBLK
  5
46B
330
45F
100
AcDbEntity
  8
0
100
AcDbBlockEnd
  0
BLOCK
  5
541
330
540
100
AcDbEntity
  8
0
100
AcDbBlockBegin
  2
Origin Indicator Symbol1
 70
     0
 10
0.0
 20
0.0
 30
0.0
  3
Origin Indicator Symbol1
  1

  0
CIRCLE
  5
543
330
540
100
AcDbEntity
  8
Dimension (ANSI)
100
AcDbCircle
 10
7.340496703619809
 20
5.663799030097753
 30
0.0
 40
0.0984251968503937
  0
LINE
  5
544
102
{ACAD_REACTORS
330
546
102
}
330
540
100
AcDbEntity
  8
Dimension (ANSI)
100
AcDbLine
 10
7.340496703619809
 20
5.762224226948147
 30
0.0
 11
7.438921900470202
 21
5.663799030097753
 31
0.0
  0
ARC
  5
545
102
{ACAD_REACTORS
330
546
102
}
330
540
100
AcDbEntity
  8
Dimension (ANSI)
100
AcDbCircle
 10
7.340496703619809
 20
5.663799030097753
 30
0.0
 40
0.0984251968503937
100
AcDbArc
 50
0.0
 51
90.0
  0
HATCH
  5
546
330
540
100
AcDbEntity
  8
Dimension (ANSI)
100
AcDbHatch
 10
0.0
 20
0.0
 30
0.0
210
0.0
220
0.0
230
1.0
  2
SOLID
 70
     1
 71
     1
 91
        1
 92
        0
 93
        2
 72
     1
 10
7.340496703619809
 20
5.762224226948147
 11
7.438921900470202
 21
5.663799030097753
 72
     2
 10
7.340496703619809
 20
5.663799030097753
 40
0.0984251968503937
 50
0.0
 51
90.0
 73
     1
 97
        2
330
544
330
545
 75
     0
 76
     1
 98
        1
 10
0.0
 20
0.0
  0
LINE
  5
547
102
{ACAD_REACTORS
330
549
102
}
330
540
100
AcDbEntity
  8
Dimension (ANSI)
100
AcDbLine
 10
7.340496703619809
 20
5.56537383324736
 30
0.0
 11
7.242071506769415
 21
5.663799030097753
 31
0.0
  0
ARC
  5
548
102
{ACAD_REACTORS
330
549
102
}
330
540
100
AcDbEntity
  8
Dimension (ANSI)
100
AcDbCircle
 10
7.340496703619809
 20
5.663799030097753
 30
0.0
 40
0.0984251968503937
100
AcDbArc
 50
180.0
 51
270.0
  0
HATCH
  5
549
330
540
100
AcDbEntity
  8
Dimension (ANSI)
100
AcDbHatch
 10
0.0
 20
0.0
 30
0.0
210
0.0
220
0.0
230
1.0
  2
SOLID
 70
     1
 71
     1
 91
        1
 92
        0
 93
        2
 72
     1
 10
7.340496703619809
 20
5.56537383324736
 11
7.242071506769415
 21
5.663799030097753
 72
     2
 10
7.340496703619809
 20
5.663799030097753
 40
0.0984251968503937
 50
180.0
 51
270.0
 73
     1
 97
        2
330
547
330
548
 75
     0
 76
     1
 98
        1
 10
0.0
 20
0.0
  0
POLYLINE
  5
54A
330
540
100
AcDbEntity
  8
Dimension (ANSI)
100
AcDb2dPolyline
 66
     1
 10
0.0
 20
0.0
 30
0.0
 70
   128
  0
VERTEX
  5
54B
330
54A
100
AcDbEntity
  8
Dimension (ANSI)
100
AcDbVertex
100
AcDb2dVertex
 10
7.340496543824202
 20
5.663798925444835
 30
0.0
  0
VERTEX
  5
54C
330
54A
100
AcDbEntity
  8
Dimension (ANSI)
100
AcDbVertex
100
AcDb2dVertex
 10
7.438921740674596
 20
5.663798925444835
 30
0.0
  0
VERTEX
  5
54E
330
54A
100
AcDbEntity
  8
Dimension (ANSI)
100
AcDbVertex
100
AcDb2dVertex
 10
7.340496543824202
 20
5.762224122295228
 30
0.0
  0
VERTEX
  5
54F
330
54A
100
AcDbEntity
  8
Dimension (ANSI)
100
AcDbVertex
100
AcDb2dVertex
 10
7.340496543824202
 20
5.663798925444835
 30
0.0
  0
SEQEND
  5
54D
330
54A
100
AcDbEntity
  8
Dimension (ANSI)
  0
SOLID
  5
550
330
540
100
AcDbEntity
  8
Dimension (ANSI)
100
AcDbTrace
 10
7.340496543824202
 20
5.663798925444835
 30
0.0
 11
7.438921740674596
 21
5.663798925444835
 31
0.0
 12
7.340496543824202
 22
5.762224122295228
 32
0.0
 13
7.340496543824202
 23
5.663798925444835
 33
0.0
  0
POLYLINE
  5
551
330
540
100
AcDbEntity
  8
Dimension (ANSI)
100
AcDb2dPolyline
 66
     1
 10
0.0
 20
0.0
 30
0.0
 70
   128
  0
VERTEX
  5
552
330
551
100
AcDbEntity
  8
Dimension (ANSI)
100
AcDbVertex
100
AcDb2dVertex
 10
7.340496543824202
 20
5.663798925444835
 30
0.0
  0
VERTEX
  5
553
330
551
100
AcDbEntity
  8
Dimension (ANSI)
100
AcDbVertex
100
AcDb2dVertex
 10
7.340496543824202
 20
5.762224122295228
 30
0.0
  0
VERTEX
  5
555
330
551
100
AcDbEntity
  8
Dimension (ANSI)
100
AcDbVertex
100
AcDb2dVertex
 10
7.340496543824202
 20
5.565373728594441
 30
0.0
  0
VERTEX
  5
556
330
551
100
AcDbEntity
  8
Dimension (ANSI)
100
AcDbVertex
100
AcDb2dVertex
 10
7.340496543824202
 20
5.663798925444835
 30
0.0
  0
SEQEND
  5
554
330
551
100
AcDbEntity
  8
Dimension (ANSI)
  0
SOLID
  5
557
330
540
100
AcDbEntity
  8
Dimension (ANSI)
100
AcDbTrace
 10
7.340496543824202
 20
5.663798925444835
 30
0.0
 11
7.340496543824202
 21
5.762224122295228
 31
0.0
 12
7.340496543824202
 22
5.565373728594441
 32
0.0
 13
7.340496543824202
 23
5.663798925444835
 33
0.0
  0
POLYLINE
  5
558
330
540
100
AcDbEntity
  8
Dimension (ANSI)
100
AcDb2dPolyline
 66
     1
 10
0.0
 20
0.0
 30
0.0
 70
   128
  0
VERTEX
  5
559
330
558
100
AcDbEntity
  8
Dimension (ANSI)
100
AcDbVertex
100
AcDb2dVertex
 10
7.340496543824202
 20
5.663798925444835
 30
0.0
  0
VERTEX
  5
55A
330
558
100
AcDbEntity
  8
Dimension (ANSI)
100
AcDbVertex
100
AcDb2dVertex
 10
7.340496543824202
 20
5.565373728594441
 30
0.0
  0
VERTEX
  5
55C
330
558
100
AcDbEntity
  8
Dimension (ANSI)
100
AcDbVertex
100
AcDb2dVertex
 10
7.242071346973808
 20
5.663798925444835
 30
0.0
  0
VERTEX
  5
55D
330
558
100
AcDbEntity
  8
Dimension (ANSI)
100
AcDbVertex
100
AcDb2dVertex
 10
7.340496543824202
 20
5.663798925444835
 30
0.0
  0
SEQEND
  5
55B
330
558
100
AcDbEntity
  8
Dimension (ANSI)
  0
SOLID
  5
55E
330
540
100
AcDbEntity
  8
Dimension (ANSI)
100
AcDbTrace
 10
7.340496543824202
 20
5.663798925444835
 30
0.0
 11
7.340496543824202
 21
5.565373728594441
 31
0.0
 12
7.242071346973808
 22
5.663798925444835
 32
0.0
 13
7.340496543824202
 23
5.663798925444835
 33
0.0
  0
POLYLINE
  5
55F
330
540
100
AcDbEntity
  8
Dimension (ANSI)
100
AcDb2dPolyline
 66
     1
 10
0.0
 20
0.0
 30
0.0
 70
   128
  0
VERTEX
  5
560
330
55F
100
AcDbEntity
  8
Dimension (ANSI)
100
AcDbVertex
100
AcDb2dVertex
 10
7.340496543824202
 20
5.663798925444835
 30
0.0
  0
VERTEX
  5
561
330
55F
100
AcDbEntity
  8
Dimension (ANSI)
100
AcDbVertex
100
AcDb2dVertex
 10
7.242071346973808
 20
5.663798925444835
 30
0.0
  0
VERTEX
  5
563
330
55F
100
AcDbEntity
  8
Dimension (ANSI)
100
AcDbVertex
100
AcDb2dVertex
 10
7.340496543824202
 20
5.663798925444835
 30
0.0
  0
VERTEX
  5
564
330
55F
100
AcDbEntity
  8
Dimension (ANSI)
100
AcDbVertex
100
AcDb2dVertex
 10
7.340496543824202
 20
5.663798925444835
 30
0.0
  0
SEQEND
  5
562
330
55F
100
AcDbEntity
  8
Dimension (ANSI)
  0
SOLID
  5
565
330
540
100
AcDbEntity
  8
Dimension (ANSI)
100
AcDbTrace
 10
7.340496543824202
 20
5.663798925444835
 30
0.0
 11
7.242071346973808
 21
5.663798925444835
 31
0.0
 12
7.340496543824202
 22
5.663798925444835
 32
0.0
 13
7.340496543824202
 23
5.663798925444835
 33
0.0
  0
ENDBLK
  5
542
330
540
100
AcDbEntity
  8
0
100
AcDbBlockEnd
  0
BLOCK
  5
568
330
567
100
AcDbEntity
  8
0
100
AcDbBlockBegin
  2
Hole Table1
 70
     0
 10
0.0
 20
0.0
 30
0.0
  3
Hole Table1
  1

  0
MTEXT
  5
56A
330
567
100
AcDbEntity
  8
Symbol (ANSI)
100
AcDbMText
 10
7.784652895996284
 20
4.655918774874781
 30
0.0
 40
0.1200000014830762
 41
0.0
 71
     7
 72
     1
  1
Hole Table
  7
Text Style29
 73
     1
 44
1.0
1001
ACAD
1000
MTEXTBEGIN
1070
    73
1070
     1
1070
    44
1040
1.0
1070
    74
1070
     0
1000
MTEXTEND
  0
LINE
  5
56B
330
567
100
AcDbEntity
  8
Symbol (ANSI)
100
AcDbLine
 10
6.027843585132423
 20
4.595627829414478
 30
0.0
 11
6.430728509638061
 21
4.595627829414478
 31
0.0
  0
LINE
  5
56C
330
567
100
AcDbEntity
  8
Symbol (ANSI)
100
AcDbLine
 10
6.430728509638061
 20
4.595627829414478
 30
0.0
 11
6.430728509638061
 21
4.28825051013997
 31
0.0
  0
LINE
  5
56D
330
567
100
AcDbEntity
  8
Symbol (ANSI)
100
AcDbLine
 10
6.027843585132423
 20
4.28825051013997
 30
0.0
 11
6.430728509638061
 21
4.28825051013997
 31
0.0
  0
MTEXT
  5
56E
330
567
100
AcDbEntity
  8
Symbol (ANSI)
100
AcDbMText
 10
6.051873174207226
 20
4.379410807211246
 30
0.0
 40
0.1200000014830762
 41
0.0
 71
     7
 72
     1
  1
HOLE
  7
Text Style29
 73
     1
 44
1.0
1001
ACAD
1000
MTEXTBEGIN
1070
    73
1070
     1
1070
    44
1040
1.0
1070
    74
1070
     0
1000
MTEXTEND
  0
LINE
  5
56F
330
567
100
AcDbEntity
  8
Symbol (ANSI)
100
AcDbLine
 10
6.430728509638061
 20
4.595627829414478
 30
0.0
 11
7.208206598203235
 21
4.595627829414478
 31
0.0
  0
LINE
  5
570
330
567
100
AcDbEntity
  8
Symbol (ANSI)
100
AcDbLine
 10
6.430728509638061
 20
4.595627829414478
 30
0.0
 11
6.430728509638061
 21
4.28825051013997
 31
0.0
  0
LINE
  5
571
330
567
100
AcDbEntity
  8
Symbol (ANSI)
100
AcDbLine
 10
7.208206598203235
 20
4.595627829414478
 30
0.0
 11
7.208206598203235
 21
4.28825051013997
 31
0.0
  0
LINE
  5
572
330
567
100
AcDbEntity
  8
Symbol (ANSI)
100
AcDbLine
 10
6.430728509638061
 20
4.28825051013997
 30
0.0
 11
7.208206598203235
 21
4.28825051013997
 31
0.0
  0
MTEXT
  5
573
330
567
100
AcDbEntity
  8
Symbol (ANSI)
100
AcDbMText
 10
6.622579825184492
 20
4.381939170238797
 30
0.0
 40
0.1200000014830762
 41
0.0
 71
     7
 72
     1
  1
XDIM
  7
Text Style29
 73
     1
 44
1.0
1001
ACAD
1000
MTEXTBEGIN
1070
    73
1070
     1
1070
    44
1040
1.0
1070
    74
1070
     0
1000
MTEXTEND
  0
LINE
  5
574
330
567
100
AcDbEntity
  8
Symbol (ANSI)
100
AcDbLine
 10
7.208206598203235
 20
4.595627829414478
 30
0.0
 11
7.825732085213126
 21
4.595627829414478
 31
0.0
  0
LINE
  5
575
330
567
100
AcDbEntity
  8
Symbol (ANSI)
100
AcDbLine
 10
7.208206598203235
 20
4.595627829414478
 30
0.0
 11
7.208206598203235
 21
4.28825051013997
 31
0.0
  0
LINE
  5
576
330
567
100
AcDbEntity
  8
Symbol (ANSI)
100
AcDbLine
 10
7.825732085213126
 20
4.595627829414478
 30
0.0
 11
7.825732085213126
 21
4.28825051013997
 31
0.0
  0
LINE
  5
577
330
567
100
AcDbEntity
  8
Symbol (ANSI)
100
AcDbLine
 10
7.208206598203235
 20
4.28825051013997
 30
0.0
 11
7.825732085213126
 21
4.28825051013997
 31
0.0
  0
MTEXT
  5
578
330
567
100
AcDbEntity
  8
Symbol (ANSI)
100
AcDbMText
 10
7.317346182171954
 20
4.381939170238797
 30
0.0
 40
0.1200000014830762
 41
0.0
 71
     7
 72
     1
  1
YDIM
  7
Text Style29
 73
     1
 44
1.0
1001
ACAD
1000
MTEXTBEGIN
1070
    73
1070
     1
1070
    44
1040
1.0
1070
    74
1070
     0
1000
MTEXTEND
  0
LINE
  5
579
330
567
100
AcDbEntity
  8
Symbol (ANSI)
100
AcDbLine
 10
7.825732085213126
 20
4.595627829414478
 30
0.0
 11
10.26931874153268
 21
4.595627829414478
 31
0.0
  0
LINE
  5
57A
330
567
100
AcDbEntity
  8
Symbol (ANSI)
100
AcDbLine
 10
7.825732085213126
 20
4.595627829414478
 30
0.0
 11
7.825732085213126
 21
4.28825051013997
 31
0.0
  0
LINE
  5
57B
330
567
100
AcDbEntity
  8
Symbol (ANSI)
100
AcDbLine
 10
7.825732085213126
 20
4.28825051013997
 30
0.0
 11
10.26931874153268
 21
4.28825051013997
 31
0.0
  0
MTEXT
  5
57C
330
567
100
AcDbEntity
  8
Symbol (ANSI)
100
AcDbMText
 10
8.553872658491654
 20
4.379410807211246
 30
0.0
 40
0.1200000014830762
 41
0.0
 71
     7
 72
     1
  1
DESCRIPTION
  7
Text Style29
 73
     1
 44
1.0
1001
ACAD
1000
MTEXTBEGIN
1070
    73
1070
     1
1070
    44
1040
1.0
1070
    74
1070
     0
1000
MTEXTEND
  0
LINE
  5
57D
330
567
100
AcDbEntity
  8
Symbol (ANSI)
100
AcDbLine
 10
6.027843585132423
 20
4.28825051013997
 30
0.0
 11
6.430728509638061
 21
4.28825051013997
 31
0.0
  0
LINE
  5
57E
330
567
100
AcDbEntity
  8
Symbol (ANSI)
100
AcDbLine
 10
6.430728509638061
 20
4.28825051013997
 30
0.0
 11
6.430728509638061
 21
3.85051435526052
 31
0.0
  0
LINE
  5
57F
330
567
100
AcDbEntity
  8
Symbol (ANSI)
100
AcDbLine
 10
6.027843585132423
 20
3.85051435526052
 30
0.0
 11
6.430728509638061
 21
3.85051435526052
 31
0.0
  0
MTEXT
  5
580
330
567
100
AcDbEntity
  8
Symbol (ANSI)
100
AcDbMText
 10
6.220210002365822
 20
4.00918794369816
 30
0.0
 40
0.1200000014830762
 41
0.0
 71
     7
 72
     1
  1
1
  7
Text Style29
 73
     1
 44
1.0
1001
ACAD
1000
MTEXTBEGIN
1070
    73
1070
     1
1070
    44
1040
1.0
1070
    74
1070
     0
1000
MTEXTEND
  0
LINE
  5
581
330
567
100
AcDbEntity
  8
Symbol (ANSI)
100
AcDbLine
 10
6.430728509638061
 20
4.28825051013997
 30
0.0
 11
7.208206598203235
 21
4.28825051013997
 31
0.0
  0
LINE
  5
582
330
567
100
AcDbEntity
  8
Symbol (ANSI)
100
AcDbLine
 10
6.430728509638061
 20
4.28825051013997
 30
0.0
 11
6.430728509638061
 21
3.85051435526052
 31
0.0
  0
LINE
  5
583
330
567
100
AcDbEntity
  8
Symbol (ANSI)
100
AcDbLine
 10
7.208206598203235
 20
4.28825051013997
 30
0.0
 11
7.208206598203235
 21
3.85051435526052
 31
0.0
  0
LINE
  5
584
330
567
100
AcDbEntity
  8
Symbol (ANSI)
100
AcDbLine
 10
6.430728509638061
 20
3.85051435526052
 30
0.0
 11
7.208206598203235
 21
3.85051435526052
 31
0.0
  0
MTEXT
  5
585
330
567
100
AcDbEntity
  8
Symbol (ANSI)
100
AcDbMText
 10
6.58261843082193
 20
4.006659580670609
 30
0.0
 40
0.1200000014830762
 41
0.0
 71
     7
 72
     1
  1
0.1989
  7
Text Style29
 73
     1
 44
1.0
1001
ACAD
1000
MTEXTBEGIN
1070
    73
1070
     1
1070
    44
1040
1.0
1070
    74
1070
     0
1000
MTEXTEND
  0
LINE
  5
586
330
567
100
AcDbEntity
  8
Symbol (ANSI)
100
AcDbLine
 10
7.208206598203235
 20
4.28825051013997
 30
0.0
 11
7.825732085213126
 21
4.28825051013997
 31
0.0
  0
LINE
  5
587
330
567
100
AcDbEntity
  8
Symbol (ANSI)
100
AcDbLine
 10
7.208206598203235
 20
4.28825051013997
 30
0.0
 11
7.208206598203235
 21
3.85051435526052
 31
0.0
  0
LINE
  5
588
330
567
100
AcDbEntity
  8
Symbol (ANSI)
100
AcDbLine
 10
7.825732085213126
 20
4.28825051013997
 30
0.0
 11
7.825732085213126
 21
3.85051435526052
 31
0.0
  0
LINE
  5
589
330
567
100
AcDbEntity
  8
Symbol (ANSI)
100
AcDbLine
 10
7.208206598203235
 20
3.85051435526052
 30
0.0
 11
7.825732085213126
 21
3.85051435526052
 31
0.0
  0
MTEXT
  5
58A
330
567
100
AcDbEntity
  8
Symbol (ANSI)
100
AcDbMText
 10
7.280120218609462
 20
4.006659580670609
 30
0.0
 40
0.1200000014830762
 41
0.0
 71
     7
 72
     1
  1
0.1989
  7
Text Style29
 73
     1
 44
1.0
1001
ACAD
1000
MTEXTBEGIN
1070
    73
1070
     1
1070
    44
1040
1.0
1070
    74
1070
     0
1000
MTEXTEND
  0
MTEXT
  5
58B
330
567
100
AcDbEntity
  8
Symbol (ANSI)
100
AcDbMText
 10
8.281307223724148
 20
4.01164111931147
 30
0.0
 40
0.1200000014830762
 41
0.0
 71
     7
 72
     1
  1
REAM 
  7
Text Style29
 73
     1
 44
1.0
1001
ACAD
1000
MTEXTBEGIN
1070
    73
1070
     1
1070
    44
1040
1.0
1070
    74
1070
     0
1000
MTEXTEND
  0
MTEXT
  5
58D
330
567
100
AcDbEntity
  8
Symbol (ANSI)
100
AcDbMText
 10
8.743825328142204
 20
3.981525288857947
 30
0.0
 40
0.1200000014830762
 41
0.0
 71
     7
 72
     1
  1
n
  7
Text Style6
 73
     1
 44
1.0
1001
ACAD
1000
MTEXTBEGIN
1070
    73
1070
     1
1070
    44
1040
1.0
1070
    74
1070
     0
1000
MTEXTEND
  0
MTEXT
  5
58F
330
567
100
AcDbEntity
  8
Symbol (ANSI)
100
AcDbMText
 10
8.894644216269538
 20
4.009112756283919
 30
0.0
 40
0.1200000014830762
 41
0.0
 71
     7
 72
     1
  1
.0635 
  7
Text Style29
 73
     1
 44
1.0
1001
ACAD
1000
MTEXTBEGIN
1070
    73
1070
     1
1070
    44
1040
1.0
1070
    74
1070
     0
1000
MTEXTEND
  0
MTEXT
  5
590
330
567
100
AcDbEntity
  8
Symbol (ANSI)
100
AcDbMText
 10
9.34655813812135
 20
4.003533011112445
 30
0.0
 40
0.1200000014830762
 41
0.0
 71
     7
 72
     1
  1
x
  7
Text Style6
 73
     1
 44
1.0
1001
ACAD
1000
MTEXTBEGIN
1070
    73
1070
     1
1070
    44
1040
1.0
1070
    74
1070
     0
1000
MTEXTEND
  0
MTEXT
  5
591
330
567
100
AcDbEntity
  8
Symbol (ANSI)
100
AcDbMText
 10
9.46610383018598
 20
4.009112756283919
 30
0.0
 40
0.1200000014830762
 41
0.0
 71
     7
 72
     1
  1
 0.20
  7
Text Style29
 73
     1
 44
1.0
1001
ACAD
1000
MTEXTBEGIN
1070
    73
1070
     1
1070
    44
1040
1.0
1070
    74
1070
     0
1000
MTEXTEND
  0
LINE
  5
592
330
567
100
AcDbEntity
  8
Symbol (ANSI)
100
AcDbLine
 10
6.027843585132423
 20
3.85051435526052
 30
0.0
 11
6.430728509638061
 21
3.85051435526052
 31
0.0
  0
LINE
  5
593
330
567
100
AcDbEntity
  8
Symbol (ANSI)
100
AcDbLine
 10
6.430728509638061
 20
3.85051435526052
 30
0.0
 11
6.430728509638061
 21
3.300075061411234
 31
0.0
  0
LINE
  5
594
330
567
100
AcDbEntity
  8
Symbol (ANSI)
100
AcDbLine
 10
6.027843585132423
 20
3.300075061411234
 30
0.0
 11
6.430728509638061
 21
3.300075061411234
 31
0.0
  0
MTEXT
  5
595
330
567
100
AcDbEntity
  8
Symbol (ANSI)
100
AcDbMText
 10
6.201563041243775
 20
3.514030527283674
 30
0.0
 40
0.1200000014830762
 41
0.0
 71
     7
 72
     1
  1
2
  7
Text Style29
 73
     1
 44
1.0
1001
ACAD
1000
MTEXTBEGIN
1070
    73
1070
     1
1070
    44
1040
1.0
1070
    74
1070
     0
1000
MTEXTEND
  0
LINE
  5
596
330
567
100
AcDbEntity
  8
Symbol (ANSI)
100
AcDbLine
 10
6.430728509638061
 20
3.85051435526052
 30
0.0
 11
7.208206598203235
 21
3.85051435526052
 31
0.0
  0
LINE
  5
597
330
567
100
AcDbEntity
  8
Symbol (ANSI)
100
AcDbLine
 10
6.430728509638061
 20
3.85051435526052
 30
0.0
 11
6.430728509638061
 21
3.300075061411234
 31
0.0
  0
LINE
  5
598
330
567
100
AcDbEntity
  8
Symbol (ANSI)
100
AcDbLine
 10
7.208206598203235
 20
3.85051435526052
 30
0.0
 11
7.208206598203235
 21
3.300075061411234
 31
0.0
  0
LINE
  5
599
330
567
100
AcDbEntity
  8
Symbol (ANSI)
100
AcDbLine
 10
6.430728509638061
 20
3.300075061411234
 30
0.0
 11
7.208206598203235
 21
3.300075061411234
 31
0.0
  0
MTEXT
  5
59A
330
567
100
AcDbEntity
  8
Symbol (ANSI)
100
AcDbMText
 10
6.627642746963854
 20
3.512766345769898
 30
0.0
 40
0.1200000014830762
 41
0.0
 71
     7
 72
     1
  1
0.330
  7
Text Style29
 73
     1
 44
1.0
1001
ACAD
1000
MTEXTBEGIN
1070
    73
1070
     1
1070
    44
1040
1.0
1070
    74
1070
     0
1000
MTEXTEND
  0
LINE
  5
59B
330
567
100
AcDbEntity
  8
Symbol (ANSI)
100
AcDbLine
 10
7.208206598203235
 20
3.85051435526052
 30
0.0
 11
7.825732085213126
 21
3.85051435526052
 31
0.0
  0
LINE
  5
59C
330
567
100
AcDbEntity
  8
Symbol (ANSI)
100
AcDbLine
 10
7.208206598203235
 20
3.85051435526052
 30
0.0
 11
7.208206598203235
 21
3.300075061411234
 31
0.0
  0
LINE
  5
59D
330
567
100
AcDbEntity
  8
Symbol (ANSI)
100
AcDbLine
 10
7.825732085213126
 20
3.85051435526052
 30
0.0
 11
7.825732085213126
 21
3.300075061411234
 31
0.0
  0
LINE
  5
59E
330
567
100
AcDbEntity
  8
Symbol (ANSI)
100
AcDbLine
 10
7.208206598203235
 20
3.300075061411234
 30
0.0
 11
7.825732085213126
 21
3.300075061411234
 31
0.0
  0
MTEXT
  5
59F
330
567
100
AcDbEntity
  8
Symbol (ANSI)
100
AcDbMText
 10
7.325144534751387
 20
3.512766345769898
 30
0.0
 40
0.1200000014830762
 41
0.0
 71
     7
 72
     1
  1
0.330
  7
Text Style29
 73
     1
 44
1.0
1001
ACAD
1000
MTEXTBEGIN
1070
    73
1070
     1
1070
    44
1040
1.0
1070
    74
1070
     0
1000
MTEXTEND
  0
MTEXT
  5
5A0
330
567
100
AcDbEntity
  8
Symbol (ANSI)
100
AcDbMText
 10
8.391070068801061
 20
3.639760697497183
 30
0.0
 40
0.1200000014830762
 41
0.0
 71
     7
 72
     1
  1
n
  7
Text Style6
 73
     1
 44
1.0
1001
ACAD
1000
MTEXTBEGIN
1070
    73
1070
     1
1070
    44
1040
1.0
1070
    74
1070
     0
1000
MTEXTEND
  0
MTEXT
  5
5A1
330
567
100
AcDbEntity
  8
Symbol (ANSI)
100
AcDbMText
 10
8.524972126219735
 20
3.667348164923156
 30
0.0
 40
0.1200000014830762
 41
0.0
 71
     7
 72
     1
  1
0.067 in 
  7
Text Style29
 73
     1
 44
1.0
1001
ACAD
1000
MTEXTBEGIN
1070
    73
1070
     1
1070
    44
1040
1.0
1070
    74
1070
     0
1000
MTEXTEND
  0
MTEXT
  5
5A2
330
567
100
AcDbEntity
  8
Symbol (ANSI)
100
AcDbMText
 10
9.17506703333456
 20
3.661768419751681
 30
0.0
 40
0.1200000014830762
 41
0.0
 71
     7
 72
     1
  1
x
  7
Text Style6
 73
     1
 44
1.0
1001
ACAD
1000
MTEXTBEGIN
1070
    73
1070
     1
1070
    44
1040
1.0
1070
    74
1070
     0
1000
MTEXTEND
  0
MTEXT
  5
5A3
330
567
100
AcDbEntity
  8
Symbol (ANSI)
100
AcDbMText
 10
9.29461272539919
 20
3.667348164923156
 30
0.0
 40
0.1200000014830762
 41
0.0
 71
     7
 72
     1
  1
 0.25 
  7
Text Style29
 73
     1
 44
1.0
1001
ACAD
1000
MTEXTBEGIN
1070
    73
1070
     1
1070
    44
1040
1.0
1070
    74
1070
     0
1000
MTEXTEND
  0
MTEXT
  5
5A4
330
567
100
AcDbEntity
  8
Symbol (ANSI)
100
AcDbMText
 10
8.284346679278764
 20
3.340694176661448
 30
0.0
 40
0.1200000014830762
 41
0.0
 71
     7
 72
     1
  1
2-56 UNC - 2B
  7
Text Style29
 73
     1
 44
1.0
1001
ACAD
1000
MTEXTBEGIN
1070
    73
1070
     1
1070
    44
1040
1.0
1070
    74
1070
     0
1000
MTEXTEND
  0
MTEXT
  5
5A5
330
567
100
AcDbEntity
  8
Symbol (ANSI)
100
AcDbMText
 10
9.336790397625788
 20
3.335114431489973
 30
0.0
 40
0.1200000014830762
 41
0.0
 71
     7
 72
     1
  1
x
  7
Text Style6
 73
     1
 44
1.0
1001
ACAD
1000
MTEXTBEGIN
1070
    73
1070
     1
1070
    44
1040
1.0
1070
    74
1070
     0
1000
MTEXTEND
  0
MTEXT
  5
5A6
330
567
100
AcDbEntity
  8
Symbol (ANSI)
100
AcDbMText
 10
9.456336089690418
 20
3.340694176661448
 30
0.0
 40
0.1200000014830762
 41
0.0
 71
     7
 72
     1
  1
 0.19
  7
Text Style29
 73
     1
 44
1.0
1001
ACAD
1000
MTEXTBEGIN
1070
    73
1070
     1
1070
    44
1040
1.0
1070
    74
1070
     0
1000
MTEXTEND
  0
LINE
  5
5A7
330
567
100
AcDbEntity
  8
Symbol (ANSI)
100
AcDbLine
 10
7.825732085213126
 20
3.85051435526052
 30
0.0
 11
10.26931874153268
 21
3.85051435526052
 31
0.0
  0
LINE
  5
5A8
330
567
100
AcDbEntity
  8
Symbol (ANSI)
100
AcDbLine
 10
7.825732085213126
 20
3.85051435526052
 30
0.0
 11
7.825732085213126
 21
3.300075061411234
 31
0.0
  0
LINE
  5
5A9
330
567
100
AcDbEntity
  8
Symbol (ANSI)
100
AcDbLine
 10
10.26931874153268
 20
3.85051435526052
 30
0.0
 11
10.26931874153268
 21
3.300075061411234
 31
0.0
  0
LINE
  5
5AA
330
567
100
AcDbEntity
  8
Symbol (ANSI)
100
AcDbLine
 10
6.027843585132423
 20
3.300075061411234
 30
0.0
 11
6.027843585132423
 21
4.844086542690076
 31
0.0
  0
LINE
  5
5AB
330
567
100
AcDbEntity
  8
Symbol (ANSI)
100
AcDbLine
 10
6.027843585132423
 20
4.844086542690076
 30
0.0
 11
10.26931874153268
 21
4.844086542690076
 31
0.0
  0
LINE
  5
5AC
330
567
100
AcDbEntity
  8
Symbol (ANSI)
100
AcDbLine
 10
10.26931874153268
 20
4.844086542690076
 30
0.0
 11
10.26931874153268
 21
3.300075061411234
 31
0.0
  0
LINE
  5
5AD
330
567
100
AcDbEntity
  8
Symbol (ANSI)
100
AcDbLine
 10
10.26931874153268
 20
3.300075061411234
 30
0.0
 11
6.027843585132423
 21
3.300075061411234
 31
0.0
  0
ENDBLK
  5
569
330
567
100
AcDbEntity
  8
0
100
AcDbBlockEnd
  0
BLOCK
  5
5B0
330
5AF
100
AcDbEntity
  8
0
100
AcDbBlockBegin
  2
Leader Text1
 70
     0
 10
0.0
 20
0.0
 30
0.0
  3
Leader Text1
  1

  0
LINE
  5
5B2
330
5AF
100
AcDbEntity
  8
Symbol (ANSI)
100
AcDbLine
 10
8.24886665336796
 20
6.264163960351133
 30
0.0
 11
8.199583224743109
 21
6.349361748104207
 31
0.0
  0
POLYLINE
  5
5B3
330
5AF
100
AcDbEntity
  8
Symbol (ANSI)
100
AcDb2dPolyline
 66
     1
 10
0.0
 20
0.0
 30
0.0
 70
   128
  0
VERTEX
  5
5B4
330
5B3
100
AcDbEntity
  8
Symbol (ANSI)
100
AcDbVertex
100
AcDb2dVertex
 10
8.265906056081215
 20
6.274020577978899
 30
0.0
  0
VERTEX
  5
5B5
330
5B3
100
AcDbEntity
  8
Symbol (ANSI)
100
AcDbVertex
100
AcDb2dVertex
 10
8.199582888385441
 20
6.349361599899651
 30
0.0
  0
VERTEX
  5
5B7
330
5B3
100
AcDbEntity
  8
Symbol (ANSI)
100
AcDbVertex
100
AcDb2dVertex
 10
8.231826842300534
 20
6.254307303841658
 30
0.0
  0
VERTEX
  5
5B8
330
5B3
100
AcDbEntity
  8
Symbol (ANSI)
100
AcDbVertex
100
AcDb2dVertex
 10
8.265906056081215
 20
6.274020577978899
 30
0.0
  0
SEQEND
  5
5B6
330
5B3
100
AcDbEntity
  8
Symbol (ANSI)
  0
SOLID
  5
5B9
330
5AF
100
AcDbEntity
  8
Symbol (ANSI)
100
AcDbTrace
 10
8.265906056081215
 20
6.274020577978899
 30
0.0
 11
8.199582888385441
 21
6.349361599899651
 31
0.0
 12
8.231826842300534
 22
6.254307303841658
 32
0.0
 13
8.265906056081215
 23
6.274020577978899
 33
0.0
  0
LINE
  5
5BA
330
5AF
100
AcDbEntity
  8
Symbol (ANSI)
100
AcDbLine
 10
8.265906210918576
 20
6.274020646076102
 30
0.0
 11
8.199583224743109
 21
6.349361748104207
 31
0.0
  0
LINE
  5
5BB
330
5AF
100
AcDbEntity
  8
Symbol (ANSI)
100
AcDbLine
 10
8.199583224743109
 20
6.349361748104207
 30
0.0
 11
8.231827095817346
 21
6.254307274626163
 31
0.0
  0
LINE
  5
5BC
330
5AF
100
AcDbEntity
  8
Symbol (ANSI)
100
AcDbLine
 10
8.231827095817346
 20
6.254307274626163
 30
0.0
 11
8.265906210918576
 21
6.274020646076102
 31
0.0
  0
LINE
  5
5BD
330
5AF
100
AcDbEntity
  8
Symbol (ANSI)
100
AcDbLine
 10
8.24886665336796
 20
6.264163960351133
 30
0.0
 11
8.309834033987756
 21
6.158767763316109
 31
0.0
  0
LINE
  5
5BE
330
5AF
100
AcDbEntity
  8
Symbol (ANSI)
100
AcDbLine
 10
8.309834033987756
 20
6.158767763316109
 30
0.0
 11
8.408259230838151
 21
6.158767763316109
 31
0.0
  0
MTEXT
  5
5BF
330
5AF
100
AcDbEntity
  8
Symbol (ANSI)
100
AcDbMText
 10
8.444207496094056
 20
6.098573274314024
 30
0.0
 40
0.1200000014830762
 41
0.0
 71
     7
 72
     1
  1
1
  7
Text Style29
 73
     1
 44
1.0
1001
ACAD
1000
MTEXTBEGIN
1070
    73
1070
     1
1070
    44
1040
1.0
1070
    74
1070
     0
1000
MTEXTEND
  0
ENDBLK
  5
5B1
330
5AF
100
AcDbEntity
  8
0
100
AcDbBlockEnd
  0
BLOCK
  5
5C2
330
5C1
100
AcDbEntity
  8
0
100
AcDbBlockBegin
  2
Leader Text2
 70
     0
 10
0.0
 20
0.0
 30
0.0
  3
Leader Text2
  1

  0
LINE
  5
5C4
330
5C1
100
AcDbEntity
  8
Symbol (ANSI)
100
AcDbLine
 10
8.794912968952381
 20
6.749145978326337
 30
0.0
 11
8.74599020757758
 21
6.834551380933567
 31
0.0
  0
POLYLINE
  5
5C5
330
5C1
100
AcDbEntity
  8
Symbol (ANSI)
100
AcDb2dPolyline
 66
     1
 10
0.0
 20
0.0
 30
0.0
 70
   128
  0
VERTEX
  5
5C6
330
5C5
100
AcDbEntity
  8
Symbol (ANSI)
100
AcDbVertex
100
AcDb2dVertex
 10
8.811994237223947
 20
6.758930176261841
 30
0.0
  0
VERTEX
  5
5C7
330
5C5
100
AcDbEntity
  8
Symbol (ANSI)
100
AcDbVertex
100
AcDb2dVertex
 10
8.745990212508072
 20
6.834551293080246
 30
0.0
  0
VERTEX
  5
5C9
330
5C5
100
AcDbEntity
  8
Symbol (ANSI)
100
AcDbVertex
100
AcDb2dVertex
 10
8.777831670806163
 20
6.739361079659047
 30
0.0
  0
VERTEX
  5
5CA
330
5C5
100
AcDbEntity
  8
Symbol (ANSI)
100
AcDbVertex
100
AcDb2dVertex
 10
8.811994237223947
 20
6.758930176261841
 30
0.0
  0
SEQEND
  5
5C8
330
5C5
100
AcDbEntity
  8
Symbol (ANSI)
  0
SOLID
  5
5CB
330
5C1
100
AcDbEntity
  8
Symbol (ANSI)
100
AcDbTrace
 10
8.811994237223947
 20
6.758930176261841
 30
0.0
 11
8.745990212508072
 21
6.834551293080246
 31
0.0
 12
8.777831670806163
 22
6.739361079659047
 32
0.0
 13
8.811994237223947
 23
6.758930176261841
 33
0.0
  0
LINE
  5
5CC
330
5C1
100
AcDbEntity
  8
Symbol (ANSI)
100
AcDbLine
 10
8.811994049473828
 20
6.758930530601297
 30
0.0
 11
8.74599020757758
 21
6.834551380933567
 31
0.0
  0
LINE
  5
5CD
330
5C1
100
AcDbEntity
  8
Symbol (ANSI)
100
AcDbLine
 10
8.74599020757758
 20
6.834551380933567
 30
0.0
 11
8.777831888430936
 21
6.739361426051377
 31
0.0
  0
LINE
  5
5CE
330
5C1
100
AcDbEntity
  8
Symbol (ANSI)
100
AcDbLine
 10
8.777831888430936
 20
6.739361426051377
 30
0.0
 11
8.811994049473828
 21
6.758930530601297
 31
0.0
  0
LINE
  5
5CF
330
5C1
100
AcDbEntity
  8
Symbol (ANSI)
100
AcDbLine
 10
8.794912968952381
 20
6.749145978326337
 30
0.0
 11
8.899386870357943
 21
6.566763885395542
 31
0.0
  0
LINE
  5
5D0
330
5C1
100
AcDbEntity
  8
Symbol (ANSI)
100
AcDbLine
 10
8.899386870357943
 20
6.566763885395542
 30
0.0
 11
8.997812067208336
 21
6.566763885395542
 31
0.0
  0
MTEXT
  5
5D1
330
5C1
100
AcDbEntity
  8
Symbol (ANSI)
100
AcDbMText
 10
9.015113371342195
 20
6.505499704343339
 30
0.0
 40
0.1200000014830762
 41
0.0
 71
     7
 72
     1
  1
2
  7
Text Style29
 73
     1
 44
1.0
1001
ACAD
1000
MTEXTBEGIN
1070
    73
1070
     1
1070
    44
1040
1.0
1070
    74
1070
     0
1000
MTEXTEND
  0
ENDBLK
  5
5C3
330
5C1
100
AcDbEntity
  8
0
100
AcDbBlockEnd
  0
ENDSEC
  0
SECTION
  2
ENTITIES
  0
INSERT
  5
FE
330
37
100
AcDbEntity
  8
0
100
AcDbBlockReference
  2
Borders Default Border
 10
0.0
 20
0.0
 30
0.0
 41
0.25
 42
0.25
 43
0.25
  0
INSERT
  5
12F
330
37
100
AcDbEntity
  8
0
100
AcDbBlockReference
 66
     1
  2
Title Blocks ANSI A
 10
-0.1575056471456691
 20
-1.154649044694601
 30
0.0
 41
0.25
 42
0.25
 43
0.25
  0
ATTRIB
  5
131
330
12F
100
AcDbEntity
  8
Title (ANSI)
100
AcDbText
 10
1.09749686269685
 20
0.5403710544905531
 30
0.0
 40
0.0250000007978575
  1
Da Chow
  7
Note Text (ANSI)
 11
1.09749686269685
 21
0.5375
 31
0.0
100
AcDbAttribute
  2
AUTHOR
 70
     0
 74
     1
  0
ATTRIB
  5
132
330
12F
100
AcDbEntity
  8
Title (ANSI)
100
AcDbText
 10
1.09749686269685
 20
0.477871054490553
 30
0.0
 40
0.0250000007978575
  1

  7
Note Text (ANSI)
 11
1.09749686269685
 21
0.4749999999999999
 31
0.0
100
AcDbAttribute
  2
CHECKED_BY
 70
     0
 74
     1
  0
ATTRIB
  5
133
330
12F
100
AcDbEntity
  8
Title (ANSI)
100
AcDbText
 10
1.09749686269685
 20
0.3528710544905532
 30
0.0
 40
0.0250000007978575
  1

  7
Note Text (ANSI)
 11
1.09749686269685
 21
0.3500000000000001
 31
0.0
100
AcDbAttribute
  2
MFG_APPROVED_BY
 70
     0
 74
     1
  0
ATTRIB
  5
134
330
12F
100
AcDbEntity
  8
Title (ANSI)
100
AcDbText
 10
1.09749686269685
 20
0.2903710544905534
 30
0.0
 40
0.0250000007978575
  1

  7
Note Text (ANSI)
 11
1.09749686269685
 21
0.2875000000000003
 31
0.0
100
AcDbAttribute
  2
ENG_APPROVED_BY
 70
     0
 74
     1
  0
ATTRIB
  5
135
330
12F
100
AcDbEntity
  8
Title (ANSI)
100
AcDbText
 10
1.40999749015748
 20
0.5403710544905538
 30
0.0
 40
0.0250000007978575
  1
12/3/2008
  7
Note Text (ANSI)
 11
1.40999749015748
 21
0.5375000000000007
 31
0.0
100
AcDbAttribute
  2
CREATION_DATE
 70
     0
 74
     1
  0
ATTRIB
  5
136
330
12F
100
AcDbEntity
  8
Title (ANSI)
100
AcDbText
 10
1.40999749015748
 20
0.4778710544905537
 30
0.0
 40
0.0250000007978575
  1
1/14/2009
  7
Note Text (ANSI)
 11
1.40999749015748
 21
0.4750000000000006
 31
0.0
100
AcDbAttribute
  2
CHECKED_DATE
 70
     0
 74
     1
  0
ATTRIB
  5
137
330
12F
100
AcDbEntity
  8
Title (ANSI)
100
AcDbText
 10
1.40999749015748
 20
0.352871054490554
 30
0.0
 40
0.0250000007978575
  1

  7
Note Text (ANSI)
 11
1.40999749015748
 21
0.3500000000000009
 31
0.0
100
AcDbAttribute
  2
MFG_APPROVED_DATE
 70
     0
 74
     1
  0
ATTRIB
  5
138
330
12F
100
AcDbEntity
  8
Title (ANSI)
100
AcDbText
 10
1.40999749015748
 20
0.2903710544905541
 30
0.0
 40
0.0250000007978575
  1

  7
Note Text (ANSI)
 11
1.40999749015748
 21
0.287500000000001
 31
0.0
100
AcDbAttribute
  2
ENG_APPROVAL_DATE
 70
     0
 74
     1
  0
ATTRIB
  5
139
330
12F
100
AcDbEntity
  8
Title (ANSI)
100
AcDbText
 10
1.82015014128863
 20
0.5025002834268216
 30
0.0
 40
0.0300000003707691
  1
RADIO ASTRONOMY LABORATORY
  7
Note Text (ANSI)
 72
     1
 11
2.140005753032178
 21
0.5175002836122062
 31
0.0
100
AcDbAttribute
  2
COMPANY
 70
     0
 74
     2
  0
ATTRIB
  5
13A
330
12F
100
AcDbEntity
  8
Title (ANSI)
100
AcDbText
 10
1.630011506064358
 20
0.3150003762909956
 30
0.0
 40
0.0300000003707691
  1

  7
Note Text (ANSI)
 11
1.630011506064358
 21
0.3300003764763801
 31
0.0
100
AcDbAttribute
  2
TITLE
 70
     0
 74
     2
  0
ATTRIB
  5
13B
330
12F
100
AcDbEntity
  8
Title (ANSI)
100
AcDbText
 10
1.664418993133777
 20
0.1762500926787902
 30
0.0
 40
0.0300000003707691
  1
A
  7
Note Text (ANSI)
 72
     1
 11
1.676789711889756
 21
0.1912500928641747
 31
0.0
100
AcDbAttribute
  2
Sheet_Size
 70
     0
 74
     2
  0
ATTRIB
  5
13C
330
12F
100
AcDbEntity
  8
Title (ANSI)
100
AcDbText
 10
1.972498619586613
 20
0.1659452653212929
 30
0.0
 40
0.0300000003707691
  1
Block2-V61
  7
Note Text (ANSI)
 11
1.972498619586613
 21
0.1625000000000024
 31
0.0
100
AcDbAttribute
  2
PART_NUMBER
 70
     0
 74
     1
  0
ATTRIB
  5
13D
330
12F
100
AcDbEntity
  8
Title (ANSI)
100
AcDbText
 10
2.607499904625985
 20
0.1762500926787916
 30
0.0
 40
0.0300000003707691
  1

  7
Note Text (ANSI)
 72
     1
 11
2.607499904625985
 21
0.1912500928641761
 31
0.0
100
AcDbAttribute
  2
REVISION_NUMBER
 70
     0
 74
     2
  0
SEQEND
  5
130
330
12F
100
AcDbEntity
  8
0
  0
LINE
  5
13E
330
37
100
AcDbEntity
  8
Visible (ANSI)
100
AcDbLine
 10
1.32232967371508
 20
1.437949757524438
 30
0.0
 11
1.32232967371508
 21
1.415949757524438
 31
0.0
  0
LINE
  5
13F
330
37
100
AcDbEntity
  8
Visible (ANSI)
100
AcDbLine
 10
1.32232967371508
 20
1.437949757524438
 30
0.0
 11
1.32232967371508
 21
1.865949757524438
 31
0.0
  0
LINE
  5
140
330
37
100
AcDbEntity
  8
Visible (ANSI)
100
AcDbLine
 10
0.8932028837150804
 20
1.865949757524438
 30
0.0
 11
0.8932028837150804
 21
1.775949757524535
 31
0.0
  0
LINE
  5
141
330
37
100
AcDbEntity
  8
Visible (ANSI)
100
AcDbLine
 10
0.8932028837150804
 20
1.775949757524535
 30
0.0
 11
0.8932038837150804
 21
1.750949757524438
 31
0.0
  0
LINE
  5
142
330
37
100
AcDbEntity
  8
Visible (ANSI)
100
AcDbLine
 10
0.8932038837150804
 20
1.750949757524438
 30
0.0
 11
0.8932038837150804
 21
1.650949757524438
 31
0.0
  0
ARC
  5
143
330
37
100
AcDbEntity
  8
Visible (ANSI)
100
AcDbCircle
 10
0.9239538837150803
 20
1.650949757524438
 30
0.0
 40
0.0307500000000001
100
AcDbArc
 50
180.0
 51
269.9999999999997
  0
LINE
  5
144
330
37
100
AcDbEntity
  8
Visible (ANSI)
100
AcDbLine
 10
0.9239538837150803
 20
1.620199757524438
 30
0.0
 11
1.080378132410649
 21
1.620199757524438
 31
0.0
  0
ARC
  5
145
330
37
100
AcDbEntity
  8
Visible (ANSI)
100
AcDbCircle
 10
1.08495388371508
 20
1.612449757524438
 30
0.0
 40
0.009
100
AcDbArc
 50
90.0
 51
120.5584317859353
  0
LINE
  5
146
330
37
100
AcDbEntity
  8
Visible (ANSI)
100
AcDbLine
 10
1.08495388371508
 20
1.621449757524438
 30
0.0
 11
1.092728933916085
 21
1.621449757524438
 31
0.0
  0
ARC
  5
147
330
37
100
AcDbEntity
  8
Visible (ANSI)
100
AcDbCircle
 10
1.09895388371508
 20
1.614949757524438
 30
0.0
 40
0.0089999999999998
100
AcDbArc
 50
89.99999999999889
 51
133.7617426926802
  0
LINE
  5
148
330
37
100
AcDbEntity
  8
Visible (ANSI)
100
AcDbLine
 10
1.09895388371508
 20
1.623949757524438
 30
0.0
 11
1.105829980290693
 21
1.623949757524438
 31
0.0
  0
ARC
  5
149
330
37
100
AcDbEntity
  8
Visible (ANSI)
100
AcDbCircle
 10
1.11295388371508
 20
1.618449757524438
 30
0.0
 40
0.0090000000000001
100
AcDbArc
 50
90.0
 51
142.3301130356697
  0
LINE
  5
14A
330
37
100
AcDbEntity
  8
Visible (ANSI)
100
AcDbLine
 10
1.11295388371508
 20
1.627449757524438
 30
0.0
 11
1.120297029465588
 21
1.627449757524438
 31
0.0
  0
ARC
  5
14B
330
37
100
AcDbEntity
  8
Visible (ANSI)
100
AcDbCircle
 10
1.12595388371508
 20
1.620449757524438
 30
0.0
 40
0.0089999999999997
100
AcDbArc
 50
89.99999999999889
 51
128.9424412689817
  0
LINE
  5
14C
330
37
100
AcDbEntity
  8
Visible (ANSI)
100
AcDbLine
 10
1.12595388371508
 20
1.629449757524438
 30
0.0
 11
1.13307967371508
 21
1.629449757524438
 31
0.0
  0
ARC
  5
14D
330
37
100
AcDbEntity
  8
Visible (ANSI)
100
AcDbCircle
 10
1.13307967371508
 20
1.660199757524438
 30
0.0
 40
0.03075
100
AcDbArc
 50
270.0
 51
0.0
  0
LINE
  5
14E
330
37
100
AcDbEntity
  8
Visible (ANSI)
100
AcDbLine
 10
1.16382967371508
 20
1.660199757524438
 30
0.0
 11
1.16382967371508
 21
1.710949757524438
 31
0.0
  0
ARC
  5
14F
330
37
100
AcDbEntity
  8
Visible (ANSI)
100
AcDbCircle
 10
1.21307967371508
 20
1.710949757524438
 30
0.0
 40
0.04925
100
AcDbArc
 50
0.0
 51
180.0
  0
LINE
  5
150
330
37
100
AcDbEntity
  8
Visible (ANSI)
100
AcDbLine
 10
1.26232967371508
 20
1.710949757524438
 30
0.0
 11
1.26232967371508
 21
1.437949757524438
 31
0.0
  0
LINE
  5
151
330
37
100
AcDbEntity
  8
Visible (ANSI)
100
AcDbLine
 10
1.26232967371508
 20
1.437949757524438
 30
0.0
 11
1.32232967371508
 21
1.437949757524438
 31
0.0
  0
LINE
  5
152
330
37
100
AcDbEntity
  8
Visible (ANSI)
100
AcDbLine
 10
1.32232967371508
 20
1.865949757524438
 30
0.0
 11
0.8932028837150802
 21
1.865949757524438
 31
0.0
  0
LINE
  5
153
330
37
100
AcDbEntity
  8
Visible (ANSI)
100
AcDbLine
 10
1.13232967371508
 20
1.434449757524438
 30
0.0
 11
1.13232967371508
 21
1.415949757524438
 31
0.0
  0
LINE
  5
154
330
37
100
AcDbEntity
  8
Visible (ANSI)
100
AcDbLine
 10
1.13232967371508
 20
1.415949757524438
 30
0.0
 11
1.16382967371508
 21
1.415949757524438
 31
0.0
  0
LINE
  5
155
330
37
100
AcDbEntity
  8
Visible (ANSI)
100
AcDbLine
 10
1.16382967371508
 20
1.415949757524438
 30
0.0
 11
1.16382967371508
 21
1.561699757524438
 31
0.0
  0
ARC
  5
156
330
37
100
AcDbEntity
  8
Visible (ANSI)
100
AcDbCircle
 10
1.13307967371508
 20
1.561699757524438
 30
0.0
 40
0.03075
100
AcDbArc
 50
0.0
 51
90.00000000000033
  0
LINE
  5
157
330
37
100
AcDbEntity
  8
Visible (ANSI)
100
AcDbLine
 10
1.13307967371508
 20
1.592449757524438
 30
0.0
 11
1.12595388371508
 21
1.592449757524438
 31
0.0
  0
ARC
  5
158
330
37
100
AcDbEntity
  8
Visible (ANSI)
100
AcDbCircle
 10
1.12595388371508
 20
1.601449757524438
 30
0.0
 40
0.009
100
AcDbArc
 50
231.0575587310187
 51
270.0
  0
LINE
  5
159
330
37
100
AcDbEntity
  8
Visible (ANSI)
100
AcDbLine
 10
1.120297029465588
 20
1.594449757524438
 30
0.0
 11
1.11295388371508
 21
1.594449757524438
 31
0.0
  0
ARC
  5
15A
330
37
100
AcDbEntity
  8
Visible (ANSI)
100
AcDbCircle
 10
1.11295388371508
 20
1.603449757524438
 30
0.0
 40
0.0090000000000001
100
AcDbArc
 50
217.6698869643303
 51
270.0
  0
LINE
  5
15B
330
37
100
AcDbEntity
  8
Visible (ANSI)
100
AcDbLine
 10
1.105829980290693
 20
1.597949757524438
 30
0.0
 11
1.09895388371508
 21
1.597949757524438
 31
0.0
  0
ARC
  5
15C
330
37
100
AcDbEntity
  8
Visible (ANSI)
100
AcDbCircle
 10
1.09895388371508
 20
1.606949757524438
 30
0.0
 40
0.0089999999999999
100
AcDbArc
 50
226.238257307319
 51
270.0
  0
LINE
  5
15D
330
37
100
AcDbEntity
  8
Visible (ANSI)
100
AcDbLine
 10
1.092728933916085
 20
1.600449757524438
 30
0.0
 11
1.08495388371508
 21
1.600449757524438
 31
0.0
  0
ARC
  5
15E
330
37
100
AcDbEntity
  8
Visible (ANSI)
100
AcDbCircle
 10
1.08495388371508
 20
1.609449757524438
 30
0.0
 40
0.0089999999999997
100
AcDbArc
 50
239.4415682140636
 51
270.0
  0
LINE
  5
15F
330
37
100
AcDbEntity
  8
Visible (ANSI)
100
AcDbLine
 10
1.080378132410649
 20
1.601699757524438
 30
0.0
 11
0.9239538837150803
 21
1.601699757524438
 31
0.0
  0
ARC
  5
160
330
37
100
AcDbEntity
  8
Visible (ANSI)
100
AcDbCircle
 10
0.9239538837150803
 20
1.650949757524438
 30
0.0
 40
0.0492499999999999
100
AcDbArc
 50
180.0
 51
270.0
  0
LINE
  5
161
330
37
100
AcDbEntity
  8
Visible (ANSI)
100
AcDbLine
 10
0.8747038837150803
 20
1.650949757524438
 30
0.0
 11
0.8747038837150803
 21
1.750949757524438
 31
0.0
  0
LINE
  5
162
330
37
100
AcDbEntity
  8
Visible (ANSI)
100
AcDbLine
 10
0.8747038837150803
 20
1.750949757524438
 30
0.0
 11
0.8747048837150803
 21
1.775949757523824
 31
0.0
  0
LINE
  5
163
330
37
100
AcDbEntity
  8
Visible (ANSI)
100
AcDbLine
 10
0.8747048837150803
 20
1.775949757523824
 30
0.0
 11
0.8747048837150803
 21
1.865949757524438
 31
0.0
  0
LINE
  5
164
330
37
100
AcDbEntity
  8
Visible (ANSI)
100
AcDbLine
 10
0.8747048837150803
 20
1.865949757524438
 30
0.0
 11
0.4223296837150805
 21
1.865949757524438
 31
0.0
  0
LINE
  5
165
330
37
100
AcDbEntity
  8
Visible (ANSI)
100
AcDbLine
 10
0.4223296837150805
 20
1.865949757524438
 30
0.0
 11
0.4223296837150805
 21
1.415949757524438
 31
0.0
  0
LINE
  5
166
330
37
100
AcDbEntity
  8
Visible (ANSI)
100
AcDbLine
 10
0.4223296837150805
 20
1.415949757524438
 30
0.0
 11
1.11382967371508
 21
1.415949757524438
 31
0.0
  0
LINE
  5
167
330
37
100
AcDbEntity
  8
Visible (ANSI)
100
AcDbLine
 10
1.11382967371508
 20
1.415949757524438
 30
0.0
 11
1.11382967371508
 21
1.434449757524438
 31
0.0
  0
LINE
  5
168
330
37
100
AcDbEntity
  8
Visible (ANSI)
100
AcDbLine
 10
1.11382967371508
 20
1.434449757524438
 30
0.0
 11
1.13232967371508
 21
1.434449757524438
 31
0.0
  0
LINE
  5
169
330
37
100
AcDbEntity
  8
Visible (ANSI)
100
AcDbLine
 10
1.32232967371508
 20
1.415949757524438
 30
0.0
 11
1.26232967371508
 21
1.415949757524438
 31
0.0
  0
LINE
  5
16A
330
37
100
AcDbEntity
  8
Visible (ANSI)
100
AcDbLine
 10
1.26232967371508
 20
1.415949757524438
 30
0.0
 11
1.25202967371508
 21
1.415949757524438
 31
0.0
  0
LINE
  5
16B
330
37
100
AcDbEntity
  8
Visible (ANSI)
100
AcDbLine
 10
0.8747048837150803
 20
1.865949757524438
 30
0.0
 11
0.8932028837150804
 21
1.865949757524438
 31
0.0
  0
LINE
  5
16C
330
37
100
AcDbEntity
  8
Visible (ANSI)
100
AcDbLine
 10
1.25202967371508
 20
1.415949757524438
 30
0.0
 11
1.25202967371508
 21
1.424449757524438
 31
0.0
  0
LINE
  5
16D
330
37
100
AcDbEntity
  8
Visible (ANSI)
100
AcDbLine
 10
1.25202967371508
 20
1.424449757524438
 30
0.0
 11
1.24732967371508
 21
1.424449757524438
 31
0.0
  0
ARC
  5
16E
330
37
100
AcDbEntity
  8
Visible (ANSI)
100
AcDbCircle
 10
1.24732967371508
 20
1.427949757524438
 30
0.0
 40
0.0035
100
AcDbArc
 50
180.0
 51
270.0
  0
ARC
  5
16F
330
37
100
AcDbEntity
  8
Visible (ANSI)
100
AcDbCircle
 10
1.21307967371508
 20
1.710949757524438
 30
0.0
 40
0.03075
100
AcDbArc
 50
0.0
 51
180.0
  0
LINE
  5
170
330
37
100
AcDbEntity
  8
Visible (ANSI)
100
AcDbLine
 10
1.18232967371508
 20
1.710949757524438
 30
0.0
 11
1.18232967371508
 21
1.660199757524438
 31
0.0
  0
ARC
  5
171
330
37
100
AcDbEntity
  8
Visible (ANSI)
100
AcDbCircle
 10
1.13307967371508
 20
1.660199757524438
 30
0.0
 40
0.04925
100
AcDbArc
 50
281.5657063836212
 51
0.0
  0
LINE
  5
172
330
37
100
AcDbEntity
  8
Visible (ANSI)
100
AcDbLine
 10
1.14295388371508
 20
1.611949757764066
 30
0.0
 11
1.14295388371508
 21
1.60994975728481
 31
0.0
  0
ARC
  5
173
330
37
100
AcDbEntity
  8
Visible (ANSI)
100
AcDbCircle
 10
1.13307967371508
 20
1.561699757524438
 30
0.0
 40
0.04925
100
AcDbArc
 50
0.0
 51
78.4342936163788
  0
LINE
  5
174
330
37
100
AcDbEntity
  8
Visible (ANSI)
100
AcDbLine
 10
1.18232967371508
 20
1.561699757524438
 30
0.0
 11
1.18232967371508
 21
1.415949757524438
 31
0.0
  0
LINE
  5
175
330
37
100
AcDbEntity
  8
Visible (ANSI)
100
AcDbLine
 10
1.18232967371508
 20
1.415949757524438
 30
0.0
 11
1.16382967371508
 21
1.415949757524438
 31
0.0
  0
LINE
  5
176
330
37
100
AcDbEntity
  8
Visible (ANSI)
100
AcDbLine
 10
1.26232967371508
 20
1.434449757524438
 30
0.0
 11
1.24382967371508
 21
1.434449757524438
 31
0.0
  0
LINE
  5
177
330
37
100
AcDbEntity
  8
Visible (ANSI)
100
AcDbLine
 10
1.13232967371508
 20
1.415949757524438
 30
0.0
 11
1.11382967371508
 21
1.415949757524438
 31
0.0
  0
LINE
  5
178
330
37
100
AcDbEntity
  8
Visible (ANSI)
100
AcDbLine
 10
1.26232967371508
 20
1.415949757524438
 30
0.0
 11
1.26232967371508
 21
1.437949757524438
 31
0.0
  0
LINE
  5
179
330
37
100
AcDbEntity
  8
Visible (ANSI)
100
AcDbLine
 10
1.24382967371508
 20
1.427949757524438
 30
0.0
 11
1.24382967371508
 21
1.710949757524438
 31
0.0
  0
LINE
  5
17A
330
37
100
AcDbEntity
  8
Visible (ANSI)
100
AcDbLine
 10
1.18232967371508
 20
1.415949757524438
 30
0.0
 11
1.25202967371508
 21
1.415949757524438
 31
0.0
  0
CIRCLE
  5
17B
330
37
100
AcDbEntity
  8
Visible (ANSI)
100
AcDbCircle
 10
0.8839488329150803
 20
1.514944706724438
 30
0.0
 40
0.0445
  0
CIRCLE
  5
17C
330
37
100
AcDbEntity
  8
Visible (ANSI)
100
AcDbCircle
 10
0.6859589345150804
 20
1.514944706724438
 30
0.0
 40
0.0445
  0
CIRCLE
  5
17D
330
37
100
AcDbEntity
  8
Visible (ANSI)
100
AcDbCircle
 10
1.08295388371508
 20
1.762949757524438
 30
0.0
 40
0.043
  0
CIRCLE
  5
17E
330
37
100
AcDbEntity
  8
Visible (ANSI)
100
AcDbCircle
 10
1.08295388371508
 20
1.762949757524438
 30
0.0
 40
0.046
  0
CIRCLE
  5
17F
330
37
100
AcDbEntity
  8
Visible (ANSI)
100
AcDbCircle
 10
0.8839488329150803
 20
1.514944706724438
 30
0.0
 40
0.0475
  0
CIRCLE
  5
180
330
37
100
AcDbEntity
  8
Visible (ANSI)
100
AcDbCircle
 10
0.6859589345150804
 20
1.514944706724438
 30
0.0
 40
0.0475
  0
CIRCLE
  5
181
330
37
100
AcDbEntity
  8
Visible (ANSI)
100
AcDbCircle
 10
0.5369690837150804
 20
1.762949757524438
 30
0.0
 40
0.046
  0
CIRCLE
  5
182
330
37
100
AcDbEntity
  8
Visible (ANSI)
100
AcDbCircle
 10
1.08295388371508
 20
1.515949757524438
 30
0.0
 40
0.05
  0
CIRCLE
  5
183
330
37
100
AcDbEntity
  8
Visible (ANSI)
100
AcDbCircle
 10
0.6769538837150804
 20
1.665949757524438
 30
0.0
 40
0.05
  0
CIRCLE
  5
184
330
37
100
AcDbEntity
  8
Visible (ANSI)
100
AcDbCircle
 10
0.6769538837150804
 20
1.665949757524438
 30
0.0
 40
0.047
  0
CIRCLE
  5
185
330
37
100
AcDbEntity
  8
Visible (ANSI)
100
AcDbCircle
 10
0.5369690837150804
 20
1.762949757524438
 30
0.0
 40
0.043
  0
CIRCLE
  5
186
330
37
100
AcDbEntity
  8
Visible (ANSI)
100
AcDbCircle
 10
1.08295388371508
 20
1.515949757524438
 30
0.0
 40
0.047
  0
CIRCLE
  5
187
330
37
100
AcDbEntity
  8
Hidden Narrow (ANSI)
 48
1.066956043243408
100
AcDbCircle
 10
1.08295388371508
 20
1.762949757524438
 30
0.0
 40
0.05265
  0
CIRCLE
  5
188
330
37
100
AcDbEntity
  8
Hidden Narrow (ANSI)
 48
1.066956043243408
100
AcDbCircle
 10
0.5369690837150804
 20
1.762949757524438
 30
0.0
 40
0.05265
  0
LINE
  5
189
330
37
100
AcDbEntity
  8
Visible (ANSI)
100
AcDbLine
 10
1.322329673715143
 20
1.177728337379927
 30
0.0
 11
1.322329673715143
 21
1.155728337379921
 31
0.0
  0
LINE
  5
18A
330
37
100
AcDbEntity
  8
Visible (ANSI)
100
AcDbLine
 10
1.322329673715142
 20
1.155728337379921
 30
0.0
 11
1.322329673715143
 21
0.7277283373799214
 31
0.0
  0
LINE
  5
18B
330
37
100
AcDbEntity
  8
Visible (ANSI)
100
AcDbLine
 10
0.7757048837151431
 20
0.7277283373799214
 30
0.0
 11
0.4223296837151432
 21
0.7277283373799214
 31
0.0
  0
LINE
  5
18C
330
37
100
AcDbEntity
  8
Visible (ANSI)
100
AcDbLine
 10
1.322329673715143
 20
0.7277283373799214
 30
0.0
 11
0.794202883715143
 21
0.7277283373799214
 31
0.0
  0
LINE
  5
18D
330
37
100
AcDbEntity
  8
Visible (ANSI)
100
AcDbLine
 10
0.794202883715143
 20
0.727728337379927
 30
0.0
 11
0.7757048837151431
 21
0.727728337379927
 31
0.0
  0
LINE
  5
18E
330
37
100
AcDbEntity
  8
Visible (ANSI)
100
AcDbLine
 10
1.252029673715143
 20
1.177728337380017
 30
0.0
 11
1.262329673715142
 21
1.177728337380008
 31
0.0
  0
LINE
  5
18F
330
37
100
AcDbEntity
  8
Visible (ANSI)
100
AcDbLine
 10
1.262329673715142
 20
1.177728337379927
 30
0.0
 11
1.322329673715142
 21
1.177728337379927
 31
0.0
  0
LINE
  5
190
330
37
100
AcDbEntity
  8
Visible (ANSI)
100
AcDbLine
 10
1.132329673715142
 20
1.177728337379921
 30
0.0
 11
1.163829673715143
 21
1.177728337379921
 31
0.0
  0
LINE
  5
191
330
37
100
AcDbEntity
  8
Visible (ANSI)
100
AcDbLine
 10
0.4223296837151432
 20
1.177728337379921
 30
0.0
 11
1.113829673715142
 21
1.177728337379921
 31
0.0
  0
LINE
  5
192
330
37
100
AcDbEntity
  8
Visible (ANSI)
100
AcDbLine
 10
1.113829673715142
 20
1.177728337379926
 30
0.0
 11
1.132329673715142
 21
1.177728337379926
 31
0.0
  0
LINE
  5
193
330
37
100
AcDbEntity
  8
Visible (ANSI)
100
AcDbLine
 10
1.113829673715142
 20
1.031978337379921
 30
0.0
 11
1.113829673715142
 21
1.177728337379921
 31
0.0
  0
LINE
  5
194
330
37
100
AcDbEntity
  8
Visible (ANSI)
100
AcDbLine
 10
0.4223296837151432
 20
1.177728337379921
 30
0.0
 11
0.4223296837151432
 21
0.7277283373799214
 31
0.0
  0
LINE
  5
195
330
37
100
AcDbEntity
  8
Visible (ANSI)
100
AcDbLine
 10
0.7757048837151431
 20
0.7277283373799214
 30
0.0
 11
0.7757048837151431
 21
0.817728337380535
 31
0.0
  0
LINE
  5
196
330
37
100
AcDbEntity
  8
Visible (ANSI)
100
AcDbLine
 10
0.7757048837151431
 20
0.817728337380535
 30
0.0
 11
0.775703883715143
 21
0.8427283373799212
 31
0.0
  0
LINE
  5
197
330
37
100
AcDbEntity
  8
Visible (ANSI)
100
AcDbLine
 10
0.775703883715143
 20
0.8427283373799212
 30
0.0
 11
0.775703883715143
 21
0.9427283373799212
 31
0.0
  0
ARC
  5
198
330
37
100
AcDbEntity
  8
Visible (ANSI)
100
AcDbCircle
 10
0.8249538837151428
 20
0.9427283373799214
 30
0.0
 40
0.0492499999999999
100
AcDbArc
 50
89.9999999999998
 51
180.0
  0
LINE
  5
199
330
37
100
AcDbEntity
  8
Visible (ANSI)
100
AcDbLine
 10
0.824953883715143
 20
0.9919783373799214
 30
0.0
 11
1.030378132410712
 21
0.9919783373799214
 31
0.0
  0
ARC
  5
19A
330
37
100
AcDbEntity
  8
Visible (ANSI)
100
AcDbCircle
 10
1.034953883715142
 20
0.9842283373799215
 30
0.0
 40
0.0089999999999997
100
AcDbArc
 50
89.99999999999889
 51
120.5584317859354
  0
LINE
  5
19B
330
37
100
AcDbEntity
  8
Visible (ANSI)
100
AcDbLine
 10
1.034953883715143
 20
0.9932283373799213
 30
0.0
 11
1.042728933916148
 21
0.9932283373799213
 31
0.0
  0
ARC
  5
19C
330
37
100
AcDbEntity
  8
Visible (ANSI)
100
AcDbCircle
 10
1.048953883715142
 20
0.9867283373799214
 30
0.0
 40
0.009
100
AcDbArc
 50
90.0
 51
133.7617426926803
  0
LINE
  5
19D
330
37
100
AcDbEntity
  8
Visible (ANSI)
100
AcDbLine
 10
1.048953883715142
 20
0.9957283373799214
 30
0.0
 11
1.055829980290755
 21
0.9957283373799214
 31
0.0
  0
ARC
  5
19E
330
37
100
AcDbEntity
  8
Visible (ANSI)
100
AcDbCircle
 10
1.062953883715143
 20
0.9902283373799212
 30
0.0
 40
0.0090000000000001
100
AcDbArc
 50
90.0
 51
142.3301130356705
  0
LINE
  5
19F
330
37
100
AcDbEntity
  8
Visible (ANSI)
100
AcDbLine
 10
1.062953883715143
 20
0.9992283373799214
 30
0.0
 11
1.07029702946565
 21
0.9992283373799214
 31
0.0
  0
ARC
  5
1A0
330
37
100
AcDbEntity
  8
Visible (ANSI)
100
AcDbCircle
 10
1.075953883715142
 20
0.9922283373799213
 30
0.0
 40
0.009
100
AcDbArc
 50
90.0
 51
128.9424412689812
  0
LINE
  5
1A1
330
37
100
AcDbEntity
  8
Visible (ANSI)
100
AcDbLine
 10
1.075953883715142
 20
1.001228337379921
 30
0.0
 11
1.083079673715142
 21
1.001228337379921
 31
0.0
  0
ARC
  5
1A2
330
37
100
AcDbEntity
  8
Visible (ANSI)
100
AcDbCircle
 10
1.083079673715143
 20
1.031978337379921
 30
0.0
 40
0.03075
100
AcDbArc
 50
270.0
 51
0.0
  0
LINE
  5
1A3
330
37
100
AcDbEntity
  8
Visible (ANSI)
100
AcDbLine
 10
0.794202883715143
 20
0.817728337380535
 30
0.0
 11
0.794202883715143
 21
0.7277283373799214
 31
0.0
  0
LINE
  5
1A4
330
37
100
AcDbEntity
  8
Visible (ANSI)
100
AcDbLine
 10
1.322329673715142
 20
1.155728337379921
 30
0.0
 11
1.262329673715142
 21
1.155728337379921
 31
0.0
  0
LINE
  5
1A5
330
37
100
AcDbEntity
  8
Visible (ANSI)
100
AcDbLine
 10
1.262329673715142
 20
1.155728337379921
 30
0.0
 11
1.262329673715142
 21
0.8827283373799215
 31
0.0
  0
ARC
  5
1A6
330
37
100
AcDbEntity
  8
Visible (ANSI)
100
AcDbCircle
 10
1.188079673715142
 20
0.8827283373799215
 30
0.0
 40
0.07425
100
AcDbArc
 50
180.0
 51
0.0
  0
LINE
  5
1A7
330
37
100
AcDbEntity
  8
Visible (ANSI)
100
AcDbLine
 10
1.113829673715142
 20
0.8827283373799215
 30
0.0
 11
1.113829673715142
 21
0.9334783373799211
 31
0.0
  0
ARC
  5
1A8
330
37
100
AcDbEntity
  8
Visible (ANSI)
100
AcDbCircle
 10
1.083079673715142
 20
0.9334783373799211
 30
0.0
 40
0.03075
100
AcDbArc
 50
0.0
 51
89.99999999999969
  0
LINE
  5
1A9
330
37
100
AcDbEntity
  8
Visible (ANSI)
100
AcDbLine
 10
1.083079673715142
 20
0.9642283373799214
 30
0.0
 11
1.075953883715142
 21
0.9642283373799214
 31
0.0
  0
ARC
  5
1AA
330
37
100
AcDbEntity
  8
Visible (ANSI)
100
AcDbCircle
 10
1.075953883715142
 20
0.973228337379921
 30
0.0
 40
0.0089999999999997
100
AcDbArc
 50
231.0575587310191
 51
270.0000000000011
  0
LINE
  5
1AB
330
37
100
AcDbEntity
  8
Visible (ANSI)
100
AcDbLine
 10
1.07029702946565
 20
0.9662283373799214
 30
0.0
 11
1.062953883715143
 21
0.9662283373799214
 31
0.0
  0
ARC
  5
1AC
330
37
100
AcDbEntity
  8
Visible (ANSI)
100
AcDbCircle
 10
1.062953883715143
 20
0.9752283373799214
 30
0.0
 40
0.0090000000000001
100
AcDbArc
 50
217.669886964331
 51
270.0
  0
LINE
  5
1AD
330
37
100
AcDbEntity
  8
Visible (ANSI)
100
AcDbLine
 10
1.055829980290755
 20
0.9697283373799214
 30
0.0
 11
1.048953883715142
 21
0.9697283373799214
 31
0.0
  0
ARC
  5
1AE
330
37
100
AcDbEntity
  8
Visible (ANSI)
100
AcDbCircle
 10
1.048953883715143
 20
0.9787283373799217
 30
0.0
 40
0.0090000000000003
100
AcDbArc
 50
226.2382573073213
 51
269.9999999999989
  0
LINE
  5
1AF
330
37
100
AcDbEntity
  8
Visible (ANSI)
100
AcDbLine
 10
1.042728933916148
 20
0.9722283373799214
 30
0.0
 11
1.034953883715143
 21
0.9722283373799214
 31
0.0
  0
ARC
  5
1B0
330
37
100
AcDbEntity
  8
Visible (ANSI)
100
AcDbCircle
 10
1.034953883715143
 20
0.9812283373799214
 30
0.0
 40
0.009
100
AcDbArc
 50
239.4415682140647
 51
270.0
  0
LINE
  5
1B1
330
37
100
AcDbEntity
  8
Visible (ANSI)
100
AcDbLine
 10
1.030378132410712
 20
0.9734783373799213
 30
0.0
 11
0.824953883715143
 21
0.9734783373799213
 31
0.0
  0
ARC
  5
1B2
330
37
100
AcDbEntity
  8
Visible (ANSI)
100
AcDbCircle
 10
0.824953883715143
 20
0.9427283373799212
 30
0.0
 40
0.03075
100
AcDbArc
 50
90.0
 51
180.0
  0
LINE
  5
1B3
330
37
100
AcDbEntity
  8
Visible (ANSI)
100
AcDbLine
 10
0.794203883715143
 20
0.9427283373799212
 30
0.0
 11
0.794203883715143
 21
0.8427283373799212
 31
0.0
  0
LINE
  5
1B4
330
37
100
AcDbEntity
  8
Visible (ANSI)
100
AcDbLine
 10
0.794203883715143
 20
0.8427283373799212
 30
0.0
 11
0.794202883715143
 21
0.817728337380535
 31
0.0
  0
LINE
  5
1B5
330
37
100
AcDbEntity
  8
Visible (ANSI)
100
AcDbLine
 10
1.247329673715142
 20
1.169228337379921
 30
0.0
 11
1.252029673715143
 21
1.169228337379921
 31
0.0
  0
LINE
  5
1B6
330
37
100
AcDbEntity
  8
Visible (ANSI)
100
AcDbLine
 10
1.252029673715143
 20
1.169228337379921
 30
0.0
 11
1.252029673715143
 21
1.177728337379921
 31
0.0
  0
LINE
  5
1B7
330
37
100
AcDbEntity
  8
Visible (ANSI)
100
AcDbLine
 10
1.163829673715143
 20
1.177728337379975
 30
0.0
 11
1.182329673715142
 21
1.177728337379964
 31
0.0
  0
LINE
  5
1B8
330
37
100
AcDbEntity
  8
Visible (ANSI)
100
AcDbLine
 10
1.182329673715142
 20
1.177728337379921
 30
0.0
 11
1.182329673715142
 21
1.159228337379921
 31
0.0
  0
LINE
  5
1B9
330
37
100
AcDbEntity
  8
Visible (ANSI)
100
AcDbLine
 10
1.182329673715142
 20
1.159228337379921
 30
0.0
 11
1.163829673715143
 21
1.159228337379921
 31
0.0
  0
LINE
  5
1BA
330
37
100
AcDbEntity
  8
Visible (ANSI)
100
AcDbLine
 10
1.262329673715142
 20
1.159228337379927
 30
0.0
 11
1.243829673715143
 21
1.159228337379927
 31
0.0
  0
LINE
  5
1BB
330
37
100
AcDbEntity
  8
Visible (ANSI)
100
AcDbLine
 10
1.163829673715143
 20
1.159228337379921
 30
0.0
 11
1.163829673715143
 21
1.177728337379921
 31
0.0
  0
ARC
  5
1BC
330
37
100
AcDbEntity
  8
Visible (ANSI)
100
AcDbCircle
 10
1.247329673715142
 20
1.165728337379921
 30
0.0
 40
0.0035
100
AcDbArc
 50
90.0
 51
180.0
  0
ARC
  5
1BD
330
37
100
AcDbEntity
  8
Visible (ANSI)
100
AcDbCircle
 10
1.188079673715142
 20
0.8827283373799215
 30
0.0
 40
0.05575
100
AcDbArc
 50
180.0
 51
0.0
  0
LINE
  5
1BE
330
37
100
AcDbEntity
  8
Visible (ANSI)
100
AcDbLine
 10
1.132329673715142
 20
0.9334783373799211
 30
0.0
 11
1.132329673715142
 21
0.8827283373799215
 31
0.0
  0
ARC
  5
1BF
330
37
100
AcDbEntity
  8
Visible (ANSI)
100
AcDbCircle
 10
1.083079673715142
 20
0.9334783373799211
 30
0.0
 40
0.04925
100
AcDbArc
 50
0.0
 51
78.4342936163788
  0
LINE
  5
1C0
330
37
100
AcDbEntity
  8
Visible (ANSI)
100
AcDbLine
 10
1.092953883715143
 20
0.9837283376195491
 30
0.0
 11
1.092953883715143
 21
0.9817283371402934
 31
0.0
  0
ARC
  5
1C1
330
37
100
AcDbEntity
  8
Visible (ANSI)
100
AcDbCircle
 10
1.083079673715142
 20
1.031978337379921
 30
0.0
 40
0.04925
100
AcDbArc
 50
281.5657063836212
 51
0.0
  0
LINE
  5
1C2
330
37
100
AcDbEntity
  8
Visible (ANSI)
100
AcDbLine
 10
1.132329673715142
 20
1.177728337379921
 30
0.0
 11
1.132329673715142
 21
1.031978337379921
 31
0.0
  0
LINE
  5
1C3
330
37
100
AcDbEntity
  8
Visible (ANSI)
100
AcDbLine
 10
1.262329673715142
 20
1.155728337379921
 30
0.0
 11
1.262329673715142
 21
1.177728337379927
 31
0.0
  0
LINE
  5
1C4
330
37
100
AcDbEntity
  8
Visible (ANSI)
100
AcDbLine
 10
1.243829673715143
 20
0.8827283373799215
 30
0.0
 11
1.243829673715143
 21
1.165728337379921
 31
0.0
  0
LINE
  5
1C5
330
37
100
AcDbEntity
  8
Visible (ANSI)
100
AcDbLine
 10
1.182329673715142
 20
1.177728337379921
 30
0.0
 11
1.252029673715143
 21
1.177728337379921
 31
0.0
  0
CIRCLE
  5
1C6
330
37
100
AcDbEntity
  8
Visible (ANSI)
100
AcDbCircle
 10
0.784958934515143
 20
1.078733388179922
 30
0.0
 40
0.0445
  0
CIRCLE
  5
1C7
330
37
100
AcDbEntity
  8
Visible (ANSI)
100
AcDbCircle
 10
0.784958934515143
 20
1.078733388179921
 30
0.0
 40
0.0475
  0
CIRCLE
  5
1C8
330
37
100
AcDbEntity
  8
Visible (ANSI)
100
AcDbCircle
 10
0.9829488329151431
 20
1.078733388179921
 30
0.0
 40
0.0475
  0
CIRCLE
  5
1C9
330
37
100
AcDbEntity
  8
Visible (ANSI)
100
AcDbCircle
 10
0.566969083715143
 20
0.8097283373799214
 30
0.0
 40
0.05
  0
CIRCLE
  5
1CA
330
37
100
AcDbEntity
  8
Visible (ANSI)
100
AcDbCircle
 10
0.536969083715143
 20
1.078733387379921
 30
0.0
 40
0.046
  0
CIRCLE
  5
1CB
330
37
100
AcDbEntity
  8
Visible (ANSI)
100
AcDbCircle
 10
0.9829488329151431
 20
1.078733388179922
 30
0.0
 40
0.0445
  0
CIRCLE
  5
1CC
330
37
100
AcDbEntity
  8
Visible (ANSI)
100
AcDbCircle
 10
0.536969083715143
 20
1.078733387379922
 30
0.0
 40
0.043
  0
CIRCLE
  5
1CD
330
37
100
AcDbEntity
  8
Visible (ANSI)
100
AcDbCircle
 10
0.566969083715143
 20
0.8097283373799223
 30
0.0
 40
0.047
  0
CIRCLE
  5
1CE
330
37
100
AcDbEntity
  8
Visible (ANSI)
100
AcDbCircle
 10
0.9829487837151427
 20
0.8877283373799224
 30
0.0
 40
0.043
  0
CIRCLE
  5
1CF
330
37
100
AcDbEntity
  8
Visible (ANSI)
100
AcDbCircle
 10
0.9829487837151427
 20
0.8877283373799214
 30
0.0
 40
0.046
  0
CIRCLE
  5
1D0
330
37
100
AcDbEntity
  8
Visible (ANSI)
100
AcDbCircle
 10
1.058953883715142
 20
0.8097283373799214
 30
0.0
 40
0.05
  0
CIRCLE
  5
1D1
330
37
100
AcDbEntity
  8
Visible (ANSI)
100
AcDbCircle
 10
1.058953883715142
 20
0.8097283373799223
 30
0.0
 40
0.047
  0
CIRCLE
  5
1D2
330
37
100
AcDbEntity
  8
Hidden Narrow (ANSI)
 48
1.066956043243408
100
AcDbCircle
 10
0.536969083715143
 20
1.078733387379921
 30
0.0
 40
0.05265
  0
CIRCLE
  5
1D3
330
37
100
AcDbEntity
  8
Hidden Narrow (ANSI)
 48
1.066956043243408
100
AcDbCircle
 10
0.9829487837151427
 20
0.8877283373799214
 30
0.0
 40
0.05265
  0
CIRCLE
  5
1D4
330
37
100
AcDbEntity
  8
Visible (ANSI)
100
AcDbCircle
 10
2.165124175904972
 20
1.745949757524438
 30
0.0
 40
0.043
  0
CIRCLE
  5
1D5
330
37
100
AcDbEntity
  8
Visible (ANSI)
100
AcDbCircle
 10
2.165124175904973
 20
1.745949757524438
 30
0.0
 40
0.046
  0
CIRCLE
  5
1D6
330
37
100
AcDbEntity
  8
Visible (ANSI)
100
AcDbCircle
 10
2.033997957779973
 20
1.614823539399438
 30
0.0
 40
0.03475
  0
CIRCLE
  5
1D7
330
37
100
AcDbEntity
  8
Visible (ANSI)
100
AcDbCircle
 10
2.033997957779972
 20
1.614823539399438
 30
0.0
 40
0.03175
  0
ARC
  5
1D8
330
37
100
AcDbEntity
  8
Visible (ANSI)
100
AcDbCircle
 10
1.835124175904973
 20
1.415949757524438
 30
0.0
 40
0.022
100
AcDbArc
 50
0.0
 51
90.0
  0
LINE
  5
1D9
330
37
100
AcDbEntity
  8
Visible (ANSI)
100
AcDbLine
 10
1.857124175904973
 20
1.415949757524438
 30
0.0
 11
2.285124175904973
 21
1.415949757524438
 31
0.0
  0
LINE
  5
1DA
330
37
100
AcDbEntity
  8
Visible (ANSI)
100
AcDbLine
 10
2.285124175904973
 20
1.865949757524438
 30
0.0
 11
2.285124175904973
 21
1.415949757524438
 31
0.0
  0
LINE
  5
1DB
330
37
100
AcDbEntity
  8
Visible (ANSI)
100
AcDbLine
 10
1.835124175904973
 20
1.865949757524438
 30
0.0
 11
2.285124175904973
 21
1.865949757524438
 31
0.0
  0
LINE
  5
1DC
330
37
100
AcDbEntity
  8
Visible (ANSI)
100
AcDbLine
 10
1.835124175904973
 20
1.437949757524438
 30
0.0
 11
1.835124175904973
 21
1.865949757524438
 31
0.0
  0
LINE
  5
1DD
330
37
100
AcDbEntity
  8
Visible (ANSI)
100
AcDbLine
 10
1.843624175904952
 20
1.424449757524438
 30
0.0
 11
1.843624175904952
 21
1.415949757524438
 31
0.0
  0
LINE
  5
1DE
330
37
100
AcDbEntity
  8
Visible (ANSI)
100
AcDbLine
 10
1.843624175904952
 20
1.415949757524438
 30
0.0
 11
1.835124175904952
 21
1.415949757524438
 31
0.0
  0
LINE
  5
1DF
330
37
100
AcDbEntity
  8
Visible (ANSI)
100
AcDbLine
 10
1.835124175904952
 20
1.424449757524438
 30
0.0
 11
1.843624175904952
 21
1.424449757524438
 31
0.0
  0
LINE
  5
1E0
330
37
100
AcDbEntity
  8
Visible (ANSI)
100
AcDbLine
 10
1.835124175904952
 20
1.415949757524438
 30
0.0
 11
1.835124175904952
 21
1.424449757524438
 31
0.0
  0
LINE
  5
1E1
330
37
100
AcDbEntity
  8
Visible (ANSI)
100
AcDbLine
 10
1.835124175904951
 20
1.424449757524438
 30
0.0
 11
1.83512417590495
 21
1.427949757524438
 31
0.0
  0
LINE
  5
1E2
330
37
100
AcDbEntity
  8
Visible (ANSI)
100
AcDbLine
 10
1.843624175904951
 20
1.424449757524438
 30
0.0
 11
1.84712417590495
 21
1.427949757524438
 31
0.0
  0
LINE
  5
1E3
330
37
100
AcDbEntity
  8
Visible (ANSI)
100
AcDbLine
 10
1.84712417590495
 20
1.415949757524438
 30
0.0
 11
1.843624175904951
 21
1.415949757524438
 31
0.0
  0
LINE
  5
1E4
330
37
100
AcDbEntity
  8
Visible (ANSI)
100
AcDbLine
 10
1.857124175904949
 20
1.415949757524438
 30
0.0
 11
1.84712417590495
 21
1.415949757524438
 31
0.0
  0
LINE
  5
1E5
330
37
100
AcDbEntity
  8
Visible (ANSI)
100
AcDbLine
 10
1.83512417590495
 20
1.427949757524438
 30
0.0
 11
1.83512417590495
 21
1.437949757524438
 31
0.0
  0
LINE
  5
1E6
330
37
100
AcDbEntity
  8
Visible (ANSI)
100
AcDbLine
 10
2.135124185479188
 20
1.731041710088647
 30
0.0
 11
2.135124185479188
 21
1.731192528613046
 31
0.0
  0
CIRCLE
  5
1E7
330
37
100
AcDbEntity
  8
Hidden Narrow (ANSI)
 48
1.045677661895751
100
AcDbCircle
 10
2.165124175904972
 20
1.745949757524438
 30
0.0
 40
0.043
  0
CIRCLE
  5
1E8
330
37
100
AcDbEntity
  8
Hidden Narrow (ANSI)
 48
1.066956043243408
100
AcDbCircle
 10
2.165124175904973
 20
1.745949757524438
 30
0.0
 40
0.05265
  0
ELLIPSE
  5
1E9
330
37
100
AcDbEntity
  8
Visible (ANSI)
100
AcDbEllipse
 10
0.7842625732626584
 20
0.5178577666211668
 30
0.0
 11
-0.0107291925490599
 21
0.018631543877124
 31
0.0
210
0.0
220
0.0
230
0.9999999999999998
 40
0.578093115915639
 41
2.388430511571662
 42
7.03634744919772
  0
ELLIPSE
  5
1EA
330
37
100
AcDbEntity
  8
Visible (ANSI)
100
AcDbEllipse
 10
0.7853232334344384
 20
0.5184685601918553
 30
0.0
 11
-0.0114777408664362
 21
0.019931419031342
 31
0.0
210
0.0
220
0.0
230
1.0
 40
0.578093115915639
 41
0.0
 42
6.283185307179584
  0
ELLIPSE
  5
1EB
330
37
100
AcDbEntity
  8
Visible (ANSI)
100
AcDbEllipse
 10
0.7389631144206783
 20
0.4915646458752238
 30
0.0
 11
-0.0086706846762752
 21
0.0150568872030247
 31
0.0
210
0.0
220
0.0
230
1.0
 40
0.578093115915639
 41
0.0000000000000049
 42
6.283185307179586
  0
ELLIPSE
  5
1EC
330
37
100
AcDbEntity
  8
Visible (ANSI)
100
AcDbEllipse
 10
0.7379024542488982
 20
0.4909538523045354
 30
0.0
 11
-0.0079221363588989
 21
0.0137570120488067
 31
0.0
210
0.0
220
0.0
230
0.9999999999999998
 40
0.578093115915639
 41
2.400276132138141
 42
7.024501828631244
  0
ELLIPSE
  5
1ED
330
37
100
AcDbEntity
  8
Visible (ANSI)
100
AcDbEllipse
 10
0.5147202420744618
 20
0.4013629021528828
 30
0.0
 11
-0.011103466707753
 21
-0.0192814814542301
 31
0.0
210
0.0
220
0.0
230
0.9999999999999998
 40
0.5780931159158105
 41
2.387296791170372
 42
7.037481169599006
  0
ELLIPSE
  5
1EE
330
37
100
AcDbEntity
  8
Visible (ANSI)
100
AcDbEllipse
 10
0.4447202421919136
 20
0.3610525831515589
 30
0.0
 11
-0.011103466707753
 21
-0.0192814814542302
 31
0.0
210
0.0
220
0.0
230
1.0
 40
0.5780931159158106
 41
2.387296791170372
 42
7.037481169599006
  0
ELLIPSE
  5
1EF
330
37
100
AcDbEntity
  8
Visible (ANSI)
100
AcDbEllipse
 10
0.5850791525299989
 20
0.5432578121212537
 30
0.0
 11
-0.0107291925490647
 21
-0.0186315438771213
 31
0.0
210
0.0
220
0.0
230
1.0
 40
0.5780931159158106
 41
2.388430511571176
 42
7.036347449198196
  0
ELLIPSE
  5
1F0
330
37
100
AcDbEntity
  8
Visible (ANSI)
100
AcDbEllipse
 10
0.5840184923582193
 20
0.5438686056919423
 30
0.0
 11
0.0114777408664413
 21
0.019931419031339
 31
0.0
210
0.0
220
0.0
230
1.0
 40
0.5780931159158105
 41
0.0
 42
6.283185307179585
  0
ELLIPSE
  5
1F1
330
37
100
AcDbEntity
  8
Visible (ANSI)
100
AcDbEllipse
 10
0.5136595819026821
 20
0.4019736957235714
 30
0.0
 11
0.0118520150251296
 21
0.0205813566084479
 31
0.0
210
0.0
220
0.0
230
1.0
 40
0.5780931159158105
 41
0.0
 42
6.283185307179582
  0
ELLIPSE
  5
1F2
330
37
100
AcDbEntity
  8
Visible (ANSI)
100
AcDbEllipse
 10
0.4436595820201339
 20
0.3616633767222475
 30
0.0
 11
0.0118520150251296
 21
0.0205813566084479
 31
0.0
210
0.0
220
0.0
230
1.0
 40
0.5780931159158105
 41
0.0
 42
6.283185307179584
  0
ELLIPSE
  5
1F3
330
37
100
AcDbEntity
  8
Visible (ANSI)
100
AcDbEllipse
 10
0.3909837151058002
 20
0.4327072705140764
 30
0.0
 11
0.0114777408664413
 21
0.019931419031339
 31
0.0
210
0.0
220
0.0
230
1.0
 40
0.5780931159158106
 41
0.0
 42
6.283185307179584
  0
ELLIPSE
  5
1F4
330
37
100
AcDbEntity
  8
Visible (ANSI)
100
AcDbEllipse
 10
0.5840184923582193
 20
0.4429015357738886
 30
0.0
 11
0.0124758052896101
 21
0.0216645859036294
 31
0.0
210
0.0
220
0.0
230
0.9999999999999998
 40
0.5780931159158106
 41
0.0
 42
6.283185307179585
  0
ELLIPSE
  5
1F5
330
37
100
AcDbEntity
  8
Visible (ANSI)
100
AcDbEllipse
 10
0.4404758157773288
 20
0.4215568402372475
 30
0.0
 11
0.0124758052896101
 21
0.0216645859036294
 31
0.0
210
0.0
220
0.0
230
1.0
 40
0.5780931159158104
 41
0.0
 42
6.283185307179585
  0
ELLIPSE
  5
1F6
330
37
100
AcDbEntity
  8
Visible (ANSI)
100
AcDbEllipse
 10
0.4415364759491085
 20
0.420946046666559
 30
0.0
 11
-0.0117272569722335
 21
-0.0203647107494116
 31
0.0
210
0.0
220
0.0
230
1.0
 40
0.5780931159158105
 41
2.385565739418561
 42
7.039212221350821
  0
ELLIPSE
  5
1F7
330
37
100
AcDbEntity
  8
Visible (ANSI)
100
AcDbEllipse
 10
0.3920443752775798
 20
0.4320964769433877
 30
0.0
 11
-0.0107291925490647
 21
-0.0186315438771213
 31
0.0
210
0.0
220
0.0
230
0.9999999999999998
 40
0.5780931159158105
 41
2.388430511571179
 42
7.036347449198202
  0
ELLIPSE
  5
1F8
330
37
100
AcDbEntity
  8
Visible (ANSI)
100
AcDbEllipse
 10
0.5850791525299989
 20
0.4422907422032
 30
0.0
 11
-0.0117272569722335
 21
-0.0203647107494116
 31
0.0
210
0.0
220
0.0
230
0.9999999999999998
 40
0.5780931159158105
 41
2.385565739418547
 42
7.039212221350827
  0
ELLIPSE
  5
1F9
330
37
100
AcDbEntity
  8
Visible (ANSI)
100
AcDbEllipse
 10
0.513661367630137
 20
0.3224242076953643
 30
0.0
 11
0.02225
 21
0.0
 31
0.0
210
0.0
220
0.0
230
1.0
 40
0.5758617009853119
 41
2.393467717764079
 42
7.031310243005297
  0
ELLIPSE
  5
1FA
330
37
100
AcDbEntity
  8
Visible (ANSI)
100
AcDbEllipse
 10
0.5136613676301369
 20
0.3211978870081005
 30
0.0
 11
-0.02375
 21
-0.0000000000000014
 31
0.0
210
0.0
220
0.0
230
1.0
 40
0.5758617009853119
 41
0.0
 42
6.283185307179376
  0
ELLIPSE
  5
1FB
330
37
100
AcDbEntity
  8
Visible (ANSI)
100
AcDbEllipse
 10
0.5836613675126851
 20
0.3615082060094243
 30
0.0
 11
-0.02375
 21
-0.0000000000000014
 31
0.0
210
0.0
220
0.0
230
1.0
 40
0.5758617009853119
 41
0.0
 42
6.283185307179376
  0
ELLIPSE
  5
1FC
330
37
100
AcDbEntity
  8
Visible (ANSI)
100
AcDbEllipse
 10
0.5316979645619054
 20
0.2220467687229792
 30
0.0
 11
-0.025
 21
-0.0000000000000015
 31
0.0
210
0.0
220
0.0
230
1.0
 40
0.5758617009853119
 41
0.0
 42
6.283185307179377
  0
ELLIPSE
  5
1FD
330
37
100
AcDbEntity
  8
Visible (ANSI)
100
AcDbEllipse
 10
0.4259837153299065
 20
0.2707076846903495
 30
0.0
 11
-0.023
 21
-0.0000000000000014
 31
0.0
210
0.0
220
0.0
230
1.0
 40
0.5758617009853119
 41
0.0
 42
6.283185307179376
  0
ELLIPSE
  5
1FE
330
37
100
AcDbEntity
  8
Visible (ANSI)
100
AcDbEllipse
 10
0.5836613675126851
 20
0.3627345266966882
 30
0.0
 11
0.02225
 21
0.0
 31
0.0
210
0.0
220
0.0
230
1.0
 40
0.5758617009853121
 41
2.393467717764078
 42
7.031310243005299
  0
ELLIPSE
  5
1FF
330
37
100
AcDbEntity
  8
Visible (ANSI)
100
AcDbEllipse
 10
0.4259837153299065
 20
0.2719340053776133
 30
0.0
 11
0.0215
 21
0.0
 31
0.0
210
0.0
220
0.0
230
1.0
 40
0.5758617009853119
 41
2.3946146491457
 42
7.030163311623678
  0
ELLIPSE
  5
200
330
37
100
AcDbEntity
  8
Visible (ANSI)
100
AcDbEllipse
 10
0.5316979645619054
 20
0.223273089410243
 30
0.0
 11
0.0235
 21
0.0
 31
0.0
210
0.0
220
0.0
230
1.0
 40
0.5758617009853119
 41
2.391716496308701
 42
7.033061464460679
  0
ELLIPSE
  5
201
330
37
100
AcDbEntity
  8
Visible (ANSI)
100
AcDbEllipse
 10
0.6511918334486287
 20
0.3238462976804443
 30
0.0
 11
0.0215
 21
0.0
 31
0.0
210
0.0
220
0.0
230
1.0
 40
0.5758617009853121
 41
2.394614649145697
 42
7.030163311623678
  0
ELLIPSE
  5
202
330
37
100
AcDbEntity
  8
Visible (ANSI)
100
AcDbEllipse
 10
0.6511918334486287
 20
0.3226199769931805
 30
0.0
 11
-0.023
 21
-0.0000000000000014
 31
0.0
210
0.0
220
0.0
230
1.0
 40
0.5758617009853121
 41
0.0
 42
6.283185307179376
  0
ELLIPSE
  5
203
330
37
100
AcDbEntity
  8
Visible (ANSI)
100
AcDbEllipse
 10
0.7056408587222848
 20
0.3222138196284537
 30
0.0
 11
-0.025
 21
-0.0000000000000015
 31
0.0
210
0.0
220
0.0
230
1.0
 40
0.5758617009853121
 41
0.0
 42
6.283185307179376
  0
ELLIPSE
  5
204
330
37
100
AcDbEntity
  8
Visible (ANSI)
100
AcDbEllipse
 10
0.7056408587222848
 20
0.3234401403157175
 30
0.0
 11
0.0235
 21
0.0
 31
0.0
210
0.0
220
0.0
230
1.0
 40
0.5758617009853119
 41
2.391716496308694
 42
7.033061464460687
  0
ELLIPSE
  5
205
330
37
100
AcDbEntity
  8
Visible (ANSI)
100
AcDbEllipse
 10
0.6686506145386753
 20
0.4507605773685813
 30
0.0
 11
0.0054893543274254
 21
-0.0095324177975987
 31
0.0
210
0.0
220
0.0
230
1.0
 40
0.578093115915639
 41
0.7873318718207223
 42
2.358128198615618
  0
LINE
  5
206
330
37
100
AcDbEntity
  8
Visible (ANSI)
100
AcDbLine
 10
0.6764287891317262
 20
0.446281424516865
 30
0.0
 11
0.8277496403056247
 21
0.3591415417652925
 31
0.0
  0
LINE
  5
207
330
37
100
AcDbEntity
  8
Visible (ANSI)
100
AcDbLine
 10
0.8277496403056247
 20
0.543089644854864
 30
0.0
 11
0.8277496403056247
 21
0.3591415417652925
 31
0.0
  0
LINE
  5
208
330
37
100
AcDbEntity
  8
Visible (ANSI)
100
AcDbLine
 10
0.6686506145386753
 20
0.6347086804581527
 30
0.0
 11
0.8277496403056247
 21
0.543089644854864
 31
0.0
  0
LINE
  5
209
330
37
100
AcDbEntity
  8
Visible (ANSI)
100
AcDbLine
 10
0.6686506145386753
 20
0.4597535957418492
 30
0.0
 11
0.6686506145386753
 21
0.6347086804581527
 31
0.0
  0
LINE
  5
20A
330
37
100
AcDbEntity
  8
Visible (ANSI)
100
AcDbLine
 10
0.6344885924187598
 20
0.2553822123087234
 30
0.0
 11
0.6344885924187598
 21
0.2478499059949916
 31
0.0
  0
LINE
  5
20B
330
37
100
AcDbEntity
  8
Visible (ANSI)
100
AcDbLine
 10
0.6344885924187598
 20
0.2478499059949916
 30
0.0
 11
0.5095515923071652
 21
0.175903472594748
 31
0.0
  0
LINE
  5
20C
330
37
100
AcDbEntity
  8
Visible (ANSI)
100
AcDbLine
 10
0.8277496403056247
 20
0.3591415417652925
 30
0.0
 11
0.6410286230379552
 21
0.2516160591518564
 31
0.0
  0
LINE
  5
20D
330
37
100
AcDbEntity
  8
Visible (ANSI)
100
AcDbLine
 10
0.516931382939745
 20
0.5473393856774342
 30
0.0
 11
0.516931382939745
 21
0.5105497650595594
 31
0.0
  0
LINE
  5
20E
330
37
100
AcDbEntity
  8
Visible (ANSI)
100
AcDbLine
 10
0.516931382939745
 20
0.5105497650595594
 30
0.0
 11
0.5169317364931355
 21
0.500330629596845
 31
0.0
  0
LINE
  5
20F
330
37
100
AcDbEntity
  8
Visible (ANSI)
100
AcDbLine
 10
0.5169317364931355
 20
0.500330629596845
 30
0.0
 11
0.5169317364931355
 21
0.4594532733547181
 31
0.0
  0
ELLIPSE
  5
210
330
37
100
AcDbEntity
  8
Visible (ANSI)
100
AcDbEllipse
 10
0.5278035032538804
 20
0.4657139074542744
 30
0.0
 11
-0.0076726202531102
 21
-0.0133237203307321
 31
0.0
210
0.0
220
0.0
230
1.0
 40
0.5780931159158105
 41
5.495853435359256
 42
7.066649762154149
  0
LINE
  5
211
330
37
100
AcDbEntity
  8
Visible (ANSI)
100
AcDbLine
 10
0.5278035032538804
 20
0.4531441204098203
 30
0.0
 11
0.5831078267512125
 21
0.4849917622108264
 31
0.0
  0
ELLIPSE
  5
212
330
37
100
AcDbEntity
  8
Visible (ANSI)
100
AcDbEllipse
 10
0.5847255991394059
 20
0.4827553802613334
 30
0.0
 11
0.0022456449521298
 21
0.0038996254626533
 31
0.0
210
0.0
220
0.0
230
0.9999999999999998
 40
0.5780931159158106
 41
0.7834644549745633
 42
1.316809703885235
  0
LINE
  5
213
330
37
100
AcDbEntity
  8
Visible (ANSI)
100
AcDbLine
 10
0.5847255991394059
 20
0.4864343423231249
 30
0.0
 11
0.5874744945000048
 21
0.4880173258813094
 31
0.0
  0
ELLIPSE
  5
214
330
37
100
AcDbEntity
  8
Visible (ANSI)
100
AcDbEllipse
 10
0.5896753466077124
 20
0.4866276841639325
 30
0.0
 11
0.0022456449521298
 21
0.0038996254626532
 31
0.0
210
0.0
220
0.0
230
1.0
 40
0.5780931159158105
 41
0.7834644549745367
 42
1.5472509513724
  0
LINE
  5
215
330
37
100
AcDbEntity
  8
Visible (ANSI)
100
AcDbLine
 10
0.5896753466077125
 20
0.4903066462257239
 30
0.0
 11
0.5921064138660674
 21
0.4917066047523294
 31
0.0
  0
ELLIPSE
  5
216
330
37
100
AcDbEntity
  8
Visible (ANSI)
100
AcDbEllipse
 10
0.5946250940760191
 20
0.4909087616289529
 30
0.0
 11
0.0022456449521298
 21
0.0038996254626533
 31
0.0
210
0.0
220
0.0
230
1.0
 40
0.5780931159158107
 41
0.7834644549745633
 42
1.696797225387806
  0
LINE
  5
217
330
37
100
AcDbEntity
  8
Visible (ANSI)
100
AcDbLine
 10
0.5946250940760191
 20
0.4945877236907443
 30
0.0
 11
0.5972212881537321
 21
0.4960827724284236
 31
0.0
  0
ELLIPSE
  5
218
330
37
100
AcDbEntity
  8
Visible (ANSI)
100
AcDbEllipse
 10
0.5992212881537322
 20
0.4943730808934454
 30
0.0
 11
0.0022456449521297
 21
0.0038996254626532
 31
0.0
210
0.0
220
0.0
230
1.0
 40
0.5780931159158107
 41
0.7834644549745633
 42
1.463138273882806
  0
LINE
  5
219
330
37
100
AcDbEntity
  8
Visible (ANSI)
100
AcDbLine
 10
0.5992212881537322
 20
0.4980520429552366
 30
0.0
 11
0.6017406353688884
 21
0.4995028385279285
 31
0.0
  0
ELLIPSE
  5
21A
330
37
100
AcDbEntity
  8
Visible (ANSI)
100
AcDbEllipse
 10
0.6017406353688884
 20
0.5120726255723826
 30
0.0
 11
0.0076726202531094
 21
0.0133237203307326
 31
0.0
210
0.0
220
0.0
230
1.0
 40
0.5780931159158105
 41
3.925057108564111
 42
5.495853435359008
  0
LINE
  5
21B
330
37
100
AcDbEntity
  8
Visible (ANSI)
100
AcDbLine
 10
0.6126124021296331
 20
0.5183332596719388
 30
0.0
 11
0.6126124021296331
 21
0.5390785179648182
 31
0.0
  0
ELLIPSE
  5
21C
330
37
100
AcDbEntity
  8
Visible (ANSI)
100
AcDbEllipse
 10
0.6300249066163543
 20
0.549105712416953
 30
0.0
 11
0.0122886682102673
 21
0.0213396171150742
 31
0.0
210
0.0
220
0.0
230
1.0
 40
0.5780931159158105
 41
5.495853435359492
 42
8.637446088949285
  0
LINE
  5
21D
330
37
100
AcDbEntity
  8
Visible (ANSI)
100
AcDbLine
 10
0.6474374111030757
 20
0.5591329068690877
 30
0.0
 11
0.6474374111030757
 21
0.447537724328081
 31
0.0
  0
LINE
  5
21E
330
37
100
AcDbEntity
  8
Visible (ANSI)
100
AcDbLine
 10
0.6474374111030757
 20
0.447537724328081
 30
0.0
 11
0.6686506145386753
 21
0.4597535957418492
 31
0.0
  0
LINE
  5
21F
330
37
100
AcDbEntity
  8
Visible (ANSI)
100
AcDbLine
 10
0.6686506145386753
 20
0.6347086804581527
 30
0.0
 11
0.516931382939745
 21
0.5473393856774342
 31
0.0
  0
LINE
  5
220
330
37
100
AcDbEntity
  8
Visible (ANSI)
100
AcDbLine
 10
0.6014754703259433
 20
0.4196392954631087
 30
0.0
 11
0.6014754703259433
 21
0.4120769845583152
 31
0.0
  0
LINE
  5
221
330
37
100
AcDbEntity
  8
Visible (ANSI)
100
AcDbLine
 10
0.6014754703259433
 20
0.4120769845583152
 30
0.0
 11
0.612612402129633
 21
0.4184903170505436
 31
0.0
  0
LINE
  5
222
330
37
100
AcDbEntity
  8
Visible (ANSI)
100
AcDbLine
 10
0.612612402129633
 20
0.4184903170505436
 30
0.0
 11
0.6126124021296331
 21
0.4780690637734437
 31
0.0
  0
ELLIPSE
  5
223
330
37
100
AcDbEntity
  8
Visible (ANSI)
100
AcDbEllipse
 10
0.6017406353688884
 20
0.4718084296738875
 30
0.0
 11
0.0076726202531102
 21
0.0133237203307321
 31
0.0
210
0.0
220
0.0
230
1.0
 40
0.5780931159158106
 41
5.495853435359252
 42
7.066649762154149
  0
LINE
  5
224
330
37
100
AcDbEntity
  8
Visible (ANSI)
100
AcDbLine
 10
0.6017406353688884
 20
0.4843782167183415
 30
0.0
 11
0.5992212881537322
 21
0.4829274211456496
 31
0.0
  0
ELLIPSE
  5
225
330
37
100
AcDbEntity
  8
Visible (ANSI)
100
AcDbEllipse
 10
0.5992212881537322
 20
0.486606383207441
 30
0.0
 11
-0.0022456449521298
 21
-0.0038996254626533
 31
0.0
210
0.0
220
0.0
230
0.9999999999999998
 40
0.5780931159158106
 41
0.1037906360663001
 42
0.7834644549745633
  0
LINE
  5
226
330
37
100
AcDbEntity
  8
Visible (ANSI)
100
AcDbLine
 10
0.5972212881537321
 20
0.4825932448685217
 30
0.0
 11
0.5946250940760191
 21
0.4810981961308423
 31
0.0
  0
ELLIPSE
  5
227
330
37
100
AcDbEntity
  8
Visible (ANSI)
100
AcDbEllipse
 10
0.5946250940760191
 20
0.4847771581926338
 30
0.0
 11
-0.0022456449521298
 21
-0.0038996254626533
 31
0.0
210
0.0
220
0.0
230
1.0
 40
0.5780931159158105
 41
6.15331699174091
 42
7.066649762154149
  0
LINE
  5
228
330
37
100
AcDbEntity
  8
Visible (ANSI)
100
AcDbLine
 10
0.5921064138660674
 20
0.4810784921293765
 30
0.0
 11
0.5896753466077125
 21
0.4796785336027709
 31
0.0
  0
ELLIPSE
  5
229
330
37
100
AcDbEntity
  8
Visible (ANSI)
100
AcDbEllipse
 10
0.5896753466077125
 20
0.4833574956645623
 30
0.0
 11
-0.0022456449521298
 21
-0.0038996254626532
 31
0.0
210
0.0
220
0.0
230
1.0
 40
0.5780931159158105
 41
0.0196779585767164
 42
0.7834644549745633
  0
LINE
  5
22A
330
37
100
AcDbEntity
  8
Visible (ANSI)
100
AcDbLine
 10
0.5874744945000048
 20
0.4794330810704627
 30
0.0
 11
0.5847255991394059
 21
0.4778500975122782
 31
0.0
  0
ELLIPSE
  5
22B
330
37
100
AcDbEntity
  8
Visible (ANSI)
100
AcDbEllipse
 10
0.5847255991394059
 20
0.4815290595740695
 30
0.0
 11
-0.0022456449521298
 21
-0.0038996254626532
 31
0.0
210
0.0
220
0.0
230
0.9999999999999998
 40
0.5780931159158105
 41
0.2501192060639159
 42
0.7834644549745633
  0
LINE
  5
22C
330
37
100
AcDbEntity
  8
Visible (ANSI)
100
AcDbLine
 10
0.5831078267512125
 20
0.477429451306033
 30
0.0
 11
0.5278035032538804
 21
0.4455818095050267
 31
0.0
  0
ELLIPSE
  5
22D
330
37
100
AcDbEntity
  8
Visible (ANSI)
100
AcDbEllipse
 10
0.5278035032538804
 20
0.4657139074542743
 30
0.0
 11
-0.012288668210266
 21
-0.0213396171150749
 31
0.0
210
0.0
220
0.0
230
1.0
 40
0.5780931159158105
 41
5.49585343535925
 42
7.066649762154149
  0
LINE
  5
22E
330
37
100
AcDbEntity
  8
Visible (ANSI)
100
AcDbLine
 10
0.5103909987671591
 20
0.4556867130021395
 30
0.0
 11
0.5103909987671591
 21
0.4965640692442665
 31
0.0
  0
LINE
  5
22F
330
37
100
AcDbEntity
  8
Visible (ANSI)
100
AcDbLine
 10
0.5103909987671591
 20
0.4965640692442665
 30
0.0
 11
0.5103913523205497
 21
0.5067836119024043
 31
0.0
  0
LINE
  5
230
330
37
100
AcDbEntity
  8
Visible (ANSI)
100
AcDbLine
 10
0.5103913523205497
 20
0.5067836119024043
 30
0.0
 11
0.5103913523205497
 21
0.5435732325205695
 31
0.0
  0
LINE
  5
231
330
37
100
AcDbEntity
  8
Visible (ANSI)
100
AcDbLine
 10
0.5103913523205497
 20
0.5435732325205695
 30
0.0
 11
0.3504525665402156
 21
0.4514706112876083
 31
0.0
  0
LINE
  5
232
330
37
100
AcDbEntity
  8
Visible (ANSI)
100
AcDbLine
 10
0.3504525665402156
 20
0.4514706112876083
 30
0.0
 11
0.3504525665402156
 21
0.2675225081980368
 31
0.0
  0
LINE
  5
233
330
37
100
AcDbEntity
  8
Visible (ANSI)
100
AcDbLine
 10
0.3504525665402156
 20
0.2675225081980368
 30
0.0
 11
0.5949347325999668
 21
0.4083104242057367
 31
0.0
  0
LINE
  5
234
330
37
100
AcDbEntity
  8
Visible (ANSI)
100
AcDbLine
 10
0.5949347325999668
 20
0.4083104242057367
 30
0.0
 11
0.5949347325999668
 21
0.4158727351105302
 31
0.0
  0
LINE
  5
235
330
37
100
AcDbEntity
  8
Visible (ANSI)
100
AcDbLine
 10
0.5949347325999668
 20
0.4158727351105302
 30
0.0
 11
0.6014754703259433
 21
0.4196392954631087
 31
0.0
  0
LINE
  5
236
330
37
100
AcDbEntity
  8
Visible (ANSI)
100
AcDbLine
 10
0.6464651392789289
 20
0.3786360365631159
 30
0.0
 11
0.5949347325999668
 21
0.4083104242057367
 31
0.0
  0
LINE
  5
237
330
37
100
AcDbEntity
  8
Visible (ANSI)
100
AcDbLine
 10
0.3504525665402156
 20
0.2675225081980368
 30
0.0
 11
0.5095515923071652
 21
0.175903472594748
 31
0.0
  0
LINE
  5
238
330
37
100
AcDbEntity
  8
Visible (ANSI)
100
AcDbLine
 10
0.6344885924187598
 20
0.2478499059949916
 30
0.0
 11
0.6026687872651531
 21
0.2661737131157744
 31
0.0
  0
LINE
  5
239
330
37
100
AcDbEntity
  8
Visible (ANSI)
100
AcDbLine
 10
0.6026687872651531
 20
0.2661737131157744
 30
0.0
 11
0.5938295989471488
 21
0.2712634559401974
 31
0.0
  0
LINE
  5
23A
330
37
100
AcDbEntity
  8
Visible (ANSI)
100
AcDbLine
 10
0.5938295989471488
 20
0.2712634559401974
 30
0.0
 11
0.5584742598878268
 21
0.2916232416298172
 31
0.0
  0
ELLIPSE
  5
23B
330
37
100
AcDbEntity
  8
Visible (ANSI)
100
AcDbEllipse
 10
0.5758867643745481
 20
0.3016504360819519
 30
0.0
 11
-0.024625
 21
0.0
 31
0.0
210
0.0
220
0.0
230
1.0
 40
0.5758617009853121
 41
5.497787143781986
 42
7.068583470576887
  0
LINE
  5
23C
330
37
100
AcDbEntity
  8
Visible (ANSI)
100
AcDbLine
 10
0.558474259887832
 20
0.3116776305340896
 30
0.0
 11
0.6311026995242372
 21
0.3535015673230065
 31
0.0
  0
ELLIPSE
  5
23D
330
37
100
AcDbEntity
  8
Visible (ANSI)
100
AcDbEllipse
 10
0.6354605106895277
 20
0.3528552970913328
 30
0.0
 11
-0.0044999999999998
 21
0.0
 31
0.0
210
0.0
220
0.0
230
1.0
 40
0.5758617009853121
 41
5.497787143781975
 42
6.031132392692647
  0
LINE
  5
23E
330
37
100
AcDbEntity
  8
Visible (ANSI)
100
AcDbLine
 10
0.6322785301741889
 20
0.3546876778033986
 30
0.0
 11
0.6350274255347878
 21
0.3562706613615832
 31
0.0
  0
ELLIPSE
  5
23F
330
37
100
AcDbEntity
  8
Visible (ANSI)
100
AcDbEllipse
 10
0.6395263746813514
 20
0.3562146617301192
 30
0.0
 11
-0.0045
 21
0.0
 31
0.0
210
0.0
220
0.0
230
1.0
 40
0.5758617009853119
 41
5.497787143781988
 42
6.261573640179823
  0
LINE
  5
240
330
37
100
AcDbEntity
  8
Visible (ANSI)
100
AcDbLine
 10
0.6363443941660123
 20
0.358047042442185
 30
0.0
 11
0.6387754614243674
 21
0.3594470009687906
 31
0.0
  0
ELLIPSE
  5
241
330
37
100
AcDbEntity
  8
Visible (ANSI)
100
AcDbEllipse
 10
0.6432386852825817
 20
0.3597776242258019
 30
0.0
 11
-0.0045
 21
0.0
 31
0.0
210
0.0
220
0.0
230
1.0
 40
0.5758617009853121
 41
5.49778714378199
 42
6.411119914195229
  0
LINE
  5
242
330
37
100
AcDbEntity
  8
Visible (ANSI)
100
AcDbLine
 10
0.6400567047672427
 20
0.3616100049378677
 30
0.0
 11
0.6426528988449557
 21
0.3631050536755469
 31
0.0
  0
ELLIPSE
  5
243
330
37
100
AcDbEntity
  8
Visible (ANSI)
100
AcDbEllipse
 10
0.6471277725791085
 20
0.362831592079244
 30
0.0
 11
-0.0045
 21
0.0
 31
0.0
210
0.0
220
0.0
230
1.0
 40
0.5758617009853119
 41
5.497787143781988
 42
6.177460962690229
  0
LINE
  5
244
330
37
100
AcDbEntity
  8
Visible (ANSI)
100
AcDbLine
 10
0.6439457920637695
 20
0.3646639727913098
 30
0.0
 11
0.6464651392789256
 21
0.3661147683640017
 31
0.0
  0
ELLIPSE
  5
245
330
37
100
AcDbEntity
  8
Visible (ANSI)
100
AcDbEllipse
 10
0.635593372518184
 20
0.3723754024635598
 30
0.0
 11
0.015375
 21
0.0
 31
0.0
210
0.0
220
0.0
230
1.0
 40
0.5758617009853121
 41
5.497787143781991
 42
7.068583470576889
  0
LINE
  5
246
330
37
100
AcDbEntity
  8
Visible (ANSI)
100
AcDbLine
 10
0.6092088178843485
 20
0.2699398662726391
 30
0.0
 11
0.6410286230379552
 21
0.2516160591518564
 31
0.0
  0
LINE
  5
247
330
37
100
AcDbEntity
  8
Visible (ANSI)
100
AcDbLine
 10
0.6764287891317262
 20
0.446281424516865
 30
0.0
 11
0.6552155856961265
 21
0.4340655531030968
 31
0.0
  0
LINE
  5
248
330
37
100
AcDbEntity
  8
Visible (ANSI)
100
AcDbLine
 10
0.6552155856961265
 20
0.4340655531030968
 30
0.0
 11
0.7517356613280759
 21
0.3784833381704348
 31
0.0
  0
ELLIPSE
  5
249
330
37
100
AcDbEntity
  8
Visible (ANSI)
100
AcDbEllipse
 10
0.7254843220765216
 20
0.3633661972958967
 30
0.0
 11
0.037125
 21
0.0
 31
0.0
210
0.0
220
0.0
230
1.0
 40
0.5758617009853121
 41
3.926990816987093
 42
7.068583470576886
  0
LINE
  5
24A
330
37
100
AcDbEntity
  8
Visible (ANSI)
100
AcDbLine
 10
0.699232982824967
 20
0.3482490564213585
 30
0.0
 11
0.6812901482523611
 21
0.3585816476588405
 31
0.0
  0
ELLIPSE
  5
24B
330
37
100
AcDbEntity
  8
Visible (ANSI)
100
AcDbEllipse
 10
0.6704183814916163
 20
0.3523210135592843
 30
0.0
 11
-0.015375
 21
-0.0000000000000009
 31
0.0
210
0.0
220
0.0
230
1.0
 40
0.5758617009853121
 41
3.926990816986851
 42
5.497787143781744
  0
LINE
  5
24C
330
37
100
AcDbEntity
  8
Visible (ANSI)
100
AcDbLine
 10
0.6595466147308748
 20
0.3585816476588424
 30
0.0
 11
0.6570272675157188
 21
0.3571308520861505
 31
0.0
  0
ELLIPSE
  5
24D
330
37
100
AcDbEntity
  8
Visible (ANSI)
100
AcDbEllipse
 10
0.6538452870003797
 20
0.3589632327982162
 30
0.0
 11
-0.0044999999999998
 21
0.0000000000000003
 31
0.0
210
0.0
220
0.0
230
1.0
 40
0.5758617009853119
 41
1.676520671284063
 42
2.356194490192455
  0
LINE
  5
24E
330
37
100
AcDbEntity
  8
Visible (ANSI)
100
AcDbLine
 10
0.6543201607345319
 20
0.3563863243979725
 30
0.0
 11
0.651723966656819
 21
0.3548912756602931
 31
0.0
  0
ELLIPSE
  5
24F
330
37
100
AcDbEntity
  8
Visible (ANSI)
100
AcDbEllipse
 10
0.64854198614148
 20
0.3567236563723588
 30
0.0
 11
-0.0045000000000001
 21
0.0000000000000003
 31
0.0
210
0.0
220
0.0
230
1.0
 40
0.5758617009853121
 41
1.442861719779081
 42
2.356194490192432
  0
LINE
  5
250
330
37
100
AcDbEntity
  8
Visible (ANSI)
100
AcDbLine
 10
0.6479678495797911
 20
0.3541534566894894
 30
0.0
 11
0.6455367823214361
 21
0.3527534981628839
 31
0.0
  0
ELLIPSE
  5
251
330
37
100
AcDbEntity
  8
Visible (ANSI)
100
AcDbEllipse
 10
0.6423548018060971
 20
0.3545858788749498
 30
0.0
 11
-0.0045000000000002
 21
0.0000000000000003
 31
0.0
210
0.0
220
0.0
230
1.0
 40
0.5758617009853121
 41
1.592407993794486
 42
2.356194490192436
  0
LINE
  5
252
330
37
100
AcDbEntity
  8
Visible (ANSI)
100
AcDbLine
 10
0.6424520467372453
 20
0.3519951063667631
 30
0.0
 11
0.6397031513766466
 21
0.3504121228085784
 31
0.0
  0
ELLIPSE
  5
253
330
37
100
AcDbEntity
  8
Visible (ANSI)
100
AcDbEllipse
 10
0.6365211708613076
 20
0.3522445035206442
 30
0.0
 11
-0.0045
 21
0.0000000000000003
 31
0.0
210
0.0
220
0.0
230
1.0
 40
0.5758617009853119
 41
1.822849241281655
 42
2.356194490192446
  0
LINE
  5
254
330
37
100
AcDbEntity
  8
Visible (ANSI)
100
AcDbLine
 10
0.6376434372502117
 20
0.3497350069704268
 30
0.0
 11
0.5650149976138065
 21
0.30791107018151
 31
0.0
  0
ELLIPSE
  5
255
330
37
100
AcDbEntity
  8
Visible (ANSI)
100
AcDbEllipse
 10
0.5758867643745482
 20
0.3016504360819519
 30
0.0
 11
-0.015375
 21
0.0
 31
0.0
210
0.0
220
0.0
230
1.0
 40
0.5758617009853121
 41
5.497787143781991
 42
7.068583470576886
  0
LINE
  5
256
330
37
100
AcDbEntity
  8
Visible (ANSI)
100
AcDbLine
 10
0.5650149976138033
 20
0.2953898019823957
 30
0.0
 11
0.6003703366731255
 21
0.2750300162927759
 31
0.0
  0
LINE
  5
257
330
37
100
AcDbEntity
  8
Visible (ANSI)
100
AcDbLine
 10
0.6003703366731255
 20
0.2750300162927759
 30
0.0
 11
0.6092088178843485
 21
0.2699398662726391
 31
0.0
  0
LINE
  5
258
330
37
100
AcDbEntity
  8
Visible (ANSI)
100
AcDbLine
 10
0.5103913523205497
 20
0.5435732325205695
 30
0.0
 11
0.516931382939745
 21
0.5398070793637025
 31
0.0
  0
LINE
  5
259
330
37
100
AcDbEntity
  8
Visible (ANSI)
100
AcDbLine
 10
0.6451393140642181
 20
0.4337601563177533
 30
0.0
 11
0.6468010150000067
 21
0.4347170662451651
 31
0.0
  0
LINE
  5
25A
330
37
100
AcDbEntity
  8
Visible (ANSI)
100
AcDbLine
 10
0.6468010150000067
 20
0.4381916415257459
 30
0.0
 11
0.6468010150000067
 21
0.4347170662451651
 31
0.0
  0
LINE
  5
25B
330
37
100
AcDbEntity
  8
Visible (ANSI)
100
AcDbLine
 10
0.6468010150000067
 20
0.4347170662451651
 30
0.0
 11
0.6437958111799645
 21
0.4364476480287828
 31
0.0
  0
LINE
  5
25C
330
37
100
AcDbEntity
  8
Visible (ANSI)
100
AcDbLine
 10
0.6437958111799645
 20
0.4399222233093637
 30
0.0
 11
0.6468010150000067
 21
0.4381916415257459
 31
0.0
  0
LINE
  5
25D
330
37
100
AcDbEntity
  8
Visible (ANSI)
100
AcDbLine
 10
0.6437958111799645
 20
0.4364476480287828
 30
0.0
 11
0.6437958111799645
 21
0.4399222233093637
 31
0.0
  0
LINE
  5
25E
330
37
100
AcDbEntity
  8
Visible (ANSI)
100
AcDbLine
 10
0.6437958111799645
 20
0.4399222233093637
 30
0.0
 11
0.6421341102441759
 21
0.4389653133819519
 31
0.0
  0
ELLIPSE
  5
25F
330
37
100
AcDbEntity
  8
Visible (ANSI)
100
AcDbEllipse
 10
0.6421341102441759
 20
0.4403960208504262
 30
0.0
 11
-0.0008733063702727
 21
-0.0015165210132541
 31
0.0
210
0.0
220
0.0
230
1.0
 40
0.5780931159158104
 41
5.495853435359284
 42
7.066649762154149
  0
LINE
  5
260
330
37
100
AcDbEntity
  8
Visible Narrow (ANSI)
100
AcDbLine
 10
0.6408966733770991
 20
0.4396834283512897
 30
0.0
 11
0.6421389052063964
 21
0.4389680746170522
 31
0.0
  0
ELLIPSE
  5
261
330
37
100
AcDbEntity
  8
Visible (ANSI)
100
AcDbEllipse
 10
0.6300249066163543
 20
0.549105712416953
 30
0.0
 11
0.0076726202531102
 21
0.0133237203307321
 31
0.0
210
0.0
220
0.0
230
1.0
 40
0.5780931159158106
 41
5.495853435359249
 42
8.637446088949042
  0
LINE
  5
262
330
37
100
AcDbEntity
  8
Visible Narrow (ANSI)
100
AcDbLine
 10
0.6474374111030738
 20
0.5515997861639295
 30
0.0
 11
0.6408966733770991
 21
0.5553663465165092
 31
0.0
  0
ELLIPSE
  5
263
330
37
100
AcDbEntity
  8
Visible (ANSI)
100
AcDbEllipse
 10
0.636565644342329
 20
0.5453391520643734
 30
0.0
 11
0.0076726202531101
 21
0.013323720330732
 31
0.0
210
0.0
220
0.0
230
1.0
 40
0.5780931159158105
 41
5.495853435359233
 42
6.283185307179569
  0
LINE
  5
264
330
37
100
AcDbEntity
  8
Visible (ANSI)
100
AcDbLine
 10
0.6191531398556096
 20
0.5428450783173968
 30
0.0
 11
0.6191531398556096
 21
0.5220998200245174
 31
0.0
  0
ELLIPSE
  5
265
330
37
100
AcDbEntity
  8
Visible (ANSI)
100
AcDbEllipse
 10
0.6017406353688884
 20
0.5120726255723826
 30
0.0
 11
-0.0122886682102673
 21
-0.0213396171150742
 31
0.0
210
0.0
220
0.0
230
1.0
 40
0.5780931159158104
 41
0.9853241116878637
 42
2.354260781769699
  0
LINE
  5
266
330
37
100
AcDbEntity
  8
Visible (ANSI)
100
AcDbLine
 10
0.6052316957938188
 20
0.4943596692780523
 30
0.0
 11
0.6052316957938188
 21
0.4935421219573026
 31
0.0
  0
LINE
  5
267
330
37
100
AcDbEntity
  8
Visible (ANSI)
100
AcDbLine
 10
0.6052316957938188
 20
0.4935421219573026
 30
0.0
 11
0.6117724335197935
 21
0.4897755616047229
 31
0.0
  0
ELLIPSE
  5
268
330
37
100
AcDbEntity
  8
Visible (ANSI)
100
AcDbEllipse
 10
0.6017406353688884
 20
0.4718084296738875
 30
0.0
 11
0.012288668210266
 21
0.021339617115075
 31
0.0
210
0.0
220
0.0
230
1.0
 40
0.5780931159158104
 41
5.495853435359255
 42
6.864790105441034
  0
ELLIPSE
  5
269
330
37
100
AcDbEntity
  8
Visible (ANSI)
100
AcDbEllipse
 10
0.6082813730948629
 20
0.4680418693213079
 30
0.0
 11
0.012288668210266
 21
0.0213396171150749
 31
0.0
210
0.0
220
0.0
230
1.0
 40
0.5780931159158107
 41
0.2683092717563235
 42
0.5816047982614437
  0
LINE
  5
26A
330
37
100
AcDbEntity
  8
Visible (ANSI)
100
AcDbLine
 10
0.6191531398556096
 20
0.4818356241260222
 30
0.0
 11
0.6191531398556096
 21
0.4222568774031221
 31
0.0
  0
LINE
  5
26B
330
37
100
AcDbEntity
  8
Visible (ANSI)
100
AcDbLine
 10
0.6191531398556096
 20
0.4222568774031221
 30
0.0
 11
0.6256938775815843
 21
0.4184903170505425
 31
0.0
  0
LINE
  5
26C
330
37
100
AcDbEntity
  8
Visible (ANSI)
100
AcDbLine
 10
0.6256938775815843
 20
0.4184903170505425
 30
0.0
 11
0.6191531398556077
 21
0.4147237566979639
 31
0.0
  0
LINE
  5
26D
330
37
100
AcDbEntity
  8
Visible (ANSI)
100
AcDbLine
 10
0.6474374111030738
 20
0.4385738961544484
 30
0.0
 11
0.6474374111030738
 21
0.447537724328081
 31
0.0
  0
LINE
  5
26E
330
37
100
AcDbEntity
  8
Visible (ANSI)
100
AcDbLine
 10
0.6529353982483566
 20
0.4417399763839253
 30
0.0
 11
0.6474374111030738
 21
0.4385738961544484
 31
0.0
  0
ELLIPSE
  5
26F
330
37
100
AcDbEntity
  8
Visible (ANSI)
100
AcDbEllipse
 10
0.636565644342329
 20
0.5453391520643733
 30
0.0
 11
0.012288668210266
 21
0.0213396171150749
 31
0.0
210
0.0
220
0.0
230
0.9999999999999998
 40
0.5780931159158105
 41
0.2683092717563307
 42
0.998225620922196
  0
ELLIPSE
  5
270
330
37
100
AcDbEntity
  8
Visible (ANSI)
100
AcDbEllipse
 10
0.6057620258797069
 20
0.4906065205408654
 30
0.0
 11
-0.0022456449521296
 21
-0.0038996254626535
 31
0.0
210
0.0
220
0.0
230
0.9999999999999998
 40
0.5780931159158107
 41
4.092505187783284
 42
4.604730927472545
  0
LINE
  5
271
330
37
100
AcDbEntity
  8
Visible (ANSI)
100
AcDbLine
 10
0.6011658318019937
 20
0.4908211633381646
 30
0.0
 11
0.6037620258797065
 21
0.4923162120758439
 31
0.0
  0
ELLIPSE
  5
272
330
37
100
AcDbEntity
  8
Visible (ANSI)
100
AcDbEllipse
 10
0.6011658318019937
 20
0.4871422012763732
 30
0.0
 11
-0.0022456449521296
 21
-0.0038996254626535
 31
0.0
210
0.0
220
0.0
230
0.9999999999999998
 40
0.5780931159158105
 41
3.925057108564129
 42
4.838389878977478
  0
LINE
  5
273
330
37
100
AcDbEntity
  8
Visible (ANSI)
100
AcDbLine
 10
0.596216084333687
 20
0.4865400858731443
 30
0.0
 11
0.5986471515920421
 21
0.4879400443997498
 31
0.0
  0
ELLIPSE
  5
274
330
37
100
AcDbEntity
  8
Visible (ANSI)
100
AcDbEllipse
 10
0.596216084333687
 20
0.4828611238113529
 30
0.0
 11
-0.0022456449521295
 21
-0.0038996254626533
 31
0.0
210
0.0
220
0.0
230
0.9999999999999998
 40
0.5780931159158105
 41
3.9250571085641
 42
4.688843604962114
  0
LINE
  5
275
330
37
100
AcDbEntity
  8
Visible (ANSI)
100
AcDbLine
 10
0.5912663368653805
 20
0.4826677819705452
 30
0.0
 11
0.5940152322259794
 21
0.4842507655287298
 31
0.0
  0
ELLIPSE
  5
276
330
37
100
AcDbEntity
  8
Visible (ANSI)
100
AcDbEllipse
 10
0.5912663368653806
 20
0.4789888199087537
 30
0.0
 11
-0.0022456449521296
 21
-0.0038996254626534
 31
0.0
210
0.0
220
0.0
230
1.0
 40
0.5780931159158103
 41
3.925057108564129
 42
4.45840235747489
  0
LINE
  5
277
330
37
100
AcDbEntity
  8
Visible (ANSI)
100
AcDbLine
 10
0.5343442409798551
 20
0.4493775600572406
 30
0.0
 11
0.5896485644771871
 21
0.4812252018582468
 31
0.0
  0
ELLIPSE
  5
278
330
37
100
AcDbEntity
  8
Visible (ANSI)
100
AcDbEllipse
 10
0.5343442409798549
 20
0.4619473471016945
 30
0.0
 11
-0.0076726202531102
 21
-0.013323720330732
 31
0.0
210
0.0
220
0.0
230
1.0
 40
0.5780931159158106
 41
0.0
 42
0.7834644549745633
  0
LINE
  5
279
330
37
100
AcDbEntity
  8
Visible (ANSI)
100
AcDbLine
 10
0.5169317364931337
 20
0.4519201526495599
 30
0.0
 11
0.5169317364931337
 21
0.4594532733547181
 31
0.0
  0
ELLIPSE
  5
27A
330
37
100
AcDbEntity
  8
Visible (ANSI)
100
AcDbEllipse
 10
0.5343442409798551
 20
0.4619473471016946
 30
0.0
 11
-0.012288668210266
 21
-0.021339617115075
 31
0.0
210
0.0
220
0.0
230
0.9999999999999998
 40
0.5780931159158106
 41
5.495853435359247
 42
6.014876035423258
  0
ELLIPSE
  5
27B
330
37
100
AcDbEntity
  8
Visible (ANSI)
100
AcDbEllipse
 10
0.6082813730948629
 20
0.4680418693213078
 30
0.0
 11
0.0076726202531102
 21
0.013323720330732
 31
0.0
210
0.0
220
0.0
230
0.9999999999999998
 40
0.5780931159158107
 41
5.495853435359253
 42
6.283185307179585
  0
LINE
  5
27C
330
37
100
AcDbEntity
  8
Visible (ANSI)
100
AcDbLine
 10
0.6191531398556077
 20
0.4147237566979639
 30
0.0
 11
0.6191531398556077
 21
0.4222568774031221
 31
0.0
  0
LINE
  5
27D
330
37
100
AcDbEntity
  8
Visible (ANSI)
100
AcDbLine
 10
0.6191531398556077
 20
0.4147237566979639
 30
0.0
 11
0.612612402129633
 21
0.4184903170505436
 31
0.0
  0
LINE
  5
27E
330
37
100
AcDbEntity
  8
Visible Narrow (ANSI)
100
AcDbLine
 10
0.6126124021296331
 20
0.4780690637734437
 30
0.0
 11
0.6191531398556077
 21
0.4743025034208641
 31
0.0
  0
LINE
  5
27F
330
37
100
AcDbEntity
  8
Visible (ANSI)
100
AcDbLine
 10
0.5926903057319139
 20
0.4807422511663186
 30
0.0
 11
0.5921064138660674
 21
0.4810784921293765
 31
0.0
  0
LINE
  5
280
330
37
100
AcDbEntity
  8
Visible Narrow (ANSI)
100
AcDbLine
 10
0.5103909987671591
 20
0.4556867130021395
 30
0.0
 11
0.5169317364931337
 21
0.4519201526495599
 31
0.0
  0
LINE
  5
281
330
37
100
AcDbEntity
  8
Visible Narrow (ANSI)
100
AcDbLine
 10
0.5103909987671591
 20
0.4965640692442665
 30
0.0
 11
0.5169317364931337
 21
0.4927975088916869
 31
0.0
  0
LINE
  5
282
330
37
100
AcDbEntity
  8
Visible Narrow (ANSI)
100
AcDbLine
 10
0.516931643541584
 20
0.5030173086751699
 30
0.0
 11
0.5103913523205497
 21
0.5067836119024043
 31
0.0
  0
LINE
  5
283
330
37
100
AcDbEntity
  8
Visible Narrow (ANSI)
100
AcDbLine
 10
0.5278035032538804
 20
0.4531441204098203
 30
0.0
 11
0.5343442409798551
 21
0.4493775600572406
 31
0.0
  0
LINE
  5
284
330
37
100
AcDbEntity
  8
Visible (ANSI)
100
AcDbLine
 10
0.5831078267512125
 20
0.4849917622108264
 30
0.0
 11
0.5896485644771871
 21
0.4812252018582468
 31
0.0
  0
LINE
  5
285
330
37
100
AcDbEntity
  8
Visible Narrow (ANSI)
100
AcDbLine
 10
0.5847255991394059
 20
0.4864343423231249
 30
0.0
 11
0.5912663368653805
 21
0.4826677819705452
 31
0.0
  0
LINE
  5
286
330
37
100
AcDbEntity
  8
Visible (ANSI)
100
AcDbLine
 10
0.5874744945000048
 20
0.4880173258813094
 30
0.0
 11
0.5940152322259794
 21
0.4842507655287298
 31
0.0
  0
LINE
  5
287
330
37
100
AcDbEntity
  8
Visible Narrow (ANSI)
100
AcDbLine
 10
0.5896753466077125
 20
0.4903066462257239
 30
0.0
 11
0.596216084333687
 21
0.4865400858731443
 31
0.0
  0
LINE
  5
288
330
37
100
AcDbEntity
  8
Visible (ANSI)
100
AcDbLine
 10
0.5921064138660674
 20
0.4917066047523294
 30
0.0
 11
0.5986471515920421
 21
0.4879400443997498
 31
0.0
  0
LINE
  5
289
330
37
100
AcDbEntity
  8
Visible Narrow (ANSI)
100
AcDbLine
 10
0.5946250940760191
 20
0.4945877236907443
 30
0.0
 11
0.6011658318019937
 21
0.4908211633381646
 31
0.0
  0
LINE
  5
28A
330
37
100
AcDbEntity
  8
Visible (ANSI)
100
AcDbLine
 10
0.5972212881537321
 20
0.4960827724284236
 30
0.0
 11
0.6037620258797065
 21
0.4923162120758439
 31
0.0
  0
LINE
  5
28B
330
37
100
AcDbEntity
  8
Visible Narrow (ANSI)
100
AcDbLine
 10
0.5992212881537322
 20
0.4980520429552366
 30
0.0
 11
0.6053975328735845
 21
0.49449538016516
 31
0.0
  0
LINE
  5
28C
330
37
100
AcDbEntity
  8
Visible Narrow (ANSI)
100
AcDbLine
 10
0.6073685226324182
 20
0.4962619537953977
 30
0.0
 11
0.6017406353688884
 21
0.4995028385279285
 31
0.0
  0
LINE
  5
28D
330
37
100
AcDbEntity
  8
Visible Narrow (ANSI)
100
AcDbLine
 10
0.6126124021296331
 20
0.5183332596719388
 30
0.0
 11
0.6182295900663334
 21
0.5150985362719555
 31
0.0
  0
LINE
  5
28E
330
37
100
AcDbEntity
  8
Visible Narrow (ANSI)
100
AcDbLine
 10
0.6126124021296331
 20
0.5390785179648182
 30
0.0
 11
0.6191531398556077
 21
0.5353119576122385
 31
0.0
  0
ELLIPSE
  5
28F
330
37
100
AcDbEntity
  8
Visible (ANSI)
100
AcDbEllipse
 10
0.6463767509312945
 20
0.4330475638186166
 30
0.0
 11
-0.00175
 21
0.0
 31
0.0
210
0.0
220
0.0
230
1.0
 40
0.5758617009853121
 41
5.497787143781955
 42
7.068583470576856
  0
LINE
  5
290
330
37
100
AcDbEntity
  8
Visible Narrow (ANSI)
100
AcDbLine
 10
0.6451393140642178
 20
0.4337601563177531
 30
0.0
 11
0.6451393140642178
 21
0.4323349713194802
 31
0.0
  0
ELLIPSE
  5
291
330
37
100
AcDbEntity
  8
Visible (ANSI)
100
AcDbEllipse
 10
0.7254843220765216
 20
0.3709285082006902
 30
0.0
 11
0.037125
 21
0.0
 31
0.0
210
0.0
220
0.0
230
1.0
 40
0.5758617009853118
 41
5.366661552729833
 42
6.105385825352555
  0
LINE
  5
292
330
37
100
AcDbEntity
  8
Visible Narrow (ANSI)
100
AcDbLine
 10
0.699232982824967
 20
0.3482490564213585
 30
0.0
 11
0.699232982824967
 21
0.3557821771265178
 31
0.0
  0
ELLIPSE
  5
293
330
37
100
AcDbEntity
  8
Visible (ANSI)
100
AcDbEllipse
 10
0.7254843220765216
 20
0.3633661972958967
 30
0.0
 11
0.027875
 21
0.0000000000000017
 31
0.0
210
0.0
220
0.0
230
1.0
 40
0.5758617009853121
 41
3.926990816986849
 42
7.068583470576642
  0
ELLIPSE
  5
294
330
37
100
AcDbEntity
  8
Visible (ANSI)
100
AcDbEllipse
 10
0.7254843220765216
 20
0.3709285082006902
 30
0.0
 11
0.027875
 21
0.0
 31
0.0
210
0.0
220
0.0
230
1.0
 40
0.5758617009853121
 41
0.0000000000000013
 42
0.7346808730157829
  0
LINE
  5
295
330
37
100
AcDbEntity
  8
Visible Narrow (ANSI)
100
AcDbLine
 10
0.7451949236020994
 20
0.3747167778178563
 30
0.0
 11
0.7451949236020994
 21
0.3822498985230156
 31
0.0
  0
LINE
  5
296
330
37
100
AcDbEntity
  8
Visible Narrow (ANSI)
100
AcDbLine
 10
0.6812901482523611
 20
0.3650447597778064
 30
0.0
 11
0.6812901482523611
 21
0.3585816476588405
 31
0.0
  0
LINE
  5
297
330
37
100
AcDbEntity
  8
Visible (ANSI)
100
AcDbLine
 10
0.6878308859783376
 20
0.3623482080114191
 30
0.0
 11
0.7057737205509436
 21
0.352015616773937
 31
0.0
  0
LINE
  5
298
330
37
100
AcDbEntity
  8
Visible Narrow (ANSI)
100
AcDbLine
 10
0.6026687872651531
 20
0.2661737131157744
 30
0.0
 11
0.6026687872651531
 21
0.2737063207338108
 31
0.0
  0
LINE
  5
299
330
37
100
AcDbEntity
  8
Visible Narrow (ANSI)
100
AcDbLine
 10
0.5938295989471488
 20
0.2712634559401974
 30
0.0
 11
0.5938295989471488
 21
0.2787965766453567
 31
0.0
  0
LINE
  5
29A
330
37
100
AcDbEntity
  8
Visible Narrow (ANSI)
100
AcDbLine
 10
0.6595466147308748
 20
0.3585816476588424
 30
0.0
 11
0.6595466147308748
 21
0.3650447597778073
 31
0.0
  0
ELLIPSE
  5
29B
330
37
100
AcDbEntity
  8
Visible (ANSI)
100
AcDbEllipse
 10
0.6704183814916163
 20
0.3523210135592843
 30
0.0
 11
0.024625
 21
-0.0000000000000015
 31
0.0
210
0.0
220
0.0
230
1.0
 40
0.5758617009853119
 41
0.7853981633974856
 42
2.154334833479214
  0
LINE
  5
29C
330
37
100
AcDbEntity
  8
Visible (ANSI)
100
AcDbLine
 10
0.6561433839545162
 20
0.3645621739116484
 30
0.0
 11
0.6568504909051452
 21
0.3641549781002805
 31
0.0
  0
LINE
  5
29D
330
37
100
AcDbEntity
  8
Visible (ANSI)
100
AcDbLine
 10
0.6561433839545162
 20
0.3721244848164419
 30
0.0
 11
0.6561433839545162
 21
0.3645621739116484
 31
0.0
  0
LINE
  5
29E
330
37
100
AcDbEntity
  8
Visible (ANSI)
100
AcDbLine
 10
0.6387754614243674
 20
0.3594470009687906
 30
0.0
 11
0.6387754614243674
 21
0.3601082474828131
 31
0.0
  0
LINE
  5
29F
330
37
100
AcDbEntity
  8
Visible (ANSI)
100
AcDbLine
 10
0.5584742598878268
 20
0.2991855525346106
 30
0.0
 11
0.5642984238497052
 21
0.2958316395687049
 31
0.0
  0
LINE
  5
2A0
330
37
100
AcDbEntity
  8
Visible Narrow (ANSI)
100
AcDbLine
 10
0.5584742598878268
 20
0.2991855525346106
 30
0.0
 11
0.5584742598878268
 21
0.2916232416298172
 31
0.0
  0
ELLIPSE
  5
2A1
330
37
100
AcDbEntity
  8
Visible (ANSI)
100
AcDbEllipse
 10
0.5758867643745479
 20
0.3092127469867453
 30
0.0
 11
-0.0246249999999999
 21
0.0
 31
0.0
210
0.0
220
0.0
230
1.0
 40
0.5758617009853121
 41
0.2699081832258022
 42
0.7853981633973014
  0
LINE
  5
2A2
330
37
100
AcDbEntity
  8
Visible Narrow (ANSI)
100
AcDbLine
 10
0.5650149976138065
 20
0.30791107018151
 30
0.0
 11
0.5650149976138065
 21
0.315444190886667
 31
0.0
  0
ELLIPSE
  5
2A3
330
37
100
AcDbEntity
  8
Visible (ANSI)
100
AcDbEllipse
 10
0.5758867643745481
 20
0.3092127469867454
 30
0.0
 11
-0.015375
 21
0.0
 31
0.0
210
0.0
220
0.0
230
1.0
 40
0.5758617009853121
 41
5.566082909442322
 42
6.283185307179591
  0
LINE
  5
2A4
330
37
100
AcDbEntity
  8
Visible Narrow (ANSI)
100
AcDbLine
 10
0.6397031513766466
 20
0.3504121228085784
 30
0.0
 11
0.6397031513766466
 21
0.3579744337133719
 31
0.0
  0
ELLIPSE
  5
2A5
330
37
100
AcDbEntity
  8
Visible (ANSI)
100
AcDbEllipse
 10
0.6365211708613076
 20
0.3598068144254377
 30
0.0
 11
-0.0045
 21
0.0000000000000003
 31
0.0
210
0.0
220
0.0
230
1.0
 40
0.5758617009853119
 41
1.822849241281655
 42
2.356194490192446
  0
LINE
  5
2A6
330
37
100
AcDbEntity
  8
Visible (ANSI)
100
AcDbLine
 10
0.6376434372502117
 20
0.3572973178752204
 30
0.0
 11
0.6376434372502117
 21
0.3497350069704268
 31
0.0
  0
LINE
  5
2A7
330
37
100
AcDbEntity
  8
Visible Narrow (ANSI)
100
AcDbLine
 10
0.6455367823214361
 20
0.3527534981628839
 30
0.0
 11
0.6455367823214361
 21
0.3603158090676773
 31
0.0
  0
ELLIPSE
  5
2A8
330
37
100
AcDbEntity
  8
Visible (ANSI)
100
AcDbEllipse
 10
0.6423548018060971
 20
0.3621481897797432
 30
0.0
 11
-0.0045000000000002
 21
0.0000000000000003
 31
0.0
210
0.0
220
0.0
230
1.0
 40
0.5758617009853121
 41
1.592407993794486
 42
2.356194490192436
  0
LINE
  5
2A9
330
37
100
AcDbEntity
  8
Visible (ANSI)
100
AcDbLine
 10
0.6424520467372453
 20
0.3595574172715566
 30
0.0
 11
0.6424520467372453
 21
0.3519951063667631
 31
0.0
  0
LINE
  5
2AA
330
37
100
AcDbEntity
  8
Visible Narrow (ANSI)
100
AcDbLine
 10
0.651723966656819
 20
0.3548912756602931
 30
0.0
 11
0.651723966656819
 21
0.3624535865650866
 31
0.0
  0
ELLIPSE
  5
2AB
330
37
100
AcDbEntity
  8
Visible (ANSI)
100
AcDbEllipse
 10
0.64854198614148
 20
0.3642859672771523
 30
0.0
 11
-0.0045000000000001
 21
0.0000000000000003
 31
0.0
210
0.0
220
0.0
230
1.0
 40
0.5758617009853121
 41
1.442861719779081
 42
2.356194490192432
  0
LINE
  5
2AC
330
37
100
AcDbEntity
  8
Visible (ANSI)
100
AcDbLine
 10
0.6479678495797911
 20
0.3617157675942829
 30
0.0
 11
0.6479678495797911
 21
0.3541534566894894
 31
0.0
  0
LINE
  5
2AD
330
37
100
AcDbEntity
  8
Visible Narrow (ANSI)
100
AcDbLine
 10
0.6570272675157188
 20
0.3571308520861505
 30
0.0
 11
0.6570272675157188
 21
0.3642215643688842
 31
0.0
  0
ELLIPSE
  5
2AE
330
37
100
AcDbEntity
  8
Visible (ANSI)
100
AcDbEllipse
 10
0.6538452870003799
 20
0.3665255437030096
 30
0.0
 11
-0.0044999999999998
 21
0.0000000000000003
 31
0.0
210
0.0
220
0.0
230
1.0
 40
0.5758617009853121
 41
1.676520671284007
 42
2.180662712088437
  0
LINE
  5
2AF
330
37
100
AcDbEntity
  8
Visible (ANSI)
100
AcDbLine
 10
0.6543201607345319
 20
0.3639486353027659
 30
0.0
 11
0.6543201607345319
 21
0.3563863243979725
 31
0.0
  0
LINE
  5
2B0
330
37
100
AcDbEntity
  8
Visible (ANSI)
100
AcDbLine
 10
0.651723966656819
 20
0.3624535865650866
 30
0.0
 11
0.6543201607345319
 21
0.3639486353027659
 31
0.0
  0
LINE
  5
2B1
330
37
100
AcDbEntity
  8
Visible (ANSI)
100
AcDbLine
 10
0.6311210706741866
 20
0.3535413367643019
 30
0.0
 11
0.6376434372502117
 21
0.3572973178752204
 31
0.0
  0
LINE
  5
2B2
330
37
100
AcDbEntity
  8
Visible (ANSI)
100
AcDbLine
 10
0.6397031513766466
 20
0.3579744337133719
 30
0.0
 11
0.6424520467372453
 21
0.3595574172715566
 31
0.0
  0
LINE
  5
2B3
330
37
100
AcDbEntity
  8
Visible (ANSI)
100
AcDbLine
 10
0.6455367823214361
 20
0.3603158090676773
 30
0.0
 11
0.6479678495797911
 21
0.3617157675942829
 31
0.0
  0
ELLIPSE
  5
2B4
330
37
100
AcDbEntity
  8
Visible (ANSI)
100
AcDbEllipse
 10
0.635593372518184
 20
0.3723754024635598
 30
0.0
 11
0.024625
 21
0.0
 31
0.0
210
0.0
220
0.0
230
1.0
 40
0.5758617009853121
 41
5.699646800495108
 42
7.068583470576887
  0
ELLIPSE
  5
2B5
330
37
100
AcDbEntity
  8
Visible (ANSI)
100
AcDbEllipse
 10
0.6355933725181837
 20
0.3799377133683533
 30
0.0
 11
0.0246250000000003
 21
0.0
 31
0.0
210
0.0
220
0.0
230
1.0
 40
0.5758617009853118
 41
5.699646800495107
 42
6.01327712395378
  0
ELLIPSE
  5
2B6
330
37
100
AcDbEntity
  8
Visible (ANSI)
100
AcDbEllipse
 10
0.635593372518184
 20
0.3799377133683532
 30
0.0
 11
0.015375
 21
0.0
 31
0.0
210
0.0
220
0.0
230
1.0
 40
0.5758617009853121
 41
0.0
 42
0.7171023977395868
  0
LINE
  5
2B7
330
37
100
AcDbEntity
  8
Visible Narrow (ANSI)
100
AcDbLine
 10
0.6464651392789289
 20
0.3861691572682753
 30
0.0
 11
0.6464651392789289
 21
0.3786360365631159
 31
0.0
  0
LINE
  5
2B8
330
37
100
AcDbEntity
  8
Visible (ANSI)
100
AcDbLine
 10
0.5949347325999668
 20
0.4158727351105302
 30
0.0
 11
0.6014754703259433
 21
0.4121061747579495
 31
0.0
  0
LINE
  5
2B9
330
37
100
AcDbEntity
  8
Visible (ANSI)
100
AcDbLine
 10
0.6474374111030738
 20
0.4385738961544484
 30
0.0
 11
0.655215544721783
 21
0.4340947668982861
 31
0.0
  0
LINE
  5
2BA
330
37
100
AcDbEntity
  8
Visible (ANSI)
100
AcDbLine
 10
0.6014754703259433
 20
0.4120769845583152
 30
0.0
 11
0.6530058770049053
 21
0.3824025969156945
 31
0.0
  0
ELLIPSE
  5
2BB
330
37
100
AcDbEntity
  8
Visible (ANSI)
100
AcDbEllipse
 10
0.6474374111030757
 20
0.438544705954813
 30
0.0
 11
-0.0054893543274266
 21
0.009532417797598
 31
0.0
210
0.0
220
0.0
230
1.0
 40
0.578093115915639
 41
3.928924525410035
 42
5.499720852204932
  0
LINE
  5
2BC
330
37
100
AcDbEntity
  8
Visible (ANSI)
100
AcDbLine
 10
0.7451949236020994
 20
0.3747167778178563
 30
0.0
 11
0.6451393140642178
 21
0.4323349713194802
 31
0.0
  0
LINE
  5
2BD
330
37
100
AcDbEntity
  8
Visible (ANSI)
100
AcDbLine
 10
0.6408966733770991
 20
0.4396834283512897
 30
0.0
 11
0.6408966733770991
 21
0.5553663465165092
 31
0.0
  0
LINE
  5
2BE
330
37
100
AcDbEntity
  8
Visible (ANSI)
100
AcDbLine
 10
0.6191531398556096
 20
0.4222568774031221
 30
0.0
 11
0.6437958111799645
 21
0.4364476480287828
 31
0.0
  0
LINE
  5
2BF
330
37
100
AcDbEntity
  8
Visible (ANSI)
100
AcDbLine
 10
0.6376975268694646
 20
0.562429432747685
 30
0.0
 11
0.6442382645954393
 21
0.5586628723951054
 31
0.0
  0
LINE
  5
2C0
330
37
100
AcDbEntity
  8
Visible (ANSI)
100
AcDbLine
 10
0.6159539933479731
 20
0.4813655896520399
 30
0.0
 11
0.6094132556219986
 21
0.4851321500046195
 31
0.0
  0
LINE
  5
2C1
330
37
100
AcDbEntity
  8
Visible (ANSI)
100
AcDbLine
 10
0.5201308830007702
 20
0.4523901871235422
 30
0.0
 11
0.5266716207267449
 21
0.4486236267709625
 31
0.0
  0
LINE
  5
2C2
330
37
100
AcDbEntity
  8
Visible (ANSI)
100
AcDbLine
 10
0.7533593220765215
 20
0.3709285082006902
 30
0.0
 11
0.7533593220765215
 21
0.3633661972958967
 31
0.0
  0
LINE
  5
2C3
330
37
100
AcDbEntity
  8
Visible (ANSI)
100
AcDbLine
 10
0.5605117643745481
 20
0.3092127469867454
 30
0.0
 11
0.5605117643745481
 21
0.3016504360819519
 31
0.0
  0
LINE
  5
2C4
330
37
100
AcDbEntity
  8
Visible (ANSI)
100
AcDbLine
 10
0.650968372518184
 20
0.3723754024635598
 30
0.0
 11
0.650968372518184
 21
0.3799377133683532
 31
0.0
  0
DIMENSION
  5
2C5
330
37
100
AcDbEntity
  8
Dimension (ANSI)
100
AcDbDimension
  2
*D6
 10
0.3239044868647496
 20
0.7277283373799214
 30
0.0
 11
0.3239044868647495
 21
0.9527283373799212
 31
0.0
 70
   160
  1
<>
 42
0.45
  3
Default (ANSI)
100
AcDbAlignedDimension
 13
0.4223296837151433
 23
1.177728337379921
 33
0.0
 14
0.4223296837151433
 24
0.7277283373799214
 34
0.0
 50
90.0
100
AcDbRotatedDimension
1001
ACAD
1000
DSTYLE
1002
{
1070
   271
1070
     3
1070
   272
1070
     3
1070
    48
1040
0.0
1070
    47
1040
0.0
1002
}
  0
DIMENSION
  5
392
330
37
100
AcDbEntity
  8
Dimension (ANSI)
100
AcDbDimension
  2
*D7
 10
0.2900230544632038
 20
1.415949757524438
 30
0.0
 11
0.2900230544632035
 21
1.640949757524438
 31
0.0
 70
   160
  1
<>
 42
0.45
  3
Default (ANSI)-01
100
AcDbAlignedDimension
 13
0.4223296837150805
 23
1.865949757524438
 33
0.0
 14
0.4223296837150805
 24
1.415949757524438
 34
0.0
 50
90.0
100
AcDbRotatedDimension
1001
ACAD
1000
DSTYLE
1002
{
1070
   271
1070
     3
1070
   272
1070
     3
1070
    48
1040
0.0
1070
    47
1040
0.0
1002
}
  0
DIMENSION
  5
45E
330
37
100
AcDbEntity
  8
Dimension (ANSI)
100
AcDbDimension
  2
*D8
 10
1.32232967371508
 20
1.949330147765679
 30
0.0
 11
0.8723296787150804
 21
1.949330147765679
 31
0.0
 70
   160
  1
<>
 42
0.8999999899999997
  3
Default (ANSI)
100
AcDbAlignedDimension
 13
0.4223296837150805
 23
1.865949757524438
 33
0.0
 14
1.32232967371508
 24
1.651949757524438
 34
0.0
 50
180.0
100
AcDbRotatedDimension
1001
ACAD
1000
DSTYLE
1002
{
1070
    73
1070
     0
1070
    74
1070
     0
1070
   271
1070
     3
1070
   272
1070
     3
1070
    48
1040
0.0
1070
    47
1040
0.0
1002
}
  0
MTEXT
  5
53E
330
37
100
AcDbEntity
  8
Symbol (ANSI)
100
AcDbMText
 10
2.309389780752096
 20
1.966232223134303
 30
0.0
 40
0.0300000003707691
 41
0.311572110559058
 71
     1
 72
     1
  1
{1 OF 4 (BLOCK2)}
  7
Note Text (ANSI)
 73
     1
 44
1.0
1001
ACAD
1000
MTEXTBEGIN
1070
    73
1070
     1
1070
    44
1040
1.0
1070
    74
1070
     0
1000
MTEXTEND
  0
MTEXT
  5
53F
330
37
100
AcDbEntity
  8
Symbol (ANSI)
100
AcDbMText
 10
2.589306833473836
 20
0.2040876818606312
 30
0.0
 40
0.0300000003707691
 41
0.0
 71
     1
 72
     1
  1
{3}
  7
Note Text (ANSI)
 73
     1
 44
1.0
1001
ACAD
1000
MTEXTBEGIN
1070
    73
1070
     1
1070
    44
1040
1.0
1070
    74
1070
     0
1000
MTEXTEND
  0
INSERT
  5
566
330
37
100
AcDbEntity
  8
Dimension (ANSI)
100
AcDbBlockReference
  2
Origin Indicator Symbol1
 10
0.0
 20
0.0
 30
0.0
 41
0.25
 42
0.25
 43
0.25
  0
INSERT
  5
5AE
330
37
100
AcDbEntity
  8
Symbol (ANSI)
100
AcDbBlockReference
  2
Hole Table1
 10
0.0
 20
0.0
 30
0.0
 41
0.25
 42
0.25
 43
0.25
  0
INSERT
  5
5C0
330
37
100
AcDbEntity
  8
Symbol (ANSI)
100
AcDbBlockReference
  2
Leader Text1
 10
0.0
 20
0.0
 30
0.0
 41
0.25
 42
0.25
 43
0.25
  0
INSERT
  5
5D2
330
37
100
AcDbEntity
  8
Symbol (ANSI)
100
AcDbBlockReference
  2
Leader Text2
 10
0.0
 20
0.0
 30
0.0
 41
0.25
 42
0.25
 43
0.25
  0
ENDSEC
  0
SECTION
  2
OBJECTS
  0
DICTIONARY
  5
C
330
0
100
AcDbDictionary
281
     1
  3
ACAD_COLOR
350
30
  3
ACAD_GROUP
350
D
  3
ACAD_LAYOUT
350
2F
  3
ACAD_MATERIAL
350
10
  3
ACAD_MLINESTYLE
350
2C
  3
ACAD_PLOTSETTINGS
350
2E
  3
ACAD_PLOTSTYLENAME
350
E
  3
ACAD_TABLESTYLE
350
31
  3
ACAD_VISUALSTYLE
350
14
  3
AcDbVariableDictionary
350
5D3
  3
DWGPROPS
350
5D9
  0
DICTIONARY
  5
30
102
{ACAD_REACTORS
330
C
102
}
330
C
100
AcDbDictionary
281
     1
  0
DICTIONARY
  5
D
102
{ACAD_REACTORS
330
C
102
}
330
C
100
AcDbDictionary
281
     1
  0
DICTIONARY
  5
2F
102
{ACAD_REACTORS
330
C
102
}
330
C
100
AcDbDictionary
281
     1
  3
Layout1
350
36
  3
Layout2
350
3E
  3
Model
350
3A
  0
DICTIONARY
  5
10
102
{ACAD_REACTORS
330
C
102
}
330
C
100
AcDbDictionary
281
     1
  3
ByBlock
350
12
  3
ByLayer
350
11
  3
Global
350
13
  0
DICTIONARY
  5
2C
102
{ACAD_REACTORS
330
C
102
}
330
C
100
AcDbDictionary
281
     1
  3
Standard
350
2D
  0
DICTIONARY
  5
2E
102
{ACAD_REACTORS
330
C
102
}
330
C
100
AcDbDictionary
281
     1
  0
ACDBDICTIONARYWDFLT
  5
E
102
{ACAD_REACTORS
330
C
102
}
330
C
100
AcDbDictionary
281
     1
  3
Normal
350
F
100
AcDbDictionaryWithDefault
340
F
  0
DICTIONARY
  5
31
102
{ACAD_REACTORS
330
C
102
}
330
C
100
AcDbDictionary
281
     1
  3
Standard
350
32
  0
DICTIONARY
  5
14
102
{ACAD_REACTORS
330
C
102
}
330
C
100
AcDbDictionary
281
     1
  3
2dWireframe
350
1A
  3
3D Hidden
350
1C
  3
3dWireframe
350
1B
  3
Basic
350
19
  3
Brighten
350
20
  3
ColorChange
350
24
  3
Conceptual
350
1D
  3
Dim
350
1F
  3
Facepattern
350
23
  3
Flat
350
15
  3
FlatWithEdges
350
16
  3
Gouraud
350
17
  3
GouraudWithEdges
350
18
  3
Linepattern
350
22
  3
Realistic
350
1E
  3
Thicken
350
21
  0
DICTIONARY
  5
5D3
102
{ACAD_REACTORS
330
C
102
}
330
C
100
AcDbDictionary
281
     1
  3
CTABLESTYLE
350
5D4
  3
DIMASSOC
350
5D8
  3
HIDETEXT
350
5D7
  3
INDEXCTL
350
5D6
  3
SORTENTS
350
5D5
  0
XRECORD
  5
5D9
102
{ACAD_REACTORS
330
C
102
}
330
C
100
AcDbXrecord
280
     1
  1
DWGPROPS COOKIE
  2

  3

  4
Da Chow
  6

  7

  8

  9

300
Manager=
301
Company=RADIO ASTRONOMY LABORATORY
302
Category=
303
Part Number=Block2-V61
304
Description=
305
Project=
306
Designer=Da Chow
307
Engineer=
308
Authority=
309
Cost Center=
 40
0.0000283912037037
 41
2454846.692638704
 42
2454846.692638704
  1

 90
       17
300
Vendor=
300
User Status=REV
300
Design Status=WorkInProgress
300
Checked by=
300
Date Checked=01/14/2009
300
Engr Approved by=
300
Mfg Approved by=
  0
LAYOUT
  5
36
102
{ACAD_XDICTIONARY
360
5E2
102
}
102
{ACAD_REACTORS
330
2F
102
}
330
2F
100
AcDbPlotSettings
  1

  2

  4

  6

 40
0.0
 41
0.0
 42
0.0
 43
0.0
 44
0.0
 45
0.0
 46
0.0
 47
0.0
 48
0.0
 49
0.0
140
0.0
141
0.0
142
1.0
143
1.0
 70
   688
 72
     0
 73
     0
 74
     5
  7

 75
    16
147
1.0
148
0.0
149
0.0
100
AcDbLayout
  1
Layout1
 70
     1
 71
     1
 10
0.0
 20
0.0
 11
12.0
 21
9.0
 12
0.0
 22
0.0
 32
0.0
 14
0.0
 24
0.0
 34
0.0
 15
0.0
 25
0.0
 35
0.0
146
0.0
 13
0.0
 23
0.0
 33
0.0
 16
1.0
 26
0.0
 36
0.0
 17
0.0
 27
1.0
 37
0.0
 76
     0
330
33
  0
LAYOUT
  5
3E
102
{ACAD_XDICTIONARY
360
5E6
102
}
102
{ACAD_REACTORS
330
2F
102
}
330
2F
100
AcDbPlotSettings
  1

  2

  4

  6

 40
0.0
 41
0.0
 42
0.0
 43
0.0
 44
0.0
 45
0.0
 46
0.0
 47
0.0
 48
0.0
 49
0.0
140
0.0
141
0.0
142
1.0
143
1.0
 70
   688
 72
     0
 73
     0
 74
     5
  7

 75
    16
147
1.0
148
0.0
149
0.0
100
AcDbLayout
  1
Layout2
 70
     1
 71
     2
 10
0.0
 20
0.0
 11
12.0
 21
9.0
 12
0.0
 22
0.0
 32
0.0
 14
0.0
 24
0.0
 34
0.0
 15
0.0
 25
0.0
 35
0.0
146
0.0
 13
0.0
 23
0.0
 33
0.0
 16
1.0
 26
0.0
 36
0.0
 17
0.0
 27
1.0
 37
0.0
 76
     0
330
3B
  0
LAYOUT
  5
3A
102
{ACAD_XDICTIONARY
360
5E4
102
}
102
{ACAD_REACTORS
330
2F
102
}
330
2F
100
AcDbPlotSettings
  1

  2

  4

  6

 40
0.0
 41
0.0
 42
0.0
 43
0.0
 44
0.0
 45
0.0
 46
0.0
 47
0.0
 48
0.0
 49
0.0
140
0.0
141
0.0
142
1.0
143
1.0
 70
  1712
 72
     0
 73
     0
 74
     0
  7

 75
     0
147
1.0
148
0.0
149
0.0
100
AcDbLayout
  1
Model
 70
     1
 71
     0
 10
0.0
 20
0.0
 11
12.0
 21
9.0
 12
0.0
 22
0.0
 32
0.0
 14
0.0
 24
0.0
 34
0.0
 15
0.0
 25
0.0
 35
0.0
146
0.0
 13
0.0
 23
0.0
 33
0.0
 16
1.0
 26
0.0
 36
0.0
 17
0.0
 27
1.0
 37
0.0
 76
     0
330
37
  0
MATERIAL
  5
12
102
{ACAD_XDICTIONARY
360
5DC
102
}
102
{ACAD_REACTORS
330
10
102
}
330
10
100
AcDbMaterial
  1
ByBlock
  0
MATERIAL
  5
11
102
{ACAD_XDICTIONARY
360
5DA
102
}
102
{ACAD_REACTORS
330
10
102
}
330
10
100
AcDbMaterial
  1
ByLayer
  0
MATERIAL
  5
13
102
{ACAD_XDICTIONARY
360
5DE
102
}
102
{ACAD_REACTORS
330
10
102
}
330
10
100
AcDbMaterial
  1
Global
  0
MLINESTYLE
  5
2D
102
{ACAD_REACTORS
330
2C
102
}
330
2C
100
AcDbMlineStyle
  2
STANDARD
 70
     0
  3

 62
   256
 51
90.0
 52
90.0
 71
     2
 49
0.5
 62
   256
  6
BYLAYER
 49
-0.5
 62
   256
  6
BYLAYER
  0
ACDBPLACEHOLDER
  5
F
102
{ACAD_REACTORS
330
E
102
}
330
E
  0
TABLESTYLE
  5
32
102
{ACAD_XDICTIONARY
360
5E0
102
}
102
{ACAD_REACTORS
330
31
102
}
330
31
100
AcDbTableStyle
  3
Standard
 70
     0
 71
     0
 40
0.06
 41
0.06
280
     0
281
     0
  7
Standard
140
0.18
170
     2
 62
     0
 63
     7
283
     0
274
    -2
284
     1
 64
     0
275
    -2
285
     1
 65
     0
276
    -2
286
     1
 66
     0
277
    -2
287
     1
 67
     0
278
    -2
288
     1
 68
     0
279
    -2
289
     1
 69
     0
  7
Standard
140
0.25
170
     5
 62
     0
 63
     7
283
     0
274
    -2
284
     1
 64
     0
275
    -2
285
     1
 65
     0
276
    -2
286
     1
 66
     0
277
    -2
287
     1
 67
     0
278
    -2
288
     1
 68
     0
279
    -2
289
     1
 69
     0
  7
Standard
140
0.18
170
     5
 62
     0
 63
     7
283
     0
274
    -2
284
     1
 64
     0
275
    -2
285
     1
 65
     0
276
    -2
286
     1
 66
     0
277
    -2
287
     1
 67
     0
278
    -2
288
     1
 68
     0
279
    -2
289
     1
 69
     0
  0
VISUALSTYLE
  5
1A
102
{ACAD_REACTORS
330
14
102
}
330
14
100
AcDbVisualStyle
  2
2dWireframe
 70
     4
 71
     0
 72
     2
 73
     0
 90
        0
 40
-0.6
 41
-30.0
 62
     5
 63
     7
 74
     1
 91
        4
 64
     7
 65
   257
 75
     1
175
     1
 42
1.0
 92
        0
 66
   257
 43
1.0
 76
     1
 77
     6
 78
     2
 67
     7
 79
     5
170
     0
171
     0
290
     0
174
     0
 93
        1
 44
0.0
173
     0
291
     0
 45
0.0
1001
ACAD
1000
AcDbSavedByObjectVersion
1070
     0
  0
VISUALSTYLE
  5
1C
102
{ACAD_REACTORS
330
14
102
}
330
14
100
AcDbVisualStyle
  2
3D Hidden
 70
     6
 71
     1
 72
     2
 73
     2
 90
        0
 40
-0.6
 41
-30.0
 62
     5
 63
     7
 74
     2
 91
        2
 64
     7
 65
   257
 75
     2
175
     1
 42
40.0
 92
        0
 66
   257
 43
1.0
 76
     1
 77
     6
 78
     2
 67
     7
 79
     3
170
     0
171
     0
290
     0
174
     0
 93
        1
 44
0.0
173
     0
291
     0
 45
0.0
1001
ACAD
1000
AcDbSavedByObjectVersion
1070
     0
  0
VISUALSTYLE
  5
1B
102
{ACAD_REACTORS
330
14
102
}
330
14
100
AcDbVisualStyle
  2
3dWireframe
 70
     5
 71
     0
 72
     2
 73
     0
 90
        0
 40
-0.6
 41
-30.0
 62
     5
 63
     7
 74
     1
 91
        4
 64
     7
 65
   257
 75
     1
175
     1
 42
1.0
 92
        0
 66
   257
 43
1.0
 76
     1
 77
     6
 78
     2
 67
     7
 79
     5
170
     0
171
     0
290
     0
174
     0
 93
        1
 44
0.0
173
     0
291
     0
 45
0.0
1001
ACAD
1000
AcDbSavedByObjectVersion
1070
     0
  0
VISUALSTYLE
  5
19
102
{ACAD_REACTORS
330
14
102
}
330
14
100
AcDbVisualStyle
  2
Basic
 70
     7
 71
     1
 72
     0
 73
     1
 90
        0
 40
-0.6
 41
-30.0
 62
     5
 63
     7
 74
     0
 91
        4
 64
     7
 65
   257
 75
     1
175
     1
 42
1.0
 92
        8
 66
     7
 43
1.0
 76
     1
 77
     6
 78
     2
 67
     7
 79
     5
170
     0
171
     0
290
     0
174
     0
 93
        1
 44
0.0
173
     0
291
     1
 45
0.0
1001
ACAD
1000
AcDbSavedByObjectVersion
1070
     0
  0
VISUALSTYLE
  5
20
102
{ACAD_REACTORS
330
14
102
}
330
14
100
AcDbVisualStyle
  2
Brighten
 70
    12
 71
     2
 72
     2
 73
     0
 90
        0
 40
-0.6
 41
-30.0
 62
     5
 63
     7
 74
     1
 91
        4
 64
     7
 65
   257
 75
     1
175
     1
 42
1.0
 92
        8
 66
     7
 43
1.0
 76
     1
 77
     6
 78
     2
 67
     7
 79
     5
170
     0
171
     0
290
     0
174
     0
 93
        1
 44
50.0
173
     0
291
     1
 45
0.0
1001
ACAD
1000
AcDbSavedByObjectVersion
1070
     0
  0
VISUALSTYLE
  5
24
102
{ACAD_REACTORS
330
14
102
}
330
14
100
AcDbVisualStyle
  2
ColorChange
 70
    16
 71
     2
 72
     2
 73
     3
 90
        0
 40
-0.6
 41
-30.0
 62
     5
 63
     8
 74
     1
 91
        4
 64
     7
 65
   257
 75
     1
175
     1
 42
1.0
 92
        8
 66
     8
 43
1.0
 76
     1
 77
     6
 78
     2
 67
     7
 79
     5
170
     0
171
     0
290
     0
174
     0
 93
        1
 44
0.0
173
     0
291
     1
 45
0.0
1001
ACAD
1000
AcDbSavedByObjectVersion
1070
     0
  0
VISUALSTYLE
  5
1D
102
{ACAD_REACTORS
330
14
102
}
330
14
100
AcDbVisualStyle
  2
Conceptual
 70
     9
 71
     3
 72
     2
 73
     0
 90
        0
 40
-0.6
 41
-30.0
 62
     5
 63
     7
 74
     2
 91
        2
 64
     7
 65
   257
 75
     1
175
     1
 42
40.0
 92
        8
 66
     7
 43
1.0
 76
     1
 77
     6
 78
     2
 67
     7
 79
     3
170
     0
171
     0
290
     0
174
     0
 93
        1
 44
0.0
173
     0
291
     0
 45
0.0
1001
ACAD
1000
AcDbSavedByObjectVersion
1070
     0
  0
VISUALSTYLE
  5
1F
102
{ACAD_REACTORS
330
14
102
}
330
14
100
AcDbVisualStyle
  2
Dim
 70
    11
 71
     2
 72
     2
 73
     0
 90
        0
 40
-0.6
 41
-30.0
 62
     5
 63
     7
 74
     1
 91
        4
 64
     7
 65
   257
 75
     1
175
     1
 42
1.0
 92
        8
 66
     7
 43
1.0
 76
     1
 77
     6
 78
     2
 67
     7
 79
     5
170
     0
171
     0
290
     0
174
     0
 93
        1
 44
-50.0
173
     0
291
     1
 45
0.0
1001
ACAD
1000
AcDbSavedByObjectVersion
1070
     0
  0
VISUALSTYLE
  5
23
102
{ACAD_REACTORS
330
14
102
}
330
14
100
AcDbVisualStyle
  2
Facepattern
 70
    15
 71
     2
 72
     2
 73
     0
 90
        0
 40
-0.6
 41
-30.0
 62
     5
 63
     7
 74
     1
 91
        4
 64
     7
 65
   257
 75
     1
175
     1
 42
1.0
 92
        8
 66
     7
 43
1.0
 76
     1
 77
     6
 78
     2
 67
     7
 79
     5
170
     0
171
     0
290
     0
174
     0
 93
        1
 44
0.0
173
     0
291
     1
 45
0.0
1001
ACAD
1000
AcDbSavedByObjectVersion
1070
     0
  0
VISUALSTYLE
  5
15
102
{ACAD_REACTORS
330
14
102
}
330
14
100
AcDbVisualStyle
  2
Flat
 70
     0
 71
     2
 72
     1
 73
     1
 90
        2
 40
-0.6
 41
30.0
 62
     5
 63
     7
 74
     0
 91
        4
 64
     7
 65
   257
 75
     1
175
     1
 42
1.0
 92
        8
 66
     7
 43
1.0
 76
     1
 77
     6
 78
     2
 67
     7
 79
     5
170
     0
171
     0
290
     0
174
     0
 93
       13
 44
0.0
173
     0
291
     1
 45
0.0
1001
ACAD
1000
AcDbSavedByObjectVersion
1070
     0
  0
VISUALSTYLE
  5
16
102
{ACAD_REACTORS
330
14
102
}
330
14
100
AcDbVisualStyle
  2
FlatWithEdges
 70
     1
 71
     2
 72
     1
 73
     1
 90
        2
 40
-0.6
 41
30.0
 62
     5
 63
     7
 74
     1
 91
        4
 64
     7
 65
   257
 75
     1
175
     1
 42
1.0
 92
        0
 66
   257
 43
1.0
 76
     1
 77
     6
 78
     2
 67
     7
 79
     5
170
     0
171
     0
290
     0
174
     0
 93
       13
 44
0.0
173
     0
291
     1
 45
0.0
1001
ACAD
1000
AcDbSavedByObjectVersion
1070
     0
  0
VISUALSTYLE
  5
17
102
{ACAD_REACTORS
330
14
102
}
330
14
100
AcDbVisualStyle
  2
Gouraud
 70
     2
 71
     2
 72
     2
 73
     1
 90
        2
 40
-0.6
 41
30.0
 62
     5
 63
     7
 74
     0
 91
        4
 64
     7
 65
   257
 75
     1
175
     1
 42
1.0
 92
        0
 66
     7
 43
1.0
 76
     1
 77
     6
 78
     2
 67
     7
 79
     5
170
     0
171
     0
290
     0
174
     0
 93
       13
 44
0.0
173
     0
291
     1
 45
0.0
1001
ACAD
1000
AcDbSavedByObjectVersion
1070
     0
  0
VISUALSTYLE
  5
18
102
{ACAD_REACTORS
330
14
102
}
330
14
100
AcDbVisualStyle
  2
GouraudWithEdges
 70
     3
 71
     2
 72
     2
 73
     1
 90
        2
 40
-0.6
 41
30.0
 62
     5
 63
     7
 74
     1
 91
        4
 64
     7
 65
   257
 75
     1
175
     1
 42
1.0
 92
        0
 66
   257
 43
1.0
 76
     1
 77
     6
 78
     2
 67
     7
 79
     5
170
     0
171
     0
290
     0
174
     0
 93
       13
 44
0.0
173
     0
291
     1
 45
0.0
1001
ACAD
1000
AcDbSavedByObjectVersion
1070
     0
  0
VISUALSTYLE
  5
22
102
{ACAD_REACTORS
330
14
102
}
330
14
100
AcDbVisualStyle
  2
Linepattern
 70
    14
 71
     2
 72
     2
 73
     0
 90
        0
 40
-0.6
 41
-30.0
 62
     5
 63
     7
 74
     1
 91
        4
 64
     7
 65
   257
 75
     7
175
     7
 42
1.0
 92
        8
 66
     7
 43
1.0
 76
     1
 77
     6
 78
     2
 67
     7
 79
     5
170
     0
171
     0
290
     0
174
     0
 93
        1
 44
0.0
173
     0
291
     1
 45
0.0
1001
ACAD
1000
AcDbSavedByObjectVersion
1070
     0
  0
VISUALSTYLE
  5
1E
102
{ACAD_REACTORS
330
14
102
}
330
14
100
AcDbVisualStyle
  2
Realistic
 70
     8
 71
     2
 72
     2
 73
     0
 90
        0
 40
-0.6
 41
-30.0
 62
     5
 63
     7
 74
     1
 91
        0
 64
     7
 65
   257
 75
     1
175
     1
 42
1.0
 92
        8
 66
     8
 43
1.0
 76
     1
 77
     6
 78
     2
 67
     7
 79
     5
170
     0
171
     0
290
     0
174
     0
 93
       13
 44
0.0
173
     0
291
     0
 45
0.0
1001
ACAD
1000
AcDbSavedByObjectVersion
1070
     0
  0
VISUALSTYLE
  5
21
102
{ACAD_REACTORS
330
14
102
}
330
14
100
AcDbVisualStyle
  2
Thicken
 70
    13
 71
     2
 72
     2
 73
     0
 90
        0
 40
-0.6
 41
-30.0
 62
     5
 63
     7
 74
     1
 91
        4
 64
     7
 65
   257
 75
     1
175
     1
 42
1.0
 92
       12
 66
     7
 43
1.0
 76
     1
 77
     6
 78
     2
 67
     7
 79
     5
170
     0
171
     0
290
     0
174
     0
 93
        1
 44
0.0
173
     0
291
     1
 45
0.0
1001
ACAD
1000
AcDbSavedByObjectVersion
1070
     0
  0
DICTIONARYVAR
  5
5D4
102
{ACAD_REACTORS
330
5D3
102
}
330
5D3
100
DictionaryVariables
280
     0
  1
STANDARD
  0
DICTIONARYVAR
  5
5D8
102
{ACAD_REACTORS
330
5D3
102
}
330
5D3
100
DictionaryVariables
280
     0
  1
1
  0
DICTIONARYVAR
  5
5D7
102
{ACAD_REACTORS
330
5D3
102
}
330
5D3
100
DictionaryVariables
280
     0
  1
1
  0
DICTIONARYVAR
  5
5D6
102
{ACAD_REACTORS
330
5D3
102
}
330
5D3
100
DictionaryVariables
280
     0
  1
0
  0
DICTIONARYVAR
  5
5D5
102
{ACAD_REACTORS
330
5D3
102
}
330
5D3
100
DictionaryVariables
280
     0
  1
127
  0
DICTIONARY
  5
5E2
330
36
100
AcDbDictionary
280
     1
281
     1
  3
ACAD_XREC_ROUNDTRIP
360
5E3
  0
DICTIONARY
  5
5E6
330
3E
100
AcDbDictionary
280
     1
281
     1
  3
ACAD_XREC_ROUNDTRIP
360
5E7
  0
DICTIONARY
  5
5E4
330
3A
100
AcDbDictionary
280
     1
281
     1
  3
ACAD_XREC_ROUNDTRIP
360
5E5
  0
DICTIONARY
  5
5DC
330
12
100
AcDbDictionary
280
     1
281
     1
  3
ACAD_XREC_ROUNDTRIP
360
5DD
  0
DICTIONARY
  5
5DA
330
11
100
AcDbDictionary
280
     1
281
     1
  3
ACAD_XREC_ROUNDTRIP
360
5DB
  0
DICTIONARY
  5
5DE
330
13
100
AcDbDictionary
280
     1
281
     1
  3
ACAD_XREC_ROUNDTRIP
360
5DF
  0
DICTIONARY
  5
5E0
330
32
100
AcDbDictionary
280
     1
281
     1
  3
ACAD_XREC_ROUNDTRIP
360
5E1
  0
XRECORD
  5
5E3
102
{ACAD_REACTORS
330
5E2
102
}
330
5E2
100
AcDbXrecord
280
     1
102
SHADEPLOT
 70
     0
102
SHADEPLOTRESLEVEL
 70
     2
102
SHADEPLOTCUSTOMDPI
 70
   300
  0
XRECORD
  5
5E7
102
{ACAD_REACTORS
330
5E6
102
}
330
5E6
100
AcDbXrecord
280
     1
102
SHADEPLOT
 70
     0
102
SHADEPLOTRESLEVEL
 70
     2
102
SHADEPLOTCUSTOMDPI
 70
   300
  0
XRECORD
  5
5E5
102
{ACAD_REACTORS
330
5E4
102
}
330
5E4
100
AcDbXrecord
280
     1
102
SHADEPLOT
 70
     0
102
SHADEPLOTRESLEVEL
 70
     2
102
SHADEPLOTCUSTOMDPI
 70
   300
  0
XRECORD
  5
5DD
102
{ACAD_REACTORS
330
5DC
102
}
330
5DC
100
AcDbXrecord
280
     1
102
MATERIAL
148
0.0
149
0.0
149
0.0
 93
        0
 94
       63
282
     0
 72
     1
 77
     1
171
     1
175
     1
179
     1
273
     0
  0
XRECORD
  5
5DB
102
{ACAD_REACTORS
330
5DA
102
}
330
5DA
100
AcDbXrecord
280
     1
102
MATERIAL
148
0.0
149
0.0
149
0.0
 93
        0
 94
       63
282
     0
 72
     1
 77
     1
171
     1
175
     1
179
     1
273
     0
  0
XRECORD
  5
5DF
102
{ACAD_REACTORS
330
5DE
102
}
330
5DE
100
AcDbXrecord
280
     1
102
MATERIAL
148
0.0
149
0.0
149
0.0
 93
        0
 94
       63
282
     0
 72
     1
 77
     1
171
     1
175
     1
179
     1
273
     0
  0
XRECORD
  5
5E1
102
{ACAD_REACTORS
330
5E0
102
}
330
5E0
100
AcDbXrecord
280
     1
102
ACAD_ROUNDTRIP_PRE2007_TABLESTYLE
 90
      512
 91
        0
  1

 92
      512
 93
        0
  2

 94
      512
 95
        0
  3

  0
ENDSEC
  0
EOF
