  0
SECTION
  2
HEADER
  9
$ACADVER
  1
AC1015
  9
$ACADMAINTVER
 70
    18
  9
$DWGCODEPAGE
  3
ANSI_1252
  9
$INSBASE
 10
0.0
 20
0.0
 30
0.0
  9
$EXTMIN
 10
0.0
 20
0.0
 30
0.0
  9
$EXTMAX
 10
2.75
 20
2.125
 30
0.0
  9
$LIMMIN
 10
0.0
 20
0.0
  9
$LIMMAX
 10
2.75
 20
2.125
  9
$ORTHOMODE
 70
     0
  9
$REGENMODE
 70
     1
  9
$FILLMODE
 70
     1
  9
$QTEXTMODE
 70
     0
  9
$MIRRTEXT
 70
     0
  9
$LTSCALE
 40
0.25
  9
$ATTMODE
 70
     1
  9
$TEXTSIZE
 40
0.2
  9
$TRACEWID
 40
0.05
  9
$TEXTSTYLE
  7
Standard
  9
$CLAYER
  8
0
  9
$CELTYPE
  6
ByLayer
  9
$CECOLOR
 62
   256
  9
$CELTSCALE
 40
1.0
  9
$DISPSILH
 70
     0
  9
$DIMSCALE
 40
1.0
  9
$DIMASZ
 40
0.0708661417322835
  9
$DIMEXO
 40
0.0625
  9
$DIMDLI
 40
0.38
  9
$DIMRND
 40
0.0
  9
$DIMDLE
 40
0.0
  9
$DIMEXE
 40
0.18
  9
$DIMTP
 40
0.0
  9
$DIMTM
 40
0.0
  9
$DIMTXT
 40
0.3048000037670135
  9
$DIMCEN
 40
0.09
  9
$DIMTSZ
 40
0.0
  9
$DIMTOL
 70
     0
  9
$DIMLIM
 70
     0
  9
$DIMTIH
 70
     1
  9
$DIMTOH
 70
     1
  9
$DIMSE1
 70
     0
  9
$DIMSE2
 70
     0
  9
$DIMTAD
 70
     0
  9
$DIMZIN
 70
     0
  9
$DIMBLK
  1

  9
$DIMASO
 70
     1
  9
$DIMSHO
 70
     1
  9
$DIMPOST
  1

  9
$DIMAPOST
  1

  9
$DIMALT
 70
     0
  9
$DIMALTD
 70
     2
  9
$DIMALTF
 40
25.4
  9
$DIMLFAC
 40
1.0
  9
$DIMTOFL
 70
     0
  9
$DIMTVP
 40
0.0
  9
$DIMTIX
 70
     0
  9
$DIMSOXD
 70
     0
  9
$DIMSAH
 70
     0
  9
$DIMBLK1
  1

  9
$DIMBLK2
  1

  9
$DIMSTYLE
  2
Standard
  9
$DIMCLRD
 70
     0
  9
$DIMCLRE
 70
     0
  9
$DIMCLRT
 70
     0
  9
$DIMTFAC
 40
1.0
  9
$DIMGAP
 40
0.09
  9
$DIMJUST
 70
     0
  9
$DIMSD1
 70
     0
  9
$DIMSD2
 70
     0
  9
$DIMTOLJ
 70
     1
  9
$DIMTZIN
 70
     0
  9
$DIMALTZ
 70
     0
  9
$DIMALTTZ
 70
     0
  9
$DIMUPT
 70
     0
  9
$DIMDEC
 70
     4
  9
$DIMTDEC
 70
     4
  9
$DIMALTU
 70
     2
  9
$DIMALTTD
 70
     2
  9
$DIMTXSTY
  7
Standard
  9
$DIMAUNIT
 70
     0
  9
$DIMADEC
 70
     0
  9
$DIMALTRND
 40
0.0
  9
$DIMAZIN
 70
     0
  9
$DIMDSEP
 70
    46
  9
$DIMATFIT
 70
     3
  9
$DIMFRAC
 70
     0
  9
$DIMLDRBLK
  1

  9
$DIMLUNIT
 70
     2
  9
$DIMLWD
 70
    -2
  9
$DIMLWE
 70
    -2
  9
$DIMTMOVE
 70
     0
  9
$LUNITS
 70
     2
  9
$LUPREC
 70
     4
  9
$SKETCHINC
 40
0.1
  9
$FILLETRAD
 40
0.0
  9
$AUNITS
 70
     0
  9
$AUPREC
 70
     0
  9
$MENU
  1
.
  9
$ELEVATION
 40
0.0
  9
$PELEVATION
 40
0.0
  9
$THICKNESS
 40
0.0
  9
$LIMCHECK
 70
     0
  9
$CHAMFERA
 40
0.0
  9
$CHAMFERB
 40
0.0
  9
$CHAMFERC
 40
0.0
  9
$CHAMFERD
 40
0.0
  9
$SKPOLY
 70
     0
  9
$TDCREATE
 40
2454846.689014572
  9
$TDUCREATE
 40
2454847.022347905
  9
$TDUPDATE
 40
2454846.689014572
  9
$TDUUPDATE
 40
2454847.022347905
  9
$TDINDWG
 40
0.0000215162
  9
$TDUSRTIMER
 40
0.0000215162
  9
$USRTIMER
 70
     1
  9
$ANGBASE
 50
0.0
  9
$ANGDIR
 70
     0
  9
$PDMODE
 70
     0
  9
$PDSIZE
 40
0.0
  9
$PLINEWID
 40
0.0
  9
$SPLFRAME
 70
     0
  9
$SPLINETYPE
 70
     6
  9
$SPLINESEGS
 70
     8
  9
$HANDSEED
  5
522
  9
$SURFTAB1
 70
     6
  9
$SURFTAB2
 70
     6
  9
$SURFTYPE
 70
     6
  9
$SURFU
 70
     6
  9
$SURFV
 70
     6
  9
$UCSBASE
  2

  9
$UCSNAME
  2

  9
$UCSORG
 10
0.0
 20
0.0
 30
0.0
  9
$UCSXDIR
 10
1.0
 20
0.0
 30
0.0
  9
$UCSYDIR
 10
0.0
 20
1.0
 30
0.0
  9
$UCSORTHOREF
  2

  9
$UCSORTHOVIEW
 70
     0
  9
$UCSORGTOP
 10
0.0
 20
0.0
 30
0.0
  9
$UCSORGBOTTOM
 10
0.0
 20
0.0
 30
0.0
  9
$UCSORGLEFT
 10
0.0
 20
0.0
 30
0.0
  9
$UCSORGRIGHT
 10
0.0
 20
0.0
 30
0.0
  9
$UCSORGFRONT
 10
0.0
 20
0.0
 30
0.0
  9
$UCSORGBACK
 10
0.0
 20
0.0
 30
0.0
  9
$PUCSBASE
  2

  9
$PUCSNAME
  2

  9
$PUCSORG
 10
0.0
 20
0.0
 30
0.0
  9
$PUCSXDIR
 10
1.0
 20
0.0
 30
0.0
  9
$PUCSYDIR
 10
0.0
 20
1.0
 30
0.0
  9
$PUCSORTHOREF
  2

  9
$PUCSORTHOVIEW
 70
     0
  9
$PUCSORGTOP
 10
0.0
 20
0.0
 30
0.0
  9
$PUCSORGBOTTOM
 10
0.0
 20
0.0
 30
0.0
  9
$PUCSORGLEFT
 10
0.0
 20
0.0
 30
0.0
  9
$PUCSORGRIGHT
 10
0.0
 20
0.0
 30
0.0
  9
$PUCSORGFRONT
 10
0.0
 20
0.0
 30
0.0
  9
$PUCSORGBACK
 10
0.0
 20
0.0
 30
0.0
  9
$USERI1
 70
     0
  9
$USERI2
 70
     0
  9
$USERI3
 70
     0
  9
$USERI4
 70
     0
  9
$USERI5
 70
     0
  9
$USERR1
 40
0.0
  9
$USERR2
 40
0.0
  9
$USERR3
 40
0.0
  9
$USERR4
 40
0.0
  9
$USERR5
 40
0.0
  9
$WORLDVIEW
 70
     1
  9
$SHADEDGE
 70
     3
  9
$SHADEDIF
 70
    70
  9
$TILEMODE
 70
     1
  9
$MAXACTVP
 70
    64
  9
$PINSBASE
 10
0.0
 20
0.0
 30
0.0
  9
$PLIMCHECK
 70
     0
  9
$PEXTMIN
 10
0.0
 20
0.0
 30
0.0
  9
$PEXTMAX
 10
2.75
 20
2.125
 30
0.0
  9
$PLIMMIN
 10
0.0
 20
0.0
  9
$PLIMMAX
 10
2.75
 20
2.125
  9
$UNITMODE
 70
     0
  9
$VISRETAIN
 70
     1
  9
$PLINEGEN
 70
     0
  9
$PSLTSCALE
 70
     1
  9
$TREEDEPTH
 70
  3020
  9
$CMLSTYLE
  2
Standard
  9
$CMLJUST
 70
     0
  9
$CMLSCALE
 40
1.0
  9
$PROXYGRAPHICS
 70
     1
  9
$MEASUREMENT
 70
     0
  9
$CELWEIGHT
370
    -1
  9
$ENDCAPS
280
     0
  9
$JOINSTYLE
280
     0
  9
$LWDISPLAY
290
     0
  9
$INSUNITS
 70
     0
  9
$HYPERLINKBASE
  1

  9
$STYLESHEET
  1

  9
$XEDIT
290
     1
  9
$CEPSNTYPE
380
     0
  9
$PSTYLEMODE
290
     1
  9
$FINGERPRINTGUID
  2
{4F012CCD-F1BE-4C02-9102-FE16F4505001}
  9
$VERSIONGUID
  2
{DBE796E3-81D3-455A-B637-ECA39926060E}
  9
$EXTNAMES
290
     1
  9
$PSVPSCALE
 40
0.0
  9
$OLESTARTUP
290
     0
  0
ENDSEC
  0
SECTION
  2
CLASSES
  0
CLASS
  1
ACDBDICTIONARYWDFLT
  2
AcDbDictionaryWithDefault
  3
ObjectDBX Classes
 90
        0
280
     0
281
     0
  0
CLASS
  1
MATERIAL
  2
AcDbMaterial
  3
ObjectDBX Classes
 90
     1024
280
     0
281
     0
  0
CLASS
  1
VISUALSTYLE
  2
AcDbVisualStyle
  3
ObjectDBX Classes
 90
     4095
280
     0
281
     0
  0
CLASS
  1
TABLESTYLE
  2
AcDbTableStyle
  3
ObjectDBX Classes
 90
     4095
280
     0
281
     0
  0
CLASS
  1
DICTIONARYVAR
  2
AcDbDictionaryVar
  3
ObjectDBX Classes
 90
        0
280
     0
281
     0
  0
CLASS
  1
ACDBPLACEHOLDER
  2
AcDbPlaceHolder
  3
ObjectDBX Classes
 90
        0
280
     0
281
     0
  0
CLASS
  1
LAYOUT
  2
AcDbLayout
  3
ObjectDBX Classes
 90
        0
280
     0
281
     0
  0
ENDSEC
  0
SECTION
  2
TABLES
  0
TABLE
  2
VPORT
  5
8
330
0
100
AcDbSymbolTable
 70
     1
  0
VPORT
  5
28
330
8
100
AcDbSymbolTableRecord
100
AcDbViewportTableRecord
  2
*Active
 70
     0
 10
0.0
 20
0.0
 11
1.0
 21
1.0
 12
1.375
 22
1.0625
 13
0.0
 23
0.0
 14
1.0
 24
1.0
 15
0.0
 25
0.0
 16
0.0
 26
0.0
 36
1.0
 17
0.0
 27
0.0
 37
0.0
 40
2.125
 41
1.294117647058823
 42
50.0
 43
0.0
 44
0.0
 50
0.0
 51
0.0
 71
     0
 72
   100
 73
     1
 74
     1
 75
     0
 76
     0
 77
     0
 78
     0
281
     0
 65
     1
110
0.0
120
0.0
130
0.0
111
1.0
121
0.0
131
0.0
112
0.0
122
1.0
132
0.0
 79
     0
146
0.0
  0
ENDTAB
  0
TABLE
  2
LTYPE
  5
5
330
0
100
AcDbSymbolTable
 70
    59
  0
LTYPE
  5
29
330
5
100
AcDbSymbolTableRecord
100
AcDbLinetypeTableRecord
  2
ByBlock
 70
     0
  3

 72
    65
 73
     0
 40
0.0
  0
LTYPE
  5
2A
330
5
100
AcDbSymbolTableRecord
100
AcDbLinetypeTableRecord
  2
ByLayer
 70
     0
  3

 72
    65
 73
     0
 40
0.0
  0
LTYPE
  5
2B
330
5
100
AcDbSymbolTableRecord
100
AcDbLinetypeTableRecord
  2
Continuous
 70
     0
  3
Solid line
 72
    65
 73
     0
 40
0.0
  0
LTYPE
  5
40
330
5
100
AcDbSymbolTableRecord
100
AcDbLinetypeTableRecord
  2
BY_STANDARD
 70
     0
  3
By Standard ____________    ____    ____   _
 72
    65
 73
     6
 40
1.240299999999999
 49
0.6614
 74
     0
 49
-0.0827
 74
     0
 49
0.1654
 74
     0
 49
-0.0827
 74
     0
 49
0.1654
 74
     0
 49
-0.0827
 74
     0
  0
LTYPE
  5
41
330
5
100
AcDbSymbolTableRecord
100
AcDbLinetypeTableRecord
  2
CHAIN
 70
     0
  3
Chain ____ _ ____ _ ____ _ ____ _ ____ _ ____
 72
    65
 73
     4
 40
0.7087
 49
0.4724000000000001
 74
     0
 49
-0.0591
 74
     0
 49
0.1181
 74
     0
 49
-0.0591
 74
     0
  0
LTYPE
  5
42
330
5
100
AcDbSymbolTableRecord
100
AcDbLinetypeTableRecord
  2
DASH_DOT
 70
     0
  3
Dash dot __ . __ . __ . __ . __ . __ . __ . __
 72
    65
 73
     4
 40
0.37
 49
0.24
 74
     0
 49
-0.06
 74
     0
 49
0.01
 74
     0
 49
-0.06
 74
     0
  0
LTYPE
  5
43
330
5
100
AcDbSymbolTableRecord
100
AcDbLinetypeTableRecord
  2
DOUBLE_DASH_DOT
 70
     0
  3
Double-Dash Dot __ __ . __ __ . __ __ . __ _
 72
    65
 73
     6
 40
0.4398
 49
0.24
 74
     0
 49
-0.06
 74
     0
 49
0.0098
 74
     0
 49
-0.06
 74
     0
 49
0.01
 74
     0
 49
-0.06
 74
     0
  0
LTYPE
  5
44
330
5
100
AcDbSymbolTableRecord
100
AcDbLinetypeTableRecord
  2
DASH_TRIPLE_DOT
 70
     0
  3
Dash Triple-Dot _ . . . _ . . . _ . . . _
 72
    65
 73
     8
 40
0.51
 49
0.24
 74
     0
 49
-0.06
 74
     0
 49
0.01
 74
     0
 49
-0.06
 74
     0
 49
0.01
 74
     0
 49
-0.06
 74
     0
 49
0.01
 74
     0
 49
-0.06
 74
     0
  0
LTYPE
  5
45
330
5
100
AcDbSymbolTableRecord
100
AcDbLinetypeTableRecord
  2
DASHED
 70
     0
  3
Dashed __ __ __ __ __ __ __ __ __ __ __ __ __ _
 72
    65
 73
     2
 40
0.2067
 49
0.1654
 74
     0
 49
-0.0413
 74
     0
  0
LTYPE
  5
46
330
5
100
AcDbSymbolTableRecord
100
AcDbLinetypeTableRecord
  2
DASH_DOUBLE_DOT
 70
     0
  3
Dash Double-Dot __ . . __ . . __ . . __ . .
 72
    65
 73
     6
 40
0.4398
 49
0.24
 74
     0
 49
-0.06
 74
     0
 49
0.0098
 74
     0
 49
-0.06
 74
     0
 49
0.01
 74
     0
 49
-0.06
 74
     0
  0
LTYPE
  5
47
330
5
100
AcDbSymbolTableRecord
100
AcDbLinetypeTableRecord
  2
DASHED_SPACE
 70
     0
  3
Dashed Space __ __ __ __ __ __ __ __ __ __ __ _
 72
    65
 73
     2
 40
0.2067
 49
0.1654
 74
     0
 49
-0.0413
 74
     0
  0
LTYPE
  5
48
330
5
100
AcDbSymbolTableRecord
100
AcDbLinetypeTableRecord
  2
DOTTED
 70
     0
  3
Dotted . . . . . . . . . . . . . . . . . . . . 
 72
    65
 73
     2
 40
0.0482
 49
0.0069
 74
     0
 49
-0.0413
 74
     0
  0
LTYPE
  5
49
330
5
100
AcDbSymbolTableRecord
100
AcDbLinetypeTableRecord
  2
DOUBLE_DASH_CHAIN
 70
     0
  3
Double-Dash Chain ______  __  __  ______  __  _
 72
    65
 73
     6
 40
1.240299999999999
 49
0.6614
 74
     0
 49
-0.0827
 74
     0
 49
0.1654
 74
     0
 49
-0.0827
 74
     0
 49
0.1654
 74
     0
 49
-0.0827
 74
     0
  0
LTYPE
  5
4B
330
5
100
AcDbSymbolTableRecord
100
AcDbLinetypeTableRecord
  2
DOUBLE_DASH_DOUBLE_DOT
 70
     0
  3
Double-Dash Double-dot _ _ . . _ _ . . _
 72
    65
 73
     8
 40
0.7400000000000001
 49
0.24
 74
     0
 49
-0.06
 74
     0
 49
0.24
 74
     0
 49
-0.06
 74
     0
 49
0.01
 74
     0
 49
-0.06
 74
     0
 49
0.01
 74
     0
 49
-0.06
 74
     0
  0
LTYPE
  5
4C
330
5
100
AcDbSymbolTableRecord
100
AcDbLinetypeTableRecord
  2
DOUBLE_DASH_TRIPLE_DOT
 70
     0
  3
Double Dash Triple Dot __ __ . . . __ __ . .
 72
    65
 73
    10
 40
0.8100000000000001
 49
0.24
 74
     0
 49
-0.06
 74
     0
 49
0.24
 74
     0
 49
-0.06
 74
     0
 49
0.01
 74
     0
 49
-0.06
 74
     0
 49
0.01
 74
     0
 49
-0.06
 74
     0
 49
0.01
 74
     0
 49
-0.06
 74
     0
  0
LTYPE
  5
4D
330
5
100
AcDbSymbolTableRecord
100
AcDbLinetypeTableRecord
  2
LONG_DASH_DOTTED
 70
     0
  3
Long Dash Dotted ____ . ____ . ____ . ____ . _
 72
    65
 73
     4
 40
0.3543
 49
0.2362
 74
     0
 49
-0.0295
 74
     0
 49
0.0591
 74
     0
 49
-0.0295
 74
     0
  0
LTYPE
  5
4E
330
5
100
AcDbSymbolTableRecord
100
AcDbLinetypeTableRecord
  2
LONG_DASH_DOUBLE_DOT
 70
     0
  3
Long Dash Double Dot ________  .  .  ________  
 72
    65
 73
     6
 40
0.6799999999999999
 49
0.48
 74
     0
 49
-0.06
 74
     0
 49
0.01
 74
     0
 49
-0.06
 74
     0
 49
0.01
 74
     0
 49
-0.06
 74
     0
  0
LTYPE
  5
4F
330
5
100
AcDbSymbolTableRecord
100
AcDbLinetypeTableRecord
  2
LONG_DASH_TRIPLE_DOT
 70
     0
  3
Long Dash Triple Dot ____ ... ____ ... ____
 72
    65
 73
     8
 40
0.3689
 49
0.2362
 74
     0
 49
-0.0295
 74
     0
 49
0.0049
 74
     0
 49
-0.0295
 74
     0
 49
0.0049
 74
     0
 49
-0.0295
 74
     0
 49
0.0049
 74
     0
 49
-0.0295
 74
     0
  0
LTYPE
  5
50
330
5
100
AcDbSymbolTableRecord
100
AcDbLinetypeTableRecord
  2
BORDER
 70
     0
  3
Border __ __ . __ __ . __ __ . __ __ . __ __ .
 72
    65
 73
     6
 40
1.75
 49
0.5
 74
     0
 49
-0.25
 74
     0
 49
0.5
 74
     0
 49
-0.25
 74
     0
 49
0.0
 74
     0
 49
-0.25
 74
     0
  0
LTYPE
  5
51
330
5
100
AcDbSymbolTableRecord
100
AcDbLinetypeTableRecord
  2
BORDER2
 70
     0
  3
Border (.5x) __.__.__.__.__.__.__.__.__.__.__.
 72
    65
 73
     6
 40
0.875
 49
0.25
 74
     0
 49
-0.125
 74
     0
 49
0.25
 74
     0
 49
-0.125
 74
     0
 49
0.0
 74
     0
 49
-0.125
 74
     0
  0
LTYPE
  5
52
330
5
100
AcDbSymbolTableRecord
100
AcDbLinetypeTableRecord
  2
BORDERX2
 70
     0
  3
Border (2x) ____  ____  .  ____  ____  .  ___
 72
    65
 73
     6
 40
3.5
 49
1.0
 74
     0
 49
-0.5
 74
     0
 49
1.0
 74
     0
 49
-0.5
 74
     0
 49
0.0
 74
     0
 49
-0.5
 74
     0
  0
LTYPE
  5
53
330
5
100
AcDbSymbolTableRecord
100
AcDbLinetypeTableRecord
  2
CENTER
 70
     0
  3
Center ____ _ ____ _ ____ _ ____ _ ____ _ ____
 72
    65
 73
     4
 40
2.0
 49
1.25
 74
     0
 49
-0.25
 74
     0
 49
0.25
 74
     0
 49
-0.25
 74
     0
  0
LTYPE
  5
54
330
5
100
AcDbSymbolTableRecord
100
AcDbLinetypeTableRecord
  2
CENTER2
 70
     0
  3
Center (.5x) ___ _ ___ _ ___ _ ___ _ ___ _ ___
 72
    65
 73
     4
 40
1.125
 49
0.75
 74
     0
 49
-0.125
 74
     0
 49
0.125
 74
     0
 49
-0.125
 74
     0
  0
LTYPE
  5
55
330
5
100
AcDbSymbolTableRecord
100
AcDbLinetypeTableRecord
  2
CENTERX2
 70
     0
  3
Center (2x) ________  __  ________  __  _____
 72
    65
 73
     4
 40
4.0
 49
2.5
 74
     0
 49
-0.5
 74
     0
 49
0.5
 74
     0
 49
-0.5
 74
     0
  0
LTYPE
  5
56
330
5
100
AcDbSymbolTableRecord
100
AcDbLinetypeTableRecord
  2
DASHDOT2
 70
     0
  3
Dash dot (.5x) _._._._._._._._._._._._._._._.
 72
    65
 73
     4
 40
0.5
 49
0.25
 74
     0
 49
-0.125
 74
     0
 49
0.0
 74
     0
 49
-0.125
 74
     0
  0
LTYPE
  5
57
330
5
100
AcDbSymbolTableRecord
100
AcDbLinetypeTableRecord
  2
DASHDOTX2
 70
     0
  3
Dash dot (2x) ____  .  ____  .  ____  .  ___
 72
    65
 73
     4
 40
2.0
 49
1.0
 74
     0
 49
-0.5
 74
     0
 49
0.0
 74
     0
 49
-0.5
 74
     0
  0
LTYPE
  5
59
330
5
100
AcDbSymbolTableRecord
100
AcDbLinetypeTableRecord
  2
DASHED2
 70
     0
  3
Dashed (.5x) _ _ _ _ _ _ _ _ _ _ _ _ _ _ _ _ _
 72
    65
 73
     2
 40
0.375
 49
0.25
 74
     0
 49
-0.125
 74
     0
  0
LTYPE
  5
5A
330
5
100
AcDbSymbolTableRecord
100
AcDbLinetypeTableRecord
  2
DASHEDX2
 70
     0
  3
Dashed (2x) ____  ____  ____  ____  ____  ___
 72
    65
 73
     2
 40
1.5
 49
1.0
 74
     0
 49
-0.5
 74
     0
  0
LTYPE
  5
5B
330
5
100
AcDbSymbolTableRecord
100
AcDbLinetypeTableRecord
  2
DIVIDE
 70
     0
  3
Divide ____ . . ____ . . ____ . . ____ . . ____
 72
    65
 73
     6
 40
1.25
 49
0.5
 74
     0
 49
-0.25
 74
     0
 49
0.0
 74
     0
 49
-0.25
 74
     0
 49
0.0
 74
     0
 49
-0.25
 74
     0
  0
LTYPE
  5
5C
330
5
100
AcDbSymbolTableRecord
100
AcDbLinetypeTableRecord
  2
DIVIDE2
 70
     0
  3
Divide (.5x) __..__..__..__..__..__..__..__.._
 72
    65
 73
     6
 40
0.625
 49
0.25
 74
     0
 49
-0.125
 74
     0
 49
0.0
 74
     0
 49
-0.125
 74
     0
 49
0.0
 74
     0
 49
-0.125
 74
     0
  0
LTYPE
  5
5D
330
5
100
AcDbSymbolTableRecord
100
AcDbLinetypeTableRecord
  2
DIVIDEX2
 70
     0
  3
Divide (2x) ________  .  .  ________  .  .  _
 72
    65
 73
     6
 40
2.5
 49
1.0
 74
     0
 49
-0.5
 74
     0
 49
0.0
 74
     0
 49
-0.5
 74
     0
 49
0.0
 74
     0
 49
-0.5
 74
     0
  0
LTYPE
  5
5E
330
5
100
AcDbSymbolTableRecord
100
AcDbLinetypeTableRecord
  2
DOT
 70
     0
  3
Dot . . . . . . . . . . . . . . . . . . . . . .
 72
    65
 73
     2
 40
0.25
 49
0.0
 74
     0
 49
-0.25
 74
     0
  0
LTYPE
  5
5F
330
5
100
AcDbSymbolTableRecord
100
AcDbLinetypeTableRecord
  2
DOT2
 70
     0
  3
Dot (.5x) .....................................
 72
    65
 73
     2
 40
0.125
 49
0.0
 74
     0
 49
-0.125
 74
     0
  0
LTYPE
  5
60
330
5
100
AcDbSymbolTableRecord
100
AcDbLinetypeTableRecord
  2
DOTX2
 70
     0
  3
Dot (2x) .  .  .  .  .  .  .  .  .  .  .  .  . 
 72
    65
 73
     2
 40
0.5
 49
0.0
 74
     0
 49
-0.5
 74
     0
  0
LTYPE
  5
61
330
5
100
AcDbSymbolTableRecord
100
AcDbLinetypeTableRecord
  2
HIDDEN
 70
     0
  3
Hidden __ __ __ __ __ __ __ __ __ __ __ __ __ _
 72
    65
 73
     2
 40
0.375
 49
0.25
 74
     0
 49
-0.125
 74
     0
  0
LTYPE
  5
62
330
5
100
AcDbSymbolTableRecord
100
AcDbLinetypeTableRecord
  2
HIDDEN2
 70
     0
  3
Hidden (.5x) _ _ _ _ _ _ _ _ _ _ _ _ _ _ _ _ _
 72
    65
 73
     2
 40
0.1875
 49
0.125
 74
     0
 49
-0.0625
 74
     0
  0
LTYPE
  5
63
330
5
100
AcDbSymbolTableRecord
100
AcDbLinetypeTableRecord
  2
HIDDENX2
 70
     0
  3
Hidden (2x) ____ ____ ____ ____ ____ ____ ____
 72
    65
 73
     2
 40
0.75
 49
0.5
 74
     0
 49
-0.25
 74
     0
  0
LTYPE
  5
64
330
5
100
AcDbSymbolTableRecord
100
AcDbLinetypeTableRecord
  2
PHANTOM
 70
     0
  3
Phantom ______  __  __  ______  __  __  ______
 72
    65
 73
     6
 40
2.5
 49
1.25
 74
     0
 49
-0.25
 74
     0
 49
0.25
 74
     0
 49
-0.25
 74
     0
 49
0.25
 74
     0
 49
-0.25
 74
     0
  0
LTYPE
  5
65
330
5
100
AcDbSymbolTableRecord
100
AcDbLinetypeTableRecord
  2
PHANTOM2
 70
     0
  3
Phantom (.5x) ___ _ _ ___ _ _ ___ _ _ ___ _ _
 72
    65
 73
     6
 40
1.25
 49
0.625
 74
     0
 49
-0.125
 74
     0
 49
0.125
 74
     0
 49
-0.125
 74
     0
 49
0.125
 74
     0
 49
-0.125
 74
     0
  0
LTYPE
  5
66
330
5
100
AcDbSymbolTableRecord
100
AcDbLinetypeTableRecord
  2
PHANTOMX2
 70
     0
  3
Phantom (2x) ____________    ____    ____   _
 72
    65
 73
     6
 40
5.0
 49
2.5
 74
     0
 49
-0.5
 74
     0
 49
0.5
 74
     0
 49
-0.5
 74
     0
 49
0.5
 74
     0
 49
-0.5
 74
     0
  0
LTYPE
  5
67
330
5
100
AcDbSymbolTableRecord
100
AcDbLinetypeTableRecord
  2
ACAD_ISO02W100
 70
     0
  3
ISO dash __ __ __ __ __ __ __ __ __ __ __ __ __
 72
    65
 73
     2
 40
0.59
 49
0.47
 74
     0
 49
-0.12
 74
     0
  0
LTYPE
  5
68
330
5
100
AcDbSymbolTableRecord
100
AcDbLinetypeTableRecord
  2
ACAD_ISO03W100
 70
     0
  3
ISO dash space __    __    __    __    __    __
 72
    65
 73
     2
 40
1.179999999999999
 49
0.47
 74
     0
 49
-0.71
 74
     0
  0
LTYPE
  5
69
330
5
100
AcDbSymbolTableRecord
100
AcDbLinetypeTableRecord
  2
ACAD_ISO04W100
 70
     0
  3
ISO long-dash dot ____ . ____ . ____ . ____ . _
 72
    65
 73
     4
 40
1.179999999999999
 49
0.9399999999999998
 74
     0
 49
-0.12
 74
     0
 49
0.0
 74
     0
 49
-0.12
 74
     0
  0
LTYPE
  5
6A
330
5
100
AcDbSymbolTableRecord
100
AcDbLinetypeTableRecord
  2
ACAD_ISO05W100
 70
     0
  3
ISO long-dash double-dot ____ .. ____ .. ____ .
 72
    65
 73
     6
 40
1.299999999999999
 49
0.9399999999999998
 74
     0
 49
-0.12
 74
     0
 49
0.0
 74
     0
 49
-0.12
 74
     0
 49
0.0
 74
     0
 49
-0.12
 74
     0
  0
LTYPE
  5
6B
330
5
100
AcDbSymbolTableRecord
100
AcDbLinetypeTableRecord
  2
ACAD_ISO06W100
 70
     0
  3
ISO long-dash triple-dot ____ ... ____ ... ____
 72
    65
 73
     8
 40
1.419999999999999
 49
0.9399999999999998
 74
     0
 49
-0.12
 74
     0
 49
0.0
 74
     0
 49
-0.12
 74
     0
 49
0.0
 74
     0
 49
-0.12
 74
     0
 49
0.0
 74
     0
 49
-0.12
 74
     0
  0
LTYPE
  5
6C
330
5
100
AcDbSymbolTableRecord
100
AcDbLinetypeTableRecord
  2
ACAD_ISO07W100
 70
     0
  3
ISO dot . . . . . . . . . . . . . . . . . . . .
 72
    65
 73
     2
 40
0.12
 49
0.0
 74
     0
 49
-0.12
 74
     0
  0
LTYPE
  5
6D
330
5
100
AcDbSymbolTableRecord
100
AcDbLinetypeTableRecord
  2
ACAD_ISO08W100
 70
     0
  3
ISO long-dash short-dash ____ __ ____ __ ____ _
 72
    65
 73
     4
 40
0.95
 49
0.47
 74
     0
 49
-0.12
 74
     0
 49
0.24
 74
     0
 49
-0.12
 74
     0
  0
LTYPE
  5
6E
330
5
100
AcDbSymbolTableRecord
100
AcDbLinetypeTableRecord
  2
ACAD_ISO09W100
 70
     0
  3
ISO long-dash double-short-dash ____ __ __ ____
 72
    65
 73
     6
 40
1.31
 49
0.47
 74
     0
 49
-0.12
 74
     0
 49
0.24
 74
     0
 49
-0.12
 74
     0
 49
0.24
 74
     0
 49
-0.12
 74
     0
  0
LTYPE
  5
6F
330
5
100
AcDbSymbolTableRecord
100
AcDbLinetypeTableRecord
  2
ACAD_ISO10W100
 70
     0
  3
ISO dash dot __ . __ . __ . __ . __ . __ . __ .
 72
    65
 73
     4
 40
0.71
 49
0.47
 74
     0
 49
-0.12
 74
     0
 49
0.0
 74
     0
 49
-0.12
 74
     0
  0
LTYPE
  5
70
330
5
100
AcDbSymbolTableRecord
100
AcDbLinetypeTableRecord
  2
ACAD_ISO11W100
 70
     0
  3
ISO double-dash dot __ __ . __ __ . __ __ . __ 
 72
    65
 73
     6
 40
1.299999999999999
 49
0.47
 74
     0
 49
-0.12
 74
     0
 49
0.47
 74
     0
 49
-0.12
 74
     0
 49
0.0
 74
     0
 49
-0.12
 74
     0
  0
LTYPE
  5
71
330
5
100
AcDbSymbolTableRecord
100
AcDbLinetypeTableRecord
  2
ACAD_ISO12W100
 70
     0
  3
ISO dash double-dot __ . . __ . . __ . . __ . .
 72
    65
 73
     6
 40
0.8299999999999998
 49
0.47
 74
     0
 49
-0.12
 74
     0
 49
0.0
 74
     0
 49
-0.12
 74
     0
 49
0.0
 74
     0
 49
-0.12
 74
     0
  0
LTYPE
  5
72
330
5
100
AcDbSymbolTableRecord
100
AcDbLinetypeTableRecord
  2
ACAD_ISO13W100
 70
     0
  3
ISO double-dash double-dot __ __ . . __ __ . . 
 72
    65
 73
     8
 40
1.419999999999999
 49
0.47
 74
     0
 49
-0.12
 74
     0
 49
0.47
 74
     0
 49
-0.12
 74
     0
 49
0.0
 74
     0
 49
-0.12
 74
     0
 49
0.0
 74
     0
 49
-0.12
 74
     0
  0
LTYPE
  5
73
330
5
100
AcDbSymbolTableRecord
100
AcDbLinetypeTableRecord
  2
ACAD_ISO14W100
 70
     0
  3
ISO dash triple-dot __ . . . __ . . . __ . . . 
 72
    65
 73
     8
 40
0.95
 49
0.47
 74
     0
 49
-0.12
 74
     0
 49
0.0
 74
     0
 49
-0.12
 74
     0
 49
0.0
 74
     0
 49
-0.12
 74
     0
 49
0.0
 74
     0
 49
-0.12
 74
     0
  0
LTYPE
  5
74
330
5
100
AcDbSymbolTableRecord
100
AcDbLinetypeTableRecord
  2
ACAD_ISO15W100
 70
     0
  3
ISO double-dash triple-dot __ __ . . . __ __ . 
 72
    65
 73
    10
 40
1.539999999999999
 49
0.47
 74
     0
 49
-0.12
 74
     0
 49
0.47
 74
     0
 49
-0.12
 74
     0
 49
0.0
 74
     0
 49
-0.12
 74
     0
 49
0.0
 74
     0
 49
-0.12
 74
     0
 49
0.0
 74
     0
 49
-0.12
 74
     0
  0
LTYPE
  5
77
330
5
100
AcDbSymbolTableRecord
100
AcDbLinetypeTableRecord
  2
FENCELINE1
 70
     0
  3
Fenceline circle ----0-----0----0-----0----0---
 72
    65
 73
     4
 40
1.45
 49
0.25
 74
     0
 49
-0.1
 74
     4
 75
   133
340
76
 46
0.1
 50
0.0
 44
-0.1
 45
0.0
 49
-0.1
 74
     0
 49
1.0
 74
     0
  0
LTYPE
  5
78
330
5
100
AcDbSymbolTableRecord
100
AcDbLinetypeTableRecord
  2
FENCELINE2
 70
     0
  3
Fenceline square ----[]-----[]----[]-----[]----
 72
    65
 73
     4
 40
1.45
 49
0.25
 74
     0
 49
-0.1
 74
     4
 75
   132
340
76
 46
0.1
 50
0.0
 44
-0.1
 45
0.0
 49
-0.1
 74
     0
 49
1.0
 74
     0
  0
LTYPE
  5
79
330
5
100
AcDbSymbolTableRecord
100
AcDbLinetypeTableRecord
  2
TRACKS
 70
     0
  3
Tracks -|-|-|-|-|-|-|-|-|-|-|-|-|-|-|-|-|-|-|-|
 72
    65
 73
     2
 40
0.3
 49
0.15
 74
     4
 75
   130
340
76
 46
0.25
 50
0.0
 44
0.0
 45
0.0
 49
0.15
 74
     0
  0
LTYPE
  5
7A
330
5
100
AcDbSymbolTableRecord
100
AcDbLinetypeTableRecord
  2
BATTING
 70
     0
  3
Batting SSSSSSSSSSSSSSSSSSSSSSSSSSSSSSSSSSSSSSS
 72
    65
 73
     4
 40
0.4001000000000001
 49
0.0001
 74
     0
 49
-0.1
 74
     4
 75
   134
340
76
 46
0.1
 50
0.0
 44
-0.1
 45
0.0
 49
-0.2
 74
     4
 75
   134
340
76
 46
0.1
 50
180.0
 44
0.1
 45
0.0
 49
-0.1
 74
     0
  0
LTYPE
  5
7B
330
5
100
AcDbSymbolTableRecord
100
AcDbLinetypeTableRecord
  2
HOT_WATER_SUPPLY
 70
     0
  3
Hot water supply ---- HW ---- HW ---- HW ----
 72
    65
 73
     3
 40
0.9
 49
0.5
 74
     0
 49
-0.2
 74
     2
 75
     0
340
26
 46
0.1
 50
0.0
 44
-0.1
 45
-0.05
  9
HW
 49
-0.2
 74
     0
  0
LTYPE
  5
7C
330
5
100
AcDbSymbolTableRecord
100
AcDbLinetypeTableRecord
  2
GAS_LINE
 70
     0
  3
Gas line ----GAS----GAS----GAS----GAS----GAS---
 72
    65
 73
     3
 40
0.95
 49
0.5
 74
     0
 49
-0.2
 74
     2
 75
     0
340
26
 46
0.1
 50
0.0
 44
-0.1
 45
-0.05
  9
GAS
 49
-0.25
 74
     0
  0
LTYPE
  5
7D
330
5
100
AcDbSymbolTableRecord
100
AcDbLinetypeTableRecord
  2
ZIGZAG
 70
     0
  3
Zig zag /\/\/\/\/\/\/\/\/\/\/\/\/\/\/\/\/\/\/\/
 72
    65
 73
     4
 40
0.8001000000000001
 49
0.0001
 74
     0
 49
-0.2
 74
     4
 75
   131
340
76
 46
0.2
 50
0.0
 44
-0.2
 45
0.0
 49
-0.4
 74
     4
 75
   131
340
76
 46
0.2
 50
180.0
 44
0.2
 45
0.0
 49
-0.2
 74
     0
  0
ENDTAB
  0
TABLE
  2
LAYER
  5
2
330
0
100
AcDbSymbolTable
 70
    26
  0
LAYER
  5
25
330
2
100
AcDbSymbolTableRecord
100
AcDbLayerTableRecord
  2
0
 70
     0
 62
     7
  6
Continuous
370
    -3
390
F
  0
LAYER
  5
81
330
2
100
AcDbSymbolTableRecord
100
AcDbLayerTableRecord
  2
Border (ANSI)
 70
     0
 62
     7
  6
Continuous
370
    70
390
F
  0
LAYER
  5
86
330
2
100
AcDbSymbolTableRecord
100
AcDbLayerTableRecord
  2
Dimension (ANSI)
 70
     0
 62
     7
  6
Continuous
370
    25
390
F
  0
LAYER
  5
89
330
2
100
AcDbSymbolTableRecord
100
AcDbLayerTableRecord
  2
Hidden Narrow (ANSI)
 70
     0
 62
     7
  6
DASHED
370
    25
390
F
  0
LAYER
  5
8E
330
2
100
AcDbSymbolTableRecord
100
AcDbLayerTableRecord
  2
Symbol (ANSI)
 70
     0
 62
     7
  6
Continuous
370
    25
390
F
  0
LAYER
  5
8F
330
2
100
AcDbSymbolTableRecord
100
AcDbLayerTableRecord
  2
Title (ANSI)
 70
     0
 62
     7
  6
Continuous
370
    50
390
F
  0
LAYER
  5
91
330
2
100
AcDbSymbolTableRecord
100
AcDbLayerTableRecord
  2
Visible (ANSI)
 70
     0
 62
     7
  6
Continuous
370
    50
390
F
  0
LAYER
  5
92
330
2
100
AcDbSymbolTableRecord
100
AcDbLayerTableRecord
  2
Visible Narrow (ANSI)
 70
     0
 62
     7
  6
Continuous
370
    35
390
F
  0
LAYER
  5
295
330
2
100
AcDbSymbolTableRecord
100
AcDbLayerTableRecord
  2
Defpoints
 70
     0
 62
     7
  6
Continuous
290
     0
370
    -3
390
F
  0
ENDTAB
  0
TABLE
  2
STYLE
  5
3
330
0
100
AcDbSymbolTable
 70
    11
  0
STYLE
  5
26
330
3
100
AcDbSymbolTableRecord
100
AcDbTextStyleTableRecord
  2
Standard
 70
     0
 40
0.0
 41
1.0
 50
0.0
 71
     0
 42
0.2
  3
TAHOMA.TTF
  4

1001
ACAD
1000
Tahoma
1071
      256
  0
STYLE
  5
76
330
3
100
AcDbSymbolTableRecord
100
AcDbTextStyleTableRecord
  2

 70
     1
 40
0.0
 41
1.0
 50
0.0
 71
     0
 42
0.2
  3
ltypeshp.shx
  4

  0
STYLE
  5
96
330
3
100
AcDbSymbolTableRecord
100
AcDbTextStyleTableRecord
  2
Label Text (ANSI)
 70
     0
 40
0.0
 41
1.0
 50
0.0
 71
     0
 42
0.2
  3
TAHOMA.TTF
  4

1001
ACAD
1000
Tahoma
1071
      256
  0
STYLE
  5
97
330
3
100
AcDbSymbolTableRecord
100
AcDbTextStyleTableRecord
  2
Label Text (DIN)
 70
     0
 40
0.0
 41
1.0
 50
0.0
 71
     0
 42
0.2
  3
isocpeur.ttf
  4

1001
ACAD
1000
ISOCPEUR
1071
      256
  0
STYLE
  5
98
330
3
100
AcDbSymbolTableRecord
100
AcDbTextStyleTableRecord
  2
Label Text (ISO)
 70
     0
 40
0.0
 41
1.0
 50
0.0
 71
     0
 42
0.2
  3
TAHOMA.TTF
  4

1001
ACAD
1000
Tahoma
1071
      256
  0
STYLE
  5
99
330
3
100
AcDbSymbolTableRecord
100
AcDbTextStyleTableRecord
  2
Label Text (JIS)
 70
     0
 40
0.0
 41
1.0
 50
0.0
 71
     0
 42
0.2
  3
TAHOMA.TTF
  4

1001
ACAD
1000
Tahoma
1071
      256
  0
STYLE
  5
9A
330
3
100
AcDbSymbolTableRecord
100
AcDbTextStyleTableRecord
  2
Note Text (ANSI)
 70
     0
 40
0.0
 41
1.0
 50
0.0
 71
     0
 42
0.2
  3
TAHOMA.TTF
  4

1001
ACAD
1000
Tahoma
1071
      256
  0
STYLE
  5
9B
330
3
100
AcDbSymbolTableRecord
100
AcDbTextStyleTableRecord
  2
Note Text (DIN)
 70
     0
 40
0.0
 41
1.0
 50
0.0
 71
     0
 42
0.2
  3
isocpeur.ttf
  4

1001
ACAD
1000
ISOCPEUR
1071
      256
  0
STYLE
  5
9C
330
3
100
AcDbSymbolTableRecord
100
AcDbTextStyleTableRecord
  2
Note Text (ISO)
 70
     0
 40
0.0
 41
1.0
 50
0.0
 71
     0
 42
0.2
  3
TAHOMA.TTF
  4

1001
ACAD
1000
Tahoma
1071
      256
  0
STYLE
  5
9D
330
3
100
AcDbSymbolTableRecord
100
AcDbTextStyleTableRecord
  2
Note Text (JIS)
 70
     0
 40
0.0
 41
1.0
 50
0.0
 71
     0
 42
0.2
  3
TAHOMA.TTF
  4

1001
ACAD
1000
Tahoma
1071
      256
  0
STYLE
  5
F1
330
3
100
AcDbSymbolTableRecord
100
AcDbTextStyleTableRecord
  2
Text Style29
 70
     0
 40
0.0
 41
1.0
 50
0.0
 71
     0
 42
0.2
  3
TAHOMA.TTF
  4

1001
ACAD
1000
Tahoma
1071
      256
  0
ENDTAB
  0
TABLE
  2
VIEW
  5
6
330
0
100
AcDbSymbolTable
 70
     0
  0
ENDTAB
  0
TABLE
  2
UCS
  5
7
330
0
100
AcDbSymbolTable
 70
     0
  0
ENDTAB
  0
TABLE
  2
APPID
  5
9
330
0
100
AcDbSymbolTable
 70
     1
  0
APPID
  5
27
330
9
100
AcDbSymbolTableRecord
100
AcDbRegAppTableRecord
  2
ACAD
 70
     0
  0
ENDTAB
  0
TABLE
  2
DIMSTYLE
  5
A
330
0
100
AcDbSymbolTable
 70
    15
100
AcDbDimStyleTable
 71
     2
340
A6
340
3F
  0
DIMSTYLE
105
3F
330
A
100
AcDbSymbolTableRecord
100
AcDbDimStyleTableRecord
  2
Standard
 70
     0
340
26
  0
DIMSTYLE
105
9E
330
A
100
AcDbSymbolTableRecord
100
AcDbDimStyleTableRecord
  2
Architectural (ANSI)
 70
     0
 40
0.25
 41
0.0984251946210861
 42
0.0625
 43
0.2362204724409449
 44
0.125
 45
0.00000001
 46
0.3937007874015748
 78
     4
 79
     3
140
0.1200000047683716
144
0.0833333333333333
147
0.031496062992126
171
     1
176
   256
177
   256
178
   256
272
     2
274
     1
276
     2
277
     4
284
    12
286
    12
340
9A
371
    -1
372
    -1
  0
DIMSTYLE
105
9F
330
A
100
AcDbSymbolTableRecord
100
AcDbDimStyleTableRecord
  2
Architectural (ANSI)$7
 70
     0
 40
0.25
 41
0.0984251946210861
 42
0.0625
 43
0.2362204724409449
 44
0.125
 45
0.00000001
 46
0.3937007874015748
 78
     4
 79
     3
140
0.1200000047683716
144
0.0833333333333333
147
0.031496062992126
171
     1
176
   256
177
   256
178
   256
272
     2
274
     1
276
     2
277
     4
284
    12
286
    12
340
9A
371
    -1
372
    -1
  0
DIMSTYLE
105
A0
330
A
100
AcDbSymbolTableRecord
100
AcDbDimStyleTableRecord
  2
Default - Fraction (ANSI)
 70
     0
 40
0.25
 41
0.0984251946210861
 42
0.0625
 43
0.2362204724409449
 44
0.125
 45
0.00000001
 46
0.3937007874015748
 78
    12
 79
     3
140
0.1200000047683716
147
0.031496062992126
171
     1
176
   256
177
   256
178
   256
272
     2
274
     1
276
     2
277
     5
284
    12
286
    12
340
9A
371
    -1
372
    -1
  0
DIMSTYLE
105
A1
330
A
100
AcDbSymbolTableRecord
100
AcDbDimStyleTableRecord
  2
Default - Fraction (ANSI)$7
 70
     0
 40
0.25
 41
0.0984251946210861
 42
0.0625
 43
0.2362204724409449
 44
0.125
 45
0.00000001
 46
0.3937007874015748
 78
    12
 79
     3
140
0.1200000047683716
147
0.031496062992126
171
     1
176
   256
177
   256
178
   256
272
     2
274
     1
276
     2
277
     5
284
    12
286
    12
340
9A
371
    -1
372
    -1
  0
DIMSTYLE
105
A2
330
A
100
AcDbSymbolTableRecord
100
AcDbDimStyleTableRecord
  2
Default - mm (ANSI)
 70
     0
 40
0.25
 41
0.0984251946210861
 42
0.063
 43
0.2362204724409449
 44
0.125
 45
0.00000001
 46
0.3937007874015748
 73
     0
140
0.1200000047683716
143
1.0
144
25.4
147
0.031496062992126
171
     1
176
   256
177
   256
178
   256
179
     1
271
     2
272
     2
274
     1
340
9A
371
    -1
372
    -1
  0
DIMSTYLE
105
A3
330
A
100
AcDbSymbolTableRecord
100
AcDbDimStyleTableRecord
  2
Default - mm (ANSI)$7
 70
     0
 40
0.25
 41
0.0984251946210861
 42
0.063
 43
0.2362204724409449
 44
0.125
 45
0.00000001
 46
0.3937007874015748
 73
     0
140
0.1200000047683716
143
1.0
144
25.4
147
0.031496062992126
171
     1
176
   256
177
   256
178
   256
179
     1
271
     2
272
     2
274
     1
340
9A
371
    -1
372
    -1
  0
DIMSTYLE
105
A4
330
A
100
AcDbSymbolTableRecord
100
AcDbDimStyleTableRecord
  2
Default - mm [in] (ANSI)
 70
     0
  4
 in
 40
0.25
 41
0.0984251946210861
 42
0.063
 43
0.25
 44
0.125
 45
0.00000001
 46
0.3937007874015748
 73
     0
 78
     4
 79
     1
140
0.1200000047683716
143
0.03937
144
25.4
147
0.031496062992126
170
     1
171
     3
176
   256
177
   256
178
   256
179
     1
271
     2
272
     2
274
     3
284
     4
286
     4
340
9A
371
    -1
372
    -1
  0
DIMSTYLE
105
A5
330
A
100
AcDbSymbolTableRecord
100
AcDbDimStyleTableRecord
  2
Default - mm [in] (ANSI)$7
 70
     0
  4
 in
 40
0.25
 41
0.0984251946210861
 42
0.063
 43
0.25
 44
0.125
 45
0.00000001
 46
0.3937007874015748
 73
     0
 78
     4
 79
     1
140
0.1200000047683716
143
0.03937
144
25.4
147
0.031496062992126
170
     1
171
     3
176
   256
177
   256
178
   256
179
     1
271
     2
272
     2
274
     3
284
     4
286
     4
340
9A
371
    -1
372
    -1
  0
DIMSTYLE
105
A6
102
{ACAD_REACTORS
330
294
330
361
330
441
102
}
330
A
100
AcDbSymbolTableRecord
100
AcDbDimStyleTableRecord
  2
Default (ANSI)
 70
     0
  3
 in
 40
0.25
 41
0.0984251946210861
 42
0.0625
 43
0.2362204724409449
 44
0.125
 45
0.00000001
 46
0.3937007874015748
140
0.1200000047683716
147
0.031496062992126
171
     1
176
   256
177
   256
178
   256
271
     3
272
     3
274
     1
340
9A
371
    -1
372
    -1
  0
DIMSTYLE
105
A7
330
A
100
AcDbSymbolTableRecord
100
AcDbDimStyleTableRecord
  2
Default (ANSI)$7
 70
     0
  3
 in
 40
0.25
 41
0.0984251946210861
 42
0.0625
 43
0.2362204724409449
 44
0.125
 45
0.00000001
 46
0.3937007874015748
140
0.1200000047683716
147
0.031496062992126
171
     1
176
   256
177
   256
178
   256
271
     3
272
     3
274
     1
340
9A
371
    -1
372
    -1
  0
DIMSTYLE
105
B6
330
A
100
AcDbSymbolTableRecord
100
AcDbDimStyleTableRecord
  2
Miscellaneous Object (ANSI)
 70
     0
  3
 in
 40
0.25
 41
0.1968503892421722
 42
0.0625
 43
0.2362204724409449
 44
0.125
 45
0.00000001
 46
0.3937007874015748
140
0.1799999922513962
146
0.666666721856155
147
0.031496062992126
171
     1
176
   256
177
   256
178
   256
271
     3
272
     2
274
     1
340
96
341
A8
371
    -1
372
    -1
  0
DIMSTYLE
105
B7
330
A
100
AcDbSymbolTableRecord
100
AcDbDimStyleTableRecord
  2
Miscellaneous Object (ANSI)$7
 70
     0
  3
 in
 40
0.25
 41
0.1959999948740005
 42
0.0625
 43
0.2362204724409449
 44
0.125
 45
0.00000001
 46
0.3937007874015748
140
0.1799999922513962
146
0.666666721856155
147
0.031496062992126
171
     1
176
   256
177
   256
178
   256
271
     3
272
     2
274
     1
340
96
341
A8
371
    -1
372
    -1
  0
DIMSTYLE
105
B8
330
A
100
AcDbSymbolTableRecord
100
AcDbDimStyleTableRecord
  2
Alternate (ANSI)
 70
     0
 40
0.25
 41
0.0979999974370003
340
26
342
B9
  0
DIMSTYLE
105
CA
330
A
100
AcDbSymbolTableRecord
100
AcDbDimStyleTableRecord
  2
Datum (ANSI)
 70
     0
 40
0.25
 41
0.0979999974370003
340
26
342
B9
  0
ENDTAB
  0
TABLE
  2
BLOCK_RECORD
  5
1
330
0
100
AcDbSymbolTable
 70
     9
  0
BLOCK_RECORD
  5
37
330
1
100
AcDbSymbolTableRecord
100
AcDbBlockTableRecord
  2
*Model_Space
340
3A
  0
BLOCK_RECORD
  5
33
330
1
100
AcDbSymbolTableRecord
100
AcDbBlockTableRecord
  2
*Paper_Space
340
36
  0
BLOCK_RECORD
  5
3B
330
1
100
AcDbSymbolTableRecord
100
AcDbBlockTableRecord
  2
*Paper_Space0
340
3E
  0
BLOCK_RECORD
  5
A8
330
1
100
AcDbSymbolTableRecord
100
AcDbBlockTableRecord
  2
Filled-1
340
0
  0
BLOCK_RECORD
  5
B9
330
1
100
AcDbSymbolTableRecord
100
AcDbBlockTableRecord
  2
_Closed
340
0
  0
BLOCK_RECORD
  5
C0
330
1
100
AcDbSymbolTableRecord
100
AcDbBlockTableRecord
  2
DatumFilled45
340
0
  0
BLOCK_RECORD
  5
CB
330
1
100
AcDbSymbolTableRecord
100
AcDbBlockTableRecord
  2
Borders Default Border
340
0
102
{BLKREFS
331
FC
102
}
  0
BLOCK_RECORD
  5
FD
330
1
100
AcDbSymbolTableRecord
100
AcDbBlockTableRecord
  2
Title Blocks ANSI A
340
0
102
{BLKREFS
331
12D
102
}
  0
BLOCK_RECORD
  5
296
330
1
100
AcDbSymbolTableRecord
100
AcDbBlockTableRecord
  2
*D6
340
0
  0
BLOCK_RECORD
  5
362
330
1
100
AcDbSymbolTableRecord
100
AcDbBlockTableRecord
  2
*D7
340
0
  0
BLOCK_RECORD
  5
442
330
1
100
AcDbSymbolTableRecord
100
AcDbBlockTableRecord
  2
*D8
340
0
  0
ENDTAB
  0
ENDSEC
  0
SECTION
  2
BLOCKS
  0
BLOCK
  5
38
330
37
100
AcDbEntity
  8
0
100
AcDbBlockBegin
  2
*Model_Space
 70
     0
 10
0.0
 20
0.0
 30
0.0
  3
*Model_Space
  1

  0
ENDBLK
  5
39
330
37
100
AcDbEntity
  8
0
100
AcDbBlockEnd
  0
BLOCK
  5
34
330
33
100
AcDbEntity
 67
     1
  8
0
100
AcDbBlockBegin
  2
*Paper_Space
 70
     0
 10
0.0
 20
0.0
 30
0.0
  3
*Paper_Space
  1

  0
ENDBLK
  5
35
330
33
100
AcDbEntity
 67
     1
  8
0
100
AcDbBlockEnd
  0
BLOCK
  5
3C
330
3B
100
AcDbEntity
 67
     1
  8
0
100
AcDbBlockBegin
  2
*Paper_Space0
 70
     0
 10
0.0
 20
0.0
 30
0.0
  3
*Paper_Space0
  1

  0
ENDBLK
  5
3D
330
3B
100
AcDbEntity
 67
     1
  8
0
100
AcDbBlockEnd
  0
BLOCK
  5
A9
330
A8
100
AcDbEntity
  8
0
100
AcDbBlockBegin
  2
Filled-1
 70
     0
 10
0.0
 20
0.0
 30
0.0
  3
Filled-1
  1

  0
LINE
  5
AB
330
A8
100
AcDbEntity
  8
0
 62
     0
100
AcDbLine
 10
-0.9999999999999998
 20
0.0
 30
0.0
 11
0.0
 21
0.0
 31
0.0
  0
POLYLINE
  5
AC
330
A8
100
AcDbEntity
  8
0
 62
     0
100
AcDb2dPolyline
 66
     1
 10
0.0
 20
0.0
 30
0.0
 70
   128
  0
VERTEX
  5
AD
330
AC
100
AcDbEntity
  8
0
 62
     0
100
AcDbVertex
100
AcDb2dVertex
 10
-0.9999999999999998
 20
-0.0994897959183674
 30
0.0
  0
VERTEX
  5
AE
330
AC
100
AcDbEntity
  8
0
 62
     0
100
AcDbVertex
100
AcDb2dVertex
 10
0.0
 20
0.0
 30
0.0
  0
VERTEX
  5
B0
330
AC
100
AcDbEntity
  8
0
 62
     0
100
AcDbVertex
100
AcDb2dVertex
 10
-0.9999999999999998
 20
0.0994897959183674
 30
0.0
  0
VERTEX
  5
B1
330
AC
100
AcDbEntity
  8
0
 62
     0
100
AcDbVertex
100
AcDb2dVertex
 10
-0.9999999999999998
 20
-0.0994897959183674
 30
0.0
  0
SEQEND
  5
AF
330
AC
100
AcDbEntity
  8
0
 62
     0
  0
SOLID
  5
B2
330
A8
100
AcDbEntity
  8
0
 62
     0
100
AcDbTrace
 10
-0.9999999999999998
 20
-0.0994897959183674
 30
0.0
 11
0.0
 21
0.0
 31
0.0
 12
-0.9999999999999998
 22
0.0994897959183674
 32
0.0
 13
-0.9999999999999998
 23
-0.0994897959183674
 33
0.0
  0
LINE
  5
B3
330
A8
100
AcDbEntity
  8
0
 62
     0
100
AcDbLine
 10
-0.9999999999999998
 20
-0.0994897959183674
 30
0.0
 11
0.0
 21
0.0
 31
0.0
  0
LINE
  5
B4
330
A8
100
AcDbEntity
  8
0
 62
     0
100
AcDbLine
 10
0.0
 20
0.0
 30
0.0
 11
-0.9999999999999998
 21
0.0994897959183674
 31
0.0
  0
LINE
  5
B5
330
A8
100
AcDbEntity
  8
0
 62
     0
100
AcDbLine
 10
-0.9999999999999998
 20
0.0994897959183674
 30
0.0
 11
-0.9999999999999998
 21
-0.0994897959183674
 31
0.0
  0
ENDBLK
  5
AA
330
A8
100
AcDbEntity
  8
0
100
AcDbBlockEnd
  0
BLOCK
  5
BE
330
B9
100
AcDbEntity
  8
0
100
AcDbBlockBegin
  2
_Closed
 70
     0
 10
0.0
 20
0.0
 30
0.0
  3
_Closed
  1

  0
LINE
  5
BA
330
B9
100
AcDbEntity
  8
0
  6
ByBlock
 62
     0
370
    -2
100
AcDbLine
 10
-1.0
 20
0.1666666666666666
 30
0.0
 11
0.0
 21
0.0
 31
0.0
  0
LINE
  5
BB
330
B9
100
AcDbEntity
  8
0
  6
ByBlock
 62
     0
370
    -2
100
AcDbLine
 10
0.0
 20
0.0
 30
0.0
 11
-1.0
 21
-0.1666666666666666
 31
0.0
  0
LINE
  5
BC
330
B9
100
AcDbEntity
  8
0
  6
ByBlock
 62
     0
370
    -2
100
AcDbLine
 10
-1.0
 20
0.1666666666666666
 30
0.0
 11
-1.0
 21
-0.1666666666666666
 31
0.0
  0
LINE
  5
BD
330
B9
100
AcDbEntity
  8
0
  6
ByBlock
 62
     0
370
    -2
100
AcDbLine
 10
0.0
 20
0.0
 30
0.0
 11
-1.0
 21
0.0
 31
0.0
  0
ENDBLK
  5
BF
330
B9
100
AcDbEntity
  8
0
100
AcDbBlockEnd
  0
BLOCK
  5
C1
330
C0
100
AcDbEntity
  8
0
100
AcDbBlockBegin
  2
DatumFilled45
 70
     0
 10
0.0
 20
0.0
 30
0.0
  3
DatumFilled45
  1

  0
POLYLINE
  5
C3
330
C0
100
AcDbEntity
  8
0
 62
     0
100
AcDb2dPolyline
 66
     1
 10
0.0
 20
0.0
 30
0.0
 70
   128
  0
VERTEX
  5
C4
330
C3
100
AcDbEntity
  8
0
 62
     0
100
AcDbVertex
100
AcDb2dVertex
 10
0.0
 20
0.9999999999999998
 30
0.0
  0
VERTEX
  5
C5
330
C3
100
AcDbEntity
  8
0
 62
     0
100
AcDbVertex
100
AcDb2dVertex
 10
0.0
 20
-0.9999999999999998
 30
0.0
  0
VERTEX
  5
C7
330
C3
100
AcDbEntity
  8
0
 62
     0
100
AcDbVertex
100
AcDb2dVertex
 10
-0.9999999999999998
 20
0.0
 30
0.0
  0
VERTEX
  5
C8
330
C3
100
AcDbEntity
  8
0
 62
     0
100
AcDbVertex
100
AcDb2dVertex
 10
0.0
 20
0.9999999999999998
 30
0.0
  0
SEQEND
  5
C6
330
C3
100
AcDbEntity
  8
0
 62
     0
  0
SOLID
  5
C9
330
C0
100
AcDbEntity
  8
0
 62
     0
100
AcDbTrace
 10
0.0
 20
0.9999999999999998
 30
0.0
 11
0.0
 21
-0.9999999999999998
 31
0.0
 12
-0.9999999999999998
 22
0.0
 32
0.0
 13
0.0
 23
0.9999999999999998
 33
0.0
  0
ENDBLK
  5
C2
330
C0
100
AcDbEntity
  8
0
100
AcDbBlockEnd
  0
BLOCK
  5
CC
330
CB
100
AcDbEntity
  8
0
100
AcDbBlockBegin
  2
Borders Default Border
 70
     0
 10
0.0
 20
0.0
 30
0.0
  3
Borders Default Border
  1

  0
POLYLINE
  5
CE
330
CB
100
AcDbEntity
  8
Border (ANSI)
100
AcDb2dPolyline
 66
     1
 10
0.0
 20
0.0
 30
0.0
 70
   128
  0
VERTEX
  5
CF
330
CE
100
AcDbEntity
  8
Border (ANSI)
100
AcDbVertex
100
AcDb2dVertex
 10
0.380000002740875
 20
0.380000002740875
 30
0.0
  0
VERTEX
  5
D0
330
CE
100
AcDbEntity
  8
Border (ANSI)
100
AcDbVertex
100
AcDb2dVertex
 10
0.380000002740875
 20
8.119999893068328
 30
0.0
  0
VERTEX
  5
D2
330
CE
100
AcDbEntity
  8
Border (ANSI)
100
AcDbVertex
100
AcDb2dVertex
 10
10.62000004325326
 20
8.119999893068328
 30
0.0
  0
VERTEX
  5
D3
330
CE
100
AcDbEntity
  8
Border (ANSI)
100
AcDbVertex
100
AcDb2dVertex
 10
10.62000004325326
 20
0.380000002740875
 30
0.0
  0
VERTEX
  5
D4
330
CE
100
AcDbEntity
  8
Border (ANSI)
100
AcDbVertex
100
AcDb2dVertex
 10
0.380000002740875
 20
0.380000002740875
 30
0.0
  0
SEQEND
  5
D1
330
CE
100
AcDbEntity
  8
Border (ANSI)
  0
POLYLINE
  5
D5
330
CB
100
AcDbEntity
  8
Border (ANSI)
100
AcDb2dPolyline
 66
     1
 10
0.0
 20
0.0
 30
0.0
 70
   128
  0
VERTEX
  5
D6
330
D5
100
AcDbEntity
  8
Border (ANSI)
100
AcDbVertex
100
AcDb2dVertex
 10
5.500000105129451
 20
0.1299999947623005
 30
0.0
  0
VERTEX
  5
D7
330
D5
100
AcDbEntity
  8
Border (ANSI)
100
AcDbVertex
100
AcDb2dVertex
 10
5.500000105129451
 20
0.380000002740875
 30
0.0
  0
VERTEX
  5
D9
330
D5
100
AcDbEntity
  8
Border (ANSI)
100
AcDbVertex
100
AcDb2dVertex
 10
5.413397466103861
 20
0.2300000096869281
 30
0.0
  0
VERTEX
  5
DA
330
D5
100
AcDbEntity
  8
Border (ANSI)
100
AcDbVertex
100
AcDb2dVertex
 10
5.586602368692712
 20
0.2300000096869281
 30
0.0
  0
VERTEX
  5
DB
330
D5
100
AcDbEntity
  8
Border (ANSI)
100
AcDbVertex
100
AcDb2dVertex
 10
5.500000105129451
 20
0.380000002740875
 30
0.0
  0
SEQEND
  5
D8
330
D5
100
AcDbEntity
  8
Border (ANSI)
  0
POLYLINE
  5
DC
330
CB
100
AcDbEntity
  8
Border (ANSI)
100
AcDb2dPolyline
 66
     1
 10
0.0
 20
0.0
 30
0.0
 70
   128
  0
VERTEX
  5
DD
330
DC
100
AcDbEntity
  8
Border (ANSI)
100
AcDbVertex
100
AcDb2dVertex
 10
5.500000105129451
 20
8.369999983179287
 30
0.0
  0
VERTEX
  5
DE
330
DC
100
AcDbEntity
  8
Border (ANSI)
100
AcDbVertex
100
AcDb2dVertex
 10
5.500000105129451
 20
8.119999893068328
 30
0.0
  0
VERTEX
  5
E0
330
DC
100
AcDbEntity
  8
Border (ANSI)
100
AcDbVertex
100
AcDb2dVertex
 10
5.413397466103861
 20
8.270000097319835
 30
0.0
  0
VERTEX
  5
E1
330
DC
100
AcDbEntity
  8
Border (ANSI)
100
AcDbVertex
100
AcDb2dVertex
 10
5.586602368692712
 20
8.270000097319835
 30
0.0
  0
VERTEX
  5
E2
330
DC
100
AcDbEntity
  8
Border (ANSI)
100
AcDbVertex
100
AcDb2dVertex
 10
5.500000105129451
 20
8.119999893068328
 30
0.0
  0
SEQEND
  5
DF
330
DC
100
AcDbEntity
  8
Border (ANSI)
  0
POLYLINE
  5
E3
330
CB
100
AcDbEntity
  8
Border (ANSI)
100
AcDb2dPolyline
 66
     1
 10
0.0
 20
0.0
 30
0.0
 70
   128
  0
VERTEX
  5
E4
330
E3
100
AcDbEntity
  8
Border (ANSI)
100
AcDbVertex
100
AcDb2dVertex
 10
0.1299999947623005
 20
4.250000030036986
 30
0.0
  0
VERTEX
  5
E5
330
E3
100
AcDbEntity
  8
Border (ANSI)
100
AcDbVertex
100
AcDb2dVertex
 10
0.380000002740875
 20
4.250000030036986
 30
0.0
  0
VERTEX
  5
E7
330
E3
100
AcDbEntity
  8
Border (ANSI)
100
AcDbVertex
100
AcDb2dVertex
 10
0.2300000096869281
 20
4.336602669062576
 30
0.0
  0
VERTEX
  5
E8
330
E3
100
AcDbEntity
  8
Border (ANSI)
100
AcDbVertex
100
AcDb2dVertex
 10
0.2300000096869281
 20
4.163397391011395
 30
0.0
  0
VERTEX
  5
E9
330
E3
100
AcDbEntity
  8
Border (ANSI)
100
AcDbVertex
100
AcDb2dVertex
 10
0.380000002740875
 20
4.250000030036986
 30
0.0
  0
SEQEND
  5
E6
330
E3
100
AcDbEntity
  8
Border (ANSI)
  0
POLYLINE
  5
EA
330
CB
100
AcDbEntity
  8
Border (ANSI)
100
AcDb2dPolyline
 66
     1
 10
0.0
 20
0.0
 30
0.0
 70
   128
  0
VERTEX
  5
EB
330
EA
100
AcDbEntity
  8
Border (ANSI)
100
AcDbVertex
100
AcDb2dVertex
 10
10.87000013336422
 20
4.250000030036986
 30
0.0
  0
VERTEX
  5
EC
330
EA
100
AcDbEntity
  8
Border (ANSI)
100
AcDbVertex
100
AcDb2dVertex
 10
10.62000004325326
 20
4.250000030036986
 30
0.0
  0
VERTEX
  5
EE
330
EA
100
AcDbEntity
  8
Border (ANSI)
100
AcDbVertex
100
AcDb2dVertex
 10
10.77000024750476
 20
4.336602669062576
 30
0.0
  0
VERTEX
  5
EF
330
EA
100
AcDbEntity
  8
Border (ANSI)
100
AcDbVertex
100
AcDb2dVertex
 10
10.77000024750476
 20
4.163397391011395
 30
0.0
  0
VERTEX
  5
F0
330
EA
100
AcDbEntity
  8
Border (ANSI)
100
AcDbVertex
100
AcDb2dVertex
 10
10.62000004325326
 20
4.250000030036986
 30
0.0
  0
SEQEND
  5
ED
330
EA
100
AcDbEntity
  8
Border (ANSI)
  0
MTEXT
  5
F2
330
CB
100
AcDbEntity
  8
Border (ANSI)
100
AcDbMText
 10
8.24092395498058
 20
8.16
 30
0.0
 40
0.1200000014830762
 41
0.0
 71
     7
 72
     1
  1
1
  7
Text Style29
 73
     1
 44
1.0
1001
ACAD
1000
MTEXTBEGIN
1070
    73
1070
     1
1070
    44
1040
1.0
1070
    74
1070
     0
1000
MTEXTEND
  0
MTEXT
  5
F5
330
CB
100
AcDbEntity
  8
Border (ANSI)
100
AcDbMText
 10
8.24092395498058
 20
0.2199999985169238
 30
0.0
 40
0.1200000014830762
 41
0.0
 71
     7
 72
     1
  1
1
  7
Text Style29
 73
     1
 44
1.0
1001
ACAD
1000
MTEXTBEGIN
1070
    73
1070
     1
1070
    44
1040
1.0
1070
    74
1070
     0
1000
MTEXTEND
  0
MTEXT
  5
F6
330
CB
100
AcDbEntity
  8
Border (ANSI)
100
AcDbMText
 10
2.722276993858532
 20
8.16
 30
0.0
 40
0.1200000014830762
 41
0.0
 71
     7
 72
     1
  1
2
  7
Text Style29
 73
     1
 44
1.0
1001
ACAD
1000
MTEXTBEGIN
1070
    73
1070
     1
1070
    44
1040
1.0
1070
    74
1070
     0
1000
MTEXTEND
  0
MTEXT
  5
F7
330
CB
100
AcDbEntity
  8
Border (ANSI)
100
AcDbMText
 10
2.722276993858532
 20
0.2199999985169238
 30
0.0
 40
0.1200000014830762
 41
0.0
 71
     7
 72
     1
  1
2
  7
Text Style29
 73
     1
 44
1.0
1001
ACAD
1000
MTEXTBEGIN
1070
    73
1070
     1
1070
    44
1040
1.0
1070
    74
1070
     0
1000
MTEXTEND
  0
MTEXT
  5
F8
330
CB
100
AcDbEntity
  8
Border (ANSI)
100
AcDbMText
 10
0.2281865791448458
 20
2.064999999258461
 30
0.0
 40
0.1200000014830762
 41
0.0
 71
     7
 72
     1
  1
A
  7
Text Style29
 73
     1
 44
1.0
1001
ACAD
1000
MTEXTBEGIN
1070
    73
1070
     1
1070
    44
1040
1.0
1070
    74
1070
     0
1000
MTEXTEND
  0
MTEXT
  5
F9
330
CB
100
AcDbEntity
  8
Border (ANSI)
100
AcDbMText
 10
10.66818658062792
 20
2.064999999258461
 30
0.0
 40
0.1200000014830762
 41
0.0
 71
     7
 72
     1
  1
A
  7
Text Style29
 73
     1
 44
1.0
1001
ACAD
1000
MTEXTBEGIN
1070
    73
1070
     1
1070
    44
1040
1.0
1070
    74
1070
     0
1000
MTEXTEND
  0
MTEXT
  5
FA
330
CB
100
AcDbEntity
  8
Border (ANSI)
100
AcDbMText
 10
0.2554072225563169
 20
6.314999999258461
 30
0.0
 40
0.1200000014830762
 41
0.0
 71
     7
 72
     1
  1
B
  7
Text Style29
 73
     1
 44
1.0
1001
ACAD
1000
MTEXTBEGIN
1070
    73
1070
     1
1070
    44
1040
1.0
1070
    74
1070
     0
1000
MTEXTEND
  0
MTEXT
  5
FB
330
CB
100
AcDbEntity
  8
Border (ANSI)
100
AcDbMText
 10
10.69540722403939
 20
6.314999999258461
 30
0.0
 40
0.1200000014830762
 41
0.0
 71
     7
 72
     1
  1
B
  7
Text Style29
 73
     1
 44
1.0
1001
ACAD
1000
MTEXTBEGIN
1070
    73
1070
     1
1070
    44
1040
1.0
1070
    74
1070
     0
1000
MTEXTEND
  0
ENDBLK
  5
CD
330
CB
100
AcDbEntity
  8
0
100
AcDbBlockEnd
  0
BLOCK
  5
FE
330
FD
100
AcDbEntity
  8
0
100
AcDbBlockBegin
  2
Title Blocks ANSI A
 70
     2
 10
0.0
 20
0.0
 30
0.0
  3
Title Blocks ANSI A
  1

  0
LINE
  5
100
330
FD
100
AcDbEntity
  8
Title (ANSI)
100
AcDbLine
 10
5.00001003937008
 20
4.998596178778405
 30
0.0
 11
11.25002258858267
 21
4.998596178778412
 31
0.0
  0
LINE
  5
101
330
FD
100
AcDbEntity
  8
Title (ANSI)
100
AcDbLine
 10
11.25002258858267
 20
4.998596178778412
 30
0.0
 11
11.25002258858267
 21
6.998596178778411
 31
0.0
  0
LINE
  5
102
330
FD
100
AcDbEntity
  8
Title (ANSI)
100
AcDbLine
 10
11.25002258858267
 20
6.998596178778411
 30
0.0
 11
5.000010039370079
 21
6.99859617877841
 31
0.0
  0
LINE
  5
103
330
FD
100
AcDbEntity
  8
Title (ANSI)
100
AcDbLine
 10
5.000010039370079
 20
6.99859617877841
 30
0.0
 11
5.00001003937008
 21
4.998596178778405
 31
0.0
  0
LINE
  5
104
330
FD
100
AcDbEntity
  8
Title (ANSI)
100
AcDbLine
 10
7.13006861284011
 20
4.998596178778412
 30
0.0
 11
7.13006861284011
 21
6.99859617877841
 31
0.0
  0
LINE
  5
105
330
FD
100
AcDbEntity
  8
Title (ANSI)
100
AcDbLine
 10
7.130068612840111
 20
5.248596178778411
 30
0.0
 11
11.25002258858267
 21
5.248596178778419
 31
0.0
  0
LINE
  5
106
330
FD
100
AcDbEntity
  8
Title (ANSI)
100
AcDbLine
 10
8.08900076038086
 20
4.998596178778412
 30
0.0
 11
8.08900076038086
 21
5.248596178778413
 31
0.0
  0
LINE
  5
107
330
FD
100
AcDbEntity
  8
Title (ANSI)
100
AcDbLine
 10
9.500019074803146
 20
4.998596178778412
 30
0.0
 11
9.500019074803146
 21
5.248596178778416
 31
0.0
  0
LINE
  5
108
330
FD
100
AcDbEntity
  8
Title (ANSI)
100
AcDbLine
 10
6.250012549212597
 20
4.998596178778411
 30
0.0
 11
6.250012549212597
 21
6.99859617877841
 31
0.0
  0
LINE
  5
109
330
FD
100
AcDbEntity
  8
Title (ANSI)
100
AcDbLine
 10
7.13006861284011
 20
5.618596921691798
 30
0.0
 11
11.25002258858267
 21
5.618596921691803
 31
0.0
  0
LINE
  5
10A
330
FD
100
AcDbEntity
  8
Title (ANSI)
100
AcDbLine
 10
10.87002182559055
 20
5.248596178778418
 30
0.0
 11
10.87002182559055
 21
5.618596921691803
 31
0.0
  0
LINE
  5
10B
330
FD
100
AcDbEntity
  8
Title (ANSI)
100
AcDbLine
 10
8.500017066929132
 20
5.248596178778415
 30
0.0
 11
8.500017066929132
 21
5.6185969216918
 31
0.0
  0
LINE
  5
10C
330
FD
100
AcDbEntity
  8
Title (ANSI)
100
AcDbLine
 10
7.544294259443292
 20
5.248596178778413
 30
0.0
 11
7.544294259443292
 21
5.618596921691799
 31
0.0
  0
LINE
  5
10D
330
FD
100
AcDbEntity
  8
Title (ANSI)
100
AcDbLine
 10
7.13006861284011
 20
6.118596921691801
 30
0.0
 11
11.25002258858267
 21
6.118596921691802
 31
0.0
  0
LINE
  5
10E
330
FD
100
AcDbEntity
  8
Title (ANSI)
100
AcDbLine
 10
7.130068612840111
 20
5.248596178778411
 30
0.0
 11
5.000010039370079
 21
5.248596178778406
 31
0.0
  0
LINE
  5
10F
330
FD
100
AcDbEntity
  8
Title (ANSI)
100
AcDbLine
 10
7.130068612840111
 20
5.498596178778411
 30
0.0
 11
5.000010039370079
 21
5.498596178778406
 31
0.0
  0
LINE
  5
110
330
FD
100
AcDbEntity
  8
Title (ANSI)
100
AcDbLine
 10
7.13006861284011
 20
5.74859617877841
 30
0.0
 11
5.000010039370078
 21
5.748596178778406
 31
0.0
  0
LINE
  5
111
330
FD
100
AcDbEntity
  8
Title (ANSI)
100
AcDbLine
 10
7.13006861284011
 20
5.99859617877841
 30
0.0
 11
5.000010039370077
 21
5.998596178778406
 31
0.0
  0
LINE
  5
112
330
FD
100
AcDbEntity
  8
Title (ANSI)
100
AcDbLine
 10
7.13006861284011
 20
6.24859617877841
 30
0.0
 11
5.000010039370077
 21
6.248596178778406
 31
0.0
  0
LINE
  5
113
330
FD
100
AcDbEntity
  8
Title (ANSI)
100
AcDbLine
 10
7.130068612840108
 20
6.498596178778409
 30
0.0
 11
5.000010039370076
 21
6.498596178778406
 31
0.0
  0
LINE
  5
114
330
FD
100
AcDbEntity
  8
Title (ANSI)
100
AcDbLine
 10
7.130068612840108
 20
6.748596178778411
 30
0.0
 11
5.000010039370076
 21
6.748596178778405
 31
0.0
  0
TEXT
  5
115
330
FD
100
AcDbEntity
  8
Title (ANSI)
100
AcDbText
 10
5.020010039370077
 20
6.898596179745229
 30
0.0
 40
0.0799999990331845
  1
DRAWN
  7
Note Text (ANSI)
 11
5.020010039370077
 21
6.978596178778413
 31
0.0
100
AcDbText
 73
     3
  0
TEXT
  5
116
330
FD
100
AcDbEntity
  8
Title (ANSI)
100
AcDbText
 10
5.020010039370077
 20
6.648596179745221
 30
0.0
 40
0.0799999990331845
  1
CHECKED
  7
Note Text (ANSI)
 11
5.020010039370077
 21
6.728596178778405
 31
0.0
100
AcDbText
 73
     3
  0
TEXT
  5
117
330
FD
100
AcDbEntity
  8
Title (ANSI)
100
AcDbText
 10
5.020010039370077
 20
6.398596179745222
 30
0.0
 40
0.0799999990331845
  1
QA
  7
Note Text (ANSI)
 11
5.020010039370077
 21
6.478596178778406
 31
0.0
100
AcDbText
 73
     3
  0
TEXT
  5
118
330
FD
100
AcDbEntity
  8
Title (ANSI)
100
AcDbText
 10
5.020010039370077
 20
6.148596179745221
 30
0.0
 40
0.0799999990331845
  1
MFG
  7
Note Text (ANSI)
 11
5.020010039370077
 21
6.228596178778405
 31
0.0
100
AcDbText
 73
     3
  0
TEXT
  5
119
330
FD
100
AcDbEntity
  8
Title (ANSI)
100
AcDbText
 10
5.020010039370077
 20
5.898596179745221
 30
0.0
 40
0.0799999990331845
  1
APPROVED
  7
Note Text (ANSI)
 11
5.020010039370077
 21
5.978596178778405
 31
0.0
100
AcDbText
 73
     3
  0
TEXT
  5
11A
330
FD
100
AcDbEntity
  8
Title (ANSI)
100
AcDbText
 10
7.15006861284011
 20
6.018596922658616
 30
0.0
 40
0.0799999990331845
  1
TITLE
  7
Note Text (ANSI)
 11
7.15006861284011
 21
6.0985969216918
 31
0.0
100
AcDbText
 73
     3
  0
TEXT
  5
11B
330
FD
100
AcDbEntity
  8
Title (ANSI)
100
AcDbText
 10
7.22438090023158
 20
5.518596922658614
 30
0.0
 40
0.0799999990331845
  1
SIZE
  7
Note Text (ANSI)
 72
     1
 11
7.337181436141702
 21
5.598596921691798
 31
0.0
100
AcDbText
 73
     3
  0
TEXT
  5
11C
330
FD
100
AcDbEntity
  8
Title (ANSI)
100
AcDbText
 10
7.150068612840111
 20
5.148596179745227
 30
0.0
 40
0.0799999990331845
  1
SCALE
  7
Note Text (ANSI)
 11
7.150068612840111
 21
5.228596178778412
 31
0.0
100
AcDbText
 73
     3
  0
TEXT
  5
11D
330
FD
100
AcDbEntity
  8
Title (ANSI)
100
AcDbText
 10
8.520017066929131
 20
5.518596922658616
 30
0.0
 40
0.0799999990331845
  1
DWG NO
  7
Note Text (ANSI)
 11
8.520017066929131
 21
5.5985969216918
 31
0.0
100
AcDbText
 73
     3
  0
TEXT
  5
11E
330
FD
100
AcDbEntity
  8
Title (ANSI)
100
AcDbText
 10
10.96196982412116
 20
5.518596922658621
 30
0.0
 40
0.0799999990331845
  1
REV
  7
Note Text (ANSI)
 72
     1
 11
11.06002220708661
 21
5.598596921691805
 31
0.0
100
AcDbText
 73
     3
  0
TEXT
  5
11F
330
FD
100
AcDbEntity
  8
Title (ANSI)
100
AcDbText
 10
9.520019074803148
 20
5.027783552743943
 30
0.0
 40
0.0799999990331845
  1
SHEET 1  OF 4 
  7
Note Text (ANSI)
 11
9.520019074803148
 21
5.018596178778413
 31
0.0
100
AcDbText
 73
     1
  0
ATTDEF
  5
120
330
FD
100
AcDbEntity
  8
Title (ANSI)
100
AcDbText
 10
5.020010039370077
 20
6.780080396740618
 30
0.0
 40
0.1000000031914298
  1
Da Chow
  7
Note Text (ANSI)
 11
5.020010039370077
 21
6.768596178778405
 31
0.0
100
AcDbAttributeDefinition
  3
AUTHOR
  2
AUTHOR
 70
     0
 74
     1
  0
ATTDEF
  5
121
330
FD
100
AcDbEntity
  8
Title (ANSI)
100
AcDbText
 10
5.020010039370077
 20
6.530080396740618
 30
0.0
 40
0.1000000031914298
  1

  7
Note Text (ANSI)
 11
5.020010039370077
 21
6.518596178778405
 31
0.0
100
AcDbAttributeDefinition
  3
CHECKED BY
  2
CHECKED_BY
 70
     0
 74
     1
  0
ATTDEF
  5
122
330
FD
100
AcDbEntity
  8
Title (ANSI)
100
AcDbText
 10
5.020010039370077
 20
6.030080396740618
 30
0.0
 40
0.1000000031914298
  1

  7
Note Text (ANSI)
 11
5.020010039370077
 21
6.018596178778405
 31
0.0
100
AcDbAttributeDefinition
  3
MFG APPROVED BY
  2
MFG_APPROVED_BY
 70
     0
 74
     1
  0
ATTDEF
  5
123
330
FD
100
AcDbEntity
  8
Title (ANSI)
100
AcDbText
 10
5.020010039370077
 20
5.780080396740619
 30
0.0
 40
0.1000000031914298
  1

  7
Note Text (ANSI)
 11
5.020010039370077
 21
5.768596178778406
 31
0.0
100
AcDbAttributeDefinition
  3
ENG APPROVED BY
  2
ENG_APPROVED_BY
 70
     0
 74
     1
  0
ATTDEF
  5
124
330
FD
100
AcDbEntity
  8
Title (ANSI)
100
AcDbText
 10
6.270012549212596
 20
6.780080396740621
 30
0.0
 40
0.1000000031914298
  1
11/4/2008
  7
Note Text (ANSI)
 11
6.270012549212596
 21
6.768596178778408
 31
0.0
100
AcDbAttributeDefinition
  3
CREATION DATE
  2
CREATION_DATE
 70
     0
 74
     1
  0
ATTDEF
  5
125
330
FD
100
AcDbEntity
  8
Title (ANSI)
100
AcDbText
 10
6.270012549212596
 20
6.53008039674062
 30
0.0
 40
0.1000000031914298
  1
1/14/2009
  7
Note Text (ANSI)
 11
6.270012549212596
 21
6.518596178778407
 31
0.0
100
AcDbAttributeDefinition
  3
CHECKED DATE
  2
CHECKED_DATE
 70
     0
 74
     1
  0
ATTDEF
  5
126
330
FD
100
AcDbEntity
  8
Title (ANSI)
100
AcDbText
 10
6.270012549212596
 20
6.030080396740622
 30
0.0
 40
0.1000000031914298
  1

  7
Note Text (ANSI)
 11
6.270012549212596
 21
6.018596178778409
 31
0.0
100
AcDbAttributeDefinition
  3
MFG APPROVED DATE
  2
MFG_APPROVED_DATE
 70
     0
 74
     1
  0
ATTDEF
  5
127
330
FD
100
AcDbEntity
  8
Title (ANSI)
100
AcDbText
 10
6.270012549212596
 20
5.780080396740622
 30
0.0
 40
0.1000000031914298
  1

  7
Note Text (ANSI)
 11
6.270012549212596
 21
5.768596178778409
 31
0.0
100
AcDbAttributeDefinition
  3
ENG APPROVAL DATE
  2
ENG_APPROVAL_DATE
 70
     0
 74
     1
  0
ATTDEF
  5
128
330
FD
100
AcDbEntity
  8
Title (ANSI)
100
AcDbText
 10
7.910623153737198
 20
6.498596549493568
 30
0.0
 40
0.1200000014830762
  1
RADIO ASTRONOMY LABORATORY
  7
Note Text (ANSI)
 72
     1
 11
9.190045600711393
 21
6.558596550235106
 31
0.0
100
AcDbAttributeDefinition
  3
COMPANY
  2
COMPANY
 70
     0
 74
     2
  0
ATTDEF
  5
129
330
FD
100
AcDbEntity
  8
Title (ANSI)
100
AcDbText
 10
7.150068612840111
 20
5.748596920950261
 30
0.0
 40
0.1200000014830762
  1

  7
Note Text (ANSI)
 11
7.150068612840111
 21
5.808596921691799
 31
0.0
100
AcDbAttributeDefinition
  3
TITLE
  2
TITLE
 70
     0
 74
     2
  0
ATTDEF
  5
12A
330
FD
100
AcDbEntity
  8
Title (ANSI)
100
AcDbText
 10
7.287698561117785
 20
5.323596549493566
 30
0.0
 40
0.1200000014830762
  1
A
  7
Note Text (ANSI)
 72
     1
 11
7.3371814361417
 21
5.383596550235104
 31
0.0
100
AcDbAttributeDefinition
  3
Sheet Size
  2
Sheet_Size
 70
     0
 74
     2
  0
ATTDEF
  5
12B
330
FD
100
AcDbEntity
  8
Title (ANSI)
100
AcDbText
 10
8.520017066929131
 20
5.282377240063576
 30
0.0
 40
0.1200000014830762
  1
Block3-V61
  7
Note Text (ANSI)
 11
8.520017066929131
 21
5.268596178778414
 31
0.0
100
AcDbAttributeDefinition
  3
PART NUMBER
  2
PART_NUMBER
 70
     0
 74
     1
  0
ATTDEF
  5
12C
330
FD
100
AcDbEntity
  8
Title (ANSI)
100
AcDbText
 10
11.06002220708661
 20
5.323596549493571
 30
0.0
 40
0.1200000014830762
  1

  7
Note Text (ANSI)
 72
     1
 11
11.06002220708661
 21
5.383596550235109
 31
0.0
100
AcDbAttributeDefinition
  3
REVISION NUMBER
  2
REVISION_NUMBER
 70
     0
 74
     2
  0
ENDBLK
  5
FF
330
FD
100
AcDbEntity
  8
0
100
AcDbBlockEnd
  0
BLOCK
  5
2A1
330
296
100
AcDbEntity
  8
0
100
AcDbBlockBegin
  2
*D6
 70
     1
 10
0.0
 20
0.0
 30
0.0
  3
*D6
  1

  0
LINE
  5
357
330
296
100
AcDbEntity
  8
Dimension (ANSI)
100
AcDbLine
 10
0.3260930038189458
 20
1.240394089262139
 30
0.0
 11
0.190758330455693
 21
1.240394089262139
 31
0.0
  0
LINE
  5
358
330
296
100
AcDbEntity
  8
Dimension (ANSI)
100
AcDbLine
 10
0.3260930038189458
 20
0.7903940892615906
 30
0.0
 11
0.1907583304556929
 21
0.7903940892615907
 31
0.0
  0
LINE
  5
359
330
296
100
AcDbEntity
  8
Dimension (ANSI)
100
AcDbLine
 10
0.222008330455693
 20
1.215787790606867
 30
0.0
 11
0.2220083304556929
 21
1.038882612010481
 31
0.0
  0
LINE
  5
35A
330
296
100
AcDbEntity
  8
Dimension (ANSI)
100
AcDbLine
 10
0.2220083304556929
 20
0.8150003879168622
 30
0.0
 11
0.2220083304556929
 21
0.9919055665132477
 31
0.0
  0
SOLID
  5
35B
330
296
100
AcDbEntity
  8
Dimension (ANSI)
100
AcDbTrace
 10
0.2179072806798144
 20
1.215787790606867
 30
0.0
 11
0.2261093802315716
 21
1.215787790606867
 31
0.0
 12
0.222008330455693
 22
1.240394089262139
 32
0.0
 13
0.222008330455693
 23
1.240394089262139
 33
0.0
  0
SOLID
  5
35C
330
296
100
AcDbEntity
  8
Dimension (ANSI)
100
AcDbTrace
 10
0.2179072806798143
 20
0.8150003879168622
 30
0.0
 11
0.2261093802315715
 21
0.8150003879168622
 31
0.0
 12
0.2220083304556929
 22
0.7903940892615907
 32
0.0
 13
0.2220083304556929
 23
0.7903940892615907
 33
0.0
  0
MTEXT
  5
35D
330
296
100
AcDbEntity
  8
Dimension (ANSI)
100
AcDbMText
 10
0.1501715243775146
 20
1.03100859626245
 30
0.0
 40
0.0300000011920929
 41
0.0
 71
     1
 72
     1
  1
\A1;0.450 in
  7
Note Text (ANSI)
 73
     1
 44
1.0
1001
ACAD
1000
MTEXTBEGIN
1070
    73
1070
     1
1070
    44
1040
1.0
1070
    74
1070
     0
1000
MTEXTEND
  0
POINT
  5
35E
330
296
100
AcDbEntity
  8
Defpoints
 62
     0
100
AcDbPoint
 10
0.3417180038189458
 20
1.240394089262139
 30
0.0
  0
POINT
  5
35F
330
296
100
AcDbEntity
  8
Defpoints
 62
     0
100
AcDbPoint
 10
0.3417180038189458
 20
0.7903940892615906
 30
0.0
  0
POINT
  5
360
330
296
100
AcDbEntity
  8
Defpoints
 62
     0
100
AcDbPoint
 10
0.2220083304556929
 20
0.7903940892615907
 30
0.0
  0
ENDBLK
  5
2A2
330
296
100
AcDbEntity
  8
0
100
AcDbBlockEnd
  0
BLOCK
  5
36D
330
362
100
AcDbEntity
  8
0
100
AcDbBlockBegin
  2
*D7
 70
     1
 10
0.0
 20
0.0
 30
0.0
  3
*D7
  1

  0
LINE
  5
437
330
362
100
AcDbEntity
  8
Dimension (ANSI)
100
AcDbLine
 10
0.3417180038188787
 20
1.929356519225033
 30
0.0
 11
0.3417180038188787
 21
2.008145730191936
 31
0.0
  0
LINE
  5
438
330
362
100
AcDbEntity
  8
Dimension (ANSI)
100
AcDbLine
 10
1.241717993819979
 20
1.929356519225033
 30
0.0
 11
1.241717993819979
 21
2.008145730191936
 31
0.0
  0
LINE
  5
439
330
362
100
AcDbEntity
  8
Dimension (ANSI)
100
AcDbLine
 10
0.3663243024741503
 20
1.976895730191935
 30
0.0
 11
0.7120071769932194
 21
1.976895730191935
 31
0.0
  0
LINE
  5
43A
330
362
100
AcDbEntity
  8
Dimension (ANSI)
100
AcDbLine
 10
1.217111695164707
 20
1.976895730191935
 30
0.0
 11
0.8714288206456386
 21
1.976895730191935
 31
0.0
  0
SOLID
  5
43B
330
362
100
AcDbEntity
  8
Dimension (ANSI)
100
AcDbTrace
 10
0.3663243024741503
 20
1.980996779967814
 30
0.0
 11
0.3663243024741503
 21
1.972794680416057
 31
0.0
 12
0.3417180038188787
 22
1.976895730191935
 32
0.0
 13
0.3417180038188787
 23
1.976895730191935
 33
0.0
  0
SOLID
  5
43C
330
362
100
AcDbEntity
  8
Dimension (ANSI)
100
AcDbTrace
 10
1.217111695164707
 20
1.980996779967814
 30
0.0
 11
1.217111695164707
 21
1.972794680416057
 31
0.0
 12
1.241717993819979
 22
1.976895730191935
 32
0.0
 13
1.241717993819979
 23
1.976895730191935
 33
0.0
  0
MTEXT
  5
43D
330
362
100
AcDbEntity
  8
Dimension (ANSI)
100
AcDbMText
 10
0.7198811927412509
 20
1.992510237192521
 30
0.0
 40
0.0300000011920929
 41
0.0
 71
     1
 72
     1
  1
\A1;0.900 in
  7
Note Text (ANSI)
 73
     1
 44
1.0
1001
ACAD
1000
MTEXTBEGIN
1070
    73
1070
     1
1070
    44
1040
1.0
1070
    74
1070
     0
1000
MTEXTEND
  0
POINT
  5
43E
330
362
100
AcDbEntity
  8
Defpoints
 62
     0
100
AcDbPoint
 10
0.3417180038188787
 20
1.913731519225033
 30
0.0
  0
POINT
  5
43F
330
362
100
AcDbEntity
  8
Defpoints
 62
     0
100
AcDbPoint
 10
1.241717993819979
 20
1.913731519225033
 30
0.0
  0
POINT
  5
440
330
362
100
AcDbEntity
  8
Defpoints
 62
     0
100
AcDbPoint
 10
1.241717993819979
 20
1.976895730191935
 30
0.0
  0
ENDBLK
  5
36E
330
362
100
AcDbEntity
  8
0
100
AcDbBlockEnd
  0
BLOCK
  5
44D
330
442
100
AcDbEntity
  8
0
100
AcDbBlockBegin
  2
*D8
 70
     1
 10
0.0
 20
0.0
 30
0.0
  3
*D8
  1

  0
LINE
  5
503
330
442
100
AcDbEntity
  8
Dimension (ANSI)
100
AcDbLine
 10
0.3260930038188787
 20
1.463731519224483
 30
0.0
 11
0.2280806041519252
 21
1.463731519224483
 31
0.0
  0
LINE
  5
504
330
442
100
AcDbEntity
  8
Dimension (ANSI)
100
AcDbLine
 10
0.3260930038188787
 20
1.913731519225033
 30
0.0
 11
0.2280806041519253
 21
1.913731519225033
 31
0.0
  0
LINE
  5
505
330
442
100
AcDbEntity
  8
Dimension (ANSI)
100
AcDbLine
 10
0.2593306041519252
 20
1.488337817879754
 30
0.0
 11
0.2593306041519252
 21
1.665242996476141
 31
0.0
  0
LINE
  5
506
330
442
100
AcDbEntity
  8
Dimension (ANSI)
100
AcDbLine
 10
0.2593306041519253
 20
1.889125220569761
 30
0.0
 11
0.2593306041519252
 21
1.712220041973375
 31
0.0
  0
SOLID
  5
507
330
442
100
AcDbEntity
  8
Dimension (ANSI)
100
AcDbTrace
 10
0.2552295543760465
 20
1.488337817879754
 30
0.0
 11
0.2634316539278037
 21
1.488337817879754
 31
0.0
 12
0.2593306041519252
 22
1.463731519224483
 32
0.0
 13
0.2593306041519252
 23
1.463731519224483
 33
0.0
  0
SOLID
  5
508
330
442
100
AcDbEntity
  8
Dimension (ANSI)
100
AcDbTrace
 10
0.2552295543760467
 20
1.889125220569761
 30
0.0
 11
0.2634316539278039
 21
1.889125220569761
 31
0.0
 12
0.2593306041519253
 22
1.913731519225033
 32
0.0
 13
0.2593306041519253
 23
1.913731519225033
 33
0.0
  0
MTEXT
  5
509
330
442
100
AcDbEntity
  8
Dimension (ANSI)
100
AcDbMText
 10
0.1874937980737468
 20
1.704346026225343
 30
0.0
 40
0.0300000011920929
 41
0.0
 71
     1
 72
     1
  1
\A1;0.450 in
  7
Note Text (ANSI)
 73
     1
 44
1.0
1001
ACAD
1000
MTEXTBEGIN
1070
    73
1070
     1
1070
    44
1040
1.0
1070
    74
1070
     0
1000
MTEXTEND
  0
POINT
  5
50A
330
442
100
AcDbEntity
  8
Defpoints
 62
     0
100
AcDbPoint
 10
0.3417180038188787
 20
1.463731519224483
 30
0.0
  0
POINT
  5
50B
330
442
100
AcDbEntity
  8
Defpoints
 62
     0
100
AcDbPoint
 10
0.3417180038188787
 20
1.913731519225033
 30
0.0
  0
POINT
  5
50C
330
442
100
AcDbEntity
  8
Defpoints
 62
     0
100
AcDbPoint
 10
0.2593306041519253
 20
1.913731519225033
 30
0.0
  0
ENDBLK
  5
44E
330
442
100
AcDbEntity
  8
0
100
AcDbBlockEnd
  0
ENDSEC
  0
SECTION
  2
ENTITIES
  0
INSERT
  5
FC
330
37
100
AcDbEntity
  8
0
100
AcDbBlockReference
  2
Borders Default Border
 10
0.0
 20
0.0
 30
0.0
 41
0.25
 42
0.25
 43
0.25
  0
INSERT
  5
12D
330
37
100
AcDbEntity
  8
0
100
AcDbBlockReference
 66
     1
  2
Title Blocks ANSI A
 10
-0.1575056471456691
 20
-1.154649044694601
 30
0.0
 41
0.25
 42
0.25
 43
0.25
  0
ATTRIB
  5
12F
330
12D
100
AcDbEntity
  8
Title (ANSI)
100
AcDbText
 10
1.09749686269685
 20
0.5403710544905531
 30
0.0
 40
0.0250000007978575
  1
Da Chow
  7
Note Text (ANSI)
 11
1.09749686269685
 21
0.5375
 31
0.0
100
AcDbAttribute
  2
AUTHOR
 70
     0
 74
     1
  0
ATTRIB
  5
130
330
12D
100
AcDbEntity
  8
Title (ANSI)
100
AcDbText
 10
1.09749686269685
 20
0.477871054490553
 30
0.0
 40
0.0250000007978575
  1

  7
Note Text (ANSI)
 11
1.09749686269685
 21
0.4749999999999999
 31
0.0
100
AcDbAttribute
  2
CHECKED_BY
 70
     0
 74
     1
  0
ATTRIB
  5
131
330
12D
100
AcDbEntity
  8
Title (ANSI)
100
AcDbText
 10
1.09749686269685
 20
0.3528710544905532
 30
0.0
 40
0.0250000007978575
  1

  7
Note Text (ANSI)
 11
1.09749686269685
 21
0.3500000000000001
 31
0.0
100
AcDbAttribute
  2
MFG_APPROVED_BY
 70
     0
 74
     1
  0
ATTRIB
  5
132
330
12D
100
AcDbEntity
  8
Title (ANSI)
100
AcDbText
 10
1.09749686269685
 20
0.2903710544905534
 30
0.0
 40
0.0250000007978575
  1

  7
Note Text (ANSI)
 11
1.09749686269685
 21
0.2875000000000003
 31
0.0
100
AcDbAttribute
  2
ENG_APPROVED_BY
 70
     0
 74
     1
  0
ATTRIB
  5
133
330
12D
100
AcDbEntity
  8
Title (ANSI)
100
AcDbText
 10
1.40999749015748
 20
0.5403710544905538
 30
0.0
 40
0.0250000007978575
  1
11/4/2008
  7
Note Text (ANSI)
 11
1.40999749015748
 21
0.5375000000000007
 31
0.0
100
AcDbAttribute
  2
CREATION_DATE
 70
     0
 74
     1
  0
ATTRIB
  5
134
330
12D
100
AcDbEntity
  8
Title (ANSI)
100
AcDbText
 10
1.40999749015748
 20
0.4778710544905537
 30
0.0
 40
0.0250000007978575
  1
1/14/2009
  7
Note Text (ANSI)
 11
1.40999749015748
 21
0.4750000000000006
 31
0.0
100
AcDbAttribute
  2
CHECKED_DATE
 70
     0
 74
     1
  0
ATTRIB
  5
135
330
12D
100
AcDbEntity
  8
Title (ANSI)
100
AcDbText
 10
1.40999749015748
 20
0.352871054490554
 30
0.0
 40
0.0250000007978575
  1

  7
Note Text (ANSI)
 11
1.40999749015748
 21
0.3500000000000009
 31
0.0
100
AcDbAttribute
  2
MFG_APPROVED_DATE
 70
     0
 74
     1
  0
ATTRIB
  5
136
330
12D
100
AcDbEntity
  8
Title (ANSI)
100
AcDbText
 10
1.40999749015748
 20
0.2903710544905541
 30
0.0
 40
0.0250000007978575
  1

  7
Note Text (ANSI)
 11
1.40999749015748
 21
0.287500000000001
 31
0.0
100
AcDbAttribute
  2
ENG_APPROVAL_DATE
 70
     0
 74
     1
  0
ATTRIB
  5
137
330
12D
100
AcDbEntity
  8
Title (ANSI)
100
AcDbText
 10
1.82015014128863
 20
0.470000092678791
 30
0.0
 40
0.0300000003707691
  1
RADIO ASTRONOMY LABORATORY
  7
Note Text (ANSI)
 72
     1
 11
2.140005753032179
 21
0.4850000928641755
 31
0.0
100
AcDbAttribute
  2
COMPANY
 70
     0
 74
     2
  0
ATTRIB
  5
138
330
12D
100
AcDbEntity
  8
Title (ANSI)
100
AcDbText
 10
1.630011506064358
 20
0.2825001855429641
 30
0.0
 40
0.0300000003707691
  1

  7
Note Text (ANSI)
 11
1.630011506064358
 21
0.2975001857283486
 31
0.0
100
AcDbAttribute
  2
TITLE
 70
     0
 74
     2
  0
ATTRIB
  5
139
330
12D
100
AcDbEntity
  8
Title (ANSI)
100
AcDbText
 10
1.664418993133777
 20
0.1762500926787902
 30
0.0
 40
0.0300000003707691
  1
A
  7
Note Text (ANSI)
 72
     1
 11
1.676789711889756
 21
0.1912500928641747
 31
0.0
100
AcDbAttribute
  2
Sheet_Size
 70
     0
 74
     2
  0
ATTRIB
  5
13A
330
12D
100
AcDbEntity
  8
Title (ANSI)
100
AcDbText
 10
1.972498619586613
 20
0.1659452653212929
 30
0.0
 40
0.0300000003707691
  1
Block3-V61
  7
Note Text (ANSI)
 11
1.972498619586613
 21
0.1625000000000024
 31
0.0
100
AcDbAttribute
  2
PART_NUMBER
 70
     0
 74
     1
  0
ATTRIB
  5
13B
330
12D
100
AcDbEntity
  8
Title (ANSI)
100
AcDbText
 10
2.607499904625985
 20
0.1762500926787916
 30
0.0
 40
0.0300000003707691
  1

  7
Note Text (ANSI)
 72
     1
 11
2.607499904625985
 21
0.1912500928641761
 31
0.0
100
AcDbAttribute
  2
REVISION_NUMBER
 70
     0
 74
     2
  0
SEQEND
  5
12E
330
12D
100
AcDbEntity
  8
0
  0
LINE
  5
13C
330
37
100
AcDbEntity
  8
Visible (ANSI)
100
AcDbLine
 10
1.171417993819962
 20
1.240394089262139
 30
0.0
 11
1.181717993819973
 21
1.240394089262139
 31
0.0
  0
LINE
  5
13D
330
37
100
AcDbEntity
  8
Visible (ANSI)
100
AcDbLine
 10
1.181717993819973
 20
1.240394089262139
 30
0.0
 11
1.241717993820046
 21
1.240394089262139
 31
0.0
  0
LINE
  5
13E
330
37
100
AcDbEntity
  8
Visible (ANSI)
100
AcDbLine
 10
0.3417180038189457
 20
0.7903940892615909
 30
0.0
 11
1.241717993820046
 21
0.7903940892615909
 31
0.0
  0
LINE
  5
13F
330
37
100
AcDbEntity
  8
Visible (ANSI)
100
AcDbLine
 10
1.033217993819789
 20
1.240394089262139
 30
0.0
 11
0.3417180038189457
 21
1.240394089262139
 31
0.0
  0
LINE
  5
140
330
37
100
AcDbEntity
  8
Visible (ANSI)
100
AcDbLine
 10
1.033217993819789
 20
1.221894089262116
 30
0.0
 11
1.033217993819789
 21
1.240394089262139
 31
0.0
  0
LINE
  5
141
330
37
100
AcDbEntity
  8
Visible (ANSI)
100
AcDbLine
 10
0.3417180038189457
 20
1.240394089262139
 30
0.0
 11
0.3417180038189457
 21
0.7903940892615909
 31
0.0
  0
LINE
  5
142
330
37
100
AcDbEntity
  8
Visible (ANSI)
100
AcDbLine
 10
1.241717993820046
 20
0.7903940892615909
 30
0.0
 11
1.241717993820046
 21
1.21839408926211
 31
0.0
  0
LINE
  5
143
330
37
100
AcDbEntity
  8
Visible (ANSI)
100
AcDbLine
 10
1.241717993820046
 20
1.21839408926211
 30
0.0
 11
1.181717993819973
 21
1.21839408926211
 31
0.0
  0
LINE
  5
144
330
37
100
AcDbEntity
  8
Visible (ANSI)
100
AcDbLine
 10
1.181717993819973
 20
1.21839408926211
 30
0.0
 11
1.181717993819973
 21
1.140394089262017
 31
0.0
  0
ARC
  5
145
330
37
100
AcDbEntity
  8
Visible (ANSI)
100
AcDbCircle
 10
1.132467993819911
 20
1.140394089262014
 30
0.0
 40
0.0492500000000594
100
AcDbArc
 50
180.0
 51
0.0
  0
LINE
  5
146
330
37
100
AcDbEntity
  8
Visible (ANSI)
100
AcDbLine
 10
1.083217993819851
 20
1.140394089262017
 30
0.0
 11
1.083217993819851
 21
1.240394089262139
 31
0.0
  0
LINE
  5
147
330
37
100
AcDbEntity
  8
Visible (ANSI)
100
AcDbLine
 10
1.083217993819851
 20
1.240394089262139
 30
0.0
 11
1.051717993819814
 21
1.240394089262139
 31
0.0
  0
LINE
  5
148
330
37
100
AcDbEntity
  8
Visible (ANSI)
100
AcDbLine
 10
1.051717993819814
 20
1.240394089262139
 30
0.0
 11
1.051717993819814
 21
1.221894089262116
 31
0.0
  0
LINE
  5
149
330
37
100
AcDbEntity
  8
Visible (ANSI)
100
AcDbLine
 10
1.051717993819814
 20
1.221894089262116
 30
0.0
 11
1.033217993819789
 21
1.221894089262116
 31
0.0
  0
LINE
  5
14A
330
37
100
AcDbEntity
  8
Visible (ANSI)
100
AcDbLine
 10
1.241717993820046
 20
1.240394089262139
 30
0.0
 11
1.241717993820046
 21
1.218394089262112
 31
0.0
  0
LINE
  5
14B
330
37
100
AcDbEntity
  8
Visible (ANSI)
100
AcDbLine
 10
1.083217993819851
 20
1.240394089262139
 30
0.0
 11
1.101717993819874
 21
1.240394089262139
 31
0.0
  0
LINE
  5
14C
330
37
100
AcDbEntity
  8
Visible (ANSI)
100
AcDbLine
 10
1.171417993819962
 20
1.240394089262139
 30
0.0
 11
1.101717993819874
 21
1.240394089262139
 31
0.0
  0
LINE
  5
14D
330
37
100
AcDbEntity
  8
Visible (ANSI)
100
AcDbLine
 10
1.033217993819789
 20
1.240394089262139
 30
0.0
 11
1.051717993819812
 21
1.240394089262139
 31
0.0
  0
LINE
  5
14E
330
37
100
AcDbEntity
  8
Visible (ANSI)
100
AcDbLine
 10
1.171417993819962
 20
1.231894089262129
 30
0.0
 11
1.171417993819962
 21
1.240394089262139
 31
0.0
  0
LINE
  5
14F
330
37
100
AcDbEntity
  8
Visible (ANSI)
100
AcDbLine
 10
1.101717993819874
 20
1.240394089262139
 30
0.0
 11
1.101717993819874
 21
1.140394089262017
 31
0.0
  0
ARC
  5
150
330
37
100
AcDbEntity
  8
Visible (ANSI)
100
AcDbCircle
 10
1.132467993819911
 20
1.140394089262017
 30
0.0
 40
0.0307500000000367
100
AcDbArc
 50
180.0
 51
0.0
  0
LINE
  5
151
330
37
100
AcDbEntity
  8
Visible (ANSI)
100
AcDbLine
 10
1.163217993819947
 20
1.140394089262017
 30
0.0
 11
1.163217993819947
 21
1.228394089262123
 31
0.0
  0
ARC
  5
152
330
37
100
AcDbEntity
  8
Visible (ANSI)
100
AcDbCircle
 10
1.166717993819951
 20
1.228394089262126
 30
0.0
 40
0.0035000000000004
100
AcDbArc
 50
89.99999999995422
 51
180.0
  0
LINE
  5
153
330
37
100
AcDbEntity
  8
Visible (ANSI)
100
AcDbLine
 10
1.166717993819953
 20
1.231894089262129
 30
0.0
 11
1.171417993819962
 21
1.231894089262129
 31
0.0
  0
LINE
  5
154
330
37
100
AcDbEntity
  8
Visible (ANSI)
100
AcDbLine
 10
1.163217993819947
 20
1.221894089262116
 30
0.0
 11
1.181717993819973
 21
1.221894089262116
 31
0.0
  0
LINE
  5
155
330
37
100
AcDbEntity
  8
Visible (ANSI)
100
AcDbLine
 10
1.181717993819973
 20
1.218394089262113
 30
0.0
 11
1.181717993819973
 21
1.240394089262139
 31
0.0
  0
CIRCLE
  5
156
330
37
100
AcDbEntity
  8
Visible (ANSI)
100
AcDbCircle
 10
0.6053472546192684
 20
1.141399140062019
 30
0.0
 40
0.0445
  0
CIRCLE
  5
157
330
37
100
AcDbEntity
  8
Visible (ANSI)
100
AcDbCircle
 10
0.8033371530195084
 20
1.141399140062019
 30
0.0
 40
0.0445
  0
CIRCLE
  5
158
330
37
100
AcDbEntity
  8
Visible (ANSI)
100
AcDbCircle
 10
0.8033371530195084
 20
1.141399140062019
 30
0.0
 40
0.0475000000000011
  0
CIRCLE
  5
159
330
37
100
AcDbEntity
  8
Visible (ANSI)
100
AcDbCircle
 10
0.6053472546192684
 20
1.141399140062019
 30
0.0
 40
0.0475000000000011
  0
CIRCLE
  5
15A
330
37
100
AcDbEntity
  8
Visible (ANSI)
100
AcDbCircle
 10
1.002342203819755
 20
0.8933940892617169
 30
0.0
 40
0.0460000000000537
  0
CIRCLE
  5
15B
330
37
100
AcDbEntity
  8
Visible (ANSI)
100
AcDbCircle
 10
0.4563574038190858
 20
0.8933940892617169
 30
0.0
 40
0.0510000000000011
  0
CIRCLE
  5
15C
330
37
100
AcDbEntity
  8
Visible (ANSI)
100
AcDbCircle
 10
0.5963422038192585
 20
0.9903940892618352
 30
0.0
 40
0.0500000000000011
  0
CIRCLE
  5
15D
330
37
100
AcDbEntity
  8
Visible (ANSI)
100
AcDbCircle
 10
1.002342203819755
 20
1.140394089262017
 30
0.0
 40
0.0500000000000011
  0
CIRCLE
  5
15E
330
37
100
AcDbEntity
  8
Visible (ANSI)
100
AcDbCircle
 10
1.002342203819755
 20
1.140394089262017
 30
0.0
 40
0.047
  0
CIRCLE
  5
15F
330
37
100
AcDbEntity
  8
Visible (ANSI)
100
AcDbCircle
 10
1.002342203819755
 20
0.8933940892617169
 30
0.0
 40
0.0430000000000526
  0
CIRCLE
  5
160
330
37
100
AcDbEntity
  8
Visible (ANSI)
100
AcDbCircle
 10
0.5963422038192585
 20
0.9903940892618352
 30
0.0
 40
0.047
  0
CIRCLE
  5
161
330
37
100
AcDbEntity
  8
Visible (ANSI)
100
AcDbCircle
 10
0.4563574038190858
 20
0.8933940892617169
 30
0.0
 40
0.048
  0
CIRCLE
  5
162
330
37
100
AcDbEntity
  8
Hidden Narrow (ANSI)
 48
1.045677661895751
100
AcDbCircle
 10
0.4563574038190858
 20
0.8933940892617169
 30
0.0
 40
0.043
  0
CIRCLE
  5
163
330
37
100
AcDbEntity
  8
Hidden Narrow (ANSI)
 48
1.066956043243408
100
AcDbCircle
 10
1.002342203819755
 20
0.8933940892617169
 30
0.0
 40
0.0526500000000526
  0
CIRCLE
  5
164
330
37
100
AcDbEntity
  8
Visible (ANSI)
100
AcDbCircle
 10
0.9023371038195662
 20
1.753731519224836
 30
0.0
 40
0.0445
  0
CIRCLE
  5
165
330
37
100
AcDbEntity
  8
Visible (ANSI)
100
AcDbCircle
 10
0.9023371038195662
 20
1.753731519224837
 30
0.0
 40
0.0475000000000011
  0
CIRCLE
  5
166
330
37
100
AcDbEntity
  8
Visible (ANSI)
100
AcDbCircle
 10
0.9783422038196567
 20
1.831731519224933
 30
0.0
 40
0.0500000000000011
  0
CIRCLE
  5
167
330
37
100
AcDbEntity
  8
Visible (ANSI)
100
AcDbCircle
 10
0.9783422038196567
 20
1.831731519224932
 30
0.0
 40
0.047
  0
CIRCLE
  5
168
330
37
100
AcDbEntity
  8
Visible (ANSI)
100
AcDbCircle
 10
0.9023371530195623
 20
1.562726468424603
 30
0.0
 40
0.0445
  0
CIRCLE
  5
169
330
37
100
AcDbEntity
  8
Visible (ANSI)
100
AcDbCircle
 10
0.7043472546193222
 20
1.562726468424603
 30
0.0
 40
0.0445
  0
CIRCLE
  5
16A
330
37
100
AcDbEntity
  8
Visible (ANSI)
100
AcDbCircle
 10
0.9023371530195623
 20
1.562726468424604
 30
0.0
 40
0.0475000000000011
  0
CIRCLE
  5
16B
330
37
100
AcDbEntity
  8
Visible (ANSI)
100
AcDbCircle
 10
0.4563574038190187
 20
1.562726469224604
 30
0.0
 40
0.0475000000000011
  0
CIRCLE
  5
16C
330
37
100
AcDbEntity
  8
Visible (ANSI)
100
AcDbCircle
 10
0.4863574038190578
 20
1.831731519224933
 30
0.0
 40
0.0500000000000011
  0
CIRCLE
  5
16D
330
37
100
AcDbEntity
  8
Visible (ANSI)
100
AcDbCircle
 10
0.7043472546193222
 20
1.562726468424604
 30
0.0
 40
0.0475000000000011
  0
CIRCLE
  5
16E
330
37
100
AcDbEntity
  8
Visible (ANSI)
100
AcDbCircle
 10
0.4563574038190187
 20
1.562726469224603
 30
0.0
 40
0.0445
  0
CIRCLE
  5
16F
330
37
100
AcDbEntity
  8
Visible (ANSI)
100
AcDbCircle
 10
0.4863574038190578
 20
1.831731519224932
 30
0.0
 40
0.047
  0
LINE
  5
170
330
37
100
AcDbEntity
  8
Visible (ANSI)
100
AcDbLine
 10
0.7135912038193353
 20
1.913731519225033
 30
0.0
 11
0.7135912038193353
 21
1.823731519224309
 31
0.0
  0
LINE
  5
171
330
37
100
AcDbEntity
  8
Visible (ANSI)
100
AcDbLine
 10
0.7135912038193353
 20
1.823731519224309
 30
0.0
 11
0.7135922038193341
 21
1.798731519224892
 31
0.0
  0
LINE
  5
172
330
37
100
AcDbEntity
  8
Visible (ANSI)
100
AcDbLine
 10
0.7135922038193341
 20
1.798731519224892
 30
0.0
 11
0.7135922038193341
 21
1.69873151922477
 31
0.0
  0
ARC
  5
173
330
37
100
AcDbEntity
  8
Visible (ANSI)
100
AcDbCircle
 10
0.7443422038193707
 20
1.698731519224768
 30
0.0
 40
0.0307500000000367
100
AcDbArc
 50
180.0
 51
270.0
  0
LINE
  5
174
330
37
100
AcDbEntity
  8
Visible (ANSI)
100
AcDbLine
 10
0.7443422038193707
 20
1.667981519224732
 30
0.0
 11
0.9497664525151931
 21
1.667981519224732
 31
0.0
  0
ARC
  5
175
330
37
100
AcDbEntity
  8
Visible (ANSI)
100
AcDbCircle
 10
0.9543422038196281
 20
1.660231519224727
 30
0.0
 40
0.0090000000000064
100
AcDbArc
 50
90.0
 51
120.5584317859424
  0
LINE
  5
176
330
37
100
AcDbEntity
  8
Visible (ANSI)
100
AcDbLine
 10
0.9543422038196281
 20
1.669231519224734
 30
0.0
 11
0.962117254020644
 21
1.669231519224734
 31
0.0
  0
ARC
  5
177
330
37
100
AcDbEntity
  8
Visible (ANSI)
100
AcDbCircle
 10
0.9683422038196493
 20
1.66273151922472
 30
0.0
 40
0.009000000000018
100
AcDbArc
 50
90.00000000001781
 51
133.7617426926662
  0
LINE
  5
178
330
37
100
AcDbEntity
  8
Visible (ANSI)
100
AcDbLine
 10
0.9683422038196464
 20
1.671731519224737
 30
0.0
 11
0.9752183003952657
 21
1.671731519224737
 31
0.0
  0
ARC
  5
179
330
37
100
AcDbEntity
  8
Visible (ANSI)
100
AcDbCircle
 10
0.9823422038196646
 20
1.666231519224728
 30
0.0
 40
0.0090000000000146
100
AcDbArc
 50
90.00000000001893
 51
142.3301130356698
  0
LINE
  5
17A
330
37
100
AcDbEntity
  8
Visible (ANSI)
100
AcDbLine
 10
0.9823422038196619
 20
1.675231519224742
 30
0.0
 11
0.989685349570178
 21
1.675231519224742
 31
0.0
  0
ARC
  5
17B
330
37
100
AcDbEntity
  8
Visible (ANSI)
100
AcDbCircle
 10
0.9953422038196817
 20
1.66823151922472
 30
0.0
 40
0.0090000000000226
100
AcDbArc
 50
90.00000000001669
 51
128.9424412689577
  0
LINE
  5
17C
330
37
100
AcDbEntity
  8
Visible (ANSI)
100
AcDbLine
 10
0.9953422038196789
 20
1.677231519224744
 30
0.0
 11
1.002467993819685
 21
1.677231519224744
 31
0.0
  0
ARC
  5
17D
330
37
100
AcDbEntity
  8
Visible (ANSI)
100
AcDbCircle
 10
1.00246799381969
 20
1.707981519224776
 30
0.0
 40
0.0307500000000324
100
AcDbArc
 50
269.9999999999895
 51
0.0
  0
LINE
  5
17E
330
37
100
AcDbEntity
  8
Visible (ANSI)
100
AcDbLine
 10
1.033217993819722
 20
1.707981519224781
 30
0.0
 11
1.033217993819722
 21
1.758731519224844
 31
0.0
  0
ARC
  5
17F
330
37
100
AcDbEntity
  8
Visible (ANSI)
100
AcDbCircle
 10
1.107467993819814
 20
1.758731519224842
 30
0.0
 40
0.0742500000000921
100
AcDbArc
 50
0.0
 51
180.0
  0
LINE
  5
180
330
37
100
AcDbEntity
  8
Visible (ANSI)
100
AcDbLine
 10
1.181717993819906
 20
1.758731519224844
 30
0.0
 11
1.181717993819906
 21
1.48573151922451
 31
0.0
  0
LINE
  5
181
330
37
100
AcDbEntity
  8
Visible (ANSI)
100
AcDbLine
 10
1.181717993819906
 20
1.48573151922451
 30
0.0
 11
1.241717993819978
 21
1.48573151922451
 31
0.0
  0
LINE
  5
182
330
37
100
AcDbEntity
  8
Visible (ANSI)
100
AcDbLine
 10
1.241717993819978
 20
1.48573151922451
 30
0.0
 11
1.241717993819978
 21
1.913731519225033
 31
0.0
  0
LINE
  5
183
330
37
100
AcDbEntity
  8
Visible (ANSI)
100
AcDbLine
 10
0.7135912038193353
 20
1.913731519225033
 30
0.0
 11
1.241717993819978
 21
1.913731519225033
 31
0.0
  0
LINE
  5
184
330
37
100
AcDbEntity
  8
Visible (ANSI)
100
AcDbLine
 10
0.695093203819313
 20
1.823731519224309
 30
0.0
 11
0.695093203819313
 21
1.913731519225033
 31
0.0
  0
LINE
  5
185
330
37
100
AcDbEntity
  8
Visible (ANSI)
100
AcDbLine
 10
0.3417180038188786
 20
1.913731519225033
 30
0.0
 11
0.695093203819313
 21
1.913731519225033
 31
0.0
  0
LINE
  5
186
330
37
100
AcDbEntity
  8
Visible (ANSI)
100
AcDbLine
 10
0.3417180038188786
 20
1.463731519224483
 30
0.0
 11
0.3417180038188786
 21
1.913731519225033
 31
0.0
  0
LINE
  5
187
330
37
100
AcDbEntity
  8
Visible (ANSI)
100
AcDbLine
 10
1.033217993819722
 20
1.463731519224483
 30
0.0
 11
0.3417180038188786
 21
1.463731519224483
 31
0.0
  0
LINE
  5
188
330
37
100
AcDbEntity
  8
Visible (ANSI)
100
AcDbLine
 10
1.033217993819722
 20
1.463731519224483
 30
0.0
 11
1.033217993819722
 21
1.609481519224661
 31
0.0
  0
ARC
  5
189
330
37
100
AcDbEntity
  8
Visible (ANSI)
100
AcDbCircle
 10
1.00246799381969
 20
1.609481519224666
 30
0.0
 40
0.0307500000000311
100
AcDbArc
 50
0.0
 51
90.00000000001046
  0
LINE
  5
18A
330
37
100
AcDbEntity
  8
Visible (ANSI)
100
AcDbLine
 10
1.002467993819685
 20
1.640231519224698
 30
0.0
 11
0.9953422038196789
 21
1.640231519224698
 31
0.0
  0
ARC
  5
18B
330
37
100
AcDbEntity
  8
Visible (ANSI)
100
AcDbCircle
 10
0.9953422038196817
 20
1.649231519224722
 30
0.0
 40
0.009000000000023
100
AcDbArc
 50
231.0575587310405
 51
269.9999999999822
  0
LINE
  5
18C
330
37
100
AcDbEntity
  8
Visible (ANSI)
100
AcDbLine
 10
0.989685349570178
 20
1.642231519224701
 30
0.0
 11
0.9823422038196619
 21
1.642231519224701
 31
0.0
  0
ARC
  5
18D
330
37
100
AcDbEntity
  8
Visible (ANSI)
100
AcDbCircle
 10
0.9823422038196646
 20
1.651231519224715
 30
0.0
 40
0.0090000000000136
100
AcDbArc
 50
217.6698869643311
 51
269.9999999999822
  0
LINE
  5
18E
330
37
100
AcDbEntity
  8
Visible (ANSI)
100
AcDbLine
 10
0.9752183003952657
 20
1.645731519224705
 30
0.0
 11
0.9683422038196464
 21
1.645731519224705
 31
0.0
  0
ARC
  5
18F
330
37
100
AcDbEntity
  8
Visible (ANSI)
100
AcDbCircle
 10
0.9683422038196493
 20
1.654731519224723
 30
0.0
 40
0.0090000000000173
100
AcDbArc
 50
226.2382573073324
 51
269.9999999999822
  0
LINE
  5
190
330
37
100
AcDbEntity
  8
Visible (ANSI)
100
AcDbLine
 10
0.962117254020644
 20
1.648231519224708
 30
0.0
 11
0.9543422038196281
 21
1.648231519224708
 31
0.0
  0
ARC
  5
191
330
37
100
AcDbEntity
  8
Visible (ANSI)
100
AcDbCircle
 10
0.9543422038196281
 20
1.657231519224714
 30
0.0
 40
0.0090000000000059
100
AcDbArc
 50
239.4415682140565
 51
270.0
  0
LINE
  5
192
330
37
100
AcDbEntity
  8
Visible (ANSI)
100
AcDbLine
 10
0.9497664525151931
 20
1.64948151922471
 30
0.0
 11
0.7443422038193707
 21
1.64948151922471
 31
0.0
  0
ARC
  5
193
330
37
100
AcDbEntity
  8
Visible (ANSI)
100
AcDbCircle
 10
0.744342203819368
 20
1.698731519224766
 30
0.0
 40
0.0492500000000559
100
AcDbArc
 50
180.0
 51
270.0000000000033
  0
LINE
  5
194
330
37
100
AcDbEntity
  8
Visible (ANSI)
100
AcDbLine
 10
0.6950922038193113
 20
1.69873151922477
 30
0.0
 11
0.6950922038193113
 21
1.798731519224892
 31
0.0
  0
LINE
  5
195
330
37
100
AcDbEntity
  8
Visible (ANSI)
100
AcDbLine
 10
0.6950922038193113
 20
1.798731519224892
 30
0.0
 11
0.695093203819313
 21
1.823731519224309
 31
0.0
  0
LINE
  5
196
330
37
100
AcDbEntity
  8
Visible (ANSI)
100
AcDbLine
 10
0.695093203819313
 20
1.913731519225027
 30
0.0
 11
0.7135912038193353
 21
1.913731519225027
 31
0.0
  0
LINE
  5
197
330
37
100
AcDbEntity
  8
Visible (ANSI)
100
AcDbLine
 10
1.241717993819978
 20
1.463731519224476
 30
0.0
 11
1.181717993819906
 21
1.463731519224476
 31
0.0
  0
LINE
  5
198
330
37
100
AcDbEntity
  8
Visible (ANSI)
100
AcDbLine
 10
1.181717993819903
 20
1.463731519224453
 30
0.0
 11
1.171417993819895
 21
1.463731519224444
 31
0.0
  0
LINE
  5
199
330
37
100
AcDbEntity
  8
Visible (ANSI)
100
AcDbLine
 10
1.101717993819807
 20
1.463731519224442
 30
0.0
 11
1.083217993819783
 21
1.463731519224453
 31
0.0
  0
LINE
  5
19A
330
37
100
AcDbEntity
  8
Visible (ANSI)
100
AcDbLine
 10
1.083217993819784
 20
1.463731519224483
 30
0.0
 11
1.051717993819747
 21
1.463731519224483
 31
0.0
  0
LINE
  5
19B
330
37
100
AcDbEntity
  8
Visible (ANSI)
100
AcDbLine
 10
1.051717993819747
 20
1.463731519224477
 30
0.0
 11
1.033217993819722
 21
1.463731519224477
 31
0.0
  0
LINE
  5
19C
330
37
100
AcDbEntity
  8
Visible (ANSI)
100
AcDbLine
 10
1.241717993819978
 20
1.48573151922451
 30
0.0
 11
1.241717993819978
 21
1.463731519224476
 31
0.0
  0
LINE
  5
19D
330
37
100
AcDbEntity
  8
Visible (ANSI)
100
AcDbLine
 10
1.051717993819747
 20
1.609481519224661
 30
0.0
 11
1.051717993819747
 21
1.463731519224483
 31
0.0
  0
LINE
  5
19E
330
37
100
AcDbEntity
  8
Visible (ANSI)
100
AcDbLine
 10
1.083217993819784
 20
1.463731519224483
 30
0.0
 11
1.083217993819784
 21
1.482231519224505
 31
0.0
  0
LINE
  5
19F
330
37
100
AcDbEntity
  8
Visible (ANSI)
100
AcDbLine
 10
1.083217993819784
 20
1.482231519224505
 30
0.0
 11
1.101717993819807
 21
1.482231519224505
 31
0.0
  0
LINE
  5
1A0
330
37
100
AcDbEntity
  8
Visible (ANSI)
100
AcDbLine
 10
1.101717993819807
 20
1.482231519224505
 30
0.0
 11
1.101717993819807
 21
1.463731519224483
 31
0.0
  0
LINE
  5
1A1
330
37
100
AcDbEntity
  8
Visible (ANSI)
100
AcDbLine
 10
1.171417993819895
 20
1.463731519224483
 30
0.0
 11
1.101717993819807
 21
1.463731519224483
 31
0.0
  0
LINE
  5
1A2
330
37
100
AcDbEntity
  8
Visible (ANSI)
100
AcDbLine
 10
1.171417993819895
 20
1.463731519224483
 30
0.0
 11
1.171417993819895
 21
1.472231519224493
 31
0.0
  0
LINE
  5
1A3
330
37
100
AcDbEntity
  8
Visible (ANSI)
100
AcDbLine
 10
1.171417993819895
 20
1.472231519224493
 30
0.0
 11
1.166717993819886
 21
1.472231519224493
 31
0.0
  0
ARC
  5
1A4
330
37
100
AcDbEntity
  8
Visible (ANSI)
100
AcDbCircle
 10
1.166717993819883
 20
1.475731519224495
 30
0.0
 40
0.0035000000000017
100
AcDbArc
 50
180.0
 51
270.0000000000458
  0
LINE
  5
1A5
330
37
100
AcDbEntity
  8
Visible (ANSI)
100
AcDbLine
 10
1.16321799381988
 20
1.475731519224497
 30
0.0
 11
1.16321799381988
 21
1.758731519224844
 31
0.0
  0
ARC
  5
1A6
330
37
100
AcDbEntity
  8
Visible (ANSI)
100
AcDbCircle
 10
1.107467993819814
 20
1.758731519224841
 30
0.0
 40
0.0557500000000693
100
AcDbArc
 50
0.0
 51
180.0
  0
LINE
  5
1A7
330
37
100
AcDbEntity
  8
Visible (ANSI)
100
AcDbLine
 10
1.051717993819747
 20
1.758731519224844
 30
0.0
 11
1.051717993819747
 21
1.707981519224781
 31
0.0
  0
ARC
  5
1A8
330
37
100
AcDbEntity
  8
Visible (ANSI)
100
AcDbCircle
 10
1.002467993819688
 20
1.70798151922478
 30
0.0
 40
0.0492500000000566
100
AcDbArc
 50
281.5657063836194
 51
0.0
  0
LINE
  5
1A9
330
37
100
AcDbEntity
  8
Visible (ANSI)
100
AcDbLine
 10
1.012342203819698
 20
1.65973151946435
 30
0.0
 11
1.012342203819698
 21
1.657731518985092
 31
0.0
  0
ARC
  5
1AA
330
37
100
AcDbEntity
  8
Visible (ANSI)
100
AcDbCircle
 10
1.002467993819688
 20
1.609481519224662
 30
0.0
 40
0.0492500000000582
100
AcDbArc
 50
0.0
 51
78.43429361638065
  0
LINE
  5
1AB
330
37
100
AcDbEntity
  8
Visible (ANSI)
100
AcDbLine
 10
1.16321799381988
 20
1.4822315192245
 30
0.0
 11
1.181717993819906
 21
1.4822315192245
 31
0.0
  0
LINE
  5
1AC
330
37
100
AcDbEntity
  8
Visible (ANSI)
100
AcDbLine
 10
1.181717993819906
 20
1.463731519224476
 30
0.0
 11
1.181717993819906
 21
1.485731519224509
 31
0.0
  0
ARC
  5
1AD
330
37
100
AcDbEntity
  8
Visible (ANSI)
100
AcDbCircle
 10
0.9783422038196539
 20
1.831731519224877
 30
0.0
 40
0.0468750000000573
100
AcDbArc
 50
267.1474807601518
 51
184.33679421962
  0
LINE
  5
1AE
330
37
100
AcDbEntity
  8
Visible (ANSI)
100
AcDbLine
 10
1.777449488161123
 20
1.240394089262139
 30
0.0
 11
2.205449488161645
 21
1.240394089262139
 31
0.0
  0
LINE
  5
1AF
330
37
100
AcDbEntity
  8
Visible (ANSI)
100
AcDbLine
 10
1.755449488161096
 20
0.7903940892615909
 30
0.0
 11
2.205449488161645
 21
0.7903940892615909
 31
0.0
  0
LINE
  5
1B0
330
37
100
AcDbEntity
  8
Visible (ANSI)
100
AcDbLine
 10
2.205449488161645
 20
1.240394089262139
 30
0.0
 11
2.205449488161645
 21
0.7903940892615909
 31
0.0
  0
LINE
  5
1B1
330
37
100
AcDbEntity
  8
Visible (ANSI)
100
AcDbLine
 10
1.755449488161096
 20
0.7903940892615909
 30
0.0
 11
1.755449488161096
 21
1.21839408926211
 31
0.0
  0
ARC
  5
1B2
330
37
100
AcDbEntity
  8
Visible (ANSI)
100
AcDbCircle
 10
1.755449488161099
 20
1.240394089262136
 30
0.0
 40
0.0220000000000239
100
AcDbArc
 50
269.9999999999918
 51
0.0
  0
LINE
  5
1B3
330
37
100
AcDbEntity
  8
Visible (ANSI)
100
AcDbLine
 10
1.755449488161075
 20
1.240394089262139
 30
0.0
 11
1.763949488161085
 21
1.240394089262139
 31
0.0
  0
LINE
  5
1B4
330
37
100
AcDbEntity
  8
Visible (ANSI)
100
AcDbLine
 10
1.763949488161084
 20
1.240394089262139
 30
0.0
 11
1.767449488161087
 21
1.240394089262139
 31
0.0
  0
LINE
  5
1B5
330
37
100
AcDbEntity
  8
Visible (ANSI)
100
AcDbLine
 10
1.767449488161087
 20
1.240394089262139
 30
0.0
 11
1.777449488161099
 21
1.240394089262139
 31
0.0
  0
LINE
  5
1B6
330
37
100
AcDbEntity
  8
Visible (ANSI)
100
AcDbLine
 10
1.755449488161075
 20
1.231894089262129
 30
0.0
 11
1.755449488161075
 21
1.240394089262139
 31
0.0
  0
LINE
  5
1B7
330
37
100
AcDbEntity
  8
Visible (ANSI)
100
AcDbLine
 10
1.755449488161072
 20
1.21839408926211
 30
0.0
 11
1.755449488161072
 21
1.228394089262123
 31
0.0
  0
LINE
  5
1B8
330
37
100
AcDbEntity
  8
Visible (ANSI)
100
AcDbLine
 10
1.755449488161072
 20
1.228394089262123
 30
0.0
 11
1.755449488161074
 21
1.231894089262126
 31
0.0
  0
LINE
  5
1B9
330
37
100
AcDbEntity
  8
Visible (ANSI)
100
AcDbLine
 10
1.755449488161075
 20
1.231894089262129
 30
0.0
 11
1.763949488161085
 21
1.231894089262129
 31
0.0
  0
LINE
  5
1BA
330
37
100
AcDbEntity
  8
Visible (ANSI)
100
AcDbLine
 10
1.763949488161085
 20
1.240394089262139
 30
0.0
 11
1.763949488161085
 21
1.231894089262129
 31
0.0
  0
LINE
  5
1BB
330
37
100
AcDbEntity
  8
Visible (ANSI)
100
AcDbLine
 10
1.763949488161084
 20
1.231894089262127
 30
0.0
 11
1.767449488161087
 21
1.228394089262123
 31
0.0
  0
CIRCLE
  5
1BC
330
37
100
AcDbEntity
  8
Visible (ANSI)
100
AcDbCircle
 10
2.085449488161498
 20
0.9103940892617362
 30
0.0
 40
0.0430000000000526
  0
CIRCLE
  5
1BD
330
37
100
AcDbEntity
  8
Visible (ANSI)
100
AcDbCircle
 10
2.085449488161499
 20
0.9103940892617362
 30
0.0
 40
0.0460000000000525
  0
CIRCLE
  5
1BE
330
37
100
AcDbEntity
  8
Visible (ANSI)
100
AcDbCircle
 10
1.954323270036339
 20
1.041520307386897
 30
0.0
 40
0.03475
  0
CIRCLE
  5
1BF
330
37
100
AcDbEntity
  8
Visible (ANSI)
100
AcDbCircle
 10
1.954323270036338
 20
1.041520307386897
 30
0.0
 40
0.03175
  0
CIRCLE
  5
1C0
330
37
100
AcDbEntity
  8
Hidden Narrow (ANSI)
 48
1.066956043243408
100
AcDbCircle
 10
2.085449488161499
 20
0.9103940892617362
 30
0.0
 40
0.0526500000000526
  0
ELLIPSE
  5
1C1
330
37
100
AcDbEntity
  8
Visible (ANSI)
100
AcDbEllipse
 10
2.048082089932203
 20
1.728627259184133
 30
0.0
 11
-0.0222499999999993
 21
0.0
 31
0.0
210
0.0
220
0.0
230
1.0
 40
0.5758617009853085
 41
2.393467717764086
 42
7.03131024300533
  0
ELLIPSE
  5
1C2
330
37
100
AcDbEntity
  8
Visible (ANSI)
100
AcDbEllipse
 10
2.048082089932205
 20
1.729853579871397
 30
0.0
 11
-0.0237500000000006
 21
0.0
 31
0.0
210
0.0
220
0.0
230
1.0
 40
0.5758617009853083
 41
0.0
 42
6.283185307179582
  0
ELLIPSE
  5
1C3
330
37
100
AcDbEntity
  8
Visible (ANSI)
100
AcDbEllipse
 10
2.102531115205926
 20
1.730259737236124
 30
0.0
 11
-0.0250000000000006
 21
0.0
 31
0.0
210
0.0
220
0.0
230
1.0
 40
0.5758617009853082
 41
0.0
 42
6.283185307179582
  0
ELLIPSE
  5
1C4
330
37
100
AcDbEntity
  8
Visible (ANSI)
100
AcDbEllipse
 10
2.102531115205926
 20
1.729033416548861
 30
0.0
 11
-0.0235
 21
0.0
 31
0.0
210
0.0
220
0.0
230
1.0
 40
0.5758617009853082
 41
2.391716496308715
 42
7.033061464460698
  0
ELLIPSE
  5
1C5
330
37
100
AcDbEntity
  8
Visible (ANSI)
100
AcDbEllipse
 10
1.822873971813202
 20
1.597817769084499
 30
0.0
 11
0.0404999999999924
 21
-0.0000000000000023
 31
0.0
210
0.0
220
0.0
230
1.0
 40
0.5758617009853082
 41
2.044333705676912
 42
2.341208078106767
  0
ELLIPSE
  5
1C6
330
37
100
AcDbEntity
  8
Visible (ANSI)
100
AcDbEllipse
 10
1.980551623996178
 20
1.689739030167842
 30
0.0
 11
-0.0222500000000007
 21
0.0
 31
0.0
210
0.0
220
0.0
230
1.0
 40
0.5758617009853083
 41
2.393467717764035
 42
7.031310243005224
  0
ELLIPSE
  5
1C7
330
37
100
AcDbEntity
  8
Visible (ANSI)
100
AcDbEllipse
 10
1.910551624113545
 20
1.730049349169215
 30
0.0
 11
-0.0222500000000007
 21
0.0
 31
0.0
210
0.0
220
0.0
230
1.0
 40
0.5758617009853083
 41
2.393467717764035
 42
7.031310243005224
  0
ELLIPSE
  5
1C8
330
37
100
AcDbEntity
  8
Visible (ANSI)
100
AcDbEllipse
 10
1.822873971813208
 20
1.599044089771759
 30
0.0
 11
-0.039000000000001
 21
-0.0000000000000001
 31
0.0
210
0.0
220
0.0
230
1.0
 40
0.5758617009853085
 41
5.207821006003489
 42
5.747869151596914
  0
ELLIPSE
  5
1C9
330
37
100
AcDbEntity
  8
Visible (ANSI)
100
AcDbEllipse
 10
1.980551623996177
 20
1.690965350855106
 30
0.0
 11
-0.0237500000000006
 21
0.0
 31
0.0
210
0.0
220
0.0
230
1.0
 40
0.5758617009853083
 41
0.0
 42
6.283185307179582
  0
ELLIPSE
  5
1CA
330
37
100
AcDbEntity
  8
Visible (ANSI)
100
AcDbEllipse
 10
1.822873971813207
 20
1.781765872174291
 30
0.0
 11
-0.0237500000000006
 21
0.0
 31
0.0
210
0.0
220
0.0
230
1.0
 40
0.5758617009853083
 41
0.0
 42
6.283185307179582
  0
ELLIPSE
  5
1CB
330
37
100
AcDbEntity
  8
Visible (ANSI)
100
AcDbEllipse
 10
1.928588221045336
 20
1.83042678814172
 30
0.0
 11
-0.0250000000000006
 21
0.0
 31
0.0
210
0.0
220
0.0
230
1.0
 40
0.5758617009853082
 41
0.0
 42
6.283185307179582
  0
ELLIPSE
  5
1CC
330
37
100
AcDbEntity
  8
Visible (ANSI)
100
AcDbEllipse
 10
1.910551624113545
 20
1.731275669856479
 30
0.0
 11
-0.0237500000000006
 21
0.0
 31
0.0
210
0.0
220
0.0
230
1.0
 40
0.5758617009853083
 41
0.0
 42
6.283185307179582
  0
ELLIPSE
  5
1CD
330
37
100
AcDbEntity
  8
Visible (ANSI)
100
AcDbEllipse
 10
1.822873971813208
 20
1.780539551487027
 30
0.0
 11
-0.0222500000000007
 21
0.0
 31
0.0
210
0.0
220
0.0
230
1.0
 40
0.5758617009853083
 41
2.393467717764035
 42
7.031310243005224
  0
ELLIPSE
  5
1CE
330
37
100
AcDbEntity
  8
Visible (ANSI)
100
AcDbEllipse
 10
1.928588221045336
 20
1.829200467454456
 30
0.0
 11
-0.0235
 21
0.0
 31
0.0
210
0.0
220
0.0
230
1.0
 40
0.5758617009853082
 41
2.391716496308715
 42
7.033061464460698
  0
ELLIPSE
  5
1CF
330
37
100
AcDbEntity
  8
Visible (ANSI)
100
AcDbEllipse
 10
1.841610498675235
 20
1.691420973712971
 30
0.0
 11
0.0111034667077529
 21
-0.0192814814542302
 31
0.0
210
0.0
220
0.0
230
1.0
 40
0.5780931159158095
 41
2.387296791169978
 42
7.037481169599383
  0
ELLIPSE
  5
1D0
330
37
100
AcDbEntity
  8
Visible (ANSI)
100
AcDbEllipse
 10
1.911610498557868
 20
1.651110654711599
 30
0.0
 11
0.0111034667077529
 21
-0.0192814814542302
 31
0.0
210
0.0
220
0.0
230
1.0
 40
0.5780931159158095
 41
2.387296791169978
 42
7.037481169599383
  0
ELLIPSE
  5
1D1
330
37
100
AcDbEntity
  8
Visible (ANSI)
100
AcDbEllipse
 10
1.910549838386089
 20
1.65049986114091
 30
0.0
 11
-0.011852015025131
 21
0.0205813566084477
 31
0.0
210
0.0
220
0.0
230
1.0
 40
0.5780931159158098
 41
0.0
 42
6.283185307179389
  0
ELLIPSE
  5
1D2
330
37
100
AcDbEntity
  8
Visible (ANSI)
100
AcDbEllipse
 10
1.840549838503456
 20
1.690810180142283
 30
0.0
 11
-0.011852015025131
 21
0.0205813566084477
 31
0.0
210
0.0
220
0.0
230
1.0
 40
0.5780931159158098
 41
0.0
 42
6.283185307179389
  0
ELLIPSE
  5
1D3
330
37
100
AcDbEntity
  8
Visible (ANSI)
100
AcDbEllipse
 10
1.980908748841713
 20
1.508604951172366
 30
0.0
 11
-0.0114777408664558
 21
0.0199314190313617
 31
0.0
210
0.0
220
0.0
230
1.0
 40
0.5780931159158096
 41
0.0
 42
6.283185307179376
  0
ELLIPSE
  5
1D4
330
37
100
AcDbEntity
  8
Visible (ANSI)
100
AcDbEllipse
 10
1.787873971589057
 20
1.619766286350368
 30
0.0
 11
-0.0127253213954038
 21
0.0220978776217018
 31
0.0
210
0.0
220
0.0
230
1.0
 40
0.5780931159158096
 41
0.0
 42
6.283185307179377
  0
ELLIPSE
  5
1D5
330
37
100
AcDbEntity
  8
Visible (ANSI)
100
AcDbEllipse
 10
1.837366072260647
 20
1.63091671662721
 30
0.0
 11
-0.0124758052896116
 21
0.0216645859036292
 31
0.0
210
0.0
220
0.0
230
1.0
 40
0.5780931159158098
 41
0.0
 42
6.283185307179376
  0
ELLIPSE
  5
1D6
330
37
100
AcDbEntity
  8
Visible (ANSI)
100
AcDbEllipse
 10
1.980908748841713
 20
1.609572021090543
 30
0.0
 11
-0.0124758052896116
 21
0.0216645859036292
 31
0.0
210
0.0
220
0.0
230
1.0
 40
0.5780931159158098
 41
0.0
 42
6.283185307179376
  0
ELLIPSE
  5
1D7
330
37
100
AcDbEntity
  8
Visible (ANSI)
100
AcDbEllipse
 10
1.981969409013492
 20
1.610182814661231
 30
0.0
 11
0.0117272569722332
 21
-0.0203647107494114
 31
0.0
210
0.0
220
0.0
230
1.0
 40
0.5780931159158096
 41
2.385565739418152
 42
7.039212221351196
  0
ELLIPSE
  5
1D8
330
37
100
AcDbEntity
  8
Visible (ANSI)
100
AcDbEllipse
 10
1.981969409013492
 20
1.509215744743055
 30
0.0
 11
0.0107291925490775
 21
-0.0186315438771437
 31
0.0
210
0.0
220
0.0
230
1.0
 40
0.5780931159158095
 41
2.388430511570789
 42
7.036347449198573
  0
ELLIPSE
  5
1D9
330
37
100
AcDbEntity
  8
Visible (ANSI)
100
AcDbEllipse
 10
1.838426732432427
 20
1.631527510197899
 30
0.0
 11
0.0117272569722332
 21
-0.0203647107494114
 31
0.0
210
0.0
220
0.0
230
1.0
 40
0.5780931159158096
 41
2.385565739418152
 42
7.039212221351196
  0
ELLIPSE
  5
1DA
330
37
100
AcDbEntity
  8
Visible (ANSI)
100
AcDbEllipse
 10
1.788934631760837
 20
1.620377079921057
 30
0.0
 11
0.0119767730780254
 21
-0.0207980024674839
 31
0.0
210
0.0
220
0.0
230
1.0
 40
0.5780931159158096
 41
2.384923089398249
 42
7.039854871371038
  0
ELLIPSE
  5
1DB
330
37
100
AcDbEntity
  8
Visible (ANSI)
100
AcDbEllipse
 10
2.181152829746397
 20
1.534615790243172
 30
0.0
 11
0.0107291925490733
 21
0.0186315438771473
 31
0.0
210
0.0
220
0.0
230
0.9999999999999998
 40
0.5780931159156437
 41
2.388430511572043
 42
7.0363474491974
  0
ELLIPSE
  5
1DC
330
37
100
AcDbEntity
  8
Visible (ANSI)
100
AcDbEllipse
 10
2.182213489918177
 20
1.534004996672484
 30
0.0
 11
-0.0114777408664481
 21
-0.0199314190313654
 31
0.0
210
0.0
220
0.0
230
1.0
 40
0.5780931159156437
 41
0.0
 42
6.283185307179386
  0
ELLIPSE
  5
1DD
330
37
100
AcDbEntity
  8
Visible (ANSI)
100
AcDbEllipse
 10
2.13585337090436
 20
1.560908910989149
 30
0.0
 11
-0.0086706846762743
 21
-0.0150568872030252
 31
0.0
210
0.0
220
0.0
230
0.9999999999999998
 40
0.5780931159156437
 41
0.0
 42
6.283185307179369
  0
ELLIPSE
  5
1DE
330
37
100
AcDbEntity
  8
Visible (ANSI)
100
AcDbEllipse
 10
2.13479271073258
 20
1.561519704559837
 30
0.0
 11
0.007922136358899
 21
0.0137570120488069
 31
0.0
210
0.0
220
0.0
230
1.0
 40
0.5780931159156437
 41
2.400276132138452
 42
7.02450182863086
  0
LINE
  5
1DF
330
37
100
AcDbEntity
  8
Visible (ANSI)
100
AcDbLine
 10
2.037918879521519
 20
1.800857497712808
 30
0.0
 11
2.006099074367873
 21
1.782533690592003
 31
0.0
  0
LINE
  5
1E0
330
37
100
AcDbEntity
  8
Visible (ANSI)
100
AcDbLine
 10
2.006099074367873
 20
1.782533690592003
 30
0.0
 11
1.997260593156639
 21
1.77744354057186
 31
0.0
  0
LINE
  5
1E1
330
37
100
AcDbEntity
  8
Visible (ANSI)
100
AcDbLine
 10
1.997260593156639
 20
1.77744354057186
 30
0.0
 11
1.961905254097274
 21
1.757083754882215
 31
0.0
  0
ELLIPSE
  5
1E2
330
37
100
AcDbEntity
  8
Visible (ANSI)
100
AcDbEllipse
 10
1.97277702085803
 20
1.750823120782651
 30
0.0
 11
-0.0153750000000183
 21
0.0
 31
0.0
210
0.0
220
0.0
230
1.0
 40
0.5758617009853082
 41
5.497787143782185
 42
7.068583470577161
  0
LINE
  5
1E3
330
37
100
AcDbEntity
  8
Visible (ANSI)
100
AcDbLine
 10
1.961905254097277
 20
1.744562486683086
 30
0.0
 11
2.034533693733771
 21
1.702738549894117
 31
0.0
  0
ELLIPSE
  5
1E4
330
37
100
AcDbEntity
  8
Visible (ANSI)
100
AcDbEllipse
 10
2.033411427344867
 20
1.700229053343898
 30
0.0
 11
0.0045000000000032
 21
0.0
 31
0.0
210
0.0
220
0.0
230
1.0
 40
0.5758617009853083
 41
0.7853981633976126
 42
1.318743412308378
  0
LINE
  5
1E5
330
37
100
AcDbEntity
  8
Visible (ANSI)
100
AcDbLine
 10
2.036593407860208
 20
1.702061434055965
 30
0.0
 11
2.039342303220811
 21
1.700478450497778
 31
0.0
  0
ELLIPSE
  5
1E6
330
37
100
AcDbEntity
  8
Visible (ANSI)
100
AcDbEllipse
 10
2.039245058289661
 20
1.697887677989587
 30
0.0
 11
0.004500000000009
 21
0.0
 31
0.0
210
0.0
220
0.0
230
1.0
 40
0.5758617009853083
 41
0.7853981633978826
 42
1.549184659795209
  0
LINE
  5
1E7
330
37
100
AcDbEntity
  8
Visible (ANSI)
100
AcDbLine
 10
2.042427038805005
 20
1.699720058701656
 30
0.0
 11
2.044858106063363
 21
1.698320100175049
 31
0.0
  0
ELLIPSE
  5
1E8
330
37
100
AcDbEntity
  8
Visible (ANSI)
100
AcDbEllipse
 10
2.045432242625052
 20
1.695749900492176
 30
0.0
 11
0.0045000000000073
 21
0.0
 31
0.0
210
0.0
220
0.0
230
1.0
 40
0.5758617009853085
 41
0.785398163397856
 42
1.698730933810804
  0
LINE
  5
1E9
330
37
100
AcDbEntity
  8
Visible (ANSI)
100
AcDbLine
 10
2.048614223140395
 20
1.697582281204245
 30
0.0
 11
2.05121041721811
 21
1.696087232466565
 31
0.0
  0
ELLIPSE
  5
1EA
330
37
100
AcDbEntity
  8
Visible (ANSI)
100
AcDbEllipse
 10
2.050735543483955
 20
1.693510324066314
 30
0.0
 11
0.0045000000000113
 21
0.0
 31
0.0
210
0.0
220
0.0
230
1.0
 40
0.5758617009853083
 41
0.7853981633978933
 42
1.465071982305475
  0
LINE
  5
1EB
330
37
100
AcDbEntity
  8
Visible (ANSI)
100
AcDbLine
 10
2.053917523999301
 20
1.695342704778385
 30
0.0
 11
2.05643687121446
 21
1.693891909205692
 31
0.0
  0
ELLIPSE
  5
1EC
330
37
100
AcDbEntity
  8
Visible (ANSI)
100
AcDbEllipse
 10
2.067308637975215
 20
1.700152543305255
 30
0.0
 11
0.0153750000000162
 21
0.0000000000000009
 31
0.0
210
0.0
220
0.0
230
1.0
 40
0.5758617009853083
 41
3.926990816986979
 42
5.497787143782196
  0
LINE
  5
1ED
330
37
100
AcDbEntity
  8
Visible (ANSI)
100
AcDbLine
 10
2.078180404735972
 20
1.693891909205694
 30
0.0
 11
2.0961232393086
 21
1.704224500443188
 31
0.0
  0
ELLIPSE
  5
1EE
330
37
100
AcDbEntity
  8
Visible (ANSI)
100
AcDbEllipse
 10
2.122374578560186
 20
1.689107359568631
 30
0.0
 11
0.0371250000000461
 21
-0.0000000000000022
 31
0.0
210
0.0
220
0.0
230
1.0
 40
0.5758617009853083
 41
5.497787143782511
 42
8.639379797372304
  0
LINE
  5
1EF
330
37
100
AcDbEntity
  8
Visible (ANSI)
100
AcDbLine
 10
2.148625917811774
 20
1.673990218694075
 30
0.0
 11
2.052105842179706
 21
1.618408003761345
 31
0.0
  0
LINE
  5
1F0
330
37
100
AcDbEntity
  8
Visible (ANSI)
100
AcDbLine
 10
2.052105842179706
 20
1.618408003761345
 30
0.0
 11
2.073319045615331
 21
1.606192132347562
 31
0.0
  0
LINE
  5
1F1
330
37
100
AcDbEntity
  8
Visible (ANSI)
100
AcDbLine
 10
2.073319045615331
 20
1.606192132347562
 30
0.0
 11
2.224639896789416
 21
1.693332015099241
 31
0.0
  0
LINE
  5
1F2
330
37
100
AcDbEntity
  8
Visible (ANSI)
100
AcDbLine
 10
2.037918879521519
 20
1.800857497712808
 30
0.0
 11
2.224639896789416
 21
1.693332015099241
 31
0.0
  0
LINE
  5
1F3
330
37
100
AcDbEntity
  8
Visible (ANSI)
100
AcDbLine
 10
2.065540871022272
 20
1.417764876406045
 30
0.0
 11
2.224639896789416
 21
1.509383912009445
 31
0.0
  0
LINE
  5
1F4
330
37
100
AcDbEntity
  8
Visible (ANSI)
100
AcDbLine
 10
1.747342823023424
 20
1.601002945576812
 30
0.0
 11
2.065540871022272
 21
1.417764876406045
 31
0.0
  0
LINE
  5
1F5
330
37
100
AcDbEntity
  8
Visible (ANSI)
100
AcDbLine
 10
1.99955904374867
 20
1.786299843748872
 30
0.0
 11
2.031378848902316
 21
1.804623650869677
 31
0.0
  0
LINE
  5
1F6
330
37
100
AcDbEntity
  8
Visible (ANSI)
100
AcDbLine
 10
1.906441848790568
 20
1.876570084270009
 30
0.0
 11
2.031378848902316
 21
1.804623650869677
 31
0.0
  0
LINE
  5
1F7
330
37
100
AcDbEntity
  8
Visible (ANSI)
100
AcDbLine
 10
1.747342823023423
 20
1.784951048666608
 30
0.0
 11
1.906441848790568
 21
1.876570084270009
 31
0.0
  0
LINE
  5
1F8
330
37
100
AcDbEntity
  8
Visible (ANSI)
100
AcDbLine
 10
1.991824989083472
 20
1.644163132658737
 30
0.0
 11
1.747342823023423
 21
1.784951048666608
 31
0.0
  0
LINE
  5
1F9
330
37
100
AcDbEntity
  8
Visible (ANSI)
100
AcDbLine
 10
1.991824989083472
 20
1.644163132658737
 30
0.0
 11
2.043355395762497
 21
1.673837520301394
 31
0.0
  0
ELLIPSE
  5
1FA
330
37
100
AcDbEntity
  8
Visible (ANSI)
100
AcDbEllipse
 10
2.032483629001744
 20
1.680098154400957
 30
0.0
 11
0.0153750000000155
 21
0.0
 31
0.0
210
0.0
220
0.0
230
1.0
 40
0.5758617009853083
 41
5.497787143782113
 42
7.068583470577355
  0
LINE
  5
1FB
330
37
100
AcDbEntity
  8
Visible (ANSI)
100
AcDbLine
 10
2.043355395762495
 20
1.686358788500523
 30
0.0
 11
2.040836048547336
 21
1.687809584073217
 31
0.0
  0
ELLIPSE
  5
1FC
330
37
100
AcDbEntity
  8
Visible (ANSI)
100
AcDbEllipse
 10
2.044018029062684
 20
1.689641964785286
 30
0.0
 11
-0.0045000000000115
 21
0.0
 31
0.0
210
0.0
220
0.0
230
1.0
 40
0.5758617009853083
 41
0.1057243444897082
 42
0.7853981633972778
  0
LINE
  5
1FD
330
37
100
AcDbEntity
  8
Visible (ANSI)
100
AcDbLine
 10
2.03954315532852
 20
1.689368503188982
 30
0.0
 11
2.036946961250804
 21
1.690863551926662
 31
0.0
  0
ELLIPSE
  5
1FE
330
37
100
AcDbEntity
  8
Visible (ANSI)
100
AcDbEllipse
 10
2.040128941766149
 20
1.692695932638731
 30
0.0
 11
-0.0045000000000068
 21
0.0
 31
0.0
210
0.0
220
0.0
230
1.0
 40
0.5758617009853082
 41
6.155250700164014
 42
7.068583470576935
  0
LINE
  5
1FF
330
37
100
AcDbEntity
  8
Visible (ANSI)
100
AcDbLine
 10
2.035665717907928
 20
1.693026555895742
 30
0.0
 11
2.03323465064957
 21
1.694426514422349
 31
0.0
  0
ELLIPSE
  5
200
330
37
100
AcDbEntity
  8
Visible (ANSI)
100
AcDbEllipse
 10
2.036416631164916
 20
1.696258895134417
 30
0.0
 11
-0.0045000000000086
 21
0.0
 31
0.0
210
0.0
220
0.0
230
1.0
 40
0.5758617009853083
 41
0.0216116670000899
 42
0.7853981633973213
  0
LINE
  5
201
330
37
100
AcDbEntity
  8
Visible (ANSI)
100
AcDbLine
 10
2.031917682018344
 20
1.696202895502953
 30
0.0
 11
2.029168786657741
 21
1.69778587906114
 31
0.0
  0
ELLIPSE
  5
202
330
37
100
AcDbEntity
  8
Visible (ANSI)
100
AcDbEllipse
 10
2.032350767173082
 20
1.699618259773207
 30
0.0
 11
-0.004500000000003
 21
0.0
 31
0.0
210
0.0
220
0.0
230
1.0
 40
0.5758617009853082
 41
0.2520529144867751
 42
0.7853981633976135
  0
LINE
  5
203
330
37
100
AcDbEntity
  8
Visible (ANSI)
100
AcDbLine
 10
2.027992956007788
 20
1.698971989541532
 30
0.0
 11
1.955364516371294
 21
1.740795926330501
 31
0.0
  0
ELLIPSE
  5
204
330
37
100
AcDbEntity
  8
Visible (ANSI)
100
AcDbEllipse
 10
1.972777020858029
 20
1.750823120782651
 30
0.0
 11
-0.0246250000000279
 21
0.0
 31
0.0
210
0.0
220
0.0
230
1.0
 40
0.5758617009853083
 41
5.497787143782177
 42
7.068583470577232
  0
LINE
  5
205
330
37
100
AcDbEntity
  8
Visible (ANSI)
100
AcDbLine
 10
1.955364516371289
 20
1.760850315234798
 30
0.0
 11
1.990719855430654
 21
1.781210100924443
 31
0.0
  0
LINE
  5
206
330
37
100
AcDbEntity
  8
Visible (ANSI)
100
AcDbLine
 10
1.990719855430654
 20
1.781210100924443
 30
0.0
 11
1.99955904374867
 21
1.786299843748872
 31
0.0
  0
LINE
  5
207
330
37
100
AcDbEntity
  8
Visible (ANSI)
100
AcDbLine
 10
2.031378848902316
 20
1.804623650869677
 30
0.0
 11
2.031378848902316
 21
1.797091344555936
 31
0.0
  0
LINE
  5
208
330
37
100
AcDbEntity
  8
Visible (ANSI)
100
AcDbLine
 10
2.224639896789416
 20
1.693332015099241
 30
0.0
 11
2.224639896789416
 21
1.509383912009445
 31
0.0
  0
LINE
  5
209
330
37
100
AcDbEntity
  8
Visible (ANSI)
100
AcDbLine
 10
1.991824989083472
 20
1.636600821753935
 30
0.0
 11
1.991824989083472
 21
1.644163132658737
 31
0.0
  0
LINE
  5
20A
330
37
100
AcDbEntity
  8
Visible (ANSI)
100
AcDbLine
 10
1.747342823023423
 20
1.784951048666608
 30
0.0
 11
1.747342823023424
 21
1.601002945576812
 31
0.0
  0
LINE
  5
20B
330
37
100
AcDbEntity
  8
Visible (ANSI)
100
AcDbLine
 10
2.065540871022272
 20
1.417764876406045
 30
0.0
 11
2.065540871022271
 21
1.592719961122562
 31
0.0
  0
LINE
  5
20C
330
37
100
AcDbEntity
  8
Visible (ANSI)
100
AcDbLine
 10
2.065540871022271
 20
1.592719961122562
 30
0.0
 11
2.044327667586645
 21
1.604935832536344
 31
0.0
  0
LINE
  5
20D
330
37
100
AcDbEntity
  8
Visible (ANSI)
100
AcDbLine
 10
2.044327667586645
 20
1.604935832536344
 30
0.0
 11
2.044327667586645
 21
1.573051494667447
 31
0.0
  0
ELLIPSE
  5
20E
330
37
100
AcDbEntity
  8
Visible (ANSI)
100
AcDbEllipse
 10
2.026915163099903
 20
1.583078689119593
 30
0.0
 11
0.0122886682102807
 21
-0.0213396171151007
 31
0.0
210
0.0
220
0.0
230
1.0
 40
0.5780931159158096
 41
3.928924525410189
 42
7.070517178999982
  0
LINE
  5
20F
330
37
100
AcDbEntity
  8
Visible (ANSI)
100
AcDbLine
 10
2.00950265861316
 20
1.593105883571741
 30
0.0
 11
2.00950265861316
 21
1.633983239813918
 31
0.0
  0
LINE
  5
210
330
37
100
AcDbEntity
  8
Visible (ANSI)
100
AcDbLine
 10
2.00950265861316
 20
1.633983239813918
 30
0.0
 11
1.998365726809457
 21
1.640396572306153
 31
0.0
  0
LINE
  5
211
330
37
100
AcDbEntity
  8
Visible (ANSI)
100
AcDbLine
 10
1.998365726809457
 20
1.640396572306153
 30
0.0
 11
1.998365726809457
 21
1.632834261401352
 31
0.0
  0
LINE
  5
212
330
37
100
AcDbEntity
  8
Visible (ANSI)
100
AcDbLine
 10
1.998365726809457
 20
1.632834261401352
 30
0.0
 11
1.991824989083472
 21
1.636600821753935
 31
0.0
  0
ELLIPSE
  5
213
330
37
100
AcDbEntity
  8
Visible (ANSI)
100
AcDbEllipse
 10
2.065540871022272
 20
1.601712979495841
 30
0.0
 11
-0.0054893543274325
 21
-0.0095324177976084
 31
0.0
210
0.0
220
0.0
230
1.0
 40
0.5780931159156435
 41
0.7834644549745385
 42
2.354260781769706
  0
LINE
  5
214
330
37
100
AcDbEntity
  8
Visible (ANSI)
100
AcDbLine
 10
2.049896133488483
 20
1.670070959948811
 30
0.0
 11
1.998365726809457
 21
1.640396572306153
 31
0.0
  0
LINE
  5
215
330
37
100
AcDbEntity
  8
Visible (ANSI)
100
AcDbLine
 10
2.00950265861316
 20
1.633983239813918
 30
0.0
 11
2.016043396339143
 21
1.637749800166502
 31
0.0
  0
LINE
  5
216
330
37
100
AcDbEntity
  8
Visible (ANSI)
100
AcDbLine
 10
2.016043396339143
 20
1.637749800166502
 30
0.0
 11
2.022584134065128
 21
1.633983239813919
 31
0.0
  0
LINE
  5
217
330
37
100
AcDbEntity
  8
Visible (ANSI)
100
AcDbLine
 10
2.022584134065128
 20
1.633983239813919
 30
0.0
 11
2.016043396339145
 21
1.630216679461335
 31
0.0
  0
LINE
  5
218
330
37
100
AcDbEntity
  8
Visible (ANSI)
100
AcDbLine
 10
2.040686067663531
 20
1.616025908835656
 30
0.0
 11
2.016043396339145
 21
1.630216679461335
 31
0.0
  0
LINE
  5
219
330
37
100
AcDbEntity
  8
Visible (ANSI)
100
AcDbLine
 10
2.040686067663531
 20
1.616025908835656
 30
0.0
 11
2.043691271483577
 21
1.617756490619276
 31
0.0
  0
LINE
  5
21A
330
37
100
AcDbEntity
  8
Visible (ANSI)
100
AcDbLine
 10
2.043691271483577
 20
1.617756490619276
 30
0.0
 11
2.042029570547785
 21
1.61871340054669
 31
0.0
  0
ELLIPSE
  5
21B
330
37
100
AcDbEntity
  8
Visible (ANSI)
100
AcDbEllipse
 10
2.043267007414861
 20
1.619425993045827
 30
0.0
 11
-0.0017500000000009
 21
0.0
 31
0.0
210
0.0
220
0.0
230
1.0
 40
0.5758617009853085
 41
5.497787143781327
 42
7.068583470577841
  0
LINE
  5
21C
330
37
100
AcDbEntity
  8
Visible (ANSI)
100
AcDbLine
 10
2.042029570547784
 20
1.620138585544965
 30
0.0
 11
2.142085180085788
 21
1.677756779046659
 31
0.0
  0
ELLIPSE
  5
21D
330
37
100
AcDbEntity
  8
Visible (ANSI)
100
AcDbEllipse
 10
2.122374578560186
 20
1.689107359568631
 30
0.0
 11
0.0278750000000347
 21
0.0
 31
0.0
210
0.0
220
0.0
230
1.0
 40
0.5758617009853085
 41
5.497787143782334
 42
8.639379797372127
  0
LINE
  5
21E
330
37
100
AcDbEntity
  8
Visible (ANSI)
100
AcDbLine
 10
2.102663977034585
 20
1.700457940090605
 30
0.0
 11
2.084721142461958
 21
1.69012534885311
 31
0.0
  0
ELLIPSE
  5
21F
330
37
100
AcDbEntity
  8
Visible (ANSI)
100
AcDbEllipse
 10
2.067308637975215
 20
1.700152543305256
 30
0.0
 11
-0.0246250000000283
 21
0.0000000000000014
 31
0.0
210
0.0
220
0.0
230
1.0
 40
0.5758617009853082
 41
0.9872578201108588
 42
2.356194490192745
  0
LINE
  5
220
330
37
100
AcDbEntity
  8
Visible (ANSI)
100
AcDbLine
 10
2.053740747388727
 20
1.688318578764247
 30
0.0
 11
2.053033640438097
 21
1.687911382952878
 31
0.0
  0
ELLIPSE
  5
221
330
37
100
AcDbEntity
  8
Visible (ANSI)
100
AcDbEllipse
 10
2.032483629001741
 20
1.680098154400957
 30
0.0
 11
0.0246250000000291
 21
0.0
 31
0.0
210
0.0
220
0.0
230
1.0
 40
0.5758617009853082
 41
5.497787143782254
 42
6.866723813864099
  0
LINE
  5
222
330
37
100
AcDbEntity
  8
Visible (ANSI)
100
AcDbLine
 10
2.040686067663531
 20
1.612551333555072
 30
0.0
 11
2.040686067663531
 21
1.616025908835656
 31
0.0
  0
LINE
  5
223
330
37
100
AcDbEntity
  8
Visible (ANSI)
100
AcDbLine
 10
2.016043396339145
 20
1.630216679461335
 30
0.0
 11
2.016043396339145
 21
1.589339323219158
 31
0.0
  0
ELLIPSE
  5
224
330
37
100
AcDbEntity
  8
Visible (ANSI)
100
AcDbEllipse
 10
2.026915163099903
 20
1.583078689119594
 30
0.0
 11
0.0076726202531201
 21
-0.0133237203307475
 31
0.0
210
0.0
220
0.0
230
1.0
 40
0.5780931159158096
 41
3.928924525409899
 42
7.070517178999692
  0
LINE
  5
225
330
37
100
AcDbEntity
  8
Visible (ANSI)
100
AcDbLine
 10
2.03778692986066
 20
1.576818055020031
 30
0.0
 11
2.03778692986066
 21
1.612790128513146
 31
0.0
  0
ELLIPSE
  5
226
330
37
100
AcDbEntity
  8
Visible (ANSI)
100
AcDbEllipse
 10
2.039024366727738
 20
1.61207753601401
 30
0.0
 11
-0.0008733063702728
 21
0.0015165210132542
 31
0.0
210
0.0
220
0.0
230
1.0
 40
0.5780931159158096
 41
5.49972085220418
 42
7.070517179000723
  0
LINE
  5
227
330
37
100
AcDbEntity
  8
Visible (ANSI)
100
AcDbLine
 10
2.039024366727739
 20
1.613508243482485
 30
0.0
 11
2.040686067663531
 21
1.612551333555072
 31
0.0
  0
ELLIPSE
  5
228
330
37
100
AcDbEntity
  8
Visible (ANSI)
100
AcDbEllipse
 10
2.033455900825886
 20
1.586845249472179
 30
0.0
 11
0.0076726202531193
 21
-0.013323720330748
 31
0.0
210
0.0
220
0.0
230
1.0
 40
0.5780931159158095
 41
0.0
 42
0.7873318718203333
  0
LINE
  5
229
330
37
100
AcDbEntity
  8
Visible Narrow (ANSI)
100
AcDbLine
 10
2.03778692986066
 20
1.576818055020031
 30
0.0
 11
2.044327667586643
 21
1.580584615372615
 31
0.0
  0
LINE
  5
22A
330
37
100
AcDbEntity
  8
Visible Narrow (ANSI)
100
AcDbLine
 10
2.042029570547784
 20
1.620138585544965
 30
0.0
 11
2.042029570547784
 21
1.61871340054669
 31
0.0
  0
LINE
  5
22B
330
37
100
AcDbEntity
  8
Visible Narrow (ANSI)
100
AcDbLine
 10
2.03778692986066
 20
1.612790128513146
 30
0.0
 11
2.03902916168996
 21
1.613505482247385
 31
0.0
  0
LINE
  5
22C
330
37
100
AcDbEntity
  8
Visible (ANSI)
100
AcDbLine
 10
2.044327667586643
 20
1.604935832536345
 30
0.0
 11
2.044327667586643
 21
1.61389966070999
 31
0.0
  0
LINE
  5
22D
330
37
100
AcDbEntity
  8
Visible (ANSI)
100
AcDbLine
 10
2.044327667586643
 20
1.61389966070999
 30
0.0
 11
2.052105801205362
 21
1.618378789966157
 31
0.0
  0
LINE
  5
22E
330
37
100
AcDbEntity
  8
Visible Narrow (ANSI)
100
AcDbLine
 10
2.142085180085788
 20
1.670223658341488
 30
0.0
 11
2.142085180085788
 21
1.677756779046659
 31
0.0
  0
LINE
  5
22F
330
37
100
AcDbEntity
  8
Visible (ANSI)
100
AcDbLine
 10
1.991824989083472
 20
1.636600821753935
 30
0.0
 11
1.998365726809458
 21
1.640367382106521
 31
0.0
  0
LINE
  5
230
330
37
100
AcDbEntity
  8
Visible Narrow (ANSI)
100
AcDbLine
 10
2.043355395762497
 20
1.673837520301394
 30
0.0
 11
2.043355395762497
 21
1.666304399596223
 31
0.0
  0
ELLIPSE
  5
231
330
37
100
AcDbEntity
  8
Visible (ANSI)
100
AcDbEllipse
 10
2.032483629001732
 20
1.672535843496154
 30
0.0
 11
0.0246250000000387
 21
0.0
 31
0.0
210
0.0
220
0.0
230
1.0
 40
0.5758617009853085
 41
0.2699081832258827
 42
0.5835385066844125
  0
ELLIPSE
  5
232
330
37
100
AcDbEntity
  8
Visible (ANSI)
100
AcDbEllipse
 10
2.122374578560188
 20
1.681545048663829
 30
0.0
 11
0.0278750000000331
 21
0.0000000000000011
 31
0.0
210
0.0
220
0.0
230
1.0
 40
0.5758617009853085
 41
5.548504434163209
 42
6.28318530717929
  0
LINE
  5
233
330
37
100
AcDbEntity
  8
Visible (ANSI)
100
AcDbLine
 10
2.044327667586643
 20
1.61389966070999
 30
0.0
 11
2.049825654731932
 21
1.610733580480509
 31
0.0
  0
ELLIPSE
  5
234
330
37
100
AcDbEntity
  8
Visible (ANSI)
100
AcDbEllipse
 10
2.122374578560184
 20
1.681545048663828
 30
0.0
 11
0.0371250000000492
 21
0.0000000000000001
 31
0.0
210
0.0
220
0.0
230
1.0
 40
0.5758617009853083
 41
0.1777994818270763
 42
0.9165237544497202
  0
ELLIPSE
  5
235
330
37
100
AcDbEntity
  8
Visible (ANSI)
100
AcDbEllipse
 10
2.050735543483956
 20
1.68594801316151
 30
0.0
 11
-0.0045000000000146
 21
-0.0000000000000003
 31
0.0
210
0.0
220
0.0
230
1.0
 40
0.5758617009853083
 41
4.102522595091773
 42
4.606664635895302
  0
LINE
  5
236
330
37
100
AcDbEntity
  8
Visible (ANSI)
100
AcDbLine
 10
2.05121041721811
 20
1.688524921561763
 30
0.0
 11
2.048614223140395
 21
1.690019970299443
 31
0.0
  0
ELLIPSE
  5
237
330
37
100
AcDbEntity
  8
Visible (ANSI)
100
AcDbEllipse
 10
2.045432242625052
 20
1.688187589587375
 30
0.0
 11
-0.0045000000000068
 21
-0.0000000000000003
 31
0.0
210
0.0
220
0.0
230
1.0
 40
0.5758617009853083
 41
3.92699081698753
 42
4.840323587400481
  0
LINE
  5
238
330
37
100
AcDbEntity
  8
Visible (ANSI)
100
AcDbLine
 10
2.044858106063363
 20
1.690757789270247
 30
0.0
 11
2.042427038805005
 21
1.692157747796855
 31
0.0
  0
ELLIPSE
  5
239
330
37
100
AcDbEntity
  8
Visible (ANSI)
100
AcDbEllipse
 10
2.039245058289661
 20
1.690325367084785
 30
0.0
 11
-0.0045000000000087
 21
-0.0000000000000003
 31
0.0
210
0.0
220
0.0
230
1.0
 40
0.5758617009853085
 41
3.926990816987501
 42
4.690777313384808
  0
LINE
  5
23A
330
37
100
AcDbEntity
  8
Visible (ANSI)
100
AcDbLine
 10
2.039342303220811
 20
1.692916139592976
 30
0.0
 11
2.036593407860208
 21
1.694499123151163
 31
0.0
  0
ELLIPSE
  5
23B
330
37
100
AcDbEntity
  8
Visible (ANSI)
100
AcDbEllipse
 10
2.033411427344867
 20
1.692666742439096
 30
0.0
 11
-0.0045000000000033
 21
-0.0000000000000003
 31
0.0
210
0.0
220
0.0
230
1.0
 40
0.5758617009853083
 41
3.926990816987178
 42
4.460336065898045
  0
LINE
  5
23C
330
37
100
AcDbEntity
  8
Visible (ANSI)
100
AcDbLine
 10
2.034533693733771
 20
1.695176238989315
 30
0.0
 11
2.028011327157738
 21
1.698932220100239
 31
0.0
  0
ELLIPSE
  5
23D
330
37
100
AcDbEntity
  8
Visible (ANSI)
100
AcDbEllipse
 10
1.972777020858034
 20
1.743260809877849
 30
0.0
 11
-0.0153750000000202
 21
0.0
 31
0.0
210
0.0
220
0.0
230
1.0
 40
0.5758617009853083
 41
0.0
 42
0.7171023977370208
  0
LINE
  5
23E
330
37
100
AcDbEntity
  8
Visible (ANSI)
100
AcDbLine
 10
1.955364516371289
 20
1.753288004329996
 30
0.0
 11
1.961188680333168
 21
1.756641917295902
 31
0.0
  0
ELLIPSE
  5
23F
330
37
100
AcDbEntity
  8
Visible (ANSI)
100
AcDbEllipse
 10
1.972777020858029
 20
1.74326080987785
 30
0.0
 11
-0.0246250000000268
 21
0.0
 31
0.0
210
0.0
220
0.0
230
1.0
 40
0.5758617009853086
 41
5.49778714378222
 42
6.013277123953793
  0
ELLIPSE
  5
240
330
37
100
AcDbEntity
  8
Visible (ANSI)
100
AcDbEllipse
 10
2.032483629001739
 20
1.672535843496155
 30
0.0
 11
0.0153750000000193
 21
0.0
 31
0.0
210
0.0
220
0.0
230
1.0
 40
0.5758617009853083
 41
5.566082909439265
 42
6.283185307179583
  0
LINE
  5
241
330
37
100
AcDbEntity
  8
Visible (ANSI)
100
AcDbLine
 10
2.053033640438097
 20
1.687911382952878
 30
0.0
 11
2.053033640438097
 21
1.680349072048076
 31
0.0
  0
LINE
  5
242
330
37
100
AcDbEntity
  8
Visible Narrow (ANSI)
100
AcDbLine
 10
1.955364516371289
 20
1.760850315234798
 30
0.0
 11
1.955364516371289
 21
1.753288004329996
 31
0.0
  0
LINE
  5
243
330
37
100
AcDbEntity
  8
Visible (ANSI)
100
AcDbLine
 10
2.035665717907928
 20
1.692365309381719
 30
0.0
 11
2.035665717907928
 21
1.693026555895742
 31
0.0
  0
LINE
  5
244
330
37
100
AcDbEntity
  8
Visible (ANSI)
100
AcDbLine
 10
2.040686067663531
 20
1.612551333555072
 30
0.0
 11
2.043691271483577
 21
1.614281915338692
 31
0.0
  0
LINE
  5
245
330
37
100
AcDbEntity
  8
Visible (ANSI)
100
AcDbLine
 10
2.043691271483577
 20
1.617756490619276
 30
0.0
 11
2.043691271483577
 21
1.614281915338692
 31
0.0
  0
LINE
  5
246
330
37
100
AcDbEntity
  8
Visible (ANSI)
100
AcDbLine
 10
2.016043396339143
 20
1.630216679461336
 30
0.0
 11
2.016043396339143
 21
1.637749800166502
 31
0.0
  0
ELLIPSE
  5
247
330
37
100
AcDbEntity
  8
Visible (ANSI)
100
AcDbEllipse
 10
2.033455900825884
 20
1.586845249472187
 30
0.0
 11
0.012288668210285
 21
-0.0213396171151082
 31
0.0
210
0.0
220
0.0
230
1.0
 40
0.5780931159158096
 41
5.284959686257588
 42
6.014876035423164
  0
LINE
  5
248
330
37
100
AcDbEntity
  8
Visible Narrow (ANSI)
100
AcDbLine
 10
2.00950265861316
 20
1.593105883571741
 30
0.0
 11
2.016043396339143
 21
1.596872443924326
 31
0.0
  0
ELLIPSE
  5
249
330
37
100
AcDbEntity
  8
Visible (ANSI)
100
AcDbEllipse
 10
2.044327667586647
 20
1.613928850909624
 30
0.0
 11
0.0054893543274312
 21
0.0095324177976087
 31
0.0
210
0.0
220
0.0
230
1.0
 40
0.5780931159156435
 41
3.925057108563851
 42
5.495853435358984
  0
LINE
  5
24A
330
37
100
AcDbEntity
  8
Visible Narrow (ANSI)
100
AcDbLine
 10
2.0961232393086
 20
1.696691379738019
 30
0.0
 11
2.0961232393086
 21
1.704224500443188
 31
0.0
  0
LINE
  5
24B
330
37
100
AcDbEntity
  8
Visible Narrow (ANSI)
100
AcDbLine
 10
2.078180404735972
 20
1.693891909205694
 30
0.0
 11
2.078180404735972
 21
1.68742879708672
 31
0.0
  0
LINE
  5
24C
330
37
100
AcDbEntity
  8
Visible Narrow (ANSI)
100
AcDbLine
 10
2.05643687121446
 20
1.687428797086719
 30
0.0
 11
2.05643687121446
 21
1.693891909205692
 31
0.0
  0
LINE
  5
24D
330
37
100
AcDbEntity
  8
Visible Narrow (ANSI)
100
AcDbLine
 10
2.053917523999301
 20
1.688251992495643
 30
0.0
 11
2.053917523999301
 21
1.695342704778385
 31
0.0
  0
LINE
  5
24E
330
37
100
AcDbEntity
  8
Visible (ANSI)
100
AcDbLine
 10
2.05121041721811
 20
1.696087232466565
 30
0.0
 11
2.05121041721811
 21
1.688524921561763
 31
0.0
  0
LINE
  5
24F
330
37
100
AcDbEntity
  8
Visible Narrow (ANSI)
100
AcDbLine
 10
2.048614223140395
 20
1.690019970299443
 30
0.0
 11
2.048614223140395
 21
1.697582281204245
 31
0.0
  0
LINE
  5
250
330
37
100
AcDbEntity
  8
Visible (ANSI)
100
AcDbLine
 10
2.044858106063363
 20
1.698320100175049
 30
0.0
 11
2.044858106063363
 21
1.690757789270247
 31
0.0
  0
LINE
  5
251
330
37
100
AcDbEntity
  8
Visible Narrow (ANSI)
100
AcDbLine
 10
2.042427038805005
 20
1.692157747796855
 30
0.0
 11
2.042427038805005
 21
1.699720058701656
 31
0.0
  0
LINE
  5
252
330
37
100
AcDbEntity
  8
Visible (ANSI)
100
AcDbLine
 10
2.039342303220811
 20
1.700478450497778
 30
0.0
 11
2.039342303220811
 21
1.692916139592976
 31
0.0
  0
LINE
  5
253
330
37
100
AcDbEntity
  8
Visible Narrow (ANSI)
100
AcDbLine
 10
2.036593407860208
 20
1.694499123151163
 30
0.0
 11
2.036593407860208
 21
1.702061434055965
 31
0.0
  0
LINE
  5
254
330
37
100
AcDbEntity
  8
Visible (ANSI)
100
AcDbLine
 10
2.034533693733771
 20
1.702738549894117
 30
0.0
 11
2.034533693733771
 21
1.695176238989315
 31
0.0
  0
LINE
  5
255
330
37
100
AcDbEntity
  8
Visible Narrow (ANSI)
100
AcDbLine
 10
1.961905254097277
 20
1.737029365977919
 30
0.0
 11
1.961905254097277
 21
1.744562486683086
 31
0.0
  0
LINE
  5
256
330
37
100
AcDbEntity
  8
Visible Narrow (ANSI)
100
AcDbLine
 10
1.999559043748887
 20
1.778767236130952
 30
0.0
 11
1.99955904374867
 21
1.786299843748872
 31
0.0
  0
LINE
  5
257
330
37
100
AcDbEntity
  8
Visible Narrow (ANSI)
100
AcDbLine
 10
1.990719855430654
 20
1.773676980219275
 30
0.0
 11
1.990719855430654
 21
1.781210100924443
 31
0.0
  0
LINE
  5
258
330
37
100
AcDbEntity
  8
Visible (ANSI)
100
AcDbLine
 10
2.034587783353023
 20
1.569754968788846
 30
0.0
 11
2.041128521079005
 21
1.57352152914143
 31
0.0
  0
LINE
  5
259
330
37
100
AcDbEntity
  8
Visible (ANSI)
100
AcDbLine
 10
2.047858629001759
 20
1.672535843496156
 30
0.0
 11
2.047858629001759
 21
1.680098154400958
 31
0.0
  0
LINE
  5
25A
330
37
100
AcDbEntity
  8
Visible (ANSI)
100
AcDbLine
 10
2.150249578560221
 20
1.689107359568632
 30
0.0
 11
2.150249578560221
 21
1.68154504866383
 31
0.0
  0
LINE
  5
25B
330
37
100
AcDbEntity
  8
Visible (ANSI)
100
AcDbLine
 10
1.957402020858012
 20
1.750823120782652
 30
0.0
 11
1.957402020858012
 21
1.74326080987785
 31
0.0
  0
POLYLINE
  5
25C
330
37
100
AcDbEntity
  8
Visible (ANSI)
100
AcDb2dPolyline
 66
     1
 10
0.0
 20
0.0
 30
0.0
 70
   128
  0
VERTEX
  5
25D
330
25C
100
AcDbEntity
  8
Visible (ANSI)
100
AcDbVertex
100
AcDb2dVertex
 10
1.784166593900273
 20
1.637176171008311
 30
0.0
  0
VERTEX
  5
25E
330
25C
100
AcDbEntity
  8
Visible (ANSI)
100
AcDbVertex
100
AcDb2dVertex
 10
1.784178598077722
 20
1.635455186636069
 30
0.0
  0
VERTEX
  5
260
330
25C
100
AcDbEntity
  8
Visible (ANSI)
100
AcDbVertex
100
AcDb2dVertex
 10
1.784220313501798
 20
1.633602684680687
 30
0.0
  0
VERTEX
  5
261
330
25C
100
AcDbEntity
  8
Visible (ANSI)
100
AcDbVertex
100
AcDb2dVertex
 10
1.784297114310521
 20
1.631645688419807
 30
0.0
  0
VERTEX
  5
262
330
25C
100
AcDbEntity
  8
Visible (ANSI)
100
AcDbVertex
100
AcDb2dVertex
 10
1.784415964482425
 20
1.629610915935816
 30
0.0
  0
VERTEX
  5
263
330
25C
100
AcDbEntity
  8
Visible (ANSI)
100
AcDbVertex
100
AcDb2dVertex
 10
1.784583273159338
 20
1.627525374978809
 30
0.0
  0
VERTEX
  5
264
330
25C
100
AcDbEntity
  8
Visible (ANSI)
100
AcDbVertex
100
AcDb2dVertex
 10
1.784810585093168
 20
1.625417788649299
 30
0.0
  0
VERTEX
  5
265
330
25C
100
AcDbEntity
  8
Visible (ANSI)
100
AcDbVertex
100
AcDb2dVertex
 10
1.785101930368891
 20
1.623318653886818
 30
0.0
  0
VERTEX
  5
266
330
25C
100
AcDbEntity
  8
Visible (ANSI)
100
AcDbVertex
100
AcDb2dVertex
 10
1.78546222369898
 20
1.621258372616467
 30
0.0
  0
VERTEX
  5
267
330
25C
100
AcDbEntity
  8
Visible (ANSI)
100
AcDbVertex
100
AcDb2dVertex
 10
1.78589372280217
 20
1.619265804853948
 30
0.0
  0
VERTEX
  5
268
330
25C
100
AcDbEntity
  8
Visible (ANSI)
100
AcDbVertex
100
AcDb2dVertex
 10
1.786407463225089
 20
1.617344240705821
 30
0.0
  0
VERTEX
  5
269
330
25C
100
AcDbEntity
  8
Visible (ANSI)
100
AcDbVertex
100
AcDb2dVertex
 10
1.787028880341913
 20
1.615437252951396
 30
0.0
  0
VERTEX
  5
26A
330
25C
100
AcDbEntity
  8
Visible (ANSI)
100
AcDbVertex
100
AcDb2dVertex
 10
1.78776248129348
 20
1.613572569733529
 30
0.0
  0
VERTEX
  5
26B
330
25C
100
AcDbEntity
  8
Visible (ANSI)
100
AcDbVertex
100
AcDb2dVertex
 10
1.788611044930199
 20
1.611782434967321
 30
0.0
  0
VERTEX
  5
26C
330
25C
100
AcDbEntity
  8
Visible (ANSI)
100
AcDbVertex
100
AcDb2dVertex
 10
1.789577883160552
 20
1.610100015821592
 30
0.0
  0
VERTEX
  5
26D
330
25C
100
AcDbEntity
  8
Visible (ANSI)
100
AcDbVertex
100
AcDb2dVertex
 10
1.790665036435435
 20
1.60855406141397
 30
0.0
  0
VERTEX
  5
26E
330
25C
100
AcDbEntity
  8
Visible (ANSI)
100
AcDbVertex
100
AcDb2dVertex
 10
1.791859518464567
 20
1.607164020445378
 30
0.0
  0
VERTEX
  5
26F
330
25C
100
AcDbEntity
  8
Visible (ANSI)
100
AcDbVertex
100
AcDb2dVertex
 10
1.793146221096148
 20
1.605944438589874
 30
0.0
  0
VERTEX
  5
270
330
25C
100
AcDbEntity
  8
Visible (ANSI)
100
AcDbVertex
100
AcDb2dVertex
 10
1.794507382295867
 20
1.604911390985241
 30
0.0
  0
VERTEX
  5
271
330
25C
100
AcDbEntity
  8
Visible (ANSI)
100
AcDbVertex
100
AcDb2dVertex
 10
1.795933637249698
 20
1.604076003661146
 30
0.0
  0
VERTEX
  5
272
330
25C
100
AcDbEntity
  8
Visible (ANSI)
100
AcDbVertex
100
AcDb2dVertex
 10
1.797449723378345
 20
1.603424390806936
 30
0.0
  0
VERTEX
  5
273
330
25C
100
AcDbEntity
  8
Visible (ANSI)
100
AcDbVertex
100
AcDb2dVertex
 10
1.799042810471762
 20
1.602958330086028
 30
0.0
  0
VERTEX
  5
274
330
25C
100
AcDbEntity
  8
Visible (ANSI)
100
AcDbVertex
100
AcDb2dVertex
 10
1.800688712316181
 20
1.602685902152917
 30
0.0
  0
VERTEX
  5
275
330
25C
100
AcDbEntity
  8
Visible (ANSI)
100
AcDbVertex
100
AcDb2dVertex
 10
1.802364305702746
 20
1.602614576712708
 30
0.0
  0
VERTEX
  5
276
330
25C
100
AcDbEntity
  8
Visible (ANSI)
100
AcDbVertex
100
AcDb2dVertex
 10
1.804046191041328
 20
1.602748601840711
 30
0.0
  0
SEQEND
  5
25F
330
25C
100
AcDbEntity
  8
Visible (ANSI)
  0
POLYLINE
  5
277
330
37
100
AcDbEntity
  8
Visible (ANSI)
100
AcDb2dPolyline
 66
     1
 10
0.0
 20
0.0
 30
0.0
 70
   128
  0
VERTEX
  5
278
330
277
100
AcDbEntity
  8
Visible (ANSI)
100
AcDbVertex
100
AcDb2dVertex
 10
1.784324086634244
 20
1.641909166534857
 30
0.0
  0
VERTEX
  5
279
330
277
100
AcDbEntity
  8
Visible (ANSI)
100
AcDbVertex
100
AcDb2dVertex
 10
1.784309916000925
 20
1.641741151003906
 30
0.0
  0
VERTEX
  5
27B
330
277
100
AcDbEntity
  8
Visible (ANSI)
100
AcDbVertex
100
AcDb2dVertex
 10
1.784296456803091
 20
1.641569871142392
 30
0.0
  0
VERTEX
  5
27C
330
277
100
AcDbEntity
  8
Visible (ANSI)
100
AcDbVertex
100
AcDb2dVertex
 10
1.784283685187948
 20
1.641396541046997
 30
0.0
  0
VERTEX
  5
27D
330
277
100
AcDbEntity
  8
Visible (ANSI)
100
AcDbVertex
100
AcDb2dVertex
 10
1.784271580413937
 20
1.641219920940861
 30
0.0
  0
VERTEX
  5
27E
330
277
100
AcDbEntity
  8
Visible (ANSI)
100
AcDbVertex
100
AcDb2dVertex
 10
1.784260651686338
 20
1.641040920341789
 30
0.0
  0
VERTEX
  5
27F
330
277
100
AcDbEntity
  8
Visible (ANSI)
100
AcDbVertex
100
AcDb2dVertex
 10
1.784249817332834
 20
1.640858911616738
 30
0.0
  0
VERTEX
  5
280
330
277
100
AcDbEntity
  8
Visible (ANSI)
100
AcDbVertex
100
AcDb2dVertex
 10
1.784240115468469
 20
1.640674497315784
 30
0.0
  0
VERTEX
  5
281
330
277
100
AcDbEntity
  8
Visible (ANSI)
100
AcDbVertex
100
AcDb2dVertex
 10
1.784230993330686
 20
1.64048797067075
 30
0.0
  0
VERTEX
  5
282
330
277
100
AcDbEntity
  8
Visible (ANSI)
100
AcDbVertex
100
AcDb2dVertex
 10
1.784222431215004
 20
1.640298706418279
 30
0.0
  0
VERTEX
  5
283
330
277
100
AcDbEntity
  8
Visible (ANSI)
100
AcDbVertex
100
AcDb2dVertex
 10
1.784214938326705
 20
1.640106386243589
 30
0.0
  0
VERTEX
  5
284
330
277
100
AcDbEntity
  8
Visible (ANSI)
100
AcDbVertex
100
AcDb2dVertex
 10
1.784207429882235
 20
1.639912222470883
 30
0.0
  0
VERTEX
  5
285
330
277
100
AcDbEntity
  8
Visible (ANSI)
100
AcDbVertex
100
AcDb2dVertex
 10
1.784200946070796
 20
1.639714977095776
 30
0.0
  0
VERTEX
  5
286
330
277
100
AcDbEntity
  8
Visible (ANSI)
100
AcDbVertex
100
AcDb2dVertex
 10
1.784195466150828
 20
1.63951586600659
 30
0.0
  0
VERTEX
  5
287
330
277
100
AcDbEntity
  8
Visible (ANSI)
100
AcDbVertex
100
AcDb2dVertex
 10
1.784189907412933
 20
1.639314260973072
 30
0.0
  0
VERTEX
  5
288
330
277
100
AcDbEntity
  8
Visible (ANSI)
100
AcDbVertex
100
AcDb2dVertex
 10
1.784185307972157
 20
1.639110150628999
 30
0.0
  0
VERTEX
  5
289
330
277
100
AcDbEntity
  8
Visible (ANSI)
100
AcDbVertex
100
AcDb2dVertex
 10
1.784181118177177
 20
1.638903829997832
 30
0.0
  0
VERTEX
  5
28A
330
277
100
AcDbEntity
  8
Visible (ANSI)
100
AcDbVertex
100
AcDb2dVertex
 10
1.784177313138123
 20
1.638695898662745
 30
0.0
  0
VERTEX
  5
28B
330
277
100
AcDbEntity
  8
Visible (ANSI)
100
AcDbVertex
100
AcDb2dVertex
 10
1.784174405171508
 20
1.638484812267998
 30
0.0
  0
VERTEX
  5
28C
330
277
100
AcDbEntity
  8
Visible (ANSI)
100
AcDbVertex
100
AcDb2dVertex
 10
1.784171839440621
 20
1.638272090683577
 30
0.0
  0
VERTEX
  5
28D
330
277
100
AcDbEntity
  8
Visible (ANSI)
100
AcDbVertex
100
AcDb2dVertex
 10
1.7841701272249
 20
1.638056802872827
 30
0.0
  0
VERTEX
  5
28E
330
277
100
AcDbEntity
  8
Visible (ANSI)
100
AcDbVertex
100
AcDb2dVertex
 10
1.784168183740794
 20
1.637840161159953
 30
0.0
  0
VERTEX
  5
28F
330
277
100
AcDbEntity
  8
Visible (ANSI)
100
AcDbVertex
100
AcDb2dVertex
 10
1.784167050214577
 20
1.637620928137784
 30
0.0
  0
VERTEX
  5
290
330
277
100
AcDbEntity
  8
Visible (ANSI)
100
AcDbVertex
100
AcDb2dVertex
 10
1.784166704867615
 20
1.637399705181134
 30
0.0
  0
VERTEX
  5
291
330
277
100
AcDbEntity
  8
Visible (ANSI)
100
AcDbVertex
100
AcDb2dVertex
 10
1.784166593900273
 20
1.637176171008311
 30
0.0
  0
SEQEND
  5
27A
330
277
100
AcDbEntity
  8
Visible (ANSI)
  0
MTEXT
  5
292
330
37
100
AcDbEntity
  8
Symbol (ANSI)
100
AcDbMText
 10
2.232079356667044
 20
1.942239332254631
 30
0.0
 40
0.0300000003707691
 41
0.311572110559058
 71
     1
 72
     1
  1
{1 OF 4 (BLOCK3)}
  7
Note Text (ANSI)
 73
     1
 44
1.0
1001
ACAD
1000
MTEXTBEGIN
1070
    73
1070
     1
1070
    44
1040
1.0
1070
    74
1070
     0
1000
MTEXTEND
  0
MTEXT
  5
293
330
37
100
AcDbEntity
  8
Symbol (ANSI)
100
AcDbMText
 10
2.590995288205514
 20
0.1997037872490397
 30
0.0
 40
0.0300000003707691
 41
0.0
 71
     1
 72
     1
  1
{3}
  7
Note Text (ANSI)
 73
     1
 44
1.0
1001
ACAD
1000
MTEXTBEGIN
1070
    73
1070
     1
1070
    44
1040
1.0
1070
    74
1070
     0
1000
MTEXTEND
  0
DIMENSION
  5
294
330
37
100
AcDbEntity
  8
Dimension (ANSI)
100
AcDbDimension
  2
*D6
 10
0.2220083304556929
 20
0.7903940892615907
 30
0.0
 11
0.2220083304556927
 21
1.015394089261864
 31
0.0
 70
   160
  1
<>
 42
0.4500000000005486
  3
Default (ANSI)
100
AcDbAlignedDimension
 13
0.3417180038189458
 23
1.240394089262139
 33
0.0
 14
0.3417180038189458
 24
0.7903940892615906
 34
0.0
 50
90.0
100
AcDbRotatedDimension
1001
ACAD
1000
DSTYLE
1002
{
1070
   271
1070
     3
1070
   272
1070
     3
1070
    48
1040
0.0
1070
    47
1040
0.0
1002
}
  0
DIMENSION
  5
361
330
37
100
AcDbEntity
  8
Dimension (ANSI)
100
AcDbDimension
  2
*D7
 10
1.241717993819979
 20
1.976895730191935
 30
0.0
 11
0.791717998819429
 21
1.976895730191935
 31
0.0
 70
   160
  1
<>
 42
0.8999999900011005
  3
Default (ANSI)
100
AcDbAlignedDimension
 13
0.3417180038188787
 23
1.913731519225033
 33
0.0
 14
1.241717993819979
 24
1.913731519225033
 34
0.0
100
AcDbRotatedDimension
1001
ACAD
1000
DSTYLE
1002
{
1070
    73
1070
     0
1070
    74
1070
     0
1070
   271
1070
     3
1070
   272
1070
     3
1070
    48
1040
0.0
1070
    47
1040
0.0
1002
}
  0
DIMENSION
  5
441
330
37
100
AcDbEntity
  8
Dimension (ANSI)
100
AcDbDimension
  2
*D8
 10
0.2593306041519253
 20
1.913731519225033
 30
0.0
 11
0.2593306041519249
 21
1.688731519224758
 31
0.0
 70
   160
  1
<>
 42
0.4500000000005498
  3
Default (ANSI)
100
AcDbAlignedDimension
 13
0.3417180038188787
 23
1.463731519224483
 33
0.0
 14
0.3417180038188787
 24
1.913731519225033
 34
0.0
 50
90.0
100
AcDbRotatedDimension
1001
ACAD
1000
DSTYLE
1002
{
1070
   271
1070
     3
1070
   272
1070
     3
1070
    48
1040
0.0
1070
    47
1040
0.0
1002
}
  0
ENDSEC
  0
SECTION
  2
OBJECTS
  0
DICTIONARY
  5
C
330
0
100
AcDbDictionary
281
     1
  3
ACAD_COLOR
350
30
  3
ACAD_GROUP
350
D
  3
ACAD_LAYOUT
350
2F
  3
ACAD_MATERIAL
350
10
  3
ACAD_MLINESTYLE
350
2C
  3
ACAD_PLOTSETTINGS
350
2E
  3
ACAD_PLOTSTYLENAME
350
E
  3
ACAD_TABLESTYLE
350
31
  3
ACAD_VISUALSTYLE
350
14
  3
AcDbVariableDictionary
350
50D
  3
DWGPROPS
350
513
  0
DICTIONARY
  5
30
102
{ACAD_REACTORS
330
C
102
}
330
C
100
AcDbDictionary
281
     1
  0
DICTIONARY
  5
D
102
{ACAD_REACTORS
330
C
102
}
330
C
100
AcDbDictionary
281
     1
  0
DICTIONARY
  5
2F
102
{ACAD_REACTORS
330
C
102
}
330
C
100
AcDbDictionary
281
     1
  3
Layout1
350
36
  3
Layout2
350
3E
  3
Model
350
3A
  0
DICTIONARY
  5
10
102
{ACAD_REACTORS
330
C
102
}
330
C
100
AcDbDictionary
281
     1
  3
ByBlock
350
12
  3
ByLayer
350
11
  3
Global
350
13
  0
DICTIONARY
  5
2C
102
{ACAD_REACTORS
330
C
102
}
330
C
100
AcDbDictionary
281
     1
  3
Standard
350
2D
  0
DICTIONARY
  5
2E
102
{ACAD_REACTORS
330
C
102
}
330
C
100
AcDbDictionary
281
     1
  0
ACDBDICTIONARYWDFLT
  5
E
102
{ACAD_REACTORS
330
C
102
}
330
C
100
AcDbDictionary
281
     1
  3
Normal
350
F
100
AcDbDictionaryWithDefault
340
F
  0
DICTIONARY
  5
31
102
{ACAD_REACTORS
330
C
102
}
330
C
100
AcDbDictionary
281
     1
  3
Standard
350
32
  0
DICTIONARY
  5
14
102
{ACAD_REACTORS
330
C
102
}
330
C
100
AcDbDictionary
281
     1
  3
2dWireframe
350
1A
  3
3D Hidden
350
1C
  3
3dWireframe
350
1B
  3
Basic
350
19
  3
Brighten
350
20
  3
ColorChange
350
24
  3
Conceptual
350
1D
  3
Dim
350
1F
  3
Facepattern
350
23
  3
Flat
350
15
  3
FlatWithEdges
350
16
  3
Gouraud
350
17
  3
GouraudWithEdges
350
18
  3
Linepattern
350
22
  3
Realistic
350
1E
  3
Thicken
350
21
  0
DICTIONARY
  5
50D
102
{ACAD_REACTORS
330
C
102
}
330
C
100
AcDbDictionary
281
     1
  3
CTABLESTYLE
350
50E
  3
DIMASSOC
350
512
  3
HIDETEXT
350
511
  3
INDEXCTL
350
510
  3
SORTENTS
350
50F
  0
XRECORD
  5
513
102
{ACAD_REACTORS
330
C
102
}
330
C
100
AcDbXrecord
280
     1
  1
DWGPROPS COOKIE
  2

  3

  4
Da Chow
  6

  7

  8

  9

300
Manager=
301
Company=RADIO ASTRONOMY LABORATORY
302
Category=
303
Part Number=Block3-V61
304
Description=
305
Project=
306
Designer=Da Chow
307
Engineer=
308
Authority=
309
Cost Center=
 40
0.0000198842592593
 41
2454846.689014572
 42
2454846.689014572
  1

 90
       17
300
Vendor=
300
User Status=
300
Design Status=WorkInProgress
300
Checked by=
300
Date Checked=01/14/2009
300
Engr Approved by=
300
Mfg Approved by=
  0
LAYOUT
  5
36
102
{ACAD_XDICTIONARY
360
51C
102
}
102
{ACAD_REACTORS
330
2F
102
}
330
2F
100
AcDbPlotSettings
  1

  2

  4

  6

 40
0.0
 41
0.0
 42
0.0
 43
0.0
 44
0.0
 45
0.0
 46
0.0
 47
0.0
 48
0.0
 49
0.0
140
0.0
141
0.0
142
1.0
143
1.0
 70
   688
 72
     0
 73
     0
 74
     5
  7

 75
    16
147
1.0
148
0.0
149
0.0
100
AcDbLayout
  1
Layout1
 70
     1
 71
     1
 10
0.0
 20
0.0
 11
12.0
 21
9.0
 12
0.0
 22
0.0
 32
0.0
 14
0.0
 24
0.0
 34
0.0
 15
0.0
 25
0.0
 35
0.0
146
0.0
 13
0.0
 23
0.0
 33
0.0
 16
1.0
 26
0.0
 36
0.0
 17
0.0
 27
1.0
 37
0.0
 76
     0
330
33
  0
LAYOUT
  5
3E
102
{ACAD_XDICTIONARY
360
520
102
}
102
{ACAD_REACTORS
330
2F
102
}
330
2F
100
AcDbPlotSettings
  1

  2

  4

  6

 40
0.0
 41
0.0
 42
0.0
 43
0.0
 44
0.0
 45
0.0
 46
0.0
 47
0.0
 48
0.0
 49
0.0
140
0.0
141
0.0
142
1.0
143
1.0
 70
   688
 72
     0
 73
     0
 74
     5
  7

 75
    16
147
1.0
148
0.0
149
0.0
100
AcDbLayout
  1
Layout2
 70
     1
 71
     2
 10
0.0
 20
0.0
 11
12.0
 21
9.0
 12
0.0
 22
0.0
 32
0.0
 14
0.0
 24
0.0
 34
0.0
 15
0.0
 25
0.0
 35
0.0
146
0.0
 13
0.0
 23
0.0
 33
0.0
 16
1.0
 26
0.0
 36
0.0
 17
0.0
 27
1.0
 37
0.0
 76
     0
330
3B
  0
LAYOUT
  5
3A
102
{ACAD_XDICTIONARY
360
51E
102
}
102
{ACAD_REACTORS
330
2F
102
}
330
2F
100
AcDbPlotSettings
  1

  2

  4

  6

 40
0.0
 41
0.0
 42
0.0
 43
0.0
 44
0.0
 45
0.0
 46
0.0
 47
0.0
 48
0.0
 49
0.0
140
0.0
141
0.0
142
1.0
143
1.0
 70
  1712
 72
     0
 73
     0
 74
     0
  7

 75
     0
147
1.0
148
0.0
149
0.0
100
AcDbLayout
  1
Model
 70
     1
 71
     0
 10
0.0
 20
0.0
 11
12.0
 21
9.0
 12
0.0
 22
0.0
 32
0.0
 14
0.0
 24
0.0
 34
0.0
 15
0.0
 25
0.0
 35
0.0
146
0.0
 13
0.0
 23
0.0
 33
0.0
 16
1.0
 26
0.0
 36
0.0
 17
0.0
 27
1.0
 37
0.0
 76
     0
330
37
  0
MATERIAL
  5
12
102
{ACAD_XDICTIONARY
360
516
102
}
102
{ACAD_REACTORS
330
10
102
}
330
10
100
AcDbMaterial
  1
ByBlock
  0
MATERIAL
  5
11
102
{ACAD_XDICTIONARY
360
514
102
}
102
{ACAD_REACTORS
330
10
102
}
330
10
100
AcDbMaterial
  1
ByLayer
  0
MATERIAL
  5
13
102
{ACAD_XDICTIONARY
360
518
102
}
102
{ACAD_REACTORS
330
10
102
}
330
10
100
AcDbMaterial
  1
Global
  0
MLINESTYLE
  5
2D
102
{ACAD_REACTORS
330
2C
102
}
330
2C
100
AcDbMlineStyle
  2
STANDARD
 70
     0
  3

 62
   256
 51
90.0
 52
90.0
 71
     2
 49
0.5
 62
   256
  6
BYLAYER
 49
-0.5
 62
   256
  6
BYLAYER
  0
ACDBPLACEHOLDER
  5
F
102
{ACAD_REACTORS
330
E
102
}
330
E
  0
TABLESTYLE
  5
32
102
{ACAD_XDICTIONARY
360
51A
102
}
102
{ACAD_REACTORS
330
31
102
}
330
31
100
AcDbTableStyle
  3
Standard
 70
     0
 71
     0
 40
0.06
 41
0.06
280
     0
281
     0
  7
Standard
140
0.18
170
     2
 62
     0
 63
     7
283
     0
274
    -2
284
     1
 64
     0
275
    -2
285
     1
 65
     0
276
    -2
286
     1
 66
     0
277
    -2
287
     1
 67
     0
278
    -2
288
     1
 68
     0
279
    -2
289
     1
 69
     0
  7
Standard
140
0.25
170
     5
 62
     0
 63
     7
283
     0
274
    -2
284
     1
 64
     0
275
    -2
285
     1
 65
     0
276
    -2
286
     1
 66
     0
277
    -2
287
     1
 67
     0
278
    -2
288
     1
 68
     0
279
    -2
289
     1
 69
     0
  7
Standard
140
0.18
170
     5
 62
     0
 63
     7
283
     0
274
    -2
284
     1
 64
     0
275
    -2
285
     1
 65
     0
276
    -2
286
     1
 66
     0
277
    -2
287
     1
 67
     0
278
    -2
288
     1
 68
     0
279
    -2
289
     1
 69
     0
  0
VISUALSTYLE
  5
1A
102
{ACAD_REACTORS
330
14
102
}
330
14
100
AcDbVisualStyle
  2
2dWireframe
 70
     4
 71
     0
 72
     2
 73
     0
 90
        0
 40
-0.6
 41
-30.0
 62
     5
 63
     7
 74
     1
 91
        4
 64
     7
 65
   257
 75
     1
175
     1
 42
1.0
 92
        0
 66
   257
 43
1.0
 76
     1
 77
     6
 78
     2
 67
     7
 79
     5
170
     0
171
     0
290
     0
174
     0
 93
        1
 44
0.0
173
     0
291
     0
 45
0.0
1001
ACAD
1000
AcDbSavedByObjectVersion
1070
     0
  0
VISUALSTYLE
  5
1C
102
{ACAD_REACTORS
330
14
102
}
330
14
100
AcDbVisualStyle
  2
3D Hidden
 70
     6
 71
     1
 72
     2
 73
     2
 90
        0
 40
-0.6
 41
-30.0
 62
     5
 63
     7
 74
     2
 91
        2
 64
     7
 65
   257
 75
     2
175
     1
 42
40.0
 92
        0
 66
   257
 43
1.0
 76
     1
 77
     6
 78
     2
 67
     7
 79
     3
170
     0
171
     0
290
     0
174
     0
 93
        1
 44
0.0
173
     0
291
     0
 45
0.0
1001
ACAD
1000
AcDbSavedByObjectVersion
1070
     0
  0
VISUALSTYLE
  5
1B
102
{ACAD_REACTORS
330
14
102
}
330
14
100
AcDbVisualStyle
  2
3dWireframe
 70
     5
 71
     0
 72
     2
 73
     0
 90
        0
 40
-0.6
 41
-30.0
 62
     5
 63
     7
 74
     1
 91
        4
 64
     7
 65
   257
 75
     1
175
     1
 42
1.0
 92
        0
 66
   257
 43
1.0
 76
     1
 77
     6
 78
     2
 67
     7
 79
     5
170
     0
171
     0
290
     0
174
     0
 93
        1
 44
0.0
173
     0
291
     0
 45
0.0
1001
ACAD
1000
AcDbSavedByObjectVersion
1070
     0
  0
VISUALSTYLE
  5
19
102
{ACAD_REACTORS
330
14
102
}
330
14
100
AcDbVisualStyle
  2
Basic
 70
     7
 71
     1
 72
     0
 73
     1
 90
        0
 40
-0.6
 41
-30.0
 62
     5
 63
     7
 74
     0
 91
        4
 64
     7
 65
   257
 75
     1
175
     1
 42
1.0
 92
        8
 66
     7
 43
1.0
 76
     1
 77
     6
 78
     2
 67
     7
 79
     5
170
     0
171
     0
290
     0
174
     0
 93
        1
 44
0.0
173
     0
291
     1
 45
0.0
1001
ACAD
1000
AcDbSavedByObjectVersion
1070
     0
  0
VISUALSTYLE
  5
20
102
{ACAD_REACTORS
330
14
102
}
330
14
100
AcDbVisualStyle
  2
Brighten
 70
    12
 71
     2
 72
     2
 73
     0
 90
        0
 40
-0.6
 41
-30.0
 62
     5
 63
     7
 74
     1
 91
        4
 64
     7
 65
   257
 75
     1
175
     1
 42
1.0
 92
        8
 66
     7
 43
1.0
 76
     1
 77
     6
 78
     2
 67
     7
 79
     5
170
     0
171
     0
290
     0
174
     0
 93
        1
 44
50.0
173
     0
291
     1
 45
0.0
1001
ACAD
1000
AcDbSavedByObjectVersion
1070
     0
  0
VISUALSTYLE
  5
24
102
{ACAD_REACTORS
330
14
102
}
330
14
100
AcDbVisualStyle
  2
ColorChange
 70
    16
 71
     2
 72
     2
 73
     3
 90
        0
 40
-0.6
 41
-30.0
 62
     5
 63
     8
 74
     1
 91
        4
 64
     7
 65
   257
 75
     1
175
     1
 42
1.0
 92
        8
 66
     8
 43
1.0
 76
     1
 77
     6
 78
     2
 67
     7
 79
     5
170
     0
171
     0
290
     0
174
     0
 93
        1
 44
0.0
173
     0
291
     1
 45
0.0
1001
ACAD
1000
AcDbSavedByObjectVersion
1070
     0
  0
VISUALSTYLE
  5
1D
102
{ACAD_REACTORS
330
14
102
}
330
14
100
AcDbVisualStyle
  2
Conceptual
 70
     9
 71
     3
 72
     2
 73
     0
 90
        0
 40
-0.6
 41
-30.0
 62
     5
 63
     7
 74
     2
 91
        2
 64
     7
 65
   257
 75
     1
175
     1
 42
40.0
 92
        8
 66
     7
 43
1.0
 76
     1
 77
     6
 78
     2
 67
     7
 79
     3
170
     0
171
     0
290
     0
174
     0
 93
        1
 44
0.0
173
     0
291
     0
 45
0.0
1001
ACAD
1000
AcDbSavedByObjectVersion
1070
     0
  0
VISUALSTYLE
  5
1F
102
{ACAD_REACTORS
330
14
102
}
330
14
100
AcDbVisualStyle
  2
Dim
 70
    11
 71
     2
 72
     2
 73
     0
 90
        0
 40
-0.6
 41
-30.0
 62
     5
 63
     7
 74
     1
 91
        4
 64
     7
 65
   257
 75
     1
175
     1
 42
1.0
 92
        8
 66
     7
 43
1.0
 76
     1
 77
     6
 78
     2
 67
     7
 79
     5
170
     0
171
     0
290
     0
174
     0
 93
        1
 44
-50.0
173
     0
291
     1
 45
0.0
1001
ACAD
1000
AcDbSavedByObjectVersion
1070
     0
  0
VISUALSTYLE
  5
23
102
{ACAD_REACTORS
330
14
102
}
330
14
100
AcDbVisualStyle
  2
Facepattern
 70
    15
 71
     2
 72
     2
 73
     0
 90
        0
 40
-0.6
 41
-30.0
 62
     5
 63
     7
 74
     1
 91
        4
 64
     7
 65
   257
 75
     1
175
     1
 42
1.0
 92
        8
 66
     7
 43
1.0
 76
     1
 77
     6
 78
     2
 67
     7
 79
     5
170
     0
171
     0
290
     0
174
     0
 93
        1
 44
0.0
173
     0
291
     1
 45
0.0
1001
ACAD
1000
AcDbSavedByObjectVersion
1070
     0
  0
VISUALSTYLE
  5
15
102
{ACAD_REACTORS
330
14
102
}
330
14
100
AcDbVisualStyle
  2
Flat
 70
     0
 71
     2
 72
     1
 73
     1
 90
        2
 40
-0.6
 41
30.0
 62
     5
 63
     7
 74
     0
 91
        4
 64
     7
 65
   257
 75
     1
175
     1
 42
1.0
 92
        8
 66
     7
 43
1.0
 76
     1
 77
     6
 78
     2
 67
     7
 79
     5
170
     0
171
     0
290
     0
174
     0
 93
       13
 44
0.0
173
     0
291
     1
 45
0.0
1001
ACAD
1000
AcDbSavedByObjectVersion
1070
     0
  0
VISUALSTYLE
  5
16
102
{ACAD_REACTORS
330
14
102
}
330
14
100
AcDbVisualStyle
  2
FlatWithEdges
 70
     1
 71
     2
 72
     1
 73
     1
 90
        2
 40
-0.6
 41
30.0
 62
     5
 63
     7
 74
     1
 91
        4
 64
     7
 65
   257
 75
     1
175
     1
 42
1.0
 92
        0
 66
   257
 43
1.0
 76
     1
 77
     6
 78
     2
 67
     7
 79
     5
170
     0
171
     0
290
     0
174
     0
 93
       13
 44
0.0
173
     0
291
     1
 45
0.0
1001
ACAD
1000
AcDbSavedByObjectVersion
1070
     0
  0
VISUALSTYLE
  5
17
102
{ACAD_REACTORS
330
14
102
}
330
14
100
AcDbVisualStyle
  2
Gouraud
 70
     2
 71
     2
 72
     2
 73
     1
 90
        2
 40
-0.6
 41
30.0
 62
     5
 63
     7
 74
     0
 91
        4
 64
     7
 65
   257
 75
     1
175
     1
 42
1.0
 92
        0
 66
     7
 43
1.0
 76
     1
 77
     6
 78
     2
 67
     7
 79
     5
170
     0
171
     0
290
     0
174
     0
 93
       13
 44
0.0
173
     0
291
     1
 45
0.0
1001
ACAD
1000
AcDbSavedByObjectVersion
1070
     0
  0
VISUALSTYLE
  5
18
102
{ACAD_REACTORS
330
14
102
}
330
14
100
AcDbVisualStyle
  2
GouraudWithEdges
 70
     3
 71
     2
 72
     2
 73
     1
 90
        2
 40
-0.6
 41
30.0
 62
     5
 63
     7
 74
     1
 91
        4
 64
     7
 65
   257
 75
     1
175
     1
 42
1.0
 92
        0
 66
   257
 43
1.0
 76
     1
 77
     6
 78
     2
 67
     7
 79
     5
170
     0
171
     0
290
     0
174
     0
 93
       13
 44
0.0
173
     0
291
     1
 45
0.0
1001
ACAD
1000
AcDbSavedByObjectVersion
1070
     0
  0
VISUALSTYLE
  5
22
102
{ACAD_REACTORS
330
14
102
}
330
14
100
AcDbVisualStyle
  2
Linepattern
 70
    14
 71
     2
 72
     2
 73
     0
 90
        0
 40
-0.6
 41
-30.0
 62
     5
 63
     7
 74
     1
 91
        4
 64
     7
 65
   257
 75
     7
175
     7
 42
1.0
 92
        8
 66
     7
 43
1.0
 76
     1
 77
     6
 78
     2
 67
     7
 79
     5
170
     0
171
     0
290
     0
174
     0
 93
        1
 44
0.0
173
     0
291
     1
 45
0.0
1001
ACAD
1000
AcDbSavedByObjectVersion
1070
     0
  0
VISUALSTYLE
  5
1E
102
{ACAD_REACTORS
330
14
102
}
330
14
100
AcDbVisualStyle
  2
Realistic
 70
     8
 71
     2
 72
     2
 73
     0
 90
        0
 40
-0.6
 41
-30.0
 62
     5
 63
     7
 74
     1
 91
        0
 64
     7
 65
   257
 75
     1
175
     1
 42
1.0
 92
        8
 66
     8
 43
1.0
 76
     1
 77
     6
 78
     2
 67
     7
 79
     5
170
     0
171
     0
290
     0
174
     0
 93
       13
 44
0.0
173
     0
291
     0
 45
0.0
1001
ACAD
1000
AcDbSavedByObjectVersion
1070
     0
  0
VISUALSTYLE
  5
21
102
{ACAD_REACTORS
330
14
102
}
330
14
100
AcDbVisualStyle
  2
Thicken
 70
    13
 71
     2
 72
     2
 73
     0
 90
        0
 40
-0.6
 41
-30.0
 62
     5
 63
     7
 74
     1
 91
        4
 64
     7
 65
   257
 75
     1
175
     1
 42
1.0
 92
       12
 66
     7
 43
1.0
 76
     1
 77
     6
 78
     2
 67
     7
 79
     5
170
     0
171
     0
290
     0
174
     0
 93
        1
 44
0.0
173
     0
291
     1
 45
0.0
1001
ACAD
1000
AcDbSavedByObjectVersion
1070
     0
  0
DICTIONARYVAR
  5
50E
102
{ACAD_REACTORS
330
50D
102
}
330
50D
100
DictionaryVariables
280
     0
  1
STANDARD
  0
DICTIONARYVAR
  5
512
102
{ACAD_REACTORS
330
50D
102
}
330
50D
100
DictionaryVariables
280
     0
  1
1
  0
DICTIONARYVAR
  5
511
102
{ACAD_REACTORS
330
50D
102
}
330
50D
100
DictionaryVariables
280
     0
  1
1
  0
DICTIONARYVAR
  5
510
102
{ACAD_REACTORS
330
50D
102
}
330
50D
100
DictionaryVariables
280
     0
  1
0
  0
DICTIONARYVAR
  5
50F
102
{ACAD_REACTORS
330
50D
102
}
330
50D
100
DictionaryVariables
280
     0
  1
127
  0
DICTIONARY
  5
51C
330
36
100
AcDbDictionary
280
     1
281
     1
  3
ACAD_XREC_ROUNDTRIP
360
51D
  0
DICTIONARY
  5
520
330
3E
100
AcDbDictionary
280
     1
281
     1
  3
ACAD_XREC_ROUNDTRIP
360
521
  0
DICTIONARY
  5
51E
330
3A
100
AcDbDictionary
280
     1
281
     1
  3
ACAD_XREC_ROUNDTRIP
360
51F
  0
DICTIONARY
  5
516
330
12
100
AcDbDictionary
280
     1
281
     1
  3
ACAD_XREC_ROUNDTRIP
360
517
  0
DICTIONARY
  5
514
330
11
100
AcDbDictionary
280
     1
281
     1
  3
ACAD_XREC_ROUNDTRIP
360
515
  0
DICTIONARY
  5
518
330
13
100
AcDbDictionary
280
     1
281
     1
  3
ACAD_XREC_ROUNDTRIP
360
519
  0
DICTIONARY
  5
51A
330
32
100
AcDbDictionary
280
     1
281
     1
  3
ACAD_XREC_ROUNDTRIP
360
51B
  0
XRECORD
  5
51D
102
{ACAD_REACTORS
330
51C
102
}
330
51C
100
AcDbXrecord
280
     1
102
SHADEPLOT
 70
     0
102
SHADEPLOTRESLEVEL
 70
     2
102
SHADEPLOTCUSTOMDPI
 70
   300
  0
XRECORD
  5
521
102
{ACAD_REACTORS
330
520
102
}
330
520
100
AcDbXrecord
280
     1
102
SHADEPLOT
 70
     0
102
SHADEPLOTRESLEVEL
 70
     2
102
SHADEPLOTCUSTOMDPI
 70
   300
  0
XRECORD
  5
51F
102
{ACAD_REACTORS
330
51E
102
}
330
51E
100
AcDbXrecord
280
     1
102
SHADEPLOT
 70
     0
102
SHADEPLOTRESLEVEL
 70
     2
102
SHADEPLOTCUSTOMDPI
 70
   300
  0
XRECORD
  5
517
102
{ACAD_REACTORS
330
516
102
}
330
516
100
AcDbXrecord
280
     1
102
MATERIAL
148
0.0
149
0.0
149
0.0
 93
        0
 94
       63
282
     0
 72
     1
 77
     1
171
     1
175
     1
179
     1
273
     0
  0
XRECORD
  5
515
102
{ACAD_REACTORS
330
514
102
}
330
514
100
AcDbXrecord
280
     1
102
MATERIAL
148
0.0
149
0.0
149
0.0
 93
        0
 94
       63
282
     0
 72
     1
 77
     1
171
     1
175
     1
179
     1
273
     0
  0
XRECORD
  5
519
102
{ACAD_REACTORS
330
518
102
}
330
518
100
AcDbXrecord
280
     1
102
MATERIAL
148
0.0
149
0.0
149
0.0
 93
        0
 94
       63
282
     0
 72
     1
 77
     1
171
     1
175
     1
179
     1
273
     0
  0
XRECORD
  5
51B
102
{ACAD_REACTORS
330
51A
102
}
330
51A
100
AcDbXrecord
280
     1
102
ACAD_ROUNDTRIP_PRE2007_TABLESTYLE
 90
      512
 91
        0
  1

 92
      512
 93
        0
  2

 94
      512
 95
        0
  3

  0
ENDSEC
  0
EOF
