  0
SECTION
  2
HEADER
  9
$ACADVER
  1
AC1015
  9
$ACADMAINTVER
 70
    18
  9
$DWGCODEPAGE
  3
ANSI_1252
  9
$INSBASE
 10
0.0
 20
0.0
 30
0.0
  9
$EXTMIN
 10
0.0
 20
0.0
 30
0.0
  9
$EXTMAX
 10
2.2
 20
1.7
 30
0.0
  9
$LIMMIN
 10
0.0
 20
0.0
  9
$LIMMAX
 10
2.2
 20
1.7
  9
$ORTHOMODE
 70
     0
  9
$REGENMODE
 70
     1
  9
$FILLMODE
 70
     1
  9
$QTEXTMODE
 70
     0
  9
$MIRRTEXT
 70
     0
  9
$LTSCALE
 40
0.2
  9
$ATTMODE
 70
     1
  9
$TEXTSIZE
 40
0.2
  9
$TRACEWID
 40
0.05
  9
$TEXTSTYLE
  7
Standard
  9
$CLAYER
  8
0
  9
$CELTYPE
  6
ByLayer
  9
$CECOLOR
 62
   256
  9
$CELTSCALE
 40
1.0
  9
$DISPSILH
 70
     0
  9
$DIMSCALE
 40
1.0
  9
$DIMASZ
 40
0.0708661417322835
  9
$DIMEXO
 40
0.0625
  9
$DIMDLI
 40
0.38
  9
$DIMRND
 40
0.0
  9
$DIMDLE
 40
0.0
  9
$DIMEXE
 40
0.18
  9
$DIMTP
 40
0.0
  9
$DIMTM
 40
0.0
  9
$DIMTXT
 40
0.3048000037670135
  9
$DIMCEN
 40
0.09
  9
$DIMTSZ
 40
0.0
  9
$DIMTOL
 70
     0
  9
$DIMLIM
 70
     0
  9
$DIMTIH
 70
     1
  9
$DIMTOH
 70
     1
  9
$DIMSE1
 70
     0
  9
$DIMSE2
 70
     0
  9
$DIMTAD
 70
     0
  9
$DIMZIN
 70
     0
  9
$DIMBLK
  1

  9
$DIMASO
 70
     1
  9
$DIMSHO
 70
     1
  9
$DIMPOST
  1

  9
$DIMAPOST
  1

  9
$DIMALT
 70
     0
  9
$DIMALTD
 70
     2
  9
$DIMALTF
 40
25.4
  9
$DIMLFAC
 40
1.0
  9
$DIMTOFL
 70
     0
  9
$DIMTVP
 40
0.0
  9
$DIMTIX
 70
     0
  9
$DIMSOXD
 70
     0
  9
$DIMSAH
 70
     0
  9
$DIMBLK1
  1

  9
$DIMBLK2
  1

  9
$DIMSTYLE
  2
Standard
  9
$DIMCLRD
 70
     0
  9
$DIMCLRE
 70
     0
  9
$DIMCLRT
 70
     0
  9
$DIMTFAC
 40
1.0
  9
$DIMGAP
 40
0.09
  9
$DIMJUST
 70
     0
  9
$DIMSD1
 70
     0
  9
$DIMSD2
 70
     0
  9
$DIMTOLJ
 70
     1
  9
$DIMTZIN
 70
     0
  9
$DIMALTZ
 70
     0
  9
$DIMALTTZ
 70
     0
  9
$DIMUPT
 70
     0
  9
$DIMDEC
 70
     4
  9
$DIMTDEC
 70
     4
  9
$DIMALTU
 70
     2
  9
$DIMALTTD
 70
     2
  9
$DIMTXSTY
  7
Standard
  9
$DIMAUNIT
 70
     0
  9
$DIMADEC
 70
     0
  9
$DIMALTRND
 40
0.0
  9
$DIMAZIN
 70
     0
  9
$DIMDSEP
 70
    46
  9
$DIMATFIT
 70
     3
  9
$DIMFRAC
 70
     0
  9
$DIMLDRBLK
  1

  9
$DIMLUNIT
 70
     2
  9
$DIMLWD
 70
    -2
  9
$DIMLWE
 70
    -2
  9
$DIMTMOVE
 70
     0
  9
$LUNITS
 70
     2
  9
$LUPREC
 70
     4
  9
$SKETCHINC
 40
0.1
  9
$FILLETRAD
 40
0.0
  9
$AUNITS
 70
     0
  9
$AUPREC
 70
     0
  9
$MENU
  1
.
  9
$ELEVATION
 40
0.0
  9
$PELEVATION
 40
0.0
  9
$THICKNESS
 40
0.0
  9
$LIMCHECK
 70
     0
  9
$CHAMFERA
 40
0.0
  9
$CHAMFERB
 40
0.0
  9
$CHAMFERC
 40
0.0
  9
$CHAMFERD
 40
0.0
  9
$SKPOLY
 70
     0
  9
$TDCREATE
 40
2454846.689079491
  9
$TDUCREATE
 40
2454847.022412824
  9
$TDUPDATE
 40
2454846.689079491
  9
$TDUUPDATE
 40
2454847.022412824
  9
$TDINDWG
 40
0.0000401505
  9
$TDUSRTIMER
 40
0.0000401505
  9
$USRTIMER
 70
     1
  9
$ANGBASE
 50
0.0
  9
$ANGDIR
 70
     0
  9
$PDMODE
 70
     0
  9
$PDSIZE
 40
0.0
  9
$PLINEWID
 40
0.0
  9
$SPLFRAME
 70
     0
  9
$SPLINETYPE
 70
     6
  9
$SPLINESEGS
 70
     8
  9
$HANDSEED
  5
B33
  9
$SURFTAB1
 70
     6
  9
$SURFTAB2
 70
     6
  9
$SURFTYPE
 70
     6
  9
$SURFU
 70
     6
  9
$SURFV
 70
     6
  9
$UCSBASE
  2

  9
$UCSNAME
  2

  9
$UCSORG
 10
0.0
 20
0.0
 30
0.0
  9
$UCSXDIR
 10
1.0
 20
0.0
 30
0.0
  9
$UCSYDIR
 10
0.0
 20
1.0
 30
0.0
  9
$UCSORTHOREF
  2

  9
$UCSORTHOVIEW
 70
     0
  9
$UCSORGTOP
 10
0.0
 20
0.0
 30
0.0
  9
$UCSORGBOTTOM
 10
0.0
 20
0.0
 30
0.0
  9
$UCSORGLEFT
 10
0.0
 20
0.0
 30
0.0
  9
$UCSORGRIGHT
 10
0.0
 20
0.0
 30
0.0
  9
$UCSORGFRONT
 10
0.0
 20
0.0
 30
0.0
  9
$UCSORGBACK
 10
0.0
 20
0.0
 30
0.0
  9
$PUCSBASE
  2

  9
$PUCSNAME
  2

  9
$PUCSORG
 10
0.0
 20
0.0
 30
0.0
  9
$PUCSXDIR
 10
1.0
 20
0.0
 30
0.0
  9
$PUCSYDIR
 10
0.0
 20
1.0
 30
0.0
  9
$PUCSORTHOREF
  2

  9
$PUCSORTHOVIEW
 70
     0
  9
$PUCSORGTOP
 10
0.0
 20
0.0
 30
0.0
  9
$PUCSORGBOTTOM
 10
0.0
 20
0.0
 30
0.0
  9
$PUCSORGLEFT
 10
0.0
 20
0.0
 30
0.0
  9
$PUCSORGRIGHT
 10
0.0
 20
0.0
 30
0.0
  9
$PUCSORGFRONT
 10
0.0
 20
0.0
 30
0.0
  9
$PUCSORGBACK
 10
0.0
 20
0.0
 30
0.0
  9
$USERI1
 70
     0
  9
$USERI2
 70
     0
  9
$USERI3
 70
     0
  9
$USERI4
 70
     0
  9
$USERI5
 70
     0
  9
$USERR1
 40
0.0
  9
$USERR2
 40
0.0
  9
$USERR3
 40
0.0
  9
$USERR4
 40
0.0
  9
$USERR5
 40
0.0
  9
$WORLDVIEW
 70
     1
  9
$SHADEDGE
 70
     3
  9
$SHADEDIF
 70
    70
  9
$TILEMODE
 70
     1
  9
$MAXACTVP
 70
    64
  9
$PINSBASE
 10
0.0
 20
0.0
 30
0.0
  9
$PLIMCHECK
 70
     0
  9
$PEXTMIN
 10
0.0
 20
0.0
 30
0.0
  9
$PEXTMAX
 10
2.2
 20
1.7
 30
0.0
  9
$PLIMMIN
 10
0.0
 20
0.0
  9
$PLIMMAX
 10
2.2
 20
1.7
  9
$UNITMODE
 70
     0
  9
$VISRETAIN
 70
     1
  9
$PLINEGEN
 70
     0
  9
$PSLTSCALE
 70
     1
  9
$TREEDEPTH
 70
  3020
  9
$CMLSTYLE
  2
Standard
  9
$CMLJUST
 70
     0
  9
$CMLSCALE
 40
1.0
  9
$PROXYGRAPHICS
 70
     1
  9
$MEASUREMENT
 70
     0
  9
$CELWEIGHT
370
    -1
  9
$ENDCAPS
280
     0
  9
$JOINSTYLE
280
     0
  9
$LWDISPLAY
290
     0
  9
$INSUNITS
 70
     0
  9
$HYPERLINKBASE
  1

  9
$STYLESHEET
  1

  9
$XEDIT
290
     1
  9
$CEPSNTYPE
380
     0
  9
$PSTYLEMODE
290
     1
  9
$FINGERPRINTGUID
  2
{AB6F5D24-F6AD-414D-B455-112F9D737DD9}
  9
$VERSIONGUID
  2
{AFEAA188-7520-4D10-9FB5-39660DAF12CA}
  9
$EXTNAMES
290
     1
  9
$PSVPSCALE
 40
0.0
  9
$OLESTARTUP
290
     0
  0
ENDSEC
  0
SECTION
  2
CLASSES
  0
CLASS
  1
ACDBDICTIONARYWDFLT
  2
AcDbDictionaryWithDefault
  3
ObjectDBX Classes
 90
        0
280
     0
281
     0
  0
CLASS
  1
MATERIAL
  2
AcDbMaterial
  3
ObjectDBX Classes
 90
     1024
280
     0
281
     0
  0
CLASS
  1
VISUALSTYLE
  2
AcDbVisualStyle
  3
ObjectDBX Classes
 90
     4095
280
     0
281
     0
  0
CLASS
  1
TABLESTYLE
  2
AcDbTableStyle
  3
ObjectDBX Classes
 90
     4095
280
     0
281
     0
  0
CLASS
  1
DICTIONARYVAR
  2
AcDbDictionaryVar
  3
ObjectDBX Classes
 90
        0
280
     0
281
     0
  0
CLASS
  1
ACDBPLACEHOLDER
  2
AcDbPlaceHolder
  3
ObjectDBX Classes
 90
        0
280
     0
281
     0
  0
CLASS
  1
LAYOUT
  2
AcDbLayout
  3
ObjectDBX Classes
 90
        0
280
     0
281
     0
  0
ENDSEC
  0
SECTION
  2
TABLES
  0
TABLE
  2
VPORT
  5
8
330
0
100
AcDbSymbolTable
 70
     1
  0
VPORT
  5
28
330
8
100
AcDbSymbolTableRecord
100
AcDbViewportTableRecord
  2
*Active
 70
     0
 10
0.0
 20
0.0
 11
1.0
 21
1.0
 12
1.1
 22
0.85
 13
0.0
 23
0.0
 14
1.0
 24
1.0
 15
0.0
 25
0.0
 16
0.0
 26
0.0
 36
1.0
 17
0.0
 27
0.0
 37
0.0
 40
1.7
 41
1.294117647058823
 42
50.0
 43
0.0
 44
0.0
 50
0.0
 51
0.0
 71
     0
 72
   100
 73
     1
 74
     1
 75
     0
 76
     0
 77
     0
 78
     0
281
     0
 65
     1
110
0.0
120
0.0
130
0.0
111
1.0
121
0.0
131
0.0
112
0.0
122
1.0
132
0.0
 79
     0
146
0.0
  0
ENDTAB
  0
TABLE
  2
LTYPE
  5
5
330
0
100
AcDbSymbolTable
 70
    59
  0
LTYPE
  5
29
330
5
100
AcDbSymbolTableRecord
100
AcDbLinetypeTableRecord
  2
ByBlock
 70
     0
  3

 72
    65
 73
     0
 40
0.0
  0
LTYPE
  5
2A
330
5
100
AcDbSymbolTableRecord
100
AcDbLinetypeTableRecord
  2
ByLayer
 70
     0
  3

 72
    65
 73
     0
 40
0.0
  0
LTYPE
  5
2B
330
5
100
AcDbSymbolTableRecord
100
AcDbLinetypeTableRecord
  2
Continuous
 70
     0
  3
Solid line
 72
    65
 73
     0
 40
0.0
  0
LTYPE
  5
40
330
5
100
AcDbSymbolTableRecord
100
AcDbLinetypeTableRecord
  2
BY_STANDARD
 70
     0
  3
By Standard ____________    ____    ____   _
 72
    65
 73
     6
 40
1.240299999999999
 49
0.6614
 74
     0
 49
-0.0827
 74
     0
 49
0.1654
 74
     0
 49
-0.0827
 74
     0
 49
0.1654
 74
     0
 49
-0.0827
 74
     0
  0
LTYPE
  5
41
330
5
100
AcDbSymbolTableRecord
100
AcDbLinetypeTableRecord
  2
CHAIN
 70
     0
  3
Chain ____ _ ____ _ ____ _ ____ _ ____ _ ____
 72
    65
 73
     4
 40
0.7087
 49
0.4724000000000001
 74
     0
 49
-0.0591
 74
     0
 49
0.1181
 74
     0
 49
-0.0591
 74
     0
  0
LTYPE
  5
42
330
5
100
AcDbSymbolTableRecord
100
AcDbLinetypeTableRecord
  2
DASH_DOT
 70
     0
  3
Dash dot __ . __ . __ . __ . __ . __ . __ . __
 72
    65
 73
     4
 40
0.37
 49
0.24
 74
     0
 49
-0.06
 74
     0
 49
0.01
 74
     0
 49
-0.06
 74
     0
  0
LTYPE
  5
43
330
5
100
AcDbSymbolTableRecord
100
AcDbLinetypeTableRecord
  2
DOUBLE_DASH_DOT
 70
     0
  3
Double-Dash Dot __ __ . __ __ . __ __ . __ _
 72
    65
 73
     6
 40
0.4398
 49
0.24
 74
     0
 49
-0.06
 74
     0
 49
0.0098
 74
     0
 49
-0.06
 74
     0
 49
0.01
 74
     0
 49
-0.06
 74
     0
  0
LTYPE
  5
44
330
5
100
AcDbSymbolTableRecord
100
AcDbLinetypeTableRecord
  2
DASH_TRIPLE_DOT
 70
     0
  3
Dash Triple-Dot _ . . . _ . . . _ . . . _
 72
    65
 73
     8
 40
0.51
 49
0.24
 74
     0
 49
-0.06
 74
     0
 49
0.01
 74
     0
 49
-0.06
 74
     0
 49
0.01
 74
     0
 49
-0.06
 74
     0
 49
0.01
 74
     0
 49
-0.06
 74
     0
  0
LTYPE
  5
45
330
5
100
AcDbSymbolTableRecord
100
AcDbLinetypeTableRecord
  2
DASHED
 70
     0
  3
Dashed __ __ __ __ __ __ __ __ __ __ __ __ __ _
 72
    65
 73
     2
 40
0.2067
 49
0.1654
 74
     0
 49
-0.0413
 74
     0
  0
LTYPE
  5
46
330
5
100
AcDbSymbolTableRecord
100
AcDbLinetypeTableRecord
  2
DASH_DOUBLE_DOT
 70
     0
  3
Dash Double-Dot __ . . __ . . __ . . __ . .
 72
    65
 73
     6
 40
0.4398
 49
0.24
 74
     0
 49
-0.06
 74
     0
 49
0.0098
 74
     0
 49
-0.06
 74
     0
 49
0.01
 74
     0
 49
-0.06
 74
     0
  0
LTYPE
  5
47
330
5
100
AcDbSymbolTableRecord
100
AcDbLinetypeTableRecord
  2
DASHED_SPACE
 70
     0
  3
Dashed Space __ __ __ __ __ __ __ __ __ __ __ _
 72
    65
 73
     2
 40
0.2067
 49
0.1654
 74
     0
 49
-0.0413
 74
     0
  0
LTYPE
  5
48
330
5
100
AcDbSymbolTableRecord
100
AcDbLinetypeTableRecord
  2
DOTTED
 70
     0
  3
Dotted . . . . . . . . . . . . . . . . . . . . 
 72
    65
 73
     2
 40
0.0482
 49
0.0069
 74
     0
 49
-0.0413
 74
     0
  0
LTYPE
  5
49
330
5
100
AcDbSymbolTableRecord
100
AcDbLinetypeTableRecord
  2
DOUBLE_DASH_CHAIN
 70
     0
  3
Double-Dash Chain ______  __  __  ______  __  _
 72
    65
 73
     6
 40
1.240299999999999
 49
0.6614
 74
     0
 49
-0.0827
 74
     0
 49
0.1654
 74
     0
 49
-0.0827
 74
     0
 49
0.1654
 74
     0
 49
-0.0827
 74
     0
  0
LTYPE
  5
4B
330
5
100
AcDbSymbolTableRecord
100
AcDbLinetypeTableRecord
  2
DOUBLE_DASH_DOUBLE_DOT
 70
     0
  3
Double-Dash Double-dot _ _ . . _ _ . . _
 72
    65
 73
     8
 40
0.7400000000000001
 49
0.24
 74
     0
 49
-0.06
 74
     0
 49
0.24
 74
     0
 49
-0.06
 74
     0
 49
0.01
 74
     0
 49
-0.06
 74
     0
 49
0.01
 74
     0
 49
-0.06
 74
     0
  0
LTYPE
  5
4C
330
5
100
AcDbSymbolTableRecord
100
AcDbLinetypeTableRecord
  2
DOUBLE_DASH_TRIPLE_DOT
 70
     0
  3
Double Dash Triple Dot __ __ . . . __ __ . .
 72
    65
 73
    10
 40
0.8100000000000001
 49
0.24
 74
     0
 49
-0.06
 74
     0
 49
0.24
 74
     0
 49
-0.06
 74
     0
 49
0.01
 74
     0
 49
-0.06
 74
     0
 49
0.01
 74
     0
 49
-0.06
 74
     0
 49
0.01
 74
     0
 49
-0.06
 74
     0
  0
LTYPE
  5
4D
330
5
100
AcDbSymbolTableRecord
100
AcDbLinetypeTableRecord
  2
LONG_DASH_DOTTED
 70
     0
  3
Long Dash Dotted ____ . ____ . ____ . ____ . _
 72
    65
 73
     4
 40
0.3543
 49
0.2362
 74
     0
 49
-0.0295
 74
     0
 49
0.0591
 74
     0
 49
-0.0295
 74
     0
  0
LTYPE
  5
4E
330
5
100
AcDbSymbolTableRecord
100
AcDbLinetypeTableRecord
  2
LONG_DASH_DOUBLE_DOT
 70
     0
  3
Long Dash Double Dot ________  .  .  ________  
 72
    65
 73
     6
 40
0.6799999999999999
 49
0.48
 74
     0
 49
-0.06
 74
     0
 49
0.01
 74
     0
 49
-0.06
 74
     0
 49
0.01
 74
     0
 49
-0.06
 74
     0
  0
LTYPE
  5
4F
330
5
100
AcDbSymbolTableRecord
100
AcDbLinetypeTableRecord
  2
LONG_DASH_TRIPLE_DOT
 70
     0
  3
Long Dash Triple Dot ____ ... ____ ... ____
 72
    65
 73
     8
 40
0.3689
 49
0.2362
 74
     0
 49
-0.0295
 74
     0
 49
0.0049
 74
     0
 49
-0.0295
 74
     0
 49
0.0049
 74
     0
 49
-0.0295
 74
     0
 49
0.0049
 74
     0
 49
-0.0295
 74
     0
  0
LTYPE
  5
50
330
5
100
AcDbSymbolTableRecord
100
AcDbLinetypeTableRecord
  2
BORDER
 70
     0
  3
Border __ __ . __ __ . __ __ . __ __ . __ __ .
 72
    65
 73
     6
 40
1.75
 49
0.5
 74
     0
 49
-0.25
 74
     0
 49
0.5
 74
     0
 49
-0.25
 74
     0
 49
0.0
 74
     0
 49
-0.25
 74
     0
  0
LTYPE
  5
51
330
5
100
AcDbSymbolTableRecord
100
AcDbLinetypeTableRecord
  2
BORDER2
 70
     0
  3
Border (.5x) __.__.__.__.__.__.__.__.__.__.__.
 72
    65
 73
     6
 40
0.875
 49
0.25
 74
     0
 49
-0.125
 74
     0
 49
0.25
 74
     0
 49
-0.125
 74
     0
 49
0.0
 74
     0
 49
-0.125
 74
     0
  0
LTYPE
  5
52
330
5
100
AcDbSymbolTableRecord
100
AcDbLinetypeTableRecord
  2
BORDERX2
 70
     0
  3
Border (2x) ____  ____  .  ____  ____  .  ___
 72
    65
 73
     6
 40
3.5
 49
1.0
 74
     0
 49
-0.5
 74
     0
 49
1.0
 74
     0
 49
-0.5
 74
     0
 49
0.0
 74
     0
 49
-0.5
 74
     0
  0
LTYPE
  5
53
330
5
100
AcDbSymbolTableRecord
100
AcDbLinetypeTableRecord
  2
CENTER
 70
     0
  3
Center ____ _ ____ _ ____ _ ____ _ ____ _ ____
 72
    65
 73
     4
 40
2.0
 49
1.25
 74
     0
 49
-0.25
 74
     0
 49
0.25
 74
     0
 49
-0.25
 74
     0
  0
LTYPE
  5
54
330
5
100
AcDbSymbolTableRecord
100
AcDbLinetypeTableRecord
  2
CENTER2
 70
     0
  3
Center (.5x) ___ _ ___ _ ___ _ ___ _ ___ _ ___
 72
    65
 73
     4
 40
1.125
 49
0.75
 74
     0
 49
-0.125
 74
     0
 49
0.125
 74
     0
 49
-0.125
 74
     0
  0
LTYPE
  5
55
330
5
100
AcDbSymbolTableRecord
100
AcDbLinetypeTableRecord
  2
CENTERX2
 70
     0
  3
Center (2x) ________  __  ________  __  _____
 72
    65
 73
     4
 40
4.0
 49
2.5
 74
     0
 49
-0.5
 74
     0
 49
0.5
 74
     0
 49
-0.5
 74
     0
  0
LTYPE
  5
56
330
5
100
AcDbSymbolTableRecord
100
AcDbLinetypeTableRecord
  2
DASHDOT2
 70
     0
  3
Dash dot (.5x) _._._._._._._._._._._._._._._.
 72
    65
 73
     4
 40
0.5
 49
0.25
 74
     0
 49
-0.125
 74
     0
 49
0.0
 74
     0
 49
-0.125
 74
     0
  0
LTYPE
  5
57
330
5
100
AcDbSymbolTableRecord
100
AcDbLinetypeTableRecord
  2
DASHDOTX2
 70
     0
  3
Dash dot (2x) ____  .  ____  .  ____  .  ___
 72
    65
 73
     4
 40
2.0
 49
1.0
 74
     0
 49
-0.5
 74
     0
 49
0.0
 74
     0
 49
-0.5
 74
     0
  0
LTYPE
  5
59
330
5
100
AcDbSymbolTableRecord
100
AcDbLinetypeTableRecord
  2
DASHED2
 70
     0
  3
Dashed (.5x) _ _ _ _ _ _ _ _ _ _ _ _ _ _ _ _ _
 72
    65
 73
     2
 40
0.375
 49
0.25
 74
     0
 49
-0.125
 74
     0
  0
LTYPE
  5
5A
330
5
100
AcDbSymbolTableRecord
100
AcDbLinetypeTableRecord
  2
DASHEDX2
 70
     0
  3
Dashed (2x) ____  ____  ____  ____  ____  ___
 72
    65
 73
     2
 40
1.5
 49
1.0
 74
     0
 49
-0.5
 74
     0
  0
LTYPE
  5
5B
330
5
100
AcDbSymbolTableRecord
100
AcDbLinetypeTableRecord
  2
DIVIDE
 70
     0
  3
Divide ____ . . ____ . . ____ . . ____ . . ____
 72
    65
 73
     6
 40
1.25
 49
0.5
 74
     0
 49
-0.25
 74
     0
 49
0.0
 74
     0
 49
-0.25
 74
     0
 49
0.0
 74
     0
 49
-0.25
 74
     0
  0
LTYPE
  5
5C
330
5
100
AcDbSymbolTableRecord
100
AcDbLinetypeTableRecord
  2
DIVIDE2
 70
     0
  3
Divide (.5x) __..__..__..__..__..__..__..__.._
 72
    65
 73
     6
 40
0.625
 49
0.25
 74
     0
 49
-0.125
 74
     0
 49
0.0
 74
     0
 49
-0.125
 74
     0
 49
0.0
 74
     0
 49
-0.125
 74
     0
  0
LTYPE
  5
5D
330
5
100
AcDbSymbolTableRecord
100
AcDbLinetypeTableRecord
  2
DIVIDEX2
 70
     0
  3
Divide (2x) ________  .  .  ________  .  .  _
 72
    65
 73
     6
 40
2.5
 49
1.0
 74
     0
 49
-0.5
 74
     0
 49
0.0
 74
     0
 49
-0.5
 74
     0
 49
0.0
 74
     0
 49
-0.5
 74
     0
  0
LTYPE
  5
5E
330
5
100
AcDbSymbolTableRecord
100
AcDbLinetypeTableRecord
  2
DOT
 70
     0
  3
Dot . . . . . . . . . . . . . . . . . . . . . .
 72
    65
 73
     2
 40
0.25
 49
0.0
 74
     0
 49
-0.25
 74
     0
  0
LTYPE
  5
5F
330
5
100
AcDbSymbolTableRecord
100
AcDbLinetypeTableRecord
  2
DOT2
 70
     0
  3
Dot (.5x) .....................................
 72
    65
 73
     2
 40
0.125
 49
0.0
 74
     0
 49
-0.125
 74
     0
  0
LTYPE
  5
60
330
5
100
AcDbSymbolTableRecord
100
AcDbLinetypeTableRecord
  2
DOTX2
 70
     0
  3
Dot (2x) .  .  .  .  .  .  .  .  .  .  .  .  . 
 72
    65
 73
     2
 40
0.5
 49
0.0
 74
     0
 49
-0.5
 74
     0
  0
LTYPE
  5
61
330
5
100
AcDbSymbolTableRecord
100
AcDbLinetypeTableRecord
  2
HIDDEN
 70
     0
  3
Hidden __ __ __ __ __ __ __ __ __ __ __ __ __ _
 72
    65
 73
     2
 40
0.375
 49
0.25
 74
     0
 49
-0.125
 74
     0
  0
LTYPE
  5
62
330
5
100
AcDbSymbolTableRecord
100
AcDbLinetypeTableRecord
  2
HIDDEN2
 70
     0
  3
Hidden (.5x) _ _ _ _ _ _ _ _ _ _ _ _ _ _ _ _ _
 72
    65
 73
     2
 40
0.1875
 49
0.125
 74
     0
 49
-0.0625
 74
     0
  0
LTYPE
  5
63
330
5
100
AcDbSymbolTableRecord
100
AcDbLinetypeTableRecord
  2
HIDDENX2
 70
     0
  3
Hidden (2x) ____ ____ ____ ____ ____ ____ ____
 72
    65
 73
     2
 40
0.75
 49
0.5
 74
     0
 49
-0.25
 74
     0
  0
LTYPE
  5
64
330
5
100
AcDbSymbolTableRecord
100
AcDbLinetypeTableRecord
  2
PHANTOM
 70
     0
  3
Phantom ______  __  __  ______  __  __  ______
 72
    65
 73
     6
 40
2.5
 49
1.25
 74
     0
 49
-0.25
 74
     0
 49
0.25
 74
     0
 49
-0.25
 74
     0
 49
0.25
 74
     0
 49
-0.25
 74
     0
  0
LTYPE
  5
65
330
5
100
AcDbSymbolTableRecord
100
AcDbLinetypeTableRecord
  2
PHANTOM2
 70
     0
  3
Phantom (.5x) ___ _ _ ___ _ _ ___ _ _ ___ _ _
 72
    65
 73
     6
 40
1.25
 49
0.625
 74
     0
 49
-0.125
 74
     0
 49
0.125
 74
     0
 49
-0.125
 74
     0
 49
0.125
 74
     0
 49
-0.125
 74
     0
  0
LTYPE
  5
66
330
5
100
AcDbSymbolTableRecord
100
AcDbLinetypeTableRecord
  2
PHANTOMX2
 70
     0
  3
Phantom (2x) ____________    ____    ____   _
 72
    65
 73
     6
 40
5.0
 49
2.5
 74
     0
 49
-0.5
 74
     0
 49
0.5
 74
     0
 49
-0.5
 74
     0
 49
0.5
 74
     0
 49
-0.5
 74
     0
  0
LTYPE
  5
67
330
5
100
AcDbSymbolTableRecord
100
AcDbLinetypeTableRecord
  2
ACAD_ISO02W100
 70
     0
  3
ISO dash __ __ __ __ __ __ __ __ __ __ __ __ __
 72
    65
 73
     2
 40
0.59
 49
0.47
 74
     0
 49
-0.12
 74
     0
  0
LTYPE
  5
68
330
5
100
AcDbSymbolTableRecord
100
AcDbLinetypeTableRecord
  2
ACAD_ISO03W100
 70
     0
  3
ISO dash space __    __    __    __    __    __
 72
    65
 73
     2
 40
1.179999999999999
 49
0.47
 74
     0
 49
-0.71
 74
     0
  0
LTYPE
  5
69
330
5
100
AcDbSymbolTableRecord
100
AcDbLinetypeTableRecord
  2
ACAD_ISO04W100
 70
     0
  3
ISO long-dash dot ____ . ____ . ____ . ____ . _
 72
    65
 73
     4
 40
1.179999999999999
 49
0.9399999999999998
 74
     0
 49
-0.12
 74
     0
 49
0.0
 74
     0
 49
-0.12
 74
     0
  0
LTYPE
  5
6A
330
5
100
AcDbSymbolTableRecord
100
AcDbLinetypeTableRecord
  2
ACAD_ISO05W100
 70
     0
  3
ISO long-dash double-dot ____ .. ____ .. ____ .
 72
    65
 73
     6
 40
1.299999999999999
 49
0.9399999999999998
 74
     0
 49
-0.12
 74
     0
 49
0.0
 74
     0
 49
-0.12
 74
     0
 49
0.0
 74
     0
 49
-0.12
 74
     0
  0
LTYPE
  5
6B
330
5
100
AcDbSymbolTableRecord
100
AcDbLinetypeTableRecord
  2
ACAD_ISO06W100
 70
     0
  3
ISO long-dash triple-dot ____ ... ____ ... ____
 72
    65
 73
     8
 40
1.419999999999999
 49
0.9399999999999998
 74
     0
 49
-0.12
 74
     0
 49
0.0
 74
     0
 49
-0.12
 74
     0
 49
0.0
 74
     0
 49
-0.12
 74
     0
 49
0.0
 74
     0
 49
-0.12
 74
     0
  0
LTYPE
  5
6C
330
5
100
AcDbSymbolTableRecord
100
AcDbLinetypeTableRecord
  2
ACAD_ISO07W100
 70
     0
  3
ISO dot . . . . . . . . . . . . . . . . . . . .
 72
    65
 73
     2
 40
0.12
 49
0.0
 74
     0
 49
-0.12
 74
     0
  0
LTYPE
  5
6D
330
5
100
AcDbSymbolTableRecord
100
AcDbLinetypeTableRecord
  2
ACAD_ISO08W100
 70
     0
  3
ISO long-dash short-dash ____ __ ____ __ ____ _
 72
    65
 73
     4
 40
0.95
 49
0.47
 74
     0
 49
-0.12
 74
     0
 49
0.24
 74
     0
 49
-0.12
 74
     0
  0
LTYPE
  5
6E
330
5
100
AcDbSymbolTableRecord
100
AcDbLinetypeTableRecord
  2
ACAD_ISO09W100
 70
     0
  3
ISO long-dash double-short-dash ____ __ __ ____
 72
    65
 73
     6
 40
1.31
 49
0.47
 74
     0
 49
-0.12
 74
     0
 49
0.24
 74
     0
 49
-0.12
 74
     0
 49
0.24
 74
     0
 49
-0.12
 74
     0
  0
LTYPE
  5
6F
330
5
100
AcDbSymbolTableRecord
100
AcDbLinetypeTableRecord
  2
ACAD_ISO10W100
 70
     0
  3
ISO dash dot __ . __ . __ . __ . __ . __ . __ .
 72
    65
 73
     4
 40
0.71
 49
0.47
 74
     0
 49
-0.12
 74
     0
 49
0.0
 74
     0
 49
-0.12
 74
     0
  0
LTYPE
  5
70
330
5
100
AcDbSymbolTableRecord
100
AcDbLinetypeTableRecord
  2
ACAD_ISO11W100
 70
     0
  3
ISO double-dash dot __ __ . __ __ . __ __ . __ 
 72
    65
 73
     6
 40
1.299999999999999
 49
0.47
 74
     0
 49
-0.12
 74
     0
 49
0.47
 74
     0
 49
-0.12
 74
     0
 49
0.0
 74
     0
 49
-0.12
 74
     0
  0
LTYPE
  5
71
330
5
100
AcDbSymbolTableRecord
100
AcDbLinetypeTableRecord
  2
ACAD_ISO12W100
 70
     0
  3
ISO dash double-dot __ . . __ . . __ . . __ . .
 72
    65
 73
     6
 40
0.8299999999999998
 49
0.47
 74
     0
 49
-0.12
 74
     0
 49
0.0
 74
     0
 49
-0.12
 74
     0
 49
0.0
 74
     0
 49
-0.12
 74
     0
  0
LTYPE
  5
72
330
5
100
AcDbSymbolTableRecord
100
AcDbLinetypeTableRecord
  2
ACAD_ISO13W100
 70
     0
  3
ISO double-dash double-dot __ __ . . __ __ . . 
 72
    65
 73
     8
 40
1.419999999999999
 49
0.47
 74
     0
 49
-0.12
 74
     0
 49
0.47
 74
     0
 49
-0.12
 74
     0
 49
0.0
 74
     0
 49
-0.12
 74
     0
 49
0.0
 74
     0
 49
-0.12
 74
     0
  0
LTYPE
  5
73
330
5
100
AcDbSymbolTableRecord
100
AcDbLinetypeTableRecord
  2
ACAD_ISO14W100
 70
     0
  3
ISO dash triple-dot __ . . . __ . . . __ . . . 
 72
    65
 73
     8
 40
0.95
 49
0.47
 74
     0
 49
-0.12
 74
     0
 49
0.0
 74
     0
 49
-0.12
 74
     0
 49
0.0
 74
     0
 49
-0.12
 74
     0
 49
0.0
 74
     0
 49
-0.12
 74
     0
  0
LTYPE
  5
74
330
5
100
AcDbSymbolTableRecord
100
AcDbLinetypeTableRecord
  2
ACAD_ISO15W100
 70
     0
  3
ISO double-dash triple-dot __ __ . . . __ __ . 
 72
    65
 73
    10
 40
1.539999999999999
 49
0.47
 74
     0
 49
-0.12
 74
     0
 49
0.47
 74
     0
 49
-0.12
 74
     0
 49
0.0
 74
     0
 49
-0.12
 74
     0
 49
0.0
 74
     0
 49
-0.12
 74
     0
 49
0.0
 74
     0
 49
-0.12
 74
     0
  0
LTYPE
  5
77
330
5
100
AcDbSymbolTableRecord
100
AcDbLinetypeTableRecord
  2
FENCELINE1
 70
     0
  3
Fenceline circle ----0-----0----0-----0----0---
 72
    65
 73
     4
 40
1.45
 49
0.25
 74
     0
 49
-0.1
 74
     4
 75
   133
340
76
 46
0.1
 50
0.0
 44
-0.1
 45
0.0
 49
-0.1
 74
     0
 49
1.0
 74
     0
  0
LTYPE
  5
78
330
5
100
AcDbSymbolTableRecord
100
AcDbLinetypeTableRecord
  2
FENCELINE2
 70
     0
  3
Fenceline square ----[]-----[]----[]-----[]----
 72
    65
 73
     4
 40
1.45
 49
0.25
 74
     0
 49
-0.1
 74
     4
 75
   132
340
76
 46
0.1
 50
0.0
 44
-0.1
 45
0.0
 49
-0.1
 74
     0
 49
1.0
 74
     0
  0
LTYPE
  5
79
330
5
100
AcDbSymbolTableRecord
100
AcDbLinetypeTableRecord
  2
TRACKS
 70
     0
  3
Tracks -|-|-|-|-|-|-|-|-|-|-|-|-|-|-|-|-|-|-|-|
 72
    65
 73
     2
 40
0.3
 49
0.15
 74
     4
 75
   130
340
76
 46
0.25
 50
0.0
 44
0.0
 45
0.0
 49
0.15
 74
     0
  0
LTYPE
  5
7A
330
5
100
AcDbSymbolTableRecord
100
AcDbLinetypeTableRecord
  2
BATTING
 70
     0
  3
Batting SSSSSSSSSSSSSSSSSSSSSSSSSSSSSSSSSSSSSSS
 72
    65
 73
     4
 40
0.4001000000000001
 49
0.0001
 74
     0
 49
-0.1
 74
     4
 75
   134
340
76
 46
0.1
 50
0.0
 44
-0.1
 45
0.0
 49
-0.2
 74
     4
 75
   134
340
76
 46
0.1
 50
180.0
 44
0.1
 45
0.0
 49
-0.1
 74
     0
  0
LTYPE
  5
7B
330
5
100
AcDbSymbolTableRecord
100
AcDbLinetypeTableRecord
  2
HOT_WATER_SUPPLY
 70
     0
  3
Hot water supply ---- HW ---- HW ---- HW ----
 72
    65
 73
     3
 40
0.9
 49
0.5
 74
     0
 49
-0.2
 74
     2
 75
     0
340
26
 46
0.1
 50
0.0
 44
-0.1
 45
-0.05
  9
HW
 49
-0.2
 74
     0
  0
LTYPE
  5
7C
330
5
100
AcDbSymbolTableRecord
100
AcDbLinetypeTableRecord
  2
GAS_LINE
 70
     0
  3
Gas line ----GAS----GAS----GAS----GAS----GAS---
 72
    65
 73
     3
 40
0.95
 49
0.5
 74
     0
 49
-0.2
 74
     2
 75
     0
340
26
 46
0.1
 50
0.0
 44
-0.1
 45
-0.05
  9
GAS
 49
-0.25
 74
     0
  0
LTYPE
  5
7D
330
5
100
AcDbSymbolTableRecord
100
AcDbLinetypeTableRecord
  2
ZIGZAG
 70
     0
  3
Zig zag /\/\/\/\/\/\/\/\/\/\/\/\/\/\/\/\/\/\/\/
 72
    65
 73
     4
 40
0.8001000000000001
 49
0.0001
 74
     0
 49
-0.2
 74
     4
 75
   131
340
76
 46
0.2
 50
0.0
 44
-0.2
 45
0.0
 49
-0.4
 74
     4
 75
   131
340
76
 46
0.2
 50
180.0
 44
0.2
 45
0.0
 49
-0.2
 74
     0
  0
ENDTAB
  0
TABLE
  2
LAYER
  5
2
330
0
100
AcDbSymbolTable
 70
    26
  0
LAYER
  5
25
330
2
100
AcDbSymbolTableRecord
100
AcDbLayerTableRecord
  2
0
 70
     0
 62
     7
  6
Continuous
370
    -3
390
F
  0
LAYER
  5
81
330
2
100
AcDbSymbolTableRecord
100
AcDbLayerTableRecord
  2
Border (ANSI)
 70
     0
 62
     7
  6
Continuous
370
    70
390
F
  0
LAYER
  5
83
330
2
100
AcDbSymbolTableRecord
100
AcDbLayerTableRecord
  2
Center Mark (ANSI)
 70
     0
 62
     7
  6
Continuous
370
    25
390
F
  0
LAYER
  5
84
330
2
100
AcDbSymbolTableRecord
100
AcDbLayerTableRecord
  2
Centerline (ANSI)
 70
     0
 62
     7
  6
Continuous
370
    25
390
F
  0
LAYER
  5
86
330
2
100
AcDbSymbolTableRecord
100
AcDbLayerTableRecord
  2
Dimension (ANSI)
 70
     0
 62
     7
  6
Continuous
370
    25
390
F
  0
LAYER
  5
8D
330
2
100
AcDbSymbolTableRecord
100
AcDbLayerTableRecord
  2
Sketch Geometry (ANSI)
 70
     0
 62
     7
  6
Continuous
370
    25
390
F
  0
LAYER
  5
8E
330
2
100
AcDbSymbolTableRecord
100
AcDbLayerTableRecord
  2
Symbol (ANSI)
 70
     0
 62
     7
  6
Continuous
370
    25
390
F
  0
LAYER
  5
91
330
2
100
AcDbSymbolTableRecord
100
AcDbLayerTableRecord
  2
Visible (ANSI)
 70
     0
 62
     7
  6
Continuous
370
    50
390
F
  0
LAYER
  5
180
330
2
100
AcDbSymbolTableRecord
100
AcDbLayerTableRecord
  2
Defpoints
 70
     0
 62
     7
  6
Continuous
290
     0
370
    -3
390
F
  0
ENDTAB
  0
TABLE
  2
STYLE
  5
3
330
0
100
AcDbSymbolTable
 70
    13
  0
STYLE
  5
26
330
3
100
AcDbSymbolTableRecord
100
AcDbTextStyleTableRecord
  2
Standard
 70
     0
 40
0.0
 41
1.0
 50
0.0
 71
     0
 42
0.2
  3
TAHOMA.TTF
  4

1001
ACAD
1000
Tahoma
1071
      256
  0
STYLE
  5
76
330
3
100
AcDbSymbolTableRecord
100
AcDbTextStyleTableRecord
  2

 70
     1
 40
0.0
 41
1.0
 50
0.0
 71
     0
 42
0.2
  3
ltypeshp.shx
  4

  0
STYLE
  5
96
330
3
100
AcDbSymbolTableRecord
100
AcDbTextStyleTableRecord
  2
Label Text (ANSI)
 70
     0
 40
0.0
 41
1.0
 50
0.0
 71
     0
 42
0.2
  3
TAHOMA.TTF
  4

1001
ACAD
1000
Tahoma
1071
      256
  0
STYLE
  5
97
330
3
100
AcDbSymbolTableRecord
100
AcDbTextStyleTableRecord
  2
Label Text (DIN)
 70
     0
 40
0.0
 41
1.0
 50
0.0
 71
     0
 42
0.2
  3
isocpeur.ttf
  4

1001
ACAD
1000
ISOCPEUR
1071
      256
  0
STYLE
  5
98
330
3
100
AcDbSymbolTableRecord
100
AcDbTextStyleTableRecord
  2
Label Text (ISO)
 70
     0
 40
0.0
 41
1.0
 50
0.0
 71
     0
 42
0.2
  3
TAHOMA.TTF
  4

1001
ACAD
1000
Tahoma
1071
      256
  0
STYLE
  5
99
330
3
100
AcDbSymbolTableRecord
100
AcDbTextStyleTableRecord
  2
Label Text (JIS)
 70
     0
 40
0.0
 41
1.0
 50
0.0
 71
     0
 42
0.2
  3
TAHOMA.TTF
  4

1001
ACAD
1000
Tahoma
1071
      256
  0
STYLE
  5
9A
330
3
100
AcDbSymbolTableRecord
100
AcDbTextStyleTableRecord
  2
Note Text (ANSI)
 70
     0
 40
0.0
 41
1.0
 50
0.0
 71
     0
 42
0.2
  3
TAHOMA.TTF
  4

1001
ACAD
1000
Tahoma
1071
      256
  0
STYLE
  5
9B
330
3
100
AcDbSymbolTableRecord
100
AcDbTextStyleTableRecord
  2
Note Text (DIN)
 70
     0
 40
0.0
 41
1.0
 50
0.0
 71
     0
 42
0.2
  3
isocpeur.ttf
  4

1001
ACAD
1000
ISOCPEUR
1071
      256
  0
STYLE
  5
9C
330
3
100
AcDbSymbolTableRecord
100
AcDbTextStyleTableRecord
  2
Note Text (ISO)
 70
     0
 40
0.0
 41
1.0
 50
0.0
 71
     0
 42
0.2
  3
TAHOMA.TTF
  4

1001
ACAD
1000
Tahoma
1071
      256
  0
STYLE
  5
9D
330
3
100
AcDbSymbolTableRecord
100
AcDbTextStyleTableRecord
  2
Note Text (JIS)
 70
     0
 40
0.0
 41
1.0
 50
0.0
 71
     0
 42
0.2
  3
TAHOMA.TTF
  4

1001
ACAD
1000
Tahoma
1071
      256
  0
STYLE
  5
F1
330
3
100
AcDbSymbolTableRecord
100
AcDbTextStyleTableRecord
  2
Text Style29
 70
     0
 40
0.0
 41
1.0
 50
0.0
 71
     0
 42
0.2
  3
TAHOMA.TTF
  4

1001
ACAD
1000
Tahoma
1071
      256
  0
STYLE
  5
7AE
330
3
100
AcDbSymbolTableRecord
100
AcDbTextStyleTableRecord
  2
Text Style30
 70
     0
 40
0.0
 41
1.0
 50
0.0
 71
     0
 42
0.2
  3
TAHOMA.TTF
  4

1001
ACAD
1000
Tahoma
1071
      256
  0
STYLE
  5
9D3
330
3
100
AcDbSymbolTableRecord
100
AcDbTextStyleTableRecord
  2
Text Style6
 70
     0
 40
0.0
 41
1.0
 50
0.0
 71
     0
 42
0.2
  3
AIGDT___.TTF
  4

1001
ACAD
1000
AIGDT
1071
      514
  0
ENDTAB
  0
TABLE
  2
VIEW
  5
6
330
0
100
AcDbSymbolTable
 70
     0
  0
ENDTAB
  0
TABLE
  2
UCS
  5
7
330
0
100
AcDbSymbolTable
 70
     0
  0
ENDTAB
  0
TABLE
  2
APPID
  5
9
330
0
100
AcDbSymbolTable
 70
     1
  0
APPID
  5
27
330
9
100
AcDbSymbolTableRecord
100
AcDbRegAppTableRecord
  2
ACAD
 70
     0
  0
ENDTAB
  0
TABLE
  2
DIMSTYLE
  5
A
330
0
100
AcDbSymbolTable
 70
    15
100
AcDbDimStyleTable
 71
     2
340
A6
340
3F
  0
DIMSTYLE
105
3F
330
A
100
AcDbSymbolTableRecord
100
AcDbDimStyleTableRecord
  2
Standard
 70
     0
340
26
  0
DIMSTYLE
105
9E
330
A
100
AcDbSymbolTableRecord
100
AcDbDimStyleTableRecord
  2
Architectural (ANSI)
 70
     0
 40
0.2
 41
0.0984251946210861
 42
0.0625
 43
0.2362204724409449
 44
0.125
 45
0.00000001
 46
0.3937007874015748
 78
     4
 79
     3
140
0.1200000047683716
144
0.0833333333333333
147
0.031496062992126
171
     1
176
   256
177
   256
178
   256
272
     2
274
     1
276
     2
277
     4
284
    12
286
    12
340
9A
371
    -1
372
    -1
  0
DIMSTYLE
105
9F
330
A
100
AcDbSymbolTableRecord
100
AcDbDimStyleTableRecord
  2
Architectural (ANSI)$7
 70
     0
 40
0.2
 41
0.0984251946210861
 42
0.0625
 43
0.2362204724409449
 44
0.125
 45
0.00000001
 46
0.3937007874015748
 78
     4
 79
     3
140
0.1200000047683716
144
0.0833333333333333
147
0.031496062992126
171
     1
176
   256
177
   256
178
   256
272
     2
274
     1
276
     2
277
     4
284
    12
286
    12
340
9A
371
    -1
372
    -1
  0
DIMSTYLE
105
A0
330
A
100
AcDbSymbolTableRecord
100
AcDbDimStyleTableRecord
  2
Default - Fraction (ANSI)
 70
     0
 40
0.2
 41
0.0984251946210861
 42
0.0625
 43
0.2362204724409449
 44
0.125
 45
0.00000001
 46
0.3937007874015748
 78
    12
 79
     3
140
0.1200000047683716
147
0.031496062992126
171
     1
176
   256
177
   256
178
   256
272
     2
274
     1
276
     2
277
     5
284
    12
286
    12
340
9A
371
    -1
372
    -1
  0
DIMSTYLE
105
A1
330
A
100
AcDbSymbolTableRecord
100
AcDbDimStyleTableRecord
  2
Default - Fraction (ANSI)$7
 70
     0
 40
0.2
 41
0.0984251946210861
 42
0.0625
 43
0.2362204724409449
 44
0.125
 45
0.00000001
 46
0.3937007874015748
 78
    12
 79
     3
140
0.1200000047683716
147
0.031496062992126
171
     1
176
   256
177
   256
178
   256
272
     2
274
     1
276
     2
277
     5
284
    12
286
    12
340
9A
371
    -1
372
    -1
  0
DIMSTYLE
105
A2
330
A
100
AcDbSymbolTableRecord
100
AcDbDimStyleTableRecord
  2
Default - mm (ANSI)
 70
     0
 40
0.2
 41
0.0984251946210861
 42
0.063
 43
0.2362204724409449
 44
0.125
 45
0.00000001
 46
0.3937007874015748
 73
     0
140
0.1200000047683716
143
1.0
144
25.4
147
0.031496062992126
171
     1
176
   256
177
   256
178
   256
179
     1
271
     2
272
     2
274
     1
340
9A
371
    -1
372
    -1
  0
DIMSTYLE
105
A3
330
A
100
AcDbSymbolTableRecord
100
AcDbDimStyleTableRecord
  2
Default - mm (ANSI)$7
 70
     0
 40
0.2
 41
0.0984251946210861
 42
0.063
 43
0.2362204724409449
 44
0.125
 45
0.00000001
 46
0.3937007874015748
 73
     0
140
0.1200000047683716
143
1.0
144
25.4
147
0.031496062992126
171
     1
176
   256
177
   256
178
   256
179
     1
271
     2
272
     2
274
     1
340
9A
371
    -1
372
    -1
  0
DIMSTYLE
105
A4
330
A
100
AcDbSymbolTableRecord
100
AcDbDimStyleTableRecord
  2
Default - mm [in] (ANSI)
 70
     0
  4
 in
 40
0.2
 41
0.0984251946210861
 42
0.063
 43
0.25
 44
0.125
 45
0.00000001
 46
0.3937007874015748
 73
     0
 78
     4
 79
     1
140
0.1200000047683716
143
0.03937
144
25.4
147
0.031496062992126
170
     1
171
     3
176
   256
177
   256
178
   256
179
     1
271
     2
272
     2
274
     3
284
     4
286
     4
340
9A
371
    -1
372
    -1
  0
DIMSTYLE
105
A5
330
A
100
AcDbSymbolTableRecord
100
AcDbDimStyleTableRecord
  2
Default - mm [in] (ANSI)$7
 70
     0
  4
 in
 40
0.2
 41
0.0984251946210861
 42
0.063
 43
0.25
 44
0.125
 45
0.00000001
 46
0.3937007874015748
 73
     0
 78
     4
 79
     1
140
0.1200000047683716
143
0.03937
144
25.4
147
0.031496062992126
170
     1
171
     3
176
   256
177
   256
178
   256
179
     1
271
     2
272
     2
274
     3
284
     4
286
     4
340
9A
371
    -1
372
    -1
  0
DIMSTYLE
105
A6
102
{ACAD_REACTORS
330
17F
330
24D
330
32D
330
3F9
330
4CB
330
597
330
62E
330
6C5
330
7B8
330
88D
330
9F0
330
A87
102
}
330
A
100
AcDbSymbolTableRecord
100
AcDbDimStyleTableRecord
  2
Default (ANSI)
 70
     0
  3
 in
 40
0.2
 41
0.0984251946210861
 42
0.0625
 43
0.2362204724409449
 44
0.125
 45
0.00000001
 46
0.3937007874015748
140
0.1200000047683716
147
0.031496062992126
171
     1
176
   256
177
   256
178
   256
271
     3
272
     3
274
     1
340
9A
371
    -1
372
    -1
  0
DIMSTYLE
105
A7
330
A
100
AcDbSymbolTableRecord
100
AcDbDimStyleTableRecord
  2
Default (ANSI)$7
 70
     0
  3
 in
 40
0.2
 41
0.0984251946210861
 42
0.0625
 43
0.2362204724409449
 44
0.125
 45
0.00000001
 46
0.3937007874015748
140
0.1200000047683716
147
0.031496062992126
171
     1
176
   256
177
   256
178
   256
271
     3
272
     3
274
     1
340
9A
371
    -1
372
    -1
  0
DIMSTYLE
105
B6
330
A
100
AcDbSymbolTableRecord
100
AcDbDimStyleTableRecord
  2
Miscellaneous Object (ANSI)
 70
     0
  3
 in
 40
0.2
 41
0.1968503892421722
 42
0.0625
 43
0.2362204724409449
 44
0.125
 45
0.00000001
 46
0.3937007874015748
140
0.1799999922513962
146
0.666666721856155
147
0.031496062992126
171
     1
176
   256
177
   256
178
   256
271
     3
272
     2
274
     1
340
96
341
A8
371
    -1
372
    -1
  0
DIMSTYLE
105
B7
330
A
100
AcDbSymbolTableRecord
100
AcDbDimStyleTableRecord
  2
Miscellaneous Object (ANSI)$7
 70
     0
  3
 in
 40
0.2
 41
0.1959999948740005
 42
0.0625
 43
0.2362204724409449
 44
0.125
 45
0.00000001
 46
0.3937007874015748
140
0.1799999922513962
146
0.666666721856155
147
0.031496062992126
171
     1
176
   256
177
   256
178
   256
271
     3
272
     2
274
     1
340
96
341
A8
371
    -1
372
    -1
  0
DIMSTYLE
105
B8
330
A
100
AcDbSymbolTableRecord
100
AcDbDimStyleTableRecord
  2
Alternate (ANSI)
 70
     0
 40
0.2
 41
0.0979999974370003
340
26
342
B9
  0
DIMSTYLE
105
CA
330
A
100
AcDbSymbolTableRecord
100
AcDbDimStyleTableRecord
  2
Datum (ANSI)
 70
     0
 40
0.2
 41
0.0979999974370003
340
26
342
B9
  0
ENDTAB
  0
TABLE
  2
BLOCK_RECORD
  5
1
330
0
100
AcDbSymbolTable
 70
    21
  0
BLOCK_RECORD
  5
37
330
1
100
AcDbSymbolTableRecord
100
AcDbBlockTableRecord
  2
*Model_Space
340
3A
  0
BLOCK_RECORD
  5
33
330
1
100
AcDbSymbolTableRecord
100
AcDbBlockTableRecord
  2
*Paper_Space
340
36
  0
BLOCK_RECORD
  5
3B
330
1
100
AcDbSymbolTableRecord
100
AcDbBlockTableRecord
  2
*Paper_Space0
340
3E
  0
BLOCK_RECORD
  5
A8
330
1
100
AcDbSymbolTableRecord
100
AcDbBlockTableRecord
  2
Filled-1
340
0
  0
BLOCK_RECORD
  5
B9
330
1
100
AcDbSymbolTableRecord
100
AcDbBlockTableRecord
  2
_Closed
340
0
  0
BLOCK_RECORD
  5
C0
330
1
100
AcDbSymbolTableRecord
100
AcDbBlockTableRecord
  2
DatumFilled45
340
0
  0
BLOCK_RECORD
  5
CB
330
1
100
AcDbSymbolTableRecord
100
AcDbBlockTableRecord
  2
Borders Default Border
340
0
102
{BLKREFS
331
FC
102
}
  0
BLOCK_RECORD
  5
181
330
1
100
AcDbSymbolTableRecord
100
AcDbBlockTableRecord
  2
*D5
340
0
  0
BLOCK_RECORD
  5
24E
330
1
100
AcDbSymbolTableRecord
100
AcDbBlockTableRecord
  2
*D6
340
0
  0
BLOCK_RECORD
  5
32E
330
1
100
AcDbSymbolTableRecord
100
AcDbBlockTableRecord
  2
*D7
340
0
  0
BLOCK_RECORD
  5
3FA
330
1
100
AcDbSymbolTableRecord
100
AcDbBlockTableRecord
  2
*D8
340
0
  0
BLOCK_RECORD
  5
4CC
330
1
100
AcDbSymbolTableRecord
100
AcDbBlockTableRecord
  2
*D9
340
0
  0
BLOCK_RECORD
  5
598
330
1
100
AcDbSymbolTableRecord
100
AcDbBlockTableRecord
  2
*D10
340
0
  0
BLOCK_RECORD
  5
62F
330
1
100
AcDbSymbolTableRecord
100
AcDbBlockTableRecord
  2
*D11
340
0
  0
BLOCK_RECORD
  5
6C6
330
1
100
AcDbSymbolTableRecord
100
AcDbBlockTableRecord
  2
*D12
340
0
  0
BLOCK_RECORD
  5
7B9
330
1
100
AcDbSymbolTableRecord
100
AcDbBlockTableRecord
  2
*D13
340
0
  0
BLOCK_RECORD
  5
88E
330
1
100
AcDbSymbolTableRecord
100
AcDbBlockTableRecord
  2
*D14
340
0
  0
BLOCK_RECORD
  5
970
330
1
100
AcDbSymbolTableRecord
100
AcDbBlockTableRecord
  2
_Dot
340
0
  0
BLOCK_RECORD
  5
987
330
1
100
AcDbSymbolTableRecord
100
AcDbBlockTableRecord
  2
Origin Indicator Symbol3
340
0
102
{BLKREFS
331
9AD
102
}
  0
BLOCK_RECORD
  5
9AE
330
1
100
AcDbSymbolTableRecord
100
AcDbBlockTableRecord
  2
Hole Table3
340
0
102
{BLKREFS
331
9DD
102
}
  0
BLOCK_RECORD
  5
9DE
330
1
100
AcDbSymbolTableRecord
100
AcDbBlockTableRecord
  2
Leader Text13
340
0
102
{BLKREFS
331
9EF
102
}
  0
BLOCK_RECORD
  5
9F1
330
1
100
AcDbSymbolTableRecord
100
AcDbBlockTableRecord
  2
*D19
340
0
  0
BLOCK_RECORD
  5
A88
330
1
100
AcDbSymbolTableRecord
100
AcDbBlockTableRecord
  2
*D20
340
0
  0
ENDTAB
  0
ENDSEC
  0
SECTION
  2
BLOCKS
  0
BLOCK
  5
38
330
37
100
AcDbEntity
  8
0
100
AcDbBlockBegin
  2
*Model_Space
 70
     0
 10
0.0
 20
0.0
 30
0.0
  3
*Model_Space
  1

  0
ENDBLK
  5
39
330
37
100
AcDbEntity
  8
0
100
AcDbBlockEnd
  0
BLOCK
  5
34
330
33
100
AcDbEntity
 67
     1
  8
0
100
AcDbBlockBegin
  2
*Paper_Space
 70
     0
 10
0.0
 20
0.0
 30
0.0
  3
*Paper_Space
  1

  0
ENDBLK
  5
35
330
33
100
AcDbEntity
 67
     1
  8
0
100
AcDbBlockEnd
  0
BLOCK
  5
3C
330
3B
100
AcDbEntity
 67
     1
  8
0
100
AcDbBlockBegin
  2
*Paper_Space0
 70
     0
 10
0.0
 20
0.0
 30
0.0
  3
*Paper_Space0
  1

  0
ENDBLK
  5
3D
330
3B
100
AcDbEntity
 67
     1
  8
0
100
AcDbBlockEnd
  0
BLOCK
  5
A9
330
A8
100
AcDbEntity
  8
0
100
AcDbBlockBegin
  2
Filled-1
 70
     0
 10
0.0
 20
0.0
 30
0.0
  3
Filled-1
  1

  0
LINE
  5
AB
330
A8
100
AcDbEntity
  8
0
 62
     0
100
AcDbLine
 10
-0.9999999999999998
 20
0.0
 30
0.0
 11
0.0
 21
0.0
 31
0.0
  0
POLYLINE
  5
AC
330
A8
100
AcDbEntity
  8
0
 62
     0
100
AcDb2dPolyline
 66
     1
 10
0.0
 20
0.0
 30
0.0
 70
   128
  0
VERTEX
  5
AD
330
AC
100
AcDbEntity
  8
0
 62
     0
100
AcDbVertex
100
AcDb2dVertex
 10
-0.9999999999999998
 20
-0.0994897959183674
 30
0.0
  0
VERTEX
  5
AE
330
AC
100
AcDbEntity
  8
0
 62
     0
100
AcDbVertex
100
AcDb2dVertex
 10
0.0
 20
0.0
 30
0.0
  0
VERTEX
  5
B0
330
AC
100
AcDbEntity
  8
0
 62
     0
100
AcDbVertex
100
AcDb2dVertex
 10
-0.9999999999999998
 20
0.0994897959183674
 30
0.0
  0
VERTEX
  5
B1
330
AC
100
AcDbEntity
  8
0
 62
     0
100
AcDbVertex
100
AcDb2dVertex
 10
-0.9999999999999998
 20
-0.0994897959183674
 30
0.0
  0
SEQEND
  5
AF
330
AC
100
AcDbEntity
  8
0
 62
     0
  0
SOLID
  5
B2
330
A8
100
AcDbEntity
  8
0
 62
     0
100
AcDbTrace
 10
-0.9999999999999998
 20
-0.0994897959183674
 30
0.0
 11
0.0
 21
0.0
 31
0.0
 12
-0.9999999999999998
 22
0.0994897959183674
 32
0.0
 13
-0.9999999999999998
 23
-0.0994897959183674
 33
0.0
  0
LINE
  5
B3
330
A8
100
AcDbEntity
  8
0
 62
     0
100
AcDbLine
 10
-0.9999999999999998
 20
-0.0994897959183674
 30
0.0
 11
0.0
 21
0.0
 31
0.0
  0
LINE
  5
B4
330
A8
100
AcDbEntity
  8
0
 62
     0
100
AcDbLine
 10
0.0
 20
0.0
 30
0.0
 11
-0.9999999999999998
 21
0.0994897959183674
 31
0.0
  0
LINE
  5
B5
330
A8
100
AcDbEntity
  8
0
 62
     0
100
AcDbLine
 10
-0.9999999999999998
 20
0.0994897959183674
 30
0.0
 11
-0.9999999999999998
 21
-0.0994897959183674
 31
0.0
  0
ENDBLK
  5
AA
330
A8
100
AcDbEntity
  8
0
100
AcDbBlockEnd
  0
BLOCK
  5
BE
330
B9
100
AcDbEntity
  8
0
100
AcDbBlockBegin
  2
_Closed
 70
     0
 10
0.0
 20
0.0
 30
0.0
  3
_Closed
  1

  0
LINE
  5
BA
330
B9
100
AcDbEntity
  8
0
  6
ByBlock
 62
     0
370
    -2
100
AcDbLine
 10
-1.0
 20
0.1666666666666666
 30
0.0
 11
0.0
 21
0.0
 31
0.0
  0
LINE
  5
BB
330
B9
100
AcDbEntity
  8
0
  6
ByBlock
 62
     0
370
    -2
100
AcDbLine
 10
0.0
 20
0.0
 30
0.0
 11
-1.0
 21
-0.1666666666666666
 31
0.0
  0
LINE
  5
BC
330
B9
100
AcDbEntity
  8
0
  6
ByBlock
 62
     0
370
    -2
100
AcDbLine
 10
-1.0
 20
0.1666666666666666
 30
0.0
 11
-1.0
 21
-0.1666666666666666
 31
0.0
  0
LINE
  5
BD
330
B9
100
AcDbEntity
  8
0
  6
ByBlock
 62
     0
370
    -2
100
AcDbLine
 10
0.0
 20
0.0
 30
0.0
 11
-1.0
 21
0.0
 31
0.0
  0
ENDBLK
  5
BF
330
B9
100
AcDbEntity
  8
0
100
AcDbBlockEnd
  0
BLOCK
  5
C1
330
C0
100
AcDbEntity
  8
0
100
AcDbBlockBegin
  2
DatumFilled45
 70
     0
 10
0.0
 20
0.0
 30
0.0
  3
DatumFilled45
  1

  0
POLYLINE
  5
C3
330
C0
100
AcDbEntity
  8
0
 62
     0
100
AcDb2dPolyline
 66
     1
 10
0.0
 20
0.0
 30
0.0
 70
   128
  0
VERTEX
  5
C4
330
C3
100
AcDbEntity
  8
0
 62
     0
100
AcDbVertex
100
AcDb2dVertex
 10
0.0
 20
0.9999999999999998
 30
0.0
  0
VERTEX
  5
C5
330
C3
100
AcDbEntity
  8
0
 62
     0
100
AcDbVertex
100
AcDb2dVertex
 10
0.0
 20
-0.9999999999999998
 30
0.0
  0
VERTEX
  5
C7
330
C3
100
AcDbEntity
  8
0
 62
     0
100
AcDbVertex
100
AcDb2dVertex
 10
-0.9999999999999998
 20
0.0
 30
0.0
  0
VERTEX
  5
C8
330
C3
100
AcDbEntity
  8
0
 62
     0
100
AcDbVertex
100
AcDb2dVertex
 10
0.0
 20
0.9999999999999998
 30
0.0
  0
SEQEND
  5
C6
330
C3
100
AcDbEntity
  8
0
 62
     0
  0
SOLID
  5
C9
330
C0
100
AcDbEntity
  8
0
 62
     0
100
AcDbTrace
 10
0.0
 20
0.9999999999999998
 30
0.0
 11
0.0
 21
-0.9999999999999998
 31
0.0
 12
-0.9999999999999998
 22
0.0
 32
0.0
 13
0.0
 23
0.9999999999999998
 33
0.0
  0
ENDBLK
  5
C2
330
C0
100
AcDbEntity
  8
0
100
AcDbBlockEnd
  0
BLOCK
  5
CC
330
CB
100
AcDbEntity
  8
0
100
AcDbBlockBegin
  2
Borders Default Border
 70
     0
 10
0.0
 20
0.0
 30
0.0
  3
Borders Default Border
  1

  0
POLYLINE
  5
CE
330
CB
100
AcDbEntity
  8
Border (ANSI)
100
AcDb2dPolyline
 66
     1
 10
0.0
 20
0.0
 30
0.0
 70
   128
  0
VERTEX
  5
CF
330
CE
100
AcDbEntity
  8
Border (ANSI)
100
AcDbVertex
100
AcDb2dVertex
 10
0.380000002740875
 20
0.380000002740875
 30
0.0
  0
VERTEX
  5
D0
330
CE
100
AcDbEntity
  8
Border (ANSI)
100
AcDbVertex
100
AcDb2dVertex
 10
0.380000002740875
 20
8.119999893068328
 30
0.0
  0
VERTEX
  5
D2
330
CE
100
AcDbEntity
  8
Border (ANSI)
100
AcDbVertex
100
AcDb2dVertex
 10
10.62000004325326
 20
8.119999893068328
 30
0.0
  0
VERTEX
  5
D3
330
CE
100
AcDbEntity
  8
Border (ANSI)
100
AcDbVertex
100
AcDb2dVertex
 10
10.62000004325326
 20
0.380000002740875
 30
0.0
  0
VERTEX
  5
D4
330
CE
100
AcDbEntity
  8
Border (ANSI)
100
AcDbVertex
100
AcDb2dVertex
 10
0.380000002740875
 20
0.380000002740875
 30
0.0
  0
SEQEND
  5
D1
330
CE
100
AcDbEntity
  8
Border (ANSI)
  0
POLYLINE
  5
D5
330
CB
100
AcDbEntity
  8
Border (ANSI)
100
AcDb2dPolyline
 66
     1
 10
0.0
 20
0.0
 30
0.0
 70
   128
  0
VERTEX
  5
D6
330
D5
100
AcDbEntity
  8
Border (ANSI)
100
AcDbVertex
100
AcDb2dVertex
 10
5.500000105129451
 20
0.1299999947623005
 30
0.0
  0
VERTEX
  5
D7
330
D5
100
AcDbEntity
  8
Border (ANSI)
100
AcDbVertex
100
AcDb2dVertex
 10
5.500000105129451
 20
0.380000002740875
 30
0.0
  0
VERTEX
  5
D9
330
D5
100
AcDbEntity
  8
Border (ANSI)
100
AcDbVertex
100
AcDb2dVertex
 10
5.413397466103861
 20
0.2300000096869281
 30
0.0
  0
VERTEX
  5
DA
330
D5
100
AcDbEntity
  8
Border (ANSI)
100
AcDbVertex
100
AcDb2dVertex
 10
5.586602368692712
 20
0.2300000096869281
 30
0.0
  0
VERTEX
  5
DB
330
D5
100
AcDbEntity
  8
Border (ANSI)
100
AcDbVertex
100
AcDb2dVertex
 10
5.500000105129451
 20
0.380000002740875
 30
0.0
  0
SEQEND
  5
D8
330
D5
100
AcDbEntity
  8
Border (ANSI)
  0
POLYLINE
  5
DC
330
CB
100
AcDbEntity
  8
Border (ANSI)
100
AcDb2dPolyline
 66
     1
 10
0.0
 20
0.0
 30
0.0
 70
   128
  0
VERTEX
  5
DD
330
DC
100
AcDbEntity
  8
Border (ANSI)
100
AcDbVertex
100
AcDb2dVertex
 10
5.500000105129451
 20
8.369999983179287
 30
0.0
  0
VERTEX
  5
DE
330
DC
100
AcDbEntity
  8
Border (ANSI)
100
AcDbVertex
100
AcDb2dVertex
 10
5.500000105129451
 20
8.119999893068328
 30
0.0
  0
VERTEX
  5
E0
330
DC
100
AcDbEntity
  8
Border (ANSI)
100
AcDbVertex
100
AcDb2dVertex
 10
5.413397466103861
 20
8.270000097319835
 30
0.0
  0
VERTEX
  5
E1
330
DC
100
AcDbEntity
  8
Border (ANSI)
100
AcDbVertex
100
AcDb2dVertex
 10
5.586602368692712
 20
8.270000097319835
 30
0.0
  0
VERTEX
  5
E2
330
DC
100
AcDbEntity
  8
Border (ANSI)
100
AcDbVertex
100
AcDb2dVertex
 10
5.500000105129451
 20
8.119999893068328
 30
0.0
  0
SEQEND
  5
DF
330
DC
100
AcDbEntity
  8
Border (ANSI)
  0
POLYLINE
  5
E3
330
CB
100
AcDbEntity
  8
Border (ANSI)
100
AcDb2dPolyline
 66
     1
 10
0.0
 20
0.0
 30
0.0
 70
   128
  0
VERTEX
  5
E4
330
E3
100
AcDbEntity
  8
Border (ANSI)
100
AcDbVertex
100
AcDb2dVertex
 10
0.1299999947623005
 20
4.250000030036986
 30
0.0
  0
VERTEX
  5
E5
330
E3
100
AcDbEntity
  8
Border (ANSI)
100
AcDbVertex
100
AcDb2dVertex
 10
0.380000002740875
 20
4.250000030036986
 30
0.0
  0
VERTEX
  5
E7
330
E3
100
AcDbEntity
  8
Border (ANSI)
100
AcDbVertex
100
AcDb2dVertex
 10
0.2300000096869281
 20
4.336602669062576
 30
0.0
  0
VERTEX
  5
E8
330
E3
100
AcDbEntity
  8
Border (ANSI)
100
AcDbVertex
100
AcDb2dVertex
 10
0.2300000096869281
 20
4.163397391011395
 30
0.0
  0
VERTEX
  5
E9
330
E3
100
AcDbEntity
  8
Border (ANSI)
100
AcDbVertex
100
AcDb2dVertex
 10
0.380000002740875
 20
4.250000030036986
 30
0.0
  0
SEQEND
  5
E6
330
E3
100
AcDbEntity
  8
Border (ANSI)
  0
POLYLINE
  5
EA
330
CB
100
AcDbEntity
  8
Border (ANSI)
100
AcDb2dPolyline
 66
     1
 10
0.0
 20
0.0
 30
0.0
 70
   128
  0
VERTEX
  5
EB
330
EA
100
AcDbEntity
  8
Border (ANSI)
100
AcDbVertex
100
AcDb2dVertex
 10
10.87000013336422
 20
4.250000030036986
 30
0.0
  0
VERTEX
  5
EC
330
EA
100
AcDbEntity
  8
Border (ANSI)
100
AcDbVertex
100
AcDb2dVertex
 10
10.62000004325326
 20
4.250000030036986
 30
0.0
  0
VERTEX
  5
EE
330
EA
100
AcDbEntity
  8
Border (ANSI)
100
AcDbVertex
100
AcDb2dVertex
 10
10.77000024750476
 20
4.336602669062576
 30
0.0
  0
VERTEX
  5
EF
330
EA
100
AcDbEntity
  8
Border (ANSI)
100
AcDbVertex
100
AcDb2dVertex
 10
10.77000024750476
 20
4.163397391011395
 30
0.0
  0
VERTEX
  5
F0
330
EA
100
AcDbEntity
  8
Border (ANSI)
100
AcDbVertex
100
AcDb2dVertex
 10
10.62000004325326
 20
4.250000030036986
 30
0.0
  0
SEQEND
  5
ED
330
EA
100
AcDbEntity
  8
Border (ANSI)
  0
MTEXT
  5
F2
330
CB
100
AcDbEntity
  8
Border (ANSI)
100
AcDbMText
 10
8.24092395498058
 20
8.16
 30
0.0
 40
0.1200000014830762
 41
0.0
 71
     7
 72
     1
  1
1
  7
Text Style29
 73
     1
 44
2.594217777252197
1001
ACAD
1000
MTEXTBEGIN
1070
    73
1070
     1
1070
    44
1040
2.594217777252197
1070
    74
1070
     0
1000
MTEXTEND
  0
MTEXT
  5
F5
330
CB
100
AcDbEntity
  8
Border (ANSI)
100
AcDbMText
 10
8.24092395498058
 20
0.2199999985169238
 30
0.0
 40
0.1200000014830762
 41
0.0
 71
     7
 72
     1
  1
1
  7
Text Style29
 73
     1
 44
1.0
1001
ACAD
1000
MTEXTBEGIN
1070
    73
1070
     1
1070
    44
1040
1.0
1070
    74
1070
     0
1000
MTEXTEND
  0
MTEXT
  5
F6
330
CB
100
AcDbEntity
  8
Border (ANSI)
100
AcDbMText
 10
2.722276993858532
 20
8.16
 30
0.0
 40
0.1200000014830762
 41
0.0
 71
     7
 72
     1
  1
2
  7
Text Style29
 73
     1
 44
1.0
1001
ACAD
1000
MTEXTBEGIN
1070
    73
1070
     1
1070
    44
1040
1.0
1070
    74
1070
     0
1000
MTEXTEND
  0
MTEXT
  5
F7
330
CB
100
AcDbEntity
  8
Border (ANSI)
100
AcDbMText
 10
2.722276993858532
 20
0.2199999985169238
 30
0.0
 40
0.1200000014830762
 41
0.0
 71
     7
 72
     1
  1
2
  7
Text Style29
 73
     1
 44
1.0
1001
ACAD
1000
MTEXTBEGIN
1070
    73
1070
     1
1070
    44
1040
1.0
1070
    74
1070
     0
1000
MTEXTEND
  0
MTEXT
  5
F8
330
CB
100
AcDbEntity
  8
Border (ANSI)
100
AcDbMText
 10
0.2281865791448458
 20
2.064999999258461
 30
0.0
 40
0.1200000014830762
 41
0.0
 71
     7
 72
     1
  1
A
  7
Text Style29
 73
     1
 44
1.0
1001
ACAD
1000
MTEXTBEGIN
1070
    73
1070
     1
1070
    44
1040
1.0
1070
    74
1070
     0
1000
MTEXTEND
  0
MTEXT
  5
F9
330
CB
100
AcDbEntity
  8
Border (ANSI)
100
AcDbMText
 10
10.66818658062792
 20
2.064999999258461
 30
0.0
 40
0.1200000014830762
 41
0.0
 71
     7
 72
     1
  1
A
  7
Text Style29
 73
     1
 44
1.0
1001
ACAD
1000
MTEXTBEGIN
1070
    73
1070
     1
1070
    44
1040
1.0
1070
    74
1070
     0
1000
MTEXTEND
  0
MTEXT
  5
FA
330
CB
100
AcDbEntity
  8
Border (ANSI)
100
AcDbMText
 10
0.2554072225563169
 20
6.314999999258461
 30
0.0
 40
0.1200000014830762
 41
0.0
 71
     7
 72
     1
  1
B
  7
Text Style29
 73
     1
 44
1.0
1001
ACAD
1000
MTEXTBEGIN
1070
    73
1070
     1
1070
    44
1040
1.0
1070
    74
1070
     0
1000
MTEXTEND
  0
MTEXT
  5
FB
330
CB
100
AcDbEntity
  8
Border (ANSI)
100
AcDbMText
 10
10.69540722403939
 20
6.314999999258461
 30
0.0
 40
0.1200000014830762
 41
0.0
 71
     7
 72
     1
  1
B
  7
Text Style29
 73
     1
 44
1.0
1001
ACAD
1000
MTEXTBEGIN
1070
    73
1070
     1
1070
    44
1040
1.0
1070
    74
1070
     0
1000
MTEXTEND
  0
ENDBLK
  5
CD
330
CB
100
AcDbEntity
  8
0
100
AcDbBlockEnd
  0
BLOCK
  5
18C
330
181
100
AcDbEntity
  8
0
100
AcDbBlockBegin
  2
*D5
 70
     1
 10
0.0
 20
0.0
 30
0.0
  3
*D5
  1

  0
LINE
  5
242
330
181
100
AcDbEntity
  8
Dimension (ANSI)
100
AcDbLine
 10
1.209821110485052
 20
0.4019524336119942
 30
0.0
 11
1.458767761912018
 21
0.4019524336119942
 31
0.0
  0
LINE
  5
243
330
181
100
AcDbEntity
  8
Dimension (ANSI)
100
AcDbLine
 10
1.14854693492212
 20
0.5969524336122325
 30
0.0
 11
1.458767761912018
 21
0.5969524336122324
 31
0.0
  0
LINE
  5
244
330
181
100
AcDbEntity
  8
Dimension (ANSI)
100
AcDbLine
 10
1.433767761912018
 20
0.4216374725362114
 30
0.0
 11
1.433767761912018
 21
0.5091712686606221
 31
0.0
  0
LINE
  5
245
330
181
100
AcDbEntity
  8
Dimension (ANSI)
100
AcDbLine
 10
1.433767761912018
 20
0.5772673946880152
 30
0.0
 11
1.433767761912018
 21
0.5467529050584096
 31
0.0
  0
SOLID
  5
246
330
181
100
AcDbEntity
  8
Dimension (ANSI)
100
AcDbTrace
 10
1.430486922091315
 20
0.4216374725362114
 30
0.0
 11
1.437048601732721
 21
0.4216374725362114
 31
0.0
 12
1.433767761912018
 22
0.4019524336119942
 32
0.0
 13
1.433767761912018
 23
0.4019524336119942
 33
0.0
  0
SOLID
  5
247
330
181
100
AcDbEntity
  8
Dimension (ANSI)
100
AcDbTrace
 10
1.430486922091315
 20
0.5772673946880152
 30
0.0
 11
1.437048601732721
 21
0.5772673946880152
 31
0.0
 12
1.433767761912018
 22
0.5969524336122324
 32
0.0
 13
1.433767761912018
 23
0.5969524336122324
 33
0.0
  0
MTEXT
  5
248
330
181
100
AcDbEntity
  8
Dimension (ANSI)
100
AcDbMText
 10
1.356900062417006
 20
0.5404536924599846
 30
0.0
 40
0.0240000009536743
 41
0.0
 71
     1
 72
     1
  1
\A1;0.195 in*B
  7
Note Text (ANSI)
 73
     1
 44
1.0
1001
ACAD
1000
MTEXTBEGIN
1070
    73
1070
     1
1070
    44
1040
1.0
1070
    74
1070
     0
1000
MTEXTEND
  0
POINT
  5
249
330
181
100
AcDbEntity
  8
Defpoints
 62
     0
100
AcDbPoint
 10
1.197321110485052
 20
0.4019524336119942
 30
0.0
  0
POINT
  5
24A
330
181
100
AcDbEntity
  8
Defpoints
 62
     0
100
AcDbPoint
 10
1.13604693492212
 20
0.5969524336122325
 30
0.0
  0
POINT
  5
24B
330
181
100
AcDbEntity
  8
Defpoints
 62
     0
100
AcDbPoint
 10
1.433767761912018
 20
0.5969524336122324
 30
0.0
  0
ENDBLK
  5
18D
330
181
100
AcDbEntity
  8
0
100
AcDbBlockEnd
  0
BLOCK
  5
259
330
24E
100
AcDbEntity
  8
0
100
AcDbBlockBegin
  2
*D6
 70
     1
 10
0.0
 20
0.0
 30
0.0
  3
*D6
  1

  0
LINE
  5
323
330
24E
100
AcDbEntity
  8
Dimension (ANSI)
100
AcDbLine
 10
0.73024532048448
 20
0.5726260623844285
 30
0.0
 11
0.73024532048448
 21
0.2197829627363992
 31
0.0
  0
LINE
  5
324
330
24E
100
AcDbEntity
  8
Dimension (ANSI)
100
AcDbLine
 10
1.197321110485052
 20
0.3894524336119942
 30
0.0
 11
1.197321110485052
 21
0.2197829627363992
 31
0.0
  0
LINE
  5
325
330
24E
100
AcDbEntity
  8
Dimension (ANSI)
100
AcDbLine
 10
0.7499303594086973
 20
0.2447829627363992
 30
0.0
 11
0.9068787009957686
 21
0.2447829627363992
 31
0.0
  0
LINE
  5
326
330
24E
100
AcDbEntity
  8
Dimension (ANSI)
100
AcDbLine
 10
1.177636071560835
 20
0.2447829627363992
 30
0.0
 11
1.052436164383928
 21
0.2447829627363992
 31
0.0
  0
SOLID
  5
327
330
24E
100
AcDbEntity
  8
Dimension (ANSI)
100
AcDbTrace
 10
0.7499303594086973
 20
0.2480638025571021
 30
0.0
 11
0.7499303594086973
 21
0.2415021229156963
 31
0.0
 12
0.73024532048448
 22
0.2447829627363992
 32
0.0
 13
0.73024532048448
 23
0.2447829627363992
 33
0.0
  0
SOLID
  5
328
330
24E
100
AcDbEntity
  8
Dimension (ANSI)
100
AcDbTrace
 10
1.177636071560835
 20
0.2480638025571021
 30
0.0
 11
1.177636071560835
 21
0.2415021229156963
 31
0.0
 12
1.197321110485052
 22
0.2447829627363992
 32
0.0
 13
1.197321110485052
 23
0.2447829627363992
 33
0.0
  0
MTEXT
  5
329
330
24E
100
AcDbEntity
  8
Dimension (ANSI)
100
AcDbMText
 10
0.9131779135941936
 20
0.2572745683368677
 30
0.0
 40
0.0240000009536743
 41
0.0
 71
     1
 72
     1
  1
\A1;0.4671 in
  7
Note Text (ANSI)
 73
     1
 44
1.0
1001
ACAD
1000
MTEXTBEGIN
1070
    73
1070
     1
1070
    44
1040
1.0
1070
    74
1070
     0
1000
MTEXTEND
  0
POINT
  5
32A
330
24E
100
AcDbEntity
  8
Defpoints
 62
     0
100
AcDbPoint
 10
0.73024532048448
 20
0.5851260623844285
 30
0.0
  0
POINT
  5
32B
330
24E
100
AcDbEntity
  8
Defpoints
 62
     0
100
AcDbPoint
 10
1.197321110485052
 20
0.4019524336119942
 30
0.0
  0
POINT
  5
32C
330
24E
100
AcDbEntity
  8
Defpoints
 62
     0
100
AcDbPoint
 10
1.197321110485052
 20
0.2447829627363992
 30
0.0
  0
ENDBLK
  5
25A
330
24E
100
AcDbEntity
  8
0
100
AcDbBlockEnd
  0
BLOCK
  5
339
330
32E
100
AcDbEntity
  8
0
100
AcDbBlockBegin
  2
*D7
 70
     1
 10
0.0
 20
0.0
 30
0.0
  3
*D7
  1

  0
LINE
  5
3EF
330
32E
100
AcDbEntity
  8
Dimension (ANSI)
100
AcDbLine
 10
1.145871110484971
 20
0.6969524336123547
 30
0.0
 11
1.563270128261468
 21
0.6969524336123546
 31
0.0
  0
LINE
  5
3F0
330
32E
100
AcDbEntity
  8
Dimension (ANSI)
100
AcDbLine
 10
1.209821110485052
 20
0.4019524336119942
 30
0.0
 11
1.563270128261468
 21
0.4019524336119942
 31
0.0
  0
LINE
  5
3F1
330
32E
100
AcDbEntity
  8
Dimension (ANSI)
100
AcDbLine
 10
1.538270128261468
 20
0.6772673946881374
 30
0.0
 11
1.538270128261468
 21
0.608609305093062
 31
0.0
  0
LINE
  5
3F2
330
32E
100
AcDbEntity
  8
Dimension (ANSI)
100
AcDbLine
 10
1.538270128261468
 20
0.4216374725362114
 30
0.0
 11
1.538270128261468
 21
0.5710115504944998
 31
0.0
  0
SOLID
  5
3F3
330
32E
100
AcDbEntity
  8
Dimension (ANSI)
100
AcDbTrace
 10
1.534989288440765
 20
0.6772673946881374
 30
0.0
 11
1.541550968082171
 21
0.6772673946881374
 31
0.0
 12
1.538270128261468
 22
0.6969524336123546
 32
0.0
 13
1.538270128261468
 23
0.6969524336123546
 33
0.0
  0
SOLID
  5
3F4
330
32E
100
AcDbEntity
  8
Dimension (ANSI)
100
AcDbTrace
 10
1.534989288440765
 20
0.4216374725362114
 30
0.0
 11
1.541550968082171
 21
0.4216374725362114
 31
0.0
 12
1.538270128261468
 22
0.4019524336119942
 32
0.0
 13
1.538270128261468
 23
0.4019524336119942
 33
0.0
  0
MTEXT
  5
3F5
330
32E
100
AcDbEntity
  8
Dimension (ANSI)
100
AcDbMText
 10
1.480800683398925
 20
0.6023100924946371
 30
0.0
 40
0.0240000009536743
 41
0.0
 71
     1
 72
     1
  1
\A1;0.295 in
  7
Note Text (ANSI)
 73
     1
 44
1.0
1001
ACAD
1000
MTEXTBEGIN
1070
    73
1070
     1
1070
    44
1040
1.0
1070
    74
1070
     0
1000
MTEXTEND
  0
POINT
  5
3F6
330
32E
100
AcDbEntity
  8
Defpoints
 62
     0
100
AcDbPoint
 10
1.133371110484971
 20
0.6969524336123547
 30
0.0
  0
POINT
  5
3F7
330
32E
100
AcDbEntity
  8
Defpoints
 62
     0
100
AcDbPoint
 10
1.197321110485052
 20
0.4019524336119942
 30
0.0
  0
POINT
  5
3F8
330
32E
100
AcDbEntity
  8
Defpoints
 62
     0
100
AcDbPoint
 10
1.538270128261468
 20
0.4019524336119942
 30
0.0
  0
ENDBLK
  5
33A
330
32E
100
AcDbEntity
  8
0
100
AcDbBlockEnd
  0
BLOCK
  5
405
330
3FA
100
AcDbEntity
  8
0
100
AcDbBlockBegin
  2
*D8
 70
     1
 10
0.0
 20
0.0
 30
0.0
  3
*D8
  1

  0
LINE
  5
4BB
330
3FA
100
AcDbEntity
  8
Dimension (ANSI)
100
AcDbLine
 10
1.133371110484971
 20
0.6844524336123548
 30
0.0
 11
1.133371110484971
 21
0.294932951793607
 31
0.0
  0
LINE
  5
4BC
330
3FA
100
AcDbEntity
  8
Dimension (ANSI)
100
AcDbLine
 10
1.197321110485052
 20
0.3937024336119994
 30
0.0
 11
1.197321110485052
 21
0.294932951793607
 31
0.0
  0
LINE
  5
4BD
330
3FA
100
AcDbEntity
  8
Dimension (ANSI)
100
AcDbLine
 10
1.177636071560835
 20
0.3199329517936071
 30
0.0
 11
1.153056149409188
 21
0.3199329517936071
 31
0.0
  0
LINE
  5
4BE
330
3FA
100
AcDbEntity
  8
Dimension (ANSI)
100
AcDbLine
 10
1.133371110484971
 20
0.3199329517936071
 30
0.0
 11
1.030493150252701
 21
0.3199329517936071
 31
0.0
  0
SOLID
  5
4BF
330
3FA
100
AcDbEntity
  8
Dimension (ANSI)
100
AcDbTrace
 10
1.177636071560835
 20
0.3232137916143099
 30
0.0
 11
1.177636071560835
 21
0.3166521119729042
 31
0.0
 12
1.197321110485052
 22
0.3199329517936071
 32
0.0
 13
1.197321110485052
 23
0.3199329517936071
 33
0.0
  0
SOLID
  5
4C0
330
3FA
100
AcDbEntity
  8
Dimension (ANSI)
100
AcDbTrace
 10
1.153056149409188
 20
0.3232137916143099
 30
0.0
 11
1.153056149409188
 21
0.3166521119729042
 31
0.0
 12
1.133371110484971
 22
0.3199329517936071
 32
0.0
 13
1.133371110484971
 23
0.3199329517936071
 33
0.0
  0
MTEXT
  5
4C1
330
3FA
100
AcDbEntity
  8
Dimension (ANSI)
100
AcDbMText
 10
0.9092550479291919
 20
0.3324245573940756
 30
0.0
 40
0.0240000009536743
 41
0.0
 71
     1
 72
     1
  1
\A1;0.064 in
  7
Note Text (ANSI)
 73
     1
 44
1.0
1001
ACAD
1000
MTEXTBEGIN
1070
    73
1070
     1
1070
    44
1040
1.0
1070
    74
1070
     0
1000
MTEXTEND
  0
POINT
  5
4C2
330
3FA
100
AcDbEntity
  8
Defpoints
 62
     0
100
AcDbPoint
 10
1.133371110484971
 20
0.6969524336123547
 30
0.0
  0
POINT
  5
4C3
330
3FA
100
AcDbEntity
  8
Defpoints
 62
     0
100
AcDbPoint
 10
1.197321110485052
 20
0.4062024336119994
 30
0.0
  0
POINT
  5
4C4
330
3FA
100
AcDbEntity
  8
Defpoints
 62
     0
100
AcDbPoint
 10
1.197321110485052
 20
0.3199329517936071
 30
0.0
  0
ENDBLK
  5
406
330
3FA
100
AcDbEntity
  8
0
100
AcDbBlockEnd
  0
BLOCK
  5
4D7
330
4CC
100
AcDbEntity
  8
0
100
AcDbBlockBegin
  2
*D9
 70
     1
 10
0.0
 20
0.0
 30
0.0
  3
*D9
  1

  0
LINE
  5
58D
330
4CC
100
AcDbEntity
  8
Dimension (ANSI)
100
AcDbLine
 10
1.028371110484842
 20
0.5352024336121724
 30
0.0
 11
1.028371110484842
 21
0.3355793332220268
 31
0.0
  0
LINE
  5
58E
330
4CC
100
AcDbEntity
  8
Dimension (ANSI)
100
AcDbLine
 10
1.197321110485052
 20
0.3937024336119994
 30
0.0
 11
1.197321110485052
 21
0.3355793332220268
 31
0.0
  0
LINE
  5
58F
330
4CC
100
AcDbEntity
  8
Dimension (ANSI)
100
AcDbLine
 10
1.177636071560835
 20
0.3605793332220268
 30
0.0
 11
1.048056149409059
 21
0.3605793332220268
 31
0.0
  0
LINE
  5
590
330
4CC
100
AcDbEntity
  8
Dimension (ANSI)
100
AcDbLine
 10
1.028371110484842
 20
0.3605793332220268
 30
0.0
 11
1.008686071560625
 21
0.3605793332220268
 31
0.0
  0
SOLID
  5
591
330
4CC
100
AcDbEntity
  8
Dimension (ANSI)
100
AcDbTrace
 10
1.177636071560835
 20
0.3638601730427297
 30
0.0
 11
1.177636071560835
 21
0.357298493401324
 31
0.0
 12
1.197321110485052
 22
0.3605793332220268
 32
0.0
 13
1.197321110485052
 23
0.3605793332220268
 33
0.0
  0
SOLID
  5
592
330
4CC
100
AcDbEntity
  8
Dimension (ANSI)
100
AcDbTrace
 10
1.048056149409059
 20
0.3638601730427297
 30
0.0
 11
1.048056149409059
 21
0.357298493401324
 31
0.0
 12
1.028371110484842
 22
0.3605793332220268
 32
0.0
 13
1.028371110484842
 23
0.3605793332220268
 33
0.0
  0
MTEXT
  5
593
330
4CC
100
AcDbEntity
  8
Dimension (ANSI)
100
AcDbMText
 10
0.8475715405202649
 20
0.3730709388224954
 30
0.0
 40
0.0240000009536743
 41
0.0
 71
     1
 72
     1
  1
\A1;0.169 in*A
  7
Note Text (ANSI)
 73
     1
 44
1.0
1001
ACAD
1000
MTEXTBEGIN
1070
    73
1070
     1
1070
    44
1040
1.0
1070
    74
1070
     0
1000
MTEXTEND
  0
POINT
  5
594
330
4CC
100
AcDbEntity
  8
Defpoints
 62
     0
100
AcDbPoint
 10
1.028371110484842
 20
0.5477024336121723
 30
0.0
  0
POINT
  5
595
330
4CC
100
AcDbEntity
  8
Defpoints
 62
     0
100
AcDbPoint
 10
1.197321110485052
 20
0.4062024336119994
 30
0.0
  0
POINT
  5
596
330
4CC
100
AcDbEntity
  8
Defpoints
 62
     0
100
AcDbPoint
 10
1.197321110485052
 20
0.3605793332220268
 30
0.0
  0
ENDBLK
  5
4D8
330
4CC
100
AcDbEntity
  8
0
100
AcDbBlockEnd
  0
BLOCK
  5
59E
330
598
100
AcDbEntity
  8
0
100
AcDbBlockBegin
  2
*D10
 70
     1
 10
0.0
 20
0.0
 30
0.0
  3
*D10
  1

  0
LINE
  5
628
330
598
100
AcDbEntity
  8
Dimension (ANSI)
100
AcDbLine
 10
1.314877795327425
 20
0.7684845219475616
 30
0.0
 11
1.289041387941178
 21
0.7684845219475616
 31
0.0
  0
LINE
  5
629
330
598
100
AcDbEntity
  8
Dimension (ANSI)
100
AcDbLine
 10
1.289041387941178
 20
0.7684845219475616
 30
0.0
 11
1.201915862723546
 21
0.7284494499482057
 31
0.0
  0
MTEXT
  5
62A
330
598
100
AcDbEntity
  8
Dimension (ANSI)
100
AcDbMText
 10
1.32117700792585
 20
0.7810325412507419
 30
0.0
 40
0.0240000009536743
 41
0.0
 71
     1
 72
     1
  1
\A1;R0.0558 in
  7
Note Text (ANSI)
 73
     1
 44
1.0
1001
ACAD
1000
MTEXTBEGIN
1070
    73
1070
     1
1070
    44
1040
1.0
1070
    74
1070
     0
1000
MTEXTEND
  0
SOLID
  5
62B
330
598
100
AcDbEntity
  8
Dimension (ANSI)
100
AcDbTrace
 10
1.200545986510826
 20
0.7314306156750538
 30
0.0
 11
1.203285738936266
 21
0.7254682842213576
 31
0.0
 12
1.184028868362458
 22
0.7202301926718855
 32
0.0
 13
1.184028868362458
 23
0.7202301926718855
 33
0.0
  0
POINT
  5
62C
330
598
100
AcDbEntity
  8
Defpoints
 62
     0
100
AcDbPoint
 10
1.184028868362458
 20
0.7202301926718855
 30
0.0
  0
POINT
  5
62D
330
598
100
AcDbEntity
  8
Defpoints
 62
     0
100
AcDbPoint
 10
1.133371110484971
 20
0.6969524336123547
 30
0.0
  0
ENDBLK
  5
59F
330
598
100
AcDbEntity
  8
0
100
AcDbBlockEnd
  0
BLOCK
  5
635
330
62F
100
AcDbEntity
  8
0
100
AcDbBlockBegin
  2
*D11
 70
     1
 10
0.0
 20
0.0
 30
0.0
  3
*D11
  1

  0
LINE
  5
6BF
330
62F
100
AcDbEntity
  8
Dimension (ANSI)
100
AcDbLine
 10
1.314081274114262
 20
0.8215286428435465
 30
0.0
 11
1.288244866728014
 21
0.8215286428435465
 31
0.0
  0
LINE
  5
6C0
330
62F
100
AcDbEntity
  8
Dimension (ANSI)
100
AcDbLine
 10
1.288244866728014
 20
0.8215286428435465
 30
0.0
 11
1.206565669927071
 21
0.7558281332327253
 31
0.0
  0
MTEXT
  5
6C1
330
62F
100
AcDbEntity
  8
Dimension (ANSI)
100
AcDbMText
 10
1.320380486712687
 20
0.8340283075444023
 30
0.0
 40
0.0240000009536743
 41
0.0
 71
     1
 72
     1
  1
\A1;R0.0743 in
  7
Note Text (ANSI)
 73
     1
 44
1.0
1001
ACAD
1000
MTEXTBEGIN
1070
    73
1070
     1
1070
    44
1040
1.0
1070
    74
1070
     0
1000
MTEXTEND
  0
SOLID
  5
6C2
330
62F
100
AcDbEntity
  8
Dimension (ANSI)
100
AcDbTrace
 10
1.204509336720652
 20
0.7583845767922999
 30
0.0
 11
1.208622003133489
 21
0.7532716896731505
 31
0.0
 12
1.191227008569622
 22
0.7434901339942153
 32
0.0
 13
1.191227008569622
 23
0.7434901339942153
 33
0.0
  0
POINT
  5
6C3
330
62F
100
AcDbEntity
  8
Defpoints
 62
     0
100
AcDbPoint
 10
1.191227008569622
 20
0.7434901339942153
 30
0.0
  0
POINT
  5
6C4
330
62F
100
AcDbEntity
  8
Defpoints
 62
     0
100
AcDbPoint
 10
1.13337111048497
 20
0.6969524336123544
 30
0.0
  0
ENDBLK
  5
636
330
62F
100
AcDbEntity
  8
0
100
AcDbBlockEnd
  0
BLOCK
  5
6D1
330
6C6
100
AcDbEntity
  8
0
100
AcDbBlockBegin
  2
*D12
 70
     1
 10
0.0
 20
0.0
 30
0.0
  3
*D12
  1

  0
LINE
  5
7A2
330
6C6
100
AcDbEntity
  8
Dimension (ANSI)
100
AcDbLine
 10
0.8527961126876608
 20
0.625887472536461
 30
0.0
 11
0.8527961126876608
 21
0.6455725114606782
 31
0.0
  0
LINE
  5
7A3
330
6C6
100
AcDbEntity
  8
Dimension (ANSI)
100
AcDbLine
 10
0.8527961126876608
 20
0.568017394688004
 30
0.0
 11
0.8527961126876608
 21
0.5483323557637867
 31
0.0
  0
LINE
  5
7A4
330
6C6
100
AcDbEntity
  8
Dimension (ANSI)
100
AcDbLine
 10
0.8724811516118782
 20
0.8965585883708595
 30
0.0
 11
0.852796112687661
 21
0.8965585883708595
 31
0.0
  0
LINE
  5
7A5
330
6C6
100
AcDbEntity
  8
Dimension (ANSI)
100
AcDbLine
 10
0.852796112687661
 20
0.8965585883708595
 30
0.0
 11
0.8527961126876608
 21
0.6455725114606782
 31
0.0
  0
MTEXT
  5
7A6
330
6C6
100
AcDbEntity
  8
Dimension (ANSI)
100
AcDbMText
 10
0.8787803642103032
 20
0.9091066076740398
 30
0.0
 40
0.0240000009536743
 41
0.0
 71
     1
 72
     1
  1
\A1;0.0185 in
  7
Note Text (ANSI)
 73
     1
 44
1.0
1001
ACAD
1000
MTEXTBEGIN
1070
    73
1070
     1
1070
    44
1040
1.0
1070
    74
1070
     0
1000
MTEXTEND
  0
SOLID
  5
7A7
330
6C6
100
AcDbEntity
  8
Dimension (ANSI)
100
AcDbTrace
 10
0.849515272866958
 20
0.625887472536461
 30
0.0
 11
0.8560769525083637
 21
0.625887472536461
 31
0.0
 12
0.8527961126876608
 22
0.6062024336122437
 32
0.0
 13
0.8527961126876608
 23
0.6062024336122437
 33
0.0
  0
SOLID
  5
7A8
330
6C6
100
AcDbEntity
  8
Dimension (ANSI)
100
AcDbTrace
 10
0.849515272866958
 20
0.568017394688004
 30
0.0
 11
0.8560769525083637
 21
0.568017394688004
 31
0.0
 12
0.8527961126876608
 22
0.5877024336122212
 32
0.0
 13
0.8527961126876608
 23
0.5877024336122212
 33
0.0
  0
POINT
  5
7A9
330
6C6
100
AcDbEntity
  8
Defpoints
 62
     0
100
AcDbPoint
 10
0.8090381436663431
 20
0.6062024336122437
 30
0.0
  0
POINT
  5
7AA
330
6C6
100
AcDbEntity
  8
Defpoints
 62
     0
100
AcDbPoint
 10
0.8090381436663433
 20
0.5877024336122212
 30
0.0
  0
POINT
  5
7AB
330
6C6
100
AcDbEntity
  8
Defpoints
 62
     0
100
AcDbPoint
 10
0.8527961126876608
 20
0.5877024336122212
 30
0.0
  0
ENDBLK
  5
6D2
330
6C6
100
AcDbEntity
  8
0
100
AcDbBlockEnd
  0
BLOCK
  5
7C4
330
7B9
100
AcDbEntity
  8
0
100
AcDbBlockBegin
  2
*D13
 70
     1
 10
0.0
 20
0.0
 30
0.0
  3
*D13
  1

  0
LINE
  5
885
330
7B9
100
AcDbEntity
  8
Dimension (ANSI)
100
AcDbLine
 10
1.088056149409109
 20
0.4554502388676191
 30
0.0
 11
1.178686071560833
 21
0.4554502388676191
 31
0.0
  0
LINE
  5
886
330
7B9
100
AcDbEntity
  8
Dimension (ANSI)
100
AcDbLine
 10
1.19837111048505
 20
0.4554502388676191
 30
0.0
 11
1.295354557058586
 21
0.4554502388676191
 31
0.0
  0
SOLID
  5
887
330
7B9
100
AcDbEntity
  8
Dimension (ANSI)
100
AcDbTrace
 10
1.088056149409109
 20
0.4587310786883221
 30
0.0
 11
1.088056149409109
 21
0.4521693990469163
 31
0.0
 12
1.068371110484892
 22
0.4554502388676191
 32
0.0
 13
1.068371110484892
 23
0.4554502388676191
 33
0.0
  0
SOLID
  5
888
330
7B9
100
AcDbEntity
  8
Dimension (ANSI)
100
AcDbTrace
 10
1.178686071560833
 20
0.4587310786883221
 30
0.0
 11
1.178686071560833
 21
0.4521693990469163
 31
0.0
 12
1.19837111048505
 22
0.4554502388676191
 32
0.0
 13
1.19837111048505
 23
0.4554502388676191
 33
0.0
  0
MTEXT
  5
889
330
7B9
100
AcDbEntity
  8
Dimension (ANSI)
100
AcDbMText
 10
1.301653769657011
 20
0.4679499035684751
 30
0.0
 40
0.0240000009536743
 41
0.0
 71
     1
 72
     1
  1
\A1;0.130 in
  7
Note Text (ANSI)
 73
     1
 44
1.0
1001
ACAD
1000
MTEXTBEGIN
1070
    73
1070
     1
1070
    44
1040
1.0
1070
    74
1070
     0
1000
MTEXTEND
  0
POINT
  5
88A
330
7B9
100
AcDbEntity
  8
Defpoints
 62
     0
100
AcDbPoint
 10
1.068371110484892
 20
0.4664106997465983
 30
0.0
  0
POINT
  5
88B
330
7B9
100
AcDbEntity
  8
Defpoints
 62
     0
100
AcDbPoint
 10
1.19837111048505
 20
0.4522974025108914
 30
0.0
  0
POINT
  5
88C
330
7B9
100
AcDbEntity
  8
Defpoints
 62
     0
100
AcDbPoint
 10
1.19837111048505
 20
0.4554502388676191
 30
0.0
  0
ENDBLK
  5
7C5
330
7B9
100
AcDbEntity
  8
0
100
AcDbBlockEnd
  0
BLOCK
  5
899
330
88E
100
AcDbEntity
  8
0
100
AcDbBlockBegin
  2
*D14
 70
     1
 10
0.0
 20
0.0
 30
0.0
  3
*D14
  1

  0
LINE
  5
963
330
88E
100
AcDbEntity
  8
Dimension (ANSI)
100
AcDbLine
 10
1.197321110485052
 20
0.3894524336119942
 30
0.0
 11
1.197321110485052
 21
0.2665846782496668
 31
0.0
  0
LINE
  5
964
330
88E
100
AcDbEntity
  8
Dimension (ANSI)
100
AcDbLine
 10
1.19837111048505
 20
0.3578248357299818
 30
0.0
 11
1.19837111048505
 21
0.2665846782496668
 31
0.0
  0
LINE
  5
965
330
88E
100
AcDbEntity
  8
Dimension (ANSI)
100
AcDbLine
 10
1.177636071560835
 20
0.2915846782496668
 30
0.0
 11
1.157951032636618
 21
0.2915846782496668
 31
0.0
  0
LINE
  5
966
330
88E
100
AcDbEntity
  8
Dimension (ANSI)
100
AcDbLine
 10
1.218056149409267
 20
0.2915846782496668
 30
0.0
 11
1.263364036747536
 21
0.2915846782496668
 31
0.0
  0
SOLID
  5
967
330
88E
100
AcDbEntity
  8
Dimension (ANSI)
100
AcDbTrace
 10
1.177636071560835
 20
0.2948655180703697
 30
0.0
 11
1.177636071560835
 21
0.288303838428964
 31
0.0
 12
1.197321110485052
 22
0.2915846782496668
 32
0.0
 13
1.197321110485052
 23
0.2915846782496668
 33
0.0
  0
SOLID
  5
968
330
88E
100
AcDbEntity
  8
Dimension (ANSI)
100
AcDbTrace
 10
1.218056149409267
 20
0.2948655180703697
 30
0.0
 11
1.218056149409267
 21
0.288303838428964
 31
0.0
 12
1.19837111048505
 22
0.2915846782496668
 32
0.0
 13
1.19837111048505
 23
0.2915846782496668
 33
0.0
  0
MTEXT
  5
969
330
88E
100
AcDbEntity
  8
Dimension (ANSI)
100
AcDbMText
 10
1.269663249345961
 20
0.3040762838501354
 30
0.0
 40
0.0240000009536743
 41
0.0
 71
     1
 72
     1
  1
\A1;0.001 in
  7
Note Text (ANSI)
 73
     1
 44
1.0
1001
ACAD
1000
MTEXTBEGIN
1070
    73
1070
     1
1070
    44
1040
1.0
1070
    74
1070
     0
1000
MTEXTEND
  0
POINT
  5
96A
330
88E
100
AcDbEntity
  8
Defpoints
 62
     0
100
AcDbPoint
 10
1.197321110485052
 20
0.4019524336119942
 30
0.0
  0
POINT
  5
96B
330
88E
100
AcDbEntity
  8
Defpoints
 62
     0
100
AcDbPoint
 10
1.19837111048505
 20
0.3703248357299818
 30
0.0
  0
POINT
  5
96C
330
88E
100
AcDbEntity
  8
Defpoints
 62
     0
100
AcDbPoint
 10
1.19837111048505
 20
0.2915846782496668
 30
0.0
  0
ENDBLK
  5
89A
330
88E
100
AcDbEntity
  8
0
100
AcDbBlockEnd
  0
BLOCK
  5
973
330
970
100
AcDbEntity
  8
0
100
AcDbBlockBegin
  2
_Dot
 70
     0
 10
0.0
 20
0.0
 30
0.0
  3
_Dot
  1

  0
LWPOLYLINE
  5
971
330
970
100
AcDbEntity
  8
0
  6
ByBlock
 62
     0
100
AcDbPolyline
 90
        2
 70
     1
 43
0.5
 10
-0.25
 20
0.0
 42
1.0
 10
0.25
 20
0.0
 42
1.0
  0
LINE
  5
972
330
970
100
AcDbEntity
  8
0
  6
ByBlock
 62
     0
370
    -2
100
AcDbLine
 10
-0.5
 20
0.0
 30
0.0
 11
-1.0
 21
0.0
 31
0.0
  0
ENDBLK
  5
974
330
970
100
AcDbEntity
  8
0
100
AcDbBlockEnd
  0
BLOCK
  5
988
330
987
100
AcDbEntity
  8
0
100
AcDbBlockBegin
  2
Origin Indicator Symbol3
 70
     0
 10
0.0
 20
0.0
 30
0.0
  3
Origin Indicator Symbol3
  1

  0
CIRCLE
  5
98A
330
987
100
AcDbEntity
  8
Dimension (ANSI)
100
AcDbCircle
 10
5.986605552425337
 20
5.353672975044055
 30
0.0
 40
0.0984251968503937
  0
LINE
  5
98B
102
{ACAD_REACTORS
330
98D
102
}
330
987
100
AcDbEntity
  8
Dimension (ANSI)
100
AcDbLine
 10
5.986605552425337
 20
5.452098171894449
 30
0.0
 11
6.08503074927573
 21
5.353672975044055
 31
0.0
  0
ARC
  5
98C
102
{ACAD_REACTORS
330
98D
102
}
330
987
100
AcDbEntity
  8
Dimension (ANSI)
100
AcDbCircle
 10
5.986605552425337
 20
5.353672975044055
 30
0.0
 40
0.0984251968503937
100
AcDbArc
 50
0.0
 51
90.0
  0
HATCH
  5
98D
330
987
100
AcDbEntity
  8
Dimension (ANSI)
100
AcDbHatch
 10
0.0
 20
0.0
 30
0.0
210
0.0
220
0.0
230
1.0
  2
SOLID
 70
     1
 71
     1
 91
        1
 92
        0
 93
        2
 72
     1
 10
5.986605552425337
 20
5.452098171894449
 11
6.08503074927573
 21
5.353672975044055
 72
     2
 10
5.986605552425337
 20
5.353672975044055
 40
0.0984251968503937
 50
0.0
 51
90.0
 73
     1
 97
        2
330
98B
330
98C
 75
     0
 76
     1
 98
        1
 10
0.0
 20
0.0
  0
LINE
  5
98E
102
{ACAD_REACTORS
330
990
102
}
330
987
100
AcDbEntity
  8
Dimension (ANSI)
100
AcDbLine
 10
5.986605552425337
 20
5.255247778193662
 30
0.0
 11
5.888180355574943
 21
5.353672975044055
 31
0.0
  0
ARC
  5
98F
102
{ACAD_REACTORS
330
990
102
}
330
987
100
AcDbEntity
  8
Dimension (ANSI)
100
AcDbCircle
 10
5.986605552425337
 20
5.353672975044055
 30
0.0
 40
0.0984251968503937
100
AcDbArc
 50
180.0
 51
270.0
  0
HATCH
  5
990
330
987
100
AcDbEntity
  8
Dimension (ANSI)
100
AcDbHatch
 10
0.0
 20
0.0
 30
0.0
210
0.0
220
0.0
230
1.0
  2
SOLID
 70
     1
 71
     1
 91
        1
 92
        0
 93
        2
 72
     1
 10
5.986605552425337
 20
5.255247778193662
 11
5.888180355574943
 21
5.353672975044055
 72
     2
 10
5.986605552425337
 20
5.353672975044055
 40
0.0984251968503937
 50
180.0
 51
270.0
 73
     1
 97
        2
330
98E
330
98F
 75
     0
 76
     1
 98
        1
 10
0.0
 20
0.0
  0
POLYLINE
  5
991
330
987
100
AcDbEntity
  8
Dimension (ANSI)
100
AcDb2dPolyline
 66
     1
 10
0.0
 20
0.0
 30
0.0
 70
   128
  0
VERTEX
  5
992
330
991
100
AcDbEntity
  8
Dimension (ANSI)
100
AcDbVertex
100
AcDb2dVertex
 10
5.986605666753813
 20
5.353673048845426
 30
0.0
  0
VERTEX
  5
993
330
991
100
AcDbEntity
  8
Dimension (ANSI)
100
AcDbVertex
100
AcDb2dVertex
 10
6.085030863604207
 20
5.353673048845426
 30
0.0
  0
VERTEX
  5
995
330
991
100
AcDbEntity
  8
Dimension (ANSI)
100
AcDbVertex
100
AcDb2dVertex
 10
5.986605666753813
 20
5.452098245695819
 30
0.0
  0
VERTEX
  5
996
330
991
100
AcDbEntity
  8
Dimension (ANSI)
100
AcDbVertex
100
AcDb2dVertex
 10
5.986605666753813
 20
5.353673048845426
 30
0.0
  0
SEQEND
  5
994
330
991
100
AcDbEntity
  8
Dimension (ANSI)
  0
SOLID
  5
997
330
987
100
AcDbEntity
  8
Dimension (ANSI)
100
AcDbTrace
 10
5.986605666753813
 20
5.353673048845426
 30
0.0
 11
6.085030863604207
 21
5.353673048845426
 31
0.0
 12
5.986605666753813
 22
5.452098245695819
 32
0.0
 13
5.986605666753813
 23
5.353673048845426
 33
0.0
  0
POLYLINE
  5
998
330
987
100
AcDbEntity
  8
Dimension (ANSI)
100
AcDb2dPolyline
 66
     1
 10
0.0
 20
0.0
 30
0.0
 70
   128
  0
VERTEX
  5
999
330
998
100
AcDbEntity
  8
Dimension (ANSI)
100
AcDbVertex
100
AcDb2dVertex
 10
5.986605666753813
 20
5.353673048845426
 30
0.0
  0
VERTEX
  5
99A
330
998
100
AcDbEntity
  8
Dimension (ANSI)
100
AcDbVertex
100
AcDb2dVertex
 10
5.986605666753813
 20
5.452098245695819
 30
0.0
  0
VERTEX
  5
99C
330
998
100
AcDbEntity
  8
Dimension (ANSI)
100
AcDbVertex
100
AcDb2dVertex
 10
5.986605666753813
 20
5.255247851995032
 30
0.0
  0
VERTEX
  5
99D
330
998
100
AcDbEntity
  8
Dimension (ANSI)
100
AcDbVertex
100
AcDb2dVertex
 10
5.986605666753813
 20
5.353673048845426
 30
0.0
  0
SEQEND
  5
99B
330
998
100
AcDbEntity
  8
Dimension (ANSI)
  0
SOLID
  5
99E
330
987
100
AcDbEntity
  8
Dimension (ANSI)
100
AcDbTrace
 10
5.986605666753813
 20
5.353673048845426
 30
0.0
 11
5.986605666753813
 21
5.452098245695819
 31
0.0
 12
5.986605666753813
 22
5.255247851995032
 32
0.0
 13
5.986605666753813
 23
5.353673048845426
 33
0.0
  0
POLYLINE
  5
99F
330
987
100
AcDbEntity
  8
Dimension (ANSI)
100
AcDb2dPolyline
 66
     1
 10
0.0
 20
0.0
 30
0.0
 70
   128
  0
VERTEX
  5
9A0
330
99F
100
AcDbEntity
  8
Dimension (ANSI)
100
AcDbVertex
100
AcDb2dVertex
 10
5.986605666753813
 20
5.353673048845426
 30
0.0
  0
VERTEX
  5
9A1
330
99F
100
AcDbEntity
  8
Dimension (ANSI)
100
AcDbVertex
100
AcDb2dVertex
 10
5.986605666753813
 20
5.255247851995032
 30
0.0
  0
VERTEX
  5
9A3
330
99F
100
AcDbEntity
  8
Dimension (ANSI)
100
AcDbVertex
100
AcDb2dVertex
 10
5.888180469903419
 20
5.353673048845426
 30
0.0
  0
VERTEX
  5
9A4
330
99F
100
AcDbEntity
  8
Dimension (ANSI)
100
AcDbVertex
100
AcDb2dVertex
 10
5.986605666753813
 20
5.353673048845426
 30
0.0
  0
SEQEND
  5
9A2
330
99F
100
AcDbEntity
  8
Dimension (ANSI)
  0
SOLID
  5
9A5
330
987
100
AcDbEntity
  8
Dimension (ANSI)
100
AcDbTrace
 10
5.986605666753813
 20
5.353673048845426
 30
0.0
 11
5.986605666753813
 21
5.255247851995032
 31
0.0
 12
5.888180469903419
 22
5.353673048845426
 32
0.0
 13
5.986605666753813
 23
5.353673048845426
 33
0.0
  0
POLYLINE
  5
9A6
330
987
100
AcDbEntity
  8
Dimension (ANSI)
100
AcDb2dPolyline
 66
     1
 10
0.0
 20
0.0
 30
0.0
 70
   128
  0
VERTEX
  5
9A7
330
9A6
100
AcDbEntity
  8
Dimension (ANSI)
100
AcDbVertex
100
AcDb2dVertex
 10
5.986605666753813
 20
5.353673048845426
 30
0.0
  0
VERTEX
  5
9A8
330
9A6
100
AcDbEntity
  8
Dimension (ANSI)
100
AcDbVertex
100
AcDb2dVertex
 10
5.888180469903419
 20
5.353673048845426
 30
0.0
  0
VERTEX
  5
9AA
330
9A6
100
AcDbEntity
  8
Dimension (ANSI)
100
AcDbVertex
100
AcDb2dVertex
 10
5.986605666753813
 20
5.353673048845426
 30
0.0
  0
VERTEX
  5
9AB
330
9A6
100
AcDbEntity
  8
Dimension (ANSI)
100
AcDbVertex
100
AcDb2dVertex
 10
5.986605666753813
 20
5.353673048845426
 30
0.0
  0
SEQEND
  5
9A9
330
9A6
100
AcDbEntity
  8
Dimension (ANSI)
  0
SOLID
  5
9AC
330
987
100
AcDbEntity
  8
Dimension (ANSI)
100
AcDbTrace
 10
5.986605666753813
 20
5.353673048845426
 30
0.0
 11
5.888180469903419
 21
5.353673048845426
 31
0.0
 12
5.986605666753813
 22
5.353673048845426
 32
0.0
 13
5.986605666753813
 23
5.353673048845426
 33
0.0
  0
ENDBLK
  5
989
330
987
100
AcDbEntity
  8
0
100
AcDbBlockEnd
  0
BLOCK
  5
9AF
330
9AE
100
AcDbEntity
  8
0
100
AcDbBlockBegin
  2
Hole Table3
 70
     0
 10
0.0
 20
0.0
 30
0.0
  3
Hole Table3
  1

  0
MTEXT
  5
9B1
330
9AE
100
AcDbEntity
  8
Symbol (ANSI)
100
AcDbMText
 10
8.129973152437241
 20
6.701628473419083
 30
0.0
 40
0.1200000014830762
 41
0.0
 71
     7
 72
     1
  1
Hole Table
  7
Text Style29
 73
     1
 44
1.0
1001
ACAD
1000
MTEXTBEGIN
1070
    73
1070
     1
1070
    44
1040
1.0
1070
    74
1070
     0
1000
MTEXTEND
  0
LINE
  5
9B2
330
9AE
100
AcDbEntity
  8
Symbol (ANSI)
100
AcDbLine
 10
6.558653613932211
 20
6.565216434620853
 30
0.0
 11
7.013493877069572
 21
6.565216434620853
 31
0.0
  0
LINE
  5
9B3
330
9AE
100
AcDbEntity
  8
Symbol (ANSI)
100
AcDbLine
 10
7.013493877069572
 20
6.565216434620853
 30
0.0
 11
7.013493877069572
 21
6.375137692980296
 31
0.0
  0
LINE
  5
9B4
330
9AE
100
AcDbEntity
  8
Symbol (ANSI)
100
AcDbLine
 10
6.558653613932211
 20
6.375137692980296
 30
0.0
 11
7.013493877069572
 21
6.375137692980296
 31
0.0
  0
MTEXT
  5
9B5
330
9AE
100
AcDbEntity
  8
Symbol (ANSI)
100
AcDbMText
 10
6.608660872322875
 20
6.407648701234597
 30
0.0
 40
0.1200000014830762
 41
0.0
 71
     7
 72
     1
  1
HOLE
  7
Text Style29
 73
     1
 44
1.0
1001
ACAD
1000
MTEXTBEGIN
1070
    73
1070
     1
1070
    44
1040
1.0
1070
    74
1070
     0
1000
MTEXTEND
  0
LINE
  5
9B6
330
9AE
100
AcDbEntity
  8
Symbol (ANSI)
100
AcDbLine
 10
7.013493877069572
 20
6.565216434620853
 30
0.0
 11
7.604045058171934
 21
6.565216434620853
 31
0.0
  0
LINE
  5
9B7
330
9AE
100
AcDbEntity
  8
Symbol (ANSI)
100
AcDbLine
 10
7.013493877069572
 20
6.565216434620853
 30
0.0
 11
7.013493877069572
 21
6.375137692980296
 31
0.0
  0
LINE
  5
9B8
330
9AE
100
AcDbEntity
  8
Symbol (ANSI)
100
AcDbLine
 10
7.604045058171934
 20
6.565216434620853
 30
0.0
 11
7.604045058171934
 21
6.375137692980296
 31
0.0
  0
LINE
  5
9B9
330
9AE
100
AcDbEntity
  8
Symbol (ANSI)
100
AcDbLine
 10
7.013493877069572
 20
6.375137692980296
 30
0.0
 11
7.604045058171934
 21
6.375137692980296
 31
0.0
  0
MTEXT
  5
9BA
330
9AE
100
AcDbEntity
  8
Symbol (ANSI)
100
AcDbMText
 10
7.111881738884597
 20
6.410177064262148
 30
0.0
 40
0.1200000014830762
 41
0.0
 71
     7
 72
     1
  1
XDIM
  7
Text Style29
 73
     1
 44
1.0
1001
ACAD
1000
MTEXTBEGIN
1070
    73
1070
     1
1070
    44
1040
1.0
1070
    74
1070
     0
1000
MTEXTEND
  0
LINE
  5
9BB
330
9AE
100
AcDbEntity
  8
Symbol (ANSI)
100
AcDbLine
 10
7.604045058171934
 20
6.565216434620853
 30
0.0
 11
8.194596239274297
 21
6.565216434620853
 31
0.0
  0
LINE
  5
9BC
330
9AE
100
AcDbEntity
  8
Symbol (ANSI)
100
AcDbLine
 10
7.604045058171934
 20
6.565216434620853
 30
0.0
 11
7.604045058171934
 21
6.375137692980296
 31
0.0
  0
LINE
  5
9BD
330
9AE
100
AcDbEntity
  8
Symbol (ANSI)
100
AcDbLine
 10
8.194596239274297
 20
6.565216434620853
 30
0.0
 11
8.194596239274297
 21
6.375137692980296
 31
0.0
  0
LINE
  5
9BE
330
9AE
100
AcDbEntity
  8
Symbol (ANSI)
100
AcDbLine
 10
7.604045058171934
 20
6.375137692980296
 30
0.0
 11
8.194596239274297
 21
6.375137692980296
 31
0.0
  0
MTEXT
  5
9BF
330
9AE
100
AcDbEntity
  8
Symbol (ANSI)
100
AcDbMText
 10
7.699697489186889
 20
6.410177064262148
 30
0.0
 40
0.1200000014830762
 41
0.0
 71
     7
 72
     1
  1
YDIM
  7
Text Style29
 73
     1
 44
1.0
1001
ACAD
1000
MTEXTBEGIN
1070
    73
1070
     1
1070
    44
1040
1.0
1070
    74
1070
     0
1000
MTEXTEND
  0
LINE
  5
9C0
330
9AE
100
AcDbEntity
  8
Symbol (ANSI)
100
AcDbLine
 10
8.194596239274297
 20
6.565216434620853
 30
0.0
 11
10.4291492256148
 21
6.565216434620853
 31
0.0
  0
LINE
  5
9C1
330
9AE
100
AcDbEntity
  8
Symbol (ANSI)
100
AcDbLine
 10
8.194596239274297
 20
6.565216434620853
 30
0.0
 11
8.194596239274297
 21
6.375137692980296
 31
0.0
  0
LINE
  5
9C2
330
9AE
100
AcDbEntity
  8
Symbol (ANSI)
100
AcDbLine
 10
8.194596239274297
 20
6.375137692980296
 30
0.0
 11
10.4291492256148
 21
6.375137692980296
 31
0.0
  0
MTEXT
  5
9C3
330
9AE
100
AcDbEntity
  8
Symbol (ANSI)
100
AcDbMText
 10
8.8182199775633
 20
6.407648701234597
 30
0.0
 40
0.1200000014830762
 41
0.0
 71
     7
 72
     1
  1
DESCRIPTION
  7
Text Style29
 73
     1
 44
1.0
1001
ACAD
1000
MTEXTBEGIN
1070
    73
1070
     1
1070
    44
1040
1.0
1070
    74
1070
     0
1000
MTEXTEND
  0
LINE
  5
9C4
330
9AE
100
AcDbEntity
  8
Symbol (ANSI)
100
AcDbLine
 10
6.558653613932211
 20
6.375137692980296
 30
0.0
 11
7.013493877069572
 21
6.375137692980296
 31
0.0
  0
LINE
  5
9C5
330
9AE
100
AcDbEntity
  8
Symbol (ANSI)
100
AcDbLine
 10
7.013493877069572
 20
6.375137692980296
 30
0.0
 11
7.013493877069572
 21
6.129344665138219
 31
0.0
  0
LINE
  5
9C6
330
9AE
100
AcDbEntity
  8
Symbol (ANSI)
100
AcDbLine
 10
6.558653613932211
 20
6.129344665138219
 30
0.0
 11
7.013493877069572
 21
6.129344665138219
 31
0.0
  0
MTEXT
  5
9C7
330
9AE
100
AcDbEntity
  8
Symbol (ANSI)
100
AcDbMText
 10
6.690013973058246
 20
6.192046690057173
 30
0.0
 40
0.1200000014830762
 41
0.0
 71
     7
 72
     1
  1
A1
  7
Text Style29
 73
     1
 44
1.0
1001
ACAD
1000
MTEXTBEGIN
1070
    73
1070
     1
1070
    44
1040
1.0
1070
    74
1070
     0
1000
MTEXTEND
  0
LINE
  5
9C8
330
9AE
100
AcDbEntity
  8
Symbol (ANSI)
100
AcDbLine
 10
7.013493877069572
 20
6.375137692980296
 30
0.0
 11
7.604045058171934
 21
6.375137692980296
 31
0.0
  0
LINE
  5
9C9
330
9AE
100
AcDbEntity
  8
Symbol (ANSI)
100
AcDbLine
 10
7.013493877069572
 20
6.375137692980296
 30
0.0
 11
7.013493877069572
 21
6.129344665138219
 31
0.0
  0
LINE
  5
9CA
330
9AE
100
AcDbEntity
  8
Symbol (ANSI)
100
AcDbLine
 10
7.604045058171934
 20
6.375137692980296
 30
0.0
 11
7.604045058171934
 21
6.129344665138219
 31
0.0
  0
LINE
  5
9CB
330
9AE
100
AcDbEntity
  8
Symbol (ANSI)
100
AcDbLine
 10
7.013493877069572
 20
6.129344665138219
 30
0.0
 11
7.604045058171934
 21
6.129344665138219
 31
0.0
  0
MTEXT
  5
9CC
330
9AE
100
AcDbEntity
  8
Symbol (ANSI)
100
AcDbMText
 10
7.0431223838652
 20
6.189761438859194
 30
0.0
 40
0.1200000014830762
 41
0.0
 71
     7
 72
     1
  1
-0.4671
  7
Text Style29
 73
     1
 44
1.0
1001
ACAD
1000
MTEXTBEGIN
1070
    73
1070
     1
1070
    44
1040
1.0
1070
    74
1070
     0
1000
MTEXTEND
  0
LINE
  5
9CD
330
9AE
100
AcDbEntity
  8
Symbol (ANSI)
100
AcDbLine
 10
7.604045058171934
 20
6.375137692980296
 30
0.0
 11
8.194596239274297
 21
6.375137692980296
 31
0.0
  0
LINE
  5
9CE
330
9AE
100
AcDbEntity
  8
Symbol (ANSI)
100
AcDbLine
 10
7.604045058171934
 20
6.375137692980296
 30
0.0
 11
7.604045058171934
 21
6.129344665138219
 31
0.0
  0
LINE
  5
9CF
330
9AE
100
AcDbEntity
  8
Symbol (ANSI)
100
AcDbLine
 10
8.194596239274297
 20
6.375137692980296
 30
0.0
 11
8.194596239274297
 21
6.129344665138219
 31
0.0
  0
LINE
  5
9D0
330
9AE
100
AcDbEntity
  8
Symbol (ANSI)
100
AcDbLine
 10
7.604045058171934
 20
6.129344665138219
 30
0.0
 11
8.194596239274297
 21
6.129344665138219
 31
0.0
  0
MTEXT
  5
9D1
330
9AE
100
AcDbEntity
  8
Symbol (ANSI)
100
AcDbMText
 10
7.662471525624397
 20
6.189761438859194
 30
0.0
 40
0.1200000014830762
 41
0.0
 71
     7
 72
     1
  1
0.1400
  7
Text Style29
 73
     1
 44
1.0
1001
ACAD
1000
MTEXTBEGIN
1070
    73
1070
     1
1070
    44
1040
1.0
1070
    74
1070
     0
1000
MTEXTEND
  0
MTEXT
  5
9D2
330
9AE
100
AcDbEntity
  8
Symbol (ANSI)
100
AcDbMText
 10
8.50063022665387
 20
6.194499865670483
 30
0.0
 40
0.1200000014830762
 41
0.0
 71
     7
 72
     1
  1
REAM 
  7
Text Style29
 73
     1
 44
1.0
1001
ACAD
1000
MTEXTBEGIN
1070
    73
1070
     1
1070
    44
1040
1.0
1070
    74
1070
     0
1000
MTEXTEND
  0
MTEXT
  5
9D4
330
9AE
100
AcDbEntity
  8
Symbol (ANSI)
100
AcDbMText
 10
8.963148331071927
 20
6.16438403521696
 30
0.0
 40
0.1200000014830762
 41
0.0
 71
     7
 72
     1
  1
n
  7
Text Style6
 73
     1
 44
1.0
1001
ACAD
1000
MTEXTBEGIN
1070
    73
1070
     1
1070
    44
1040
1.0
1070
    74
1070
     0
1000
MTEXTEND
  0
MTEXT
  5
9D6
330
9AE
100
AcDbEntity
  8
Symbol (ANSI)
100
AcDbMText
 10
9.097050388490599
 20
6.191971502642932
 30
0.0
 40
0.1200000014830762
 41
0.0
 71
     7
 72
     1
  1
0.0635 
  7
Text Style29
 73
     1
 44
1.0
1001
ACAD
1000
MTEXTBEGIN
1070
    73
1070
     1
1070
    44
1040
1.0
1070
    74
1070
     0
1000
MTEXTEND
  0
MTEXT
  5
9D7
330
9AE
100
AcDbEntity
  8
Symbol (ANSI)
100
AcDbMText
 10
9.655929773334921
 20
6.186391757471458
 30
0.0
 40
0.1200000014830762
 41
0.0
 71
     7
 72
     1
  1
x
  7
Text Style6
 73
     1
 44
1.0
1001
ACAD
1000
MTEXTBEGIN
1070
    73
1070
     1
1070
    44
1040
1.0
1070
    74
1070
     0
1000
MTEXTEND
  0
MTEXT
  5
9D8
330
9AE
100
AcDbEntity
  8
Symbol (ANSI)
100
AcDbMText
 10
9.775475465399551
 20
6.191971502642932
 30
0.0
 40
0.1200000014830762
 41
0.0
 71
     7
 72
     1
  1
 0.21
  7
Text Style29
 73
     1
 44
2.885305643081665
1001
ACAD
1000
MTEXTBEGIN
1070
    73
1070
     1
1070
    44
1040
2.885305643081665
1070
    74
1070
     0
1000
MTEXTEND
  0
LINE
  5
9D9
330
9AE
100
AcDbEntity
  8
Symbol (ANSI)
100
AcDbLine
 10
6.558653613932211
 20
6.129344665138221
 30
0.0
 11
6.558653613932211
 21
6.965917334572308
 31
0.0
  0
LINE
  5
9DA
330
9AE
100
AcDbEntity
  8
Symbol (ANSI)
100
AcDbLine
 10
6.558653613932211
 20
6.965917334572308
 30
0.0
 11
10.4291492256148
 21
6.965917334572308
 31
0.0
  0
LINE
  5
9DB
330
9AE
100
AcDbEntity
  8
Symbol (ANSI)
100
AcDbLine
 10
10.4291492256148
 20
6.965917334572308
 30
0.0
 11
10.4291492256148
 21
6.129344665138221
 31
0.0
  0
LINE
  5
9DC
330
9AE
100
AcDbEntity
  8
Symbol (ANSI)
100
AcDbLine
 10
10.4291492256148
 20
6.129344665138221
 30
0.0
 11
6.558653613932211
 21
6.129344665138221
 31
0.0
  0
ENDBLK
  5
9B0
330
9AE
100
AcDbEntity
  8
0
100
AcDbBlockEnd
  0
BLOCK
  5
9DF
330
9DE
100
AcDbEntity
  8
0
100
AcDbBlockBegin
  2
Leader Text13
 70
     0
 10
0.0
 20
0.0
 30
0.0
  3
Leader Text13
  1

  0
LINE
  5
9E1
330
9DE
100
AcDbEntity
  8
Symbol (ANSI)
100
AcDbLine
 10
3.755210546740927
 20
6.288888665845782
 30
0.0
 11
3.71541417324066
 21
6.198867734772693
 31
0.0
  0
POLYLINE
  5
9E2
330
9DE
100
AcDbEntity
  8
Symbol (ANSI)
100
AcDb2dPolyline
 66
     1
 10
0.0
 20
0.0
 30
0.0
 70
   128
  0
VERTEX
  5
9E3
330
9E2
100
AcDbEntity
  8
Symbol (ANSI)
100
AcDbVertex
100
AcDb2dVertex
 10
3.73720634640671
 20
6.296847936675304
 30
0.0
  0
VERTEX
  5
9E4
330
9E2
100
AcDbEntity
  8
Symbol (ANSI)
100
AcDbVertex
100
AcDb2dVertex
 10
3.715414137352169
 20
6.198867662685123
 30
0.0
  0
VERTEX
  5
9E6
330
9E2
100
AcDbEntity
  8
Symbol (ANSI)
100
AcDbVertex
100
AcDb2dVertex
 10
3.773214685635303
 20
6.280929460300234
 30
0.0
  0
VERTEX
  5
9E7
330
9E2
100
AcDbEntity
  8
Symbol (ANSI)
100
AcDbVertex
100
AcDb2dVertex
 10
3.73720634640671
 20
6.296847936675304
 30
0.0
  0
SEQEND
  5
9E5
330
9E2
100
AcDbEntity
  8
Symbol (ANSI)
  0
SOLID
  5
9E8
330
9DE
100
AcDbEntity
  8
Symbol (ANSI)
100
AcDbTrace
 10
3.73720634640671
 20
6.296847936675304
 30
0.0
 11
3.715414137352169
 21
6.198867662685123
 31
0.0
 12
3.773214685635303
 22
6.280929460300234
 32
0.0
 13
3.73720634640671
 23
6.296847936675304
 33
0.0
  0
LINE
  5
9E9
330
9DE
100
AcDbEntity
  8
Symbol (ANSI)
100
AcDbLine
 10
3.737206360526309
 20
6.296847940545836
 30
0.0
 11
3.71541417324066
 21
6.198867734772693
 31
0.0
  0
LINE
  5
9EA
330
9DE
100
AcDbEntity
  8
Symbol (ANSI)
100
AcDbLine
 10
3.71541417324066
 20
6.198867734772693
 30
0.0
 11
3.773214732955544
 21
6.28092939114573
 31
0.0
  0
LINE
  5
9EB
330
9DE
100
AcDbEntity
  8
Symbol (ANSI)
100
AcDbLine
 10
3.773214732955544
 20
6.28092939114573
 30
0.0
 11
3.737206360526309
 21
6.296847940545836
 31
0.0
  0
LINE
  5
9EC
330
9DE
100
AcDbEntity
  8
Symbol (ANSI)
100
AcDbLine
 10
3.755210546740927
 20
6.288888665845782
 30
0.0
 11
3.809480104161698
 21
6.411648496912038
 31
0.0
  0
LINE
  5
9ED
330
9DE
100
AcDbEntity
  8
Symbol (ANSI)
100
AcDbLine
 10
3.809480104161698
 20
6.411648496912038
 30
0.0
 11
3.907905301012092
 21
6.411648496912038
 31
0.0
  0
MTEXT
  5
9EE
330
9DE
100
AcDbEntity
  8
Symbol (ANSI)
100
AcDbMText
 10
3.906367407311305
 20
6.351454007909953
 30
0.0
 40
0.1200000014830762
 41
0.0
 71
     7
 72
     1
  1
A1
  7
Text Style29
 73
     1
 44
1.0
1001
ACAD
1000
MTEXTBEGIN
1070
    73
1070
     1
1070
    44
1040
1.0
1070
    74
1070
     0
1000
MTEXTEND
  0
ENDBLK
  5
9E0
330
9DE
100
AcDbEntity
  8
0
100
AcDbBlockEnd
  0
BLOCK
  5
9F7
330
9F1
100
AcDbEntity
  8
0
100
AcDbBlockBegin
  2
*D19
 70
     1
 10
0.0
 20
0.0
 30
0.0
  3
*D19
  1

  0
LINE
  5
A81
330
9F1
100
AcDbEntity
  8
Dimension (ANSI)
100
AcDbLine
 10
0.6181917274780854
 20
0.5820641449975137
 30
0.0
 11
0.6378767664023028
 21
0.5820641449975137
 31
0.0
  0
LINE
  5
A82
330
9F1
100
AcDbEntity
  8
Dimension (ANSI)
100
AcDbLine
 10
0.6378767664023028
 20
0.5820641449975137
 30
0.0
 11
0.7065677629664976
 21
0.6105477321364157
 31
0.0
  0
MTEXT
  5
A83
330
9F1
100
AcDbEntity
  8
Dimension (ANSI)
100
AcDbMText
 10
0.459543281156269
 20
0.5945638096983697
 30
0.0
 40
0.0240000009536743
 41
0.0
 71
     1
 72
     1
  1
\A1;R0.0493 in
  7
Note Text (ANSI)
 73
     1
 44
1.0
1001
ACAD
1000
MTEXTBEGIN
1070
    73
1070
     1
1070
    44
1040
1.0
1070
    74
1070
     0
1000
MTEXTEND
  0
SOLID
  5
A84
330
9F1
100
AcDbEntity
  8
Dimension (ANSI)
100
AcDbTrace
 10
0.7053110784500653
 20
0.6135783515376719
 30
0.0
 11
0.7078244474829298
 21
0.6075171127351597
 31
0.0
 12
0.7247514793740334
 22
0.6180878392350091
 32
0.0
 13
0.7247514793740334
 23
0.6180878392350091
 33
0.0
  0
POINT
  5
A85
330
9F1
100
AcDbEntity
  8
Defpoints
 62
     0
100
AcDbPoint
 10
0.7247514793740334
 20
0.6180878392350091
 30
0.0
  0
POINT
  5
A86
330
9F1
100
AcDbEntity
  8
Defpoints
 62
     0
100
AcDbPoint
 10
0.770245320484528
 20
0.6369524336122814
 30
0.0
  0
ENDBLK
  5
9F8
330
9F1
100
AcDbEntity
  8
0
100
AcDbBlockEnd
  0
BLOCK
  5
A8E
330
A88
100
AcDbEntity
  8
0
100
AcDbBlockBegin
  2
*D20
 70
     1
 10
0.0
 20
0.0
 30
0.0
  3
*D20
  1

  0
LINE
  5
B18
330
A88
100
AcDbEntity
  8
Dimension (ANSI)
100
AcDbLine
 10
0.5809342986817106
 20
0.4313533895288603
 30
0.0
 11
0.6067707060679572
 21
0.4313533895288603
 31
0.0
  0
LINE
  5
B19
330
A88
100
AcDbEntity
  8
Dimension (ANSI)
100
AcDbLine
 10
0.6067707060679572
 20
0.4313533895288603
 30
0.0
 11
0.738856562222648
 21
0.5974753642419689
 31
0.0
  0
MTEXT
  5
B1A
330
A88
100
AcDbEntity
  8
Dimension (ANSI)
100
AcDbMText
 10
0.4222858523598939
 20
0.4439014088320407
 30
0.0
 40
0.0240000009536743
 41
0.0
 71
     1
 72
     1
  1
\A1;R0.0308 in
  7
Note Text (ANSI)
 73
     1
 44
1.0
1001
ACAD
1000
MTEXTBEGIN
1070
    73
1070
     1
1070
    44
1040
1.0
1070
    74
1070
     0
1000
MTEXTEND
  0
SOLID
  5
B1B
330
A88
100
AcDbEntity
  8
Dimension (ANSI)
100
AcDbTrace
 10
0.7362885471292268
 20
0.5995172281965631
 30
0.0
 11
0.7414245773160691
 21
0.5954335002873748
 31
0.0
 12
0.7511077459502129
 22
0.6128834548024958
 32
0.0
 13
0.7511077459502129
 23
0.6128834548024958
 33
0.0
  0
POINT
  5
B1C
330
A88
100
AcDbEntity
  8
Defpoints
 62
     0
100
AcDbPoint
 10
0.7511077459502129
 20
0.6128834548024958
 30
0.0
  0
POINT
  5
B1D
330
A88
100
AcDbEntity
  8
Defpoints
 62
     0
100
AcDbPoint
 10
0.770245320484527
 20
0.6369524336122807
 30
0.0
  0
ENDBLK
  5
A8F
330
A88
100
AcDbEntity
  8
0
100
AcDbBlockEnd
  0
ENDSEC
  0
SECTION
  2
ENTITIES
  0
INSERT
  5
FC
330
37
100
AcDbEntity
  8
0
100
AcDbBlockReference
  2
Borders Default Border
 10
0.0
 20
0.0
 30
0.0
 41
0.2
 42
0.2
 43
0.2
  0
CIRCLE
  5
FD
330
37
100
AcDbEntity
  8
Visible (ANSI)
100
AcDbCircle
 10
0.9282402204847247
 20
0.6919524336123486
 30
0.0
 40
0.0445
  0
CIRCLE
  5
FE
330
37
100
AcDbEntity
  8
Visible (ANSI)
100
AcDbCircle
 10
0.9282402204847247
 20
0.6919524336123486
 30
0.0
 40
0.0475000000000011
  0
CIRCLE
  5
FF
330
37
100
AcDbEntity
  8
Visible (ANSI)
100
AcDbCircle
 10
1.004245320484814
 20
0.7699524336124439
 30
0.0
 40
0.0500000000000011
  0
CIRCLE
  5
100
330
37
100
AcDbEntity
  8
Visible (ANSI)
100
AcDbCircle
 10
1.004245320484814
 20
0.7699524336124439
 30
0.0
 40
0.047
  0
CIRCLE
  5
101
330
37
100
AcDbEntity
  8
Visible (ANSI)
100
AcDbCircle
 10
0.9282402696847203
 20
0.5009473828121151
 30
0.0
 40
0.0445
  0
CIRCLE
  5
102
330
37
100
AcDbEntity
  8
Visible (ANSI)
100
AcDbCircle
 10
0.7302503712844802
 20
0.5009473828121151
 30
0.0
 40
0.0445
  0
CIRCLE
  5
103
330
37
100
AcDbEntity
  8
Visible (ANSI)
100
AcDbCircle
 10
0.9282402696847203
 20
0.5009473828121151
 30
0.0
 40
0.0475000000000011
  0
CIRCLE
  5
104
330
37
100
AcDbEntity
  8
Visible (ANSI)
100
AcDbCircle
 10
0.4822605204841766
 20
0.5009473836121151
 30
0.0
 40
0.0475000000000011
  0
CIRCLE
  5
105
330
37
100
AcDbEntity
  8
Visible (ANSI)
100
AcDbCircle
 10
0.5122605204842169
 20
0.7699524336124439
 30
0.0
 40
0.0500000000000011
  0
CIRCLE
  5
106
330
37
100
AcDbEntity
  8
Visible (ANSI)
100
AcDbCircle
 10
0.7302503712844802
 20
0.5009473828121151
 30
0.0
 40
0.0475000000000011
  0
CIRCLE
  5
107
330
37
100
AcDbEntity
  8
Visible (ANSI)
100
AcDbCircle
 10
0.4822605204841766
 20
0.5009473836121151
 30
0.0
 40
0.0445
  0
CIRCLE
  5
108
330
37
100
AcDbEntity
  8
Visible (ANSI)
100
AcDbCircle
 10
0.5122605204842169
 20
0.7699524336124439
 30
0.0
 40
0.047
  0
LINE
  5
109
330
37
100
AcDbEntity
  8
Visible (ANSI)
100
AcDbLine
 10
0.7394943204844938
 20
0.851952433612544
 30
0.0
 11
0.7394943204844938
 21
0.7619524336118206
 31
0.0
  0
LINE
  5
10A
330
37
100
AcDbEntity
  8
Visible (ANSI)
100
AcDbLine
 10
0.7394943204844938
 20
0.7619524336118206
 30
0.0
 11
0.7394953204844926
 21
0.7369524336124035
 31
0.0
  0
LINE
  5
10B
330
37
100
AcDbEntity
  8
Visible (ANSI)
100
AcDbLine
 10
0.7394953204844926
 20
0.7369524336124035
 30
0.0
 11
0.7394953204844926
 21
0.6369524336122814
 31
0.0
  0
ARC
  5
10C
330
37
100
AcDbEntity
  8
Visible (ANSI)
100
AcDbCircle
 10
0.7702453204845305
 20
0.6369524336122789
 30
0.0
 40
0.0307500000000367
100
AcDbArc
 50
180.0
 51
270.0
  0
LINE
  5
10D
330
37
100
AcDbEntity
  8
Visible (ANSI)
100
AcDbLine
 10
0.7702453204845305
 20
0.6062024336122437
 30
0.0
 11
0.9756695691803511
 21
0.6062024336122437
 31
0.0
  0
ARC
  5
10E
330
37
100
AcDbEntity
  8
Visible (ANSI)
100
AcDbCircle
 10
0.9802453204847878
 20
0.5984524336122388
 30
0.0
 40
0.0090000000000064
100
AcDbArc
 50
90.0
 51
120.5584317859422
  0
LINE
  5
10F
330
37
100
AcDbEntity
  8
Visible (ANSI)
100
AcDbLine
 10
0.9802453204847878
 20
0.6074524336122453
 30
0.0
 11
0.9880203706858036
 21
0.6074524336122453
 31
0.0
  0
ARC
  5
110
330
37
100
AcDbEntity
  8
Visible (ANSI)
100
AcDbCircle
 10
0.9942453204848073
 20
0.600952433612231
 30
0.0
 40
0.009000000000018
100
AcDbArc
 50
90.00000000001781
 51
133.7617426926659
  0
LINE
  5
111
330
37
100
AcDbEntity
  8
Visible (ANSI)
100
AcDbLine
 10
0.994245320484805
 20
0.6099524336122484
 30
0.0
 11
1.001121417060425
 21
0.6099524336122484
 31
0.0
  0
ARC
  5
112
330
37
100
AcDbEntity
  8
Visible (ANSI)
100
AcDbCircle
 10
1.008245320484822
 20
0.6044524336122392
 30
0.0
 40
0.0090000000000146
100
AcDbArc
 50
90.00000000001781
 51
142.3301130356691
  0
LINE
  5
113
330
37
100
AcDbEntity
  8
Visible (ANSI)
100
AcDbLine
 10
1.00824532048482
 20
0.6134524336122527
 30
0.0
 11
1.015588466235337
 21
0.6134524336122527
 31
0.0
  0
ARC
  5
114
330
37
100
AcDbEntity
  8
Visible (ANSI)
100
AcDbCircle
 10
1.021245320484839
 20
0.6064524336122317
 30
0.0
 40
0.0090000000000226
100
AcDbArc
 50
90.00000000001781
 51
128.942441268958
  0
LINE
  5
115
330
37
100
AcDbEntity
  8
Visible (ANSI)
100
AcDbLine
 10
1.021245320484837
 20
0.6154524336122551
 30
0.0
 11
1.028371110484843
 21
0.6154524336122551
 31
0.0
  0
ARC
  5
116
330
37
100
AcDbEntity
  8
Visible (ANSI)
100
AcDbCircle
 10
1.02837111048485
 20
0.6462024336122875
 30
0.0
 40
0.0307500000000324
100
AcDbArc
 50
269.9999999999895
 51
0.0
  0
LINE
  5
117
330
37
100
AcDbEntity
  8
Visible (ANSI)
100
AcDbLine
 10
1.059121110484881
 20
0.6462024336122926
 30
0.0
 11
1.059121110484881
 21
0.6969524336123547
 31
0.0
  0
ARC
  5
118
330
37
100
AcDbEntity
  8
Visible (ANSI)
100
AcDbCircle
 10
1.133371110484972
 20
0.6969524336123535
 30
0.0
 40
0.0742500000000921
100
AcDbArc
 50
0.0
 51
180.0
  0
LINE
  5
119
330
37
100
AcDbEntity
  8
Visible (ANSI)
100
AcDbLine
 10
1.207621110485065
 20
0.6969524336123547
 30
0.0
 11
1.207621110485065
 21
0.4239524336120211
 31
0.0
  0
LINE
  5
11A
330
37
100
AcDbEntity
  8
Visible (ANSI)
100
AcDbLine
 10
1.207621110485065
 20
0.4239524336120211
 30
0.0
 11
1.267621110485136
 21
0.4239524336120211
 31
0.0
  0
LINE
  5
11B
330
37
100
AcDbEntity
  8
Visible (ANSI)
100
AcDbLine
 10
1.267621110485136
 20
0.4239524336120211
 30
0.0
 11
1.267621110485136
 21
0.851952433612544
 31
0.0
  0
LINE
  5
11C
330
37
100
AcDbEntity
  8
Visible (ANSI)
100
AcDbLine
 10
0.7394943204844938
 20
0.851952433612544
 30
0.0
 11
1.267621110485136
 21
0.851952433612544
 31
0.0
  0
LINE
  5
11D
330
37
100
AcDbEntity
  8
Visible (ANSI)
100
AcDbLine
 10
0.7209963204844715
 20
0.7619524336118206
 30
0.0
 11
0.7209963204844715
 21
0.851952433612544
 31
0.0
  0
LINE
  5
11E
330
37
100
AcDbEntity
  8
Visible (ANSI)
100
AcDbLine
 10
0.3676211204840371
 20
0.851952433612544
 30
0.0
 11
0.7209963204844715
 21
0.851952433612544
 31
0.0
  0
LINE
  5
11F
330
37
100
AcDbEntity
  8
Visible (ANSI)
100
AcDbLine
 10
0.3676211204840371
 20
0.4019524336119942
 30
0.0
 11
0.3676211204840371
 21
0.851952433612544
 31
0.0
  0
LINE
  5
120
330
37
100
AcDbEntity
  8
Visible (ANSI)
100
AcDbLine
 10
1.059121110484881
 20
0.4019524336119942
 30
0.0
 11
0.3676211204840371
 21
0.4019524336119942
 31
0.0
  0
LINE
  5
121
330
37
100
AcDbEntity
  8
Visible (ANSI)
100
AcDbLine
 10
1.059121110484881
 20
0.4019524336119942
 30
0.0
 11
1.059121110484881
 21
0.5477024336121723
 31
0.0
  0
ARC
  5
122
330
37
100
AcDbEntity
  8
Visible (ANSI)
100
AcDbCircle
 10
1.02837111048485
 20
0.5477024336121775
 30
0.0
 40
0.0307500000000311
100
AcDbArc
 50
0.0
 51
90.00000000001046
  0
LINE
  5
123
330
37
100
AcDbEntity
  8
Visible (ANSI)
100
AcDbLine
 10
1.028371110484843
 20
0.5784524336122099
 30
0.0
 11
1.021245320484837
 21
0.5784524336122099
 31
0.0
  0
ARC
  5
124
330
37
100
AcDbEntity
  8
Visible (ANSI)
100
AcDbCircle
 10
1.021245320484839
 20
0.587452433612233
 30
0.0
 40
0.009000000000023
100
AcDbArc
 50
231.0575587310404
 51
269.9999999999822
  0
LINE
  5
125
330
37
100
AcDbEntity
  8
Visible (ANSI)
100
AcDbLine
 10
1.015588466235337
 20
0.5804524336122123
 30
0.0
 11
1.00824532048482
 21
0.5804524336122123
 31
0.0
  0
ARC
  5
126
330
37
100
AcDbEntity
  8
Visible (ANSI)
100
AcDbCircle
 10
1.008245320484822
 20
0.5894524336122259
 30
0.0
 40
0.0090000000000136
100
AcDbArc
 50
217.6698869643313
 51
269.9999999999822
  0
LINE
  5
127
330
37
100
AcDbEntity
  8
Visible (ANSI)
100
AcDbLine
 10
1.001121417060425
 20
0.5839524336122165
 30
0.0
 11
0.994245320484805
 21
0.5839524336122165
 31
0.0
  0
ARC
  5
128
330
37
100
AcDbEntity
  8
Visible (ANSI)
100
AcDbCircle
 10
0.9942453204848073
 20
0.5929524336122338
 30
0.0
 40
0.0090000000000173
100
AcDbArc
 50
226.2382573073339
 51
269.9999999999822
  0
LINE
  5
129
330
37
100
AcDbEntity
  8
Visible (ANSI)
100
AcDbLine
 10
0.9880203706858036
 20
0.5864524336122196
 30
0.0
 11
0.9802453204847878
 21
0.5864524336122196
 31
0.0
  0
ARC
  5
12A
330
37
100
AcDbEntity
  8
Visible (ANSI)
100
AcDbCircle
 10
0.9802453204847878
 20
0.5954524336122256
 30
0.0
 40
0.0090000000000059
100
AcDbArc
 50
239.4415682140559
 51
270.0
  0
LINE
  5
12B
330
37
100
AcDbEntity
  8
Visible (ANSI)
100
AcDbLine
 10
0.9756695691803511
 20
0.5877024336122212
 30
0.0
 11
0.7702453204845305
 21
0.5877024336122212
 31
0.0
  0
ARC
  5
12C
330
37
100
AcDbEntity
  8
Visible (ANSI)
100
AcDbCircle
 10
0.770245320484526
 20
0.6369524336122771
 30
0.0
 40
0.0492500000000559
100
AcDbArc
 50
180.0
 51
270.0000000000033
  0
LINE
  5
12D
330
37
100
AcDbEntity
  8
Visible (ANSI)
100
AcDbLine
 10
0.7209953204844704
 20
0.6369524336122814
 30
0.0
 11
0.7209953204844704
 21
0.7369524336124035
 31
0.0
  0
LINE
  5
12E
330
37
100
AcDbEntity
  8
Visible (ANSI)
100
AcDbLine
 10
0.7209953204844704
 20
0.7369524336124035
 30
0.0
 11
0.7209963204844715
 21
0.7619524336118206
 31
0.0
  0
LINE
  5
12F
330
37
100
AcDbEntity
  8
Visible (ANSI)
100
AcDbLine
 10
0.7209963204844715
 20
0.851952433612544
 30
0.0
 11
0.7394943204844938
 21
0.851952433612544
 31
0.0
  0
LINE
  5
130
330
37
100
AcDbEntity
  8
Visible (ANSI)
100
AcDbLine
 10
1.267621110485136
 20
0.4019524336119942
 30
0.0
 11
1.207621110485065
 21
0.4019524336119942
 31
0.0
  0
LINE
  5
131
330
37
100
AcDbEntity
  8
Visible (ANSI)
100
AcDbLine
 10
1.207621110485062
 20
0.4019524336119942
 30
0.0
 11
1.197321110485054
 21
0.4019524336119942
 31
0.0
  0
LINE
  5
132
330
37
100
AcDbEntity
  8
Visible (ANSI)
100
AcDbLine
 10
1.127621110484966
 20
0.4019524336119942
 30
0.0
 11
1.109121110484942
 21
0.4019524336119942
 31
0.0
  0
LINE
  5
133
330
37
100
AcDbEntity
  8
Visible (ANSI)
100
AcDbLine
 10
1.109121110484943
 20
0.4019524336119942
 30
0.0
 11
1.077621110484905
 21
0.4019524336119942
 31
0.0
  0
LINE
  5
134
330
37
100
AcDbEntity
  8
Visible (ANSI)
100
AcDbLine
 10
1.077621110484905
 20
0.4019524336119942
 30
0.0
 11
1.059121110484881
 21
0.4019524336119942
 31
0.0
  0
LINE
  5
135
330
37
100
AcDbEntity
  8
Visible (ANSI)
100
AcDbLine
 10
1.267621110485136
 20
0.4239524336120211
 30
0.0
 11
1.267621110485136
 21
0.4019524336119941
 31
0.0
  0
LINE
  5
136
330
37
100
AcDbEntity
  8
Visible (ANSI)
100
AcDbLine
 10
1.077621110484905
 20
0.5477024336121723
 30
0.0
 11
1.077621110484905
 21
0.4019524336119942
 31
0.0
  0
LINE
  5
137
330
37
100
AcDbEntity
  8
Visible (ANSI)
100
AcDbLine
 10
1.109121110484943
 20
0.4019524336119942
 30
0.0
 11
1.109121110484943
 21
0.4204524336120168
 31
0.0
  0
LINE
  5
138
330
37
100
AcDbEntity
  8
Visible (ANSI)
100
AcDbLine
 10
1.109121110484943
 20
0.4204524336120168
 30
0.0
 11
1.127621110484965
 21
0.4204524336120168
 31
0.0
  0
LINE
  5
139
330
37
100
AcDbEntity
  8
Visible (ANSI)
100
AcDbLine
 10
1.127621110484965
 20
0.4204524336120168
 30
0.0
 11
1.127621110484965
 21
0.4019524336119942
 31
0.0
  0
LINE
  5
13A
330
37
100
AcDbEntity
  8
Visible (ANSI)
100
AcDbLine
 10
1.197321110485054
 20
0.4019524336119942
 30
0.0
 11
1.127621110484965
 21
0.4019524336119942
 31
0.0
  0
LINE
  5
13B
330
37
100
AcDbEntity
  8
Visible (ANSI)
100
AcDbLine
 10
1.197321110485054
 20
0.4019524336119942
 30
0.0
 11
1.197321110485054
 21
0.4104524336120046
 31
0.0
  0
LINE
  5
13C
330
37
100
AcDbEntity
  8
Visible (ANSI)
100
AcDbLine
 10
1.197321110485054
 20
0.4104524336120046
 30
0.0
 11
1.192621110485044
 21
0.4104524336120046
 31
0.0
  0
ARC
  5
13D
330
37
100
AcDbEntity
  8
Visible (ANSI)
100
AcDbCircle
 10
1.192621110485041
 20
0.4139524336120063
 30
0.0
 40
0.0035000000000017
100
AcDbArc
 50
180.0
 51
270.0000000000458
  0
LINE
  5
13E
330
37
100
AcDbEntity
  8
Visible (ANSI)
100
AcDbLine
 10
1.189121110485038
 20
0.4139524336120088
 30
0.0
 11
1.189121110485038
 21
0.6969524336123547
 31
0.0
  0
ARC
  5
13F
330
37
100
AcDbEntity
  8
Visible (ANSI)
100
AcDbCircle
 10
1.133371110484972
 20
0.696952433612352
 30
0.0
 40
0.0557500000000693
100
AcDbArc
 50
0.0
 51
180.0
  0
LINE
  5
140
330
37
100
AcDbEntity
  8
Visible (ANSI)
100
AcDbLine
 10
1.077621110484905
 20
0.6969524336123547
 30
0.0
 11
1.077621110484905
 21
0.6462024336122926
 31
0.0
  0
ARC
  5
141
330
37
100
AcDbEntity
  8
Visible (ANSI)
100
AcDbCircle
 10
1.028371110484845
 20
0.6462024336122914
 30
0.0
 40
0.0492500000000566
100
AcDbArc
 50
281.5657063836193
 51
0.0
  0
LINE
  5
142
330
37
100
AcDbEntity
  8
Visible (ANSI)
100
AcDbLine
 10
1.038245320484855
 20
0.5979524338518618
 30
0.0
 11
1.038245320484855
 21
0.5959524333726033
 31
0.0
  0
ARC
  5
143
330
37
100
AcDbEntity
  8
Visible (ANSI)
100
AcDbCircle
 10
1.028371110484845
 20
0.5477024336121737
 30
0.0
 40
0.0492500000000582
100
AcDbArc
 50
0.0
 51
78.43429361638065
  0
LINE
  5
144
330
37
100
AcDbEntity
  8
Visible (ANSI)
100
AcDbLine
 10
1.189121110485038
 20
0.4204524336120168
 30
0.0
 11
1.207621110485065
 21
0.4204524336120168
 31
0.0
  0
LINE
  5
145
330
37
100
AcDbEntity
  8
Visible (ANSI)
100
AcDbLine
 10
1.207621110485065
 20
0.4019524336119941
 30
0.0
 11
1.207621110485065
 21
0.4239524336120203
 31
0.0
  0
ARC
  5
146
330
37
100
AcDbEntity
  8
Visible (ANSI)
100
AcDbCircle
 10
1.004245320484812
 20
0.7699524336124441
 30
0.0
 40
0.0468750000000573
100
AcDbArc
 50
267.1474807601518
 51
184.3367942196203
  0
ARC
  5
147
330
37
100
AcDbEntity
  8
Visible (ANSI)
100
AcDbCircle
 10
1.004245320484819
 20
0.7699524336124428
 30
0.0
 40
0.0436714410349158
100
AcDbArc
 50
264.9755698936253
 51
186.5087050861384
  0
POLYLINE
  5
148
330
37
100
AcDbEntity
  8
Visible (ANSI)
100
AcDb2dPolyline
 66
     1
 10
0.0
 20
0.0
 30
0.0
 70
   128
  0
VERTEX
  5
149
330
148
100
AcDbEntity
  8
Visible (ANSI)
100
AcDbVertex
100
AcDb2dVertex
 10
1.001912210537806
 20
0.7231355115443638
 30
0.0
  0
VERTEX
  5
14A
330
148
100
AcDbEntity
  8
Visible (ANSI)
100
AcDbVertex
100
AcDb2dVertex
 10
1.001853638414436
 20
0.7232748315349273
 30
0.0
  0
VERTEX
  5
14C
330
148
100
AcDbEntity
  8
Visible (ANSI)
100
AcDbVertex
100
AcDb2dVertex
 10
1.001793564441749
 20
0.723414034193513
 30
0.0
  0
VERTEX
  5
14D
330
148
100
AcDbEntity
  8
Visible (ANSI)
100
AcDbVertex
100
AcDb2dVertex
 10
1.00173499231838
 20
0.7235531195201208
 30
0.0
  0
VERTEX
  5
14E
330
148
100
AcDbEntity
  8
Visible (ANSI)
100
AcDbVertex
100
AcDb2dVertex
 10
1.001674918345692
 20
0.7236921344475419
 30
0.0
  0
VERTEX
  5
14F
330
148
100
AcDbEntity
  8
Visible (ANSI)
100
AcDbVertex
100
AcDb2dVertex
 10
1.001614844373005
 20
0.723831032042985
 30
0.0
  0
VERTEX
  5
150
330
148
100
AcDbEntity
  8
Visible (ANSI)
100
AcDbVertex
100
AcDb2dVertex
 10
1.001553268551001
 20
0.7239698123064502
 30
0.0
  0
VERTEX
  5
151
330
148
100
AcDbEntity
  8
Visible (ANSI)
100
AcDbVertex
100
AcDb2dVertex
 10
1.001493194578314
 20
0.7241084987043331
 30
0.0
  0
VERTEX
  5
152
330
148
100
AcDbEntity
  8
Visible (ANSI)
100
AcDbVertex
100
AcDb2dVertex
 10
1.00143161875631
 20
0.7242470912366337
 30
0.0
  0
VERTEX
  5
153
330
148
100
AcDbEntity
  8
Visible (ANSI)
100
AcDbVertex
100
AcDb2dVertex
 10
1.001371544783623
 20
0.7243855664369563
 30
0.0
  0
VERTEX
  5
154
330
148
100
AcDbEntity
  8
Visible (ANSI)
100
AcDbVertex
100
AcDb2dVertex
 10
1.001309968961619
 20
0.7245239243053012
 30
0.0
  0
VERTEX
  5
155
330
148
100
AcDbEntity
  8
Visible (ANSI)
100
AcDbVertex
100
AcDb2dVertex
 10
1.001246891290298
 20
0.7246621883080636
 30
0.0
  0
VERTEX
  5
156
330
148
100
AcDbEntity
  8
Visible (ANSI)
100
AcDbVertex
100
AcDb2dVertex
 10
1.001185315468293
 20
0.7248003115124525
 30
0.0
  0
VERTEX
  5
157
330
148
100
AcDbEntity
  8
Visible (ANSI)
100
AcDbVertex
100
AcDb2dVertex
 10
1.001123739646289
 20
0.7249383408512591
 30
0.0
  0
VERTEX
  5
158
330
148
100
AcDbEntity
  8
Visible (ANSI)
100
AcDbVertex
100
AcDb2dVertex
 10
1.001060661974968
 20
0.7250762528580879
 30
0.0
  0
VERTEX
  5
159
330
148
100
AcDbEntity
  8
Visible (ANSI)
100
AcDbVertex
100
AcDb2dVertex
 10
1.000997584303646
 20
0.7252140240665432
 30
0.0
  0
VERTEX
  5
15A
330
148
100
AcDbEntity
  8
Visible (ANSI)
100
AcDbVertex
100
AcDb2dVertex
 10
1.000934506632325
 20
0.725351701409416
 30
0.0
  0
VERTEX
  5
15B
330
148
100
AcDbEntity
  8
Visible (ANSI)
100
AcDbVertex
100
AcDb2dVertex
 10
1.000871428961004
 20
0.7254892379539154
 30
0.0
  0
VERTEX
  5
15C
330
148
100
AcDbEntity
  8
Visible (ANSI)
100
AcDbVertex
100
AcDb2dVertex
 10
1.000808351289683
 20
0.7256266806328325
 30
0.0
  0
VERTEX
  5
15D
330
148
100
AcDbEntity
  8
Visible (ANSI)
100
AcDbVertex
100
AcDb2dVertex
 10
1.000743771769044
 20
0.7257640059797718
 30
0.0
  0
VERTEX
  5
15E
330
148
100
AcDbEntity
  8
Visible (ANSI)
100
AcDbVertex
100
AcDb2dVertex
 10
1.000679192248405
 20
0.7259011905283375
 30
0.0
  0
VERTEX
  5
15F
330
148
100
AcDbEntity
  8
Visible (ANSI)
100
AcDbVertex
100
AcDb2dVertex
 10
1.000614612727767
 20
0.7260382812113209
 30
0.0
  0
VERTEX
  5
160
330
148
100
AcDbEntity
  8
Visible (ANSI)
100
AcDbVertex
100
AcDb2dVertex
 10
1.000550033207128
 20
0.7261752310959308
 30
0.0
  0
VERTEX
  5
161
330
148
100
AcDbEntity
  8
Visible (ANSI)
100
AcDbVertex
100
AcDb2dVertex
 10
1.00048545368649
 20
0.7263120871149585
 30
0.0
  0
VERTEX
  5
162
330
148
100
AcDbEntity
  8
Visible (ANSI)
100
AcDbVertex
100
AcDb2dVertex
 10
1.000420874165851
 20
0.7264488023356125
 30
0.0
  0
SEQEND
  5
14B
330
148
100
AcDbEntity
  8
Visible (ANSI)
  0
POLYLINE
  5
163
330
37
100
AcDbEntity
  8
Visible (ANSI)
100
AcDb2dPolyline
 66
     1
 10
0.0
 20
0.0
 30
0.0
 70
   128
  0
VERTEX
  5
164
330
163
100
AcDbEntity
  8
Visible (ANSI)
100
AcDbVertex
100
AcDb2dVertex
 10
0.9608546539048711
 20
0.7650020956313452
 30
0.0
  0
VERTEX
  5
165
330
163
100
AcDbEntity
  8
Visible (ANSI)
100
AcDbVertex
100
AcDb2dVertex
 10
0.960716483767691
 20
0.7650637183861405
 30
0.0
  0
VERTEX
  5
167
330
163
100
AcDbEntity
  8
Visible (ANSI)
100
AcDbVertex
100
AcDb2dVertex
 10
0.960578313630511
 20
0.7651250595441889
 30
0.0
  0
VERTEX
  5
168
330
163
100
AcDbEntity
  8
Visible (ANSI)
100
AcDbVertex
100
AcDb2dVertex
 10
0.9604401434933308
 20
0.7651861660382814
 30
0.0
  0
VERTEX
  5
169
330
163
100
AcDbEntity
  8
Visible (ANSI)
100
AcDbVertex
100
AcDb2dVertex
 10
0.9603019733561508
 20
0.7652469909356271
 30
0.0
  0
VERTEX
  5
16A
330
163
100
AcDbEntity
  8
Visible (ANSI)
100
AcDbVertex
100
AcDb2dVertex
 10
0.9601623013696533
 20
0.7653075577026211
 30
0.0
  0
VERTEX
  5
16B
330
163
100
AcDbEntity
  8
Visible (ANSI)
100
AcDbVertex
100
AcDb2dVertex
 10
0.9600241312324733
 20
0.765367866339264
 30
0.0
  0
VERTEX
  5
16C
330
163
100
AcDbEntity
  8
Visible (ANSI)
100
AcDbVertex
100
AcDb2dVertex
 10
0.9598844592459759
 20
0.7654278933791599
 30
0.0
  0
VERTEX
  5
16D
330
163
100
AcDbEntity
  8
Visible (ANSI)
100
AcDbVertex
100
AcDb2dVertex
 10
0.9597447872594788
 20
0.7654876622887043
 30
0.0
  0
VERTEX
  5
16E
330
163
100
AcDbEntity
  8
Visible (ANSI)
100
AcDbVertex
100
AcDb2dVertex
 10
0.9596066171222986
 20
0.7655471730678975
 30
0.0
  0
VERTEX
  5
16F
330
163
100
AcDbEntity
  8
Visible (ANSI)
100
AcDbVertex
100
AcDb2dVertex
 10
0.9594669451358013
 20
0.7656064022503435
 30
0.0
  0
VERTEX
  5
170
330
163
100
AcDbEntity
  8
Visible (ANSI)
100
AcDbVertex
100
AcDb2dVertex
 10
0.9593272731493039
 20
0.7656653967688339
 30
0.0
  0
VERTEX
  5
171
330
163
100
AcDbEntity
  8
Visible (ANSI)
100
AcDbVertex
100
AcDb2dVertex
 10
0.9591876011628068
 20
0.7657241096905772
 30
0.0
  0
VERTEX
  5
172
330
163
100
AcDbEntity
  8
Visible (ANSI)
100
AcDbVertex
100
AcDb2dVertex
 10
0.9590479291763093
 20
0.7657825410155735
 30
0.0
  0
VERTEX
  5
173
330
163
100
AcDbEntity
  8
Visible (ANSI)
100
AcDbVertex
100
AcDb2dVertex
 10
0.9589082571898121
 20
0.765840737676614
 30
0.0
  0
VERTEX
  5
174
330
163
100
AcDbEntity
  8
Visible (ANSI)
100
AcDbVertex
100
AcDb2dVertex
 10
0.9587685852033148
 20
0.7658986527409076
 30
0.0
  0
VERTEX
  5
175
330
163
100
AcDbEntity
  8
Visible (ANSI)
100
AcDbVertex
100
AcDb2dVertex
 10
0.9586289132168175
 20
0.7659562862084542
 30
0.0
  0
VERTEX
  5
176
330
163
100
AcDbEntity
  8
Visible (ANSI)
100
AcDbVertex
100
AcDb2dVertex
 10
0.958487739381003
 20
0.766013685012045
 30
0.0
  0
VERTEX
  5
177
330
163
100
AcDbEntity
  8
Visible (ANSI)
100
AcDbVertex
100
AcDb2dVertex
 10
0.9583480673945057
 20
0.7660707787524932
 30
0.0
  0
VERTEX
  5
178
330
163
100
AcDbEntity
  8
Visible (ANSI)
100
AcDbVertex
100
AcDb2dVertex
 10
0.9582068935586914
 20
0.7661276378289857
 30
0.0
  0
VERTEX
  5
179
330
163
100
AcDbEntity
  8
Visible (ANSI)
100
AcDbVertex
100
AcDb2dVertex
 10
0.9580672215721939
 20
0.7661841918423355
 30
0.0
  0
VERTEX
  5
17A
330
163
100
AcDbEntity
  8
Visible (ANSI)
100
AcDbVertex
100
AcDb2dVertex
 10
0.9579260477363796
 20
0.7662405111917296
 30
0.0
  0
VERTEX
  5
17B
330
163
100
AcDbEntity
  8
Visible (ANSI)
100
AcDbVertex
100
AcDb2dVertex
 10
0.9577863757498821
 20
0.7662965254779812
 30
0.0
  0
VERTEX
  5
17C
330
163
100
AcDbEntity
  8
Visible (ANSI)
100
AcDbVertex
100
AcDb2dVertex
 10
0.9576452019140678
 20
0.7663523051002768
 30
0.0
  0
VERTEX
  5
17D
330
163
100
AcDbEntity
  8
Visible (ANSI)
100
AcDbVertex
100
AcDb2dVertex
 10
0.9575040280782532
 20
0.76640777965943
 30
0.0
  0
SEQEND
  5
166
330
163
100
AcDbEntity
  8
Visible (ANSI)
  0
LINE
  5
17E
330
37
100
AcDbEntity
  8
Centerline (ANSI)
  6
CHAIN
 48
0.9524481296539306
100
AcDbLine
 10
0.7079563357412678
 20
0.5969524336122325
 30
0.0
 11
1.13604693492212
 21
0.5969524336122325
 31
0.0
  0
DIMENSION
  5
17F
330
37
100
AcDbEntity
  8
Dimension (ANSI)
100
AcDbDimension
  2
*D5
 10
1.433767761912018
 20
0.5969524336122324
 30
0.0
 11
1.433767761912018
 21
0.5279620868595161
 31
0.0
 70
   160
  1
<>*B
 42
0.1950000000002383
  3
Default (ANSI)
100
AcDbAlignedDimension
 13
1.197321110485052
 23
0.4019524336119942
 33
0.0
 14
1.13604693492212
 24
0.5969524336122325
 34
0.0
 50
270.0
100
AcDbRotatedDimension
1001
ACAD
1000
DSTYLE
1002
{
1070
   271
1070
     3
1070
   272
1070
     3
1070
    48
1040
0.0
1070
    47
1040
0.0
1002
}
  0
LINE
  5
24C
330
37
100
AcDbEntity
  8
Centerline (ANSI)
  6
CHAIN
 48
0.9524481296539306
100
AcDbLine
 10
0.73024532048448
 20
0.8611132875849556
 30
0.0
 11
0.73024532048448
 21
0.5851260623844285
 31
0.0
  0
DIMENSION
  5
24D
330
37
100
AcDbEntity
  8
Dimension (ANSI)
100
AcDbDimension
  2
*D6
 10
1.197321110485052
 20
0.2447829627363992
 30
0.0
 11
0.9796574326898483
 21
0.2447829627363992
 31
0.0
 70
   160
  1
<>
 42
0.4670757900005725
  3
Default (ANSI)
100
AcDbAlignedDimension
 13
0.73024532048448
 23
0.5851260623844285
 33
0.0
 14
1.197321110485052
 24
0.4019524336119942
 34
0.0
 50
180.0
100
AcDbRotatedDimension
1001
ACAD
1000
DSTYLE
1002
{
1070
    73
1070
     0
1070
    74
1070
     0
1070
   271
1070
     4
1070
   272
1070
     3
1070
    48
1040
0.0
1070
    47
1040
0.0
1002
}
  0
DIMENSION
  5
32D
330
37
100
AcDbEntity
  8
Dimension (ANSI)
100
AcDbDimension
  2
*D7
 10
1.538270128261468
 20
0.4019524336119942
 30
0.0
 11
1.538270128261468
 21
0.5898104277937812
 31
0.0
 70
   160
  1
<>
 42
0.2950000000003605
  3
Default (ANSI)
100
AcDbAlignedDimension
 13
1.133371110484971
 23
0.6969524336123547
 33
0.0
 14
1.197321110485052
 24
0.4019524336119942
 34
0.0
 50
90.0
100
AcDbRotatedDimension
1001
ACAD
1000
DSTYLE
1002
{
1070
   271
1070
     3
1070
   272
1070
     3
1070
    48
1040
0.0
1070
    47
1040
0.0
1002
}
  0
DIMENSION
  5
3F9
330
37
100
AcDbEntity
  8
Dimension (ANSI)
100
AcDbDimension
  2
*D8
 10
1.197321110485052
 20
0.3199329517936071
 30
0.0
 11
0.9667244927917343
 21
0.3199329517936071
 31
0.0
 70
   160
  1
<>
 42
0.063950000000081
  3
Default (ANSI)
100
AcDbAlignedDimension
 13
1.133371110484971
 23
0.6969524336123547
 33
0.0
 14
1.197321110485052
 24
0.4062024336119994
 34
0.0
 50
180.0
100
AcDbRotatedDimension
1001
ACAD
1000
DSTYLE
1002
{
1070
   271
1070
     3
1070
   272
1070
     3
1070
    48
1040
0.0
1070
    47
1040
0.0
1002
}
  0
LINE
  5
4C5
330
37
100
AcDbEntity
  8
Center Mark (ANSI)
  6
CHAIN
 48
0.2061387747526169
100
AcDbLine
 10
1.102621110484902
 20
0.6462024336122926
 30
0.0
 11
1.028371110484842
 21
0.6462024336122926
 31
0.0
  0
LINE
  5
4C6
330
37
100
AcDbEntity
  8
Center Mark (ANSI)
  6
CHAIN
 48
0.1547526866197586
100
AcDbLine
 10
1.08412111048488
 20
0.6462024336122926
 30
0.0
 11
1.028371110484842
 21
0.6462024336122926
 31
0.0
  0
LINE
  5
4C7
330
37
100
AcDbEntity
  8
Center Mark (ANSI)
  6
CHAIN
 48
0.1547526866197586
100
AcDbLine
 10
1.028371110484842
 20
0.6462024336122926
 30
0.0
 11
1.028371110484842
 21
0.5904524336122551
 31
0.0
  0
LINE
  5
4C8
330
37
100
AcDbEntity
  8
Center Mark (ANSI)
  6
CHAIN
 48
0.1547526866197586
100
AcDbLine
 10
1.08412111048488
 20
0.5477024336121723
 30
0.0
 11
1.028371110484842
 21
0.5477024336121723
 31
0.0
  0
LINE
  5
4C9
330
37
100
AcDbEntity
  8
Center Mark (ANSI)
  6
CHAIN
 48
0.1547526866197586
100
AcDbLine
 10
1.028371110484842
 20
0.6034524336122099
 30
0.0
 11
1.028371110484842
 21
0.5477024336121723
 31
0.0
  0
LINE
  5
4CA
330
37
100
AcDbEntity
  8
Center Mark (ANSI)
  6
CHAIN
 48
0.2061387747526169
100
AcDbLine
 10
1.102621110484902
 20
0.5477024336121723
 30
0.0
 11
1.028371110484842
 21
0.5477024336121723
 31
0.0
  0
DIMENSION
  5
4CB
330
37
100
AcDbEntity
  8
Dimension (ANSI)
100
AcDbDimension
  2
*D9
 10
1.197321110485052
 20
0.3605793332220268
 30
0.0
 11
0.9249791997412327
 21
0.3605793332220268
 31
0.0
 70
   160
  1
<>*A
 42
0.1689500000002098
  3
Default (ANSI)
100
AcDbAlignedDimension
 13
1.028371110484842
 23
0.5477024336121723
 33
0.0
 14
1.197321110485052
 24
0.4062024336119994
 34
0.0
 50
180.0
100
AcDbRotatedDimension
1001
ACAD
1000
DSTYLE
1002
{
1070
   271
1070
     3
1070
   272
1070
     3
1070
    48
1040
0.0
1070
    47
1040
0.0
1002
}
  0
DIMENSION
  5
597
330
37
100
AcDbEntity
  8
Dimension (ANSI)
100
AcDbDimension
  2
*D10
 10
1.133371110484971
 20
0.6969524336123547
 30
0.0
 11
1.397351624787546
 21
0.7684845219475616
 31
0.0
 70
   164
  1
<>
 42
0.0557500000000684
  3
Default (ANSI)
100
AcDbRadialDimension
 15
1.184028868362458
 25
0.7202301926718855
 35
0.0
 40
0.0
1001
ACAD
1000
DSTYLE
1002
{
1070
   271
1070
     4
1070
   141
1040
0.0
1070
   272
1070
     3
1070
    48
1040
0.0
1070
    47
1040
0.0
1002
}
  0
DIMENSION
  5
62E
330
37
100
AcDbEntity
  8
Dimension (ANSI)
100
AcDbDimension
  2
*D11
 10
1.13337111048497
 20
0.6969524336123544
 30
0.0
 11
1.396555103574383
 21
0.8215286428435463
 31
0.0
 70
   164
  1
<>
 42
0.074250000000091
  3
Default (ANSI)
100
AcDbRadialDimension
 15
1.191227008569622
 25
0.7434901339942153
 35
0.0
 40
0.0
1001
ACAD
1000
DSTYLE
1002
{
1070
   271
1070
     4
1070
   141
1040
0.0
1070
   272
1070
     3
1070
    48
1040
0.0
1070
    47
1040
0.0
1002
}
  0
DIMENSION
  5
6C5
330
37
100
AcDbEntity
  8
Dimension (ANSI)
100
AcDbDimension
  2
*D12
 10
0.8527961126876608
 20
0.5877024336122212
 30
0.0
 11
0.8580252265474385
 21
0.8965585883708596
 31
0.0
 70
   160
  1
<>
 42
0.0185000000000225
  3
Default (ANSI)
100
AcDbAlignedDimension
 13
0.8090381436663431
 23
0.6062024336122437
 33
0.0
 14
0.8090381436663433
 24
0.5877024336122212
 34
0.0
 50
270.0
100
AcDbRotatedDimension
1001
ACAD
1000
DSTYLE
1002
{
1070
   279
1070
     1
1070
   271
1070
     4
1070
    76
1070
     1
1070
    75
1070
     1
1070
   272
1070
     3
1070
    48
1040
0.0
1070
    47
1040
0.0
1002
}
  0
LINE
  5
7AC
330
37
100
AcDbEntity
  8
Center Mark (ANSI)
  6
CHAIN
 48
0.4484866857528687
100
AcDbLine
 10
1.214121110485039
 20
0.6969524336123547
 30
0.0
 11
1.052621110484903
 21
0.6969524336123547
 31
0.0
  0
LINE
  5
7AD
330
37
100
AcDbEntity
  8
Center Mark (ANSI)
  6
CHAIN
 48
0.224193349480629
100
AcDbLine
 10
1.133371110484971
 20
0.7777024336124228
 30
0.0
 11
1.133371110484971
 21
0.6969524336123547
 31
0.0
  0
MTEXT
  5
7AF
330
37
100
AcDbEntity
  8
Symbol (ANSI)
100
AcDbMText
 10
0.2815984004702026
 20
0.1938401678538406
 30
0.0
 40
0.0359999992716031
 41
0.0
 71
     7
 72
     1
  1
 Y Junction 
  7
Text Style30
 73
     1
 44
1.0
1001
ACAD
1000
MTEXTBEGIN
1070
    73
1070
     1
1070
    44
1040
1.0
1070
    74
1070
     0
1000
MTEXTEND
  0
MTEXT
  5
7B0
330
37
100
AcDbEntity
  8
Symbol (ANSI)
100
AcDbMText
 10
0.4018366457077333
 20
0.1353256266323267
 30
0.0
 40
0.0359999992716031
 41
0.0
 71
     7
 72
     1
  1
 
  7
Text Style30
 73
     1
 44
1.0
1001
ACAD
1000
MTEXTBEGIN
1070
    73
1070
     1
1070
    44
1040
1.0
1070
    74
1070
     0
1000
MTEXTEND
  0
LINE
  5
7B1
330
37
100
AcDbEntity
  8
Sketch Geometry (ANSI)
100
AcDbLine
 10
0.9773901277742984
 20
0.6819342095782348
 30
0.0
 11
1.100361132431146
 21
0.6819342095782348
 31
0.0
  0
LINE
  5
7B2
330
37
100
AcDbEntity
  8
Sketch Geometry (ANSI)
100
AcDbLine
 10
1.100361132431146
 20
0.6819342095782348
 30
0.0
 11
1.100361132431146
 21
0.5143532448642834
 31
0.0
  0
LINE
  5
7B3
330
37
100
AcDbEntity
  8
Sketch Geometry (ANSI)
100
AcDbLine
 10
1.100361132431146
 20
0.5143532448642834
 30
0.0
 11
0.9773901277742986
 21
0.5143532448642834
 31
0.0
  0
LINE
  5
7B4
330
37
100
AcDbEntity
  8
Sketch Geometry (ANSI)
100
AcDbLine
 10
0.9773901277742984
 20
0.5143532448642834
 30
0.0
 11
0.9773901277742984
 21
0.6819342095782348
 31
0.0
  0
LINE
  5
7B5
330
37
100
AcDbEntity
  8
Sketch Geometry (ANSI)
100
AcDbLine
 10
0.9773901277742984
 20
0.5143532448642834
 30
0.0
 11
0.5295249455523727
 21
0.2669598811272232
 31
0.0
  0
LINE
  5
7B6
330
37
100
AcDbEntity
  8
Centerline (ANSI)
  6
CHAIN
 48
0.9524481296539306
100
AcDbLine
 10
1.068371110484892
 20
0.7392224369968915
 30
0.0
 11
1.068371110484892
 21
0.3769524336119941
 31
0.0
  0
LINE
  5
7B7
330
37
100
AcDbEntity
  8
Centerline (ANSI)
  6
CHAIN
 48
0.9524481296539306
100
AcDbLine
 10
1.19837111048505
 20
0.3241431079660889
 30
0.0
 11
1.19837111048505
 21
0.7219524336123548
 31
0.0
  0
DIMENSION
  5
7B8
330
37
100
AcDbEntity
  8
Dimension (ANSI)
100
AcDbDimension
  2
*D13
 10
1.19837111048505
 20
0.4554502388676191
 30
0.0
 11
1.359123214519554
 21
0.4554502388676191
 31
0.0
 70
   160
  1
<>
 42
0.1300000000001586
  3
Default (ANSI)
100
AcDbAlignedDimension
 13
1.068371110484892
 23
0.4664106997465983
 33
0.0
 14
1.19837111048505
 24
0.4522974025108914
 34
0.0
 50
180.0
100
AcDbRotatedDimension
1001
ACAD
1000
DSTYLE
1002
{
1070
    73
1070
     0
1070
    74
1070
     0
1070
   271
1070
     3
1070
    76
1070
     1
1070
    75
1070
     1
1070
   272
1070
     3
1070
    48
1040
0.0
1070
    47
1040
0.0
1002
}
  0
DIMENSION
  5
88D
330
37
100
AcDbEntity
  8
Dimension (ANSI)
100
AcDbDimension
  2
*D14
 10
1.19837111048505
 20
0.2915846782496668
 30
0.0
 11
1.327132694208503
 21
0.2915846782496668
 31
0.0
 70
   160
  1
<>
 42
0.0010499999999982
  3
Default (ANSI)
100
AcDbAlignedDimension
 13
1.197321110485052
 23
0.4019524336119942
 33
0.0
 14
1.19837111048505
 24
0.3703248357299818
 34
0.0
100
AcDbRotatedDimension
1001
ACAD
1000
DSTYLE
1002
{
1070
    73
1070
     0
1070
    74
1070
     0
1070
   271
1070
     3
1070
   272
1070
     3
1070
    48
1040
0.0
1070
    47
1040
0.0
1002
}
  0
MTEXT
  5
96D
330
37
100
AcDbEntity
  8
Symbol (ANSI)
100
AcDbMText
 10
1.950112068654647
 20
0.166419100629708
 30
0.0
 40
0.0240000002966153
 41
0.0
 71
     1
 72
     1
  1
{B3}
  7
Note Text (ANSI)
 73
     1
 44
1.0
1001
ACAD
1000
MTEXTBEGIN
1070
    73
1070
     1
1070
    44
1040
1.0
1070
    74
1070
     0
1000
MTEXTEND
  0
MTEXT
  5
96E
102
{ACAD_REACTORS
330
96F
102
}
330
37
100
AcDbEntity
  8
Symbol (ANSI)
100
AcDbMText
 10
1.385231044049962
 20
0.3422525037639823
 30
0.0
 40
0.0240000002966153
 41
0.208395466091126
 71
     1
 72
     1
  1
{TUNING STUB}
  7
Note Text (ANSI)
 73
     1
 44
1.0
1001
ACAD
1000
MTEXTBEGIN
1070
    73
1070
     1
1070
    44
1040
1.0
1070
    74
1070
     0
1000
MTEXTEND
  0
LEADER
  5
96F
330
37
100
AcDbEntity
  8
Symbol (ANSI)
100
AcDbLeader
  3
Default (ANSI)$7
 73
     0
 40
0.0249348559159596
 41
0.2077152476981065
 76
     3
 10
1.19099003403084
 20
0.4074383069523941
 30
0.0
 10
1.365546004679883
 20
0.3302525036156747
 30
0.0
 10
1.378931831451537
 20
0.3302525036156747
 30
0.0
340
96E
210
0.0
220
0.0
230
-1.0
213
0.0
223
-0.0120000001483076
233
0.0
1001
ACAD
1000
DSTYLE
1002
{
1070
    77
1070
     0
1070
    41
1040
0.0492125984251969
1070
   341
1005
970
1002
}
  0
MTEXT
  5
975
102
{ACAD_REACTORS
330
976
102
}
330
37
100
AcDbEntity
  8
Symbol (ANSI)
100
AcDbMText
 10
0.6499219059652549
 20
0.7050056814008929
 30
0.0
 40
0.0240000002966153
 41
0.1571474863788274
 71
     3
 72
     1
  1
{ 0.0185 dp}
  7
Note Text (ANSI)
 73
     1
 44
1.0
1001
ACAD
1000
MTEXTBEGIN
1070
    73
1070
     1
1070
    44
1040
1.0
1070
    74
1070
     0
1000
MTEXTEND
  0
LEADER
  5
976
330
37
100
AcDbEntity
  8
Symbol (ANSI)
100
AcDbLeader
  3
Default (ANSI)$7
 73
     0
 40
0.0317206182563726
 41
0.1549281416058198
 76
     3
 10
0.7251654015834174
 20
0.6781188377681941
 30
0.0
 10
0.6696069453353336
 20
0.6930056812525852
 30
0.0
 10
0.6562211185636802
 20
0.6930056812525853
 30
0.0
340
975
210
0.0
220
0.0
230
-1.0
213
0.0
223
-0.0120000001483076
233
0.0
1001
ACAD
1000
DSTYLE
1002
{
1070
    77
1070
     0
1070
    41
1040
0.0492125984251969
1070
   341
1005
970
1002
}
  0
MTEXT
  5
977
330
37
100
AcDbEntity
  8
Symbol (ANSI)
100
AcDbMText
 10
1.811255901582479
 20
1.545260660157599
 30
0.0
 40
0.0240000002966153
 41
0.2492576884472464
 71
     1
 72
     1
  1
{3 OF 4 (BLOCK3)}
  7
Note Text (ANSI)
 73
     1
 44
1.0
1001
ACAD
1000
MTEXTBEGIN
1070
    73
1070
     1
1070
    44
1040
1.0
1070
    74
1070
     0
1000
MTEXTEND
  0
LINE
  5
978
330
37
100
AcDbEntity
  8
Visible (ANSI)
100
AcDbLine
 10
0.7394943204844245
 20
1.070734595008812
 30
0.0
 11
1.267621110485067
 21
1.070734595008812
 31
0.0
  0
LINE
  5
979
330
37
100
AcDbEntity
  8
Visible (ANSI)
100
AcDbLine
 10
1.267621110485067
 20
1.52073459500936
 30
0.0
 11
0.3676211204839677
 21
1.52073459500936
 31
0.0
  0
LINE
  5
97A
330
37
100
AcDbEntity
  8
Visible (ANSI)
100
AcDbLine
 10
0.3676211204839677
 20
1.070734595008812
 30
0.0
 11
0.7209963204844021
 21
1.070734595008812
 31
0.0
  0
LINE
  5
97B
330
37
100
AcDbEntity
  8
Visible (ANSI)
100
AcDbLine
 10
0.7394943204844245
 20
1.070734595008735
 30
0.0
 11
0.7209963204844014
 21
1.070734595008747
 31
0.0
  0
LINE
  5
97C
330
37
100
AcDbEntity
  8
Visible (ANSI)
100
AcDbLine
 10
0.7209963204844021
 20
1.070734595008812
 30
0.0
 11
0.7209963204844021
 21
1.089234595008836
 31
0.0
  0
LINE
  5
97D
330
37
100
AcDbEntity
  8
Visible (ANSI)
100
AcDbLine
 10
0.7209963204844021
 20
1.089234595008836
 30
0.0
 11
0.7394943204844245
 21
1.089234595008836
 31
0.0
  0
LINE
  5
97E
330
37
100
AcDbEntity
  8
Visible (ANSI)
100
AcDbLine
 10
0.7394943204844245
 20
1.089234595008836
 30
0.0
 11
0.7394943204844245
 21
1.070734595008812
 31
0.0
  0
LINE
  5
97F
330
37
100
AcDbEntity
  8
Visible (ANSI)
100
AcDbLine
 10
1.267621110485067
 20
1.070734595008812
 30
0.0
 11
1.267621110485067
 21
1.52073459500936
 31
0.0
  0
LINE
  5
980
330
37
100
AcDbEntity
  8
Visible (ANSI)
100
AcDbLine
 10
0.3676211204839677
 20
1.52073459500936
 30
0.0
 11
0.3676211204839677
 21
1.070734595008812
 31
0.0
  0
CIRCLE
  5
981
330
37
100
AcDbEntity
  8
Visible (ANSI)
100
AcDbCircle
 10
0.631250371284291
 20
1.169729544208932
 30
0.0
 40
0.0445
  0
CIRCLE
  5
982
330
37
100
AcDbEntity
  8
Visible (ANSI)
100
AcDbCircle
 10
0.631250371284291
 20
1.169729544208932
 30
0.0
 40
0.0475000000000011
  0
CIRCLE
  5
983
330
37
100
AcDbEntity
  8
Visible (ANSI)
100
AcDbCircle
 10
0.8292402696845311
 20
1.169729544208932
 30
0.0
 40
0.0475000000000011
  0
CIRCLE
  5
984
330
37
100
AcDbEntity
  8
Visible (ANSI)
100
AcDbCircle
 10
0.7302453204844133
 20
1.210734595008983
 30
0.0
 40
0.0347500000000011
  0
CIRCLE
  5
985
330
37
100
AcDbEntity
  8
Visible (ANSI)
100
AcDbCircle
 10
0.8292402696845311
 20
1.169729544208932
 30
0.0
 40
0.0445
  0
CIRCLE
  5
986
330
37
100
AcDbEntity
  8
Visible (ANSI)
100
AcDbCircle
 10
0.7302453204844133
 20
1.210734595008983
 30
0.0
 40
0.03175
  0
INSERT
  5
9AD
330
37
100
AcDbEntity
  8
Dimension (ANSI)
100
AcDbBlockReference
  2
Origin Indicator Symbol3
 10
0.0
 20
0.0
 30
0.0
 41
0.2
 42
0.2
 43
0.2
  0
INSERT
  5
9DD
330
37
100
AcDbEntity
  8
Symbol (ANSI)
100
AcDbBlockReference
  2
Hole Table3
 10
0.0
 20
0.0
 30
0.0
 41
0.2
 42
0.2
 43
0.2
  0
INSERT
  5
9EF
330
37
100
AcDbEntity
  8
Symbol (ANSI)
100
AcDbBlockReference
  2
Leader Text13
 10
0.0
 20
0.0
 30
0.0
 41
0.2
 42
0.2
 43
0.2
  0
DIMENSION
  5
9F0
330
37
100
AcDbEntity
  8
Dimension (ANSI)
100
AcDbDimension
  2
*D19
 10
0.770245320484528
 20
0.6369524336122814
 30
0.0
 11
0.5357178980179647
 21
0.5820641449975137
 31
0.0
 70
   164
  1
<>
 42
0.0492500000000603
  3
Default (ANSI)
100
AcDbRadialDimension
 15
0.7247514793740334
 25
0.6180878392350091
 35
0.0
 40
0.0
1001
ACAD
1000
DSTYLE
1002
{
1070
   271
1070
     4
1070
   141
1040
0.0
1070
   272
1070
     3
1070
    48
1040
0.0
1070
    47
1040
0.0
1002
}
  0
DIMENSION
  5
A87
330
37
100
AcDbEntity
  8
Dimension (ANSI)
100
AcDbDimension
  2
*D20
 10
0.770245320484527
 20
0.6369524336122807
 30
0.0
 11
0.4984604692215897
 21
0.4313533895288604
 31
0.0
 70
   164
  1
<>
 42
0.0307500000000375
  3
Default (ANSI)
100
AcDbRadialDimension
 15
0.7511077459502129
 25
0.6128834548024958
 35
0.0
 40
0.0
1001
ACAD
1000
DSTYLE
1002
{
1070
   271
1070
     4
1070
   141
1040
0.0
1070
   272
1070
     3
1070
    48
1040
0.0
1070
    47
1040
0.0
1002
}
  0
ENDSEC
  0
SECTION
  2
OBJECTS
  0
DICTIONARY
  5
C
330
0
100
AcDbDictionary
281
     1
  3
ACAD_COLOR
350
30
  3
ACAD_GROUP
350
D
  3
ACAD_LAYOUT
350
2F
  3
ACAD_MATERIAL
350
10
  3
ACAD_MLINESTYLE
350
2C
  3
ACAD_PLOTSETTINGS
350
2E
  3
ACAD_PLOTSTYLENAME
350
E
  3
ACAD_TABLESTYLE
350
31
  3
ACAD_VISUALSTYLE
350
14
  3
AcDbVariableDictionary
350
B1E
  3
DWGPROPS
350
B24
  0
DICTIONARY
  5
30
102
{ACAD_REACTORS
330
C
102
}
330
C
100
AcDbDictionary
281
     1
  0
DICTIONARY
  5
D
102
{ACAD_REACTORS
330
C
102
}
330
C
100
AcDbDictionary
281
     1
  0
DICTIONARY
  5
2F
102
{ACAD_REACTORS
330
C
102
}
330
C
100
AcDbDictionary
281
     1
  3
Layout1
350
36
  3
Layout2
350
3E
  3
Model
350
3A
  0
DICTIONARY
  5
10
102
{ACAD_REACTORS
330
C
102
}
330
C
100
AcDbDictionary
281
     1
  3
ByBlock
350
12
  3
ByLayer
350
11
  3
Global
350
13
  0
DICTIONARY
  5
2C
102
{ACAD_REACTORS
330
C
102
}
330
C
100
AcDbDictionary
281
     1
  3
Standard
350
2D
  0
DICTIONARY
  5
2E
102
{ACAD_REACTORS
330
C
102
}
330
C
100
AcDbDictionary
281
     1
  0
ACDBDICTIONARYWDFLT
  5
E
102
{ACAD_REACTORS
330
C
102
}
330
C
100
AcDbDictionary
281
     1
  3
Normal
350
F
100
AcDbDictionaryWithDefault
340
F
  0
DICTIONARY
  5
31
102
{ACAD_REACTORS
330
C
102
}
330
C
100
AcDbDictionary
281
     1
  3
Standard
350
32
  0
DICTIONARY
  5
14
102
{ACAD_REACTORS
330
C
102
}
330
C
100
AcDbDictionary
281
     1
  3
2dWireframe
350
1A
  3
3D Hidden
350
1C
  3
3dWireframe
350
1B
  3
Basic
350
19
  3
Brighten
350
20
  3
ColorChange
350
24
  3
Conceptual
350
1D
  3
Dim
350
1F
  3
Facepattern
350
23
  3
Flat
350
15
  3
FlatWithEdges
350
16
  3
Gouraud
350
17
  3
GouraudWithEdges
350
18
  3
Linepattern
350
22
  3
Realistic
350
1E
  3
Thicken
350
21
  0
DICTIONARY
  5
B1E
102
{ACAD_REACTORS
330
C
102
}
330
C
100
AcDbDictionary
281
     1
  3
CTABLESTYLE
350
B1F
  3
DIMASSOC
350
B23
  3
HIDETEXT
350
B22
  3
INDEXCTL
350
B21
  3
SORTENTS
350
B20
  0
XRECORD
  5
B24
102
{ACAD_REACTORS
330
C
102
}
330
C
100
AcDbXrecord
280
     1
  1
DWGPROPS COOKIE
  2

  3

  4
Da Chow
  6

  7

  8

  9

300
Manager=
301
Company=RADIO ASTRONOMY LABORATORY
302
Category=
303
Part Number=Block3-V61
304
Description=
305
Project=
306
Designer=Da Chow
307
Engineer=
308
Authority=
309
Cost Center=
 40
0.0000345486111111
 41
2454846.689079491
 42
2454846.689079491
  1

 90
       17
300
Vendor=
300
User Status=
300
Design Status=WorkInProgress
300
Checked by=
300
Date Checked=01/14/2009
300
Engr Approved by=
300
Mfg Approved by=
  0
LAYOUT
  5
36
102
{ACAD_XDICTIONARY
360
B2D
102
}
102
{ACAD_REACTORS
330
2F
102
}
330
2F
100
AcDbPlotSettings
  1

  2

  4

  6

 40
0.0
 41
0.0
 42
0.0
 43
0.0
 44
0.0
 45
0.0
 46
0.0
 47
0.0
 48
0.0
 49
0.0
140
0.0
141
0.0
142
1.0
143
1.0
 70
   688
 72
     0
 73
     0
 74
     5
  7

 75
    16
147
1.0
148
0.0
149
0.0
100
AcDbLayout
  1
Layout1
 70
     1
 71
     1
 10
0.0
 20
0.0
 11
12.0
 21
9.0
 12
0.0
 22
0.0
 32
0.0
 14
0.0
 24
0.0
 34
0.0
 15
0.0
 25
0.0
 35
0.0
146
0.0
 13
0.0
 23
0.0
 33
0.0
 16
1.0
 26
0.0
 36
0.0
 17
0.0
 27
1.0
 37
0.0
 76
     0
330
33
  0
LAYOUT
  5
3E
102
{ACAD_XDICTIONARY
360
B31
102
}
102
{ACAD_REACTORS
330
2F
102
}
330
2F
100
AcDbPlotSettings
  1

  2

  4

  6

 40
0.0
 41
0.0
 42
0.0
 43
0.0
 44
0.0
 45
0.0
 46
0.0
 47
0.0
 48
0.0
 49
0.0
140
0.0
141
0.0
142
1.0
143
1.0
 70
   688
 72
     0
 73
     0
 74
     5
  7

 75
    16
147
1.0
148
0.0
149
0.0
100
AcDbLayout
  1
Layout2
 70
     1
 71
     2
 10
0.0
 20
0.0
 11
12.0
 21
9.0
 12
0.0
 22
0.0
 32
0.0
 14
0.0
 24
0.0
 34
0.0
 15
0.0
 25
0.0
 35
0.0
146
0.0
 13
0.0
 23
0.0
 33
0.0
 16
1.0
 26
0.0
 36
0.0
 17
0.0
 27
1.0
 37
0.0
 76
     0
330
3B
  0
LAYOUT
  5
3A
102
{ACAD_XDICTIONARY
360
B2F
102
}
102
{ACAD_REACTORS
330
2F
102
}
330
2F
100
AcDbPlotSettings
  1

  2

  4

  6

 40
0.0
 41
0.0
 42
0.0
 43
0.0
 44
0.0
 45
0.0
 46
0.0
 47
0.0
 48
0.0
 49
0.0
140
0.0
141
0.0
142
1.0
143
1.0
 70
  1712
 72
     0
 73
     0
 74
     0
  7

 75
     0
147
1.0
148
0.0
149
0.0
100
AcDbLayout
  1
Model
 70
     1
 71
     0
 10
0.0
 20
0.0
 11
12.0
 21
9.0
 12
0.0
 22
0.0
 32
0.0
 14
0.0
 24
0.0
 34
0.0
 15
0.0
 25
0.0
 35
0.0
146
0.0
 13
0.0
 23
0.0
 33
0.0
 16
1.0
 26
0.0
 36
0.0
 17
0.0
 27
1.0
 37
0.0
 76
     0
330
37
  0
MATERIAL
  5
12
102
{ACAD_XDICTIONARY
360
B27
102
}
102
{ACAD_REACTORS
330
10
102
}
330
10
100
AcDbMaterial
  1
ByBlock
  0
MATERIAL
  5
11
102
{ACAD_XDICTIONARY
360
B25
102
}
102
{ACAD_REACTORS
330
10
102
}
330
10
100
AcDbMaterial
  1
ByLayer
  0
MATERIAL
  5
13
102
{ACAD_XDICTIONARY
360
B29
102
}
102
{ACAD_REACTORS
330
10
102
}
330
10
100
AcDbMaterial
  1
Global
  0
MLINESTYLE
  5
2D
102
{ACAD_REACTORS
330
2C
102
}
330
2C
100
AcDbMlineStyle
  2
STANDARD
 70
     0
  3

 62
   256
 51
90.0
 52
90.0
 71
     2
 49
0.5
 62
   256
  6
BYLAYER
 49
-0.5
 62
   256
  6
BYLAYER
  0
ACDBPLACEHOLDER
  5
F
102
{ACAD_REACTORS
330
E
102
}
330
E
  0
TABLESTYLE
  5
32
102
{ACAD_XDICTIONARY
360
B2B
102
}
102
{ACAD_REACTORS
330
31
102
}
330
31
100
AcDbTableStyle
  3
Standard
 70
     0
 71
     0
 40
0.06
 41
0.06
280
     0
281
     0
  7
Standard
140
0.18
170
     2
 62
     0
 63
     7
283
     0
274
    -2
284
     1
 64
     0
275
    -2
285
     1
 65
     0
276
    -2
286
     1
 66
     0
277
    -2
287
     1
 67
     0
278
    -2
288
     1
 68
     0
279
    -2
289
     1
 69
     0
  7
Standard
140
0.25
170
     5
 62
     0
 63
     7
283
     0
274
    -2
284
     1
 64
     0
275
    -2
285
     1
 65
     0
276
    -2
286
     1
 66
     0
277
    -2
287
     1
 67
     0
278
    -2
288
     1
 68
     0
279
    -2
289
     1
 69
     0
  7
Standard
140
0.18
170
     5
 62
     0
 63
     7
283
     0
274
    -2
284
     1
 64
     0
275
    -2
285
     1
 65
     0
276
    -2
286
     1
 66
     0
277
    -2
287
     1
 67
     0
278
    -2
288
     1
 68
     0
279
    -2
289
     1
 69
     0
  0
VISUALSTYLE
  5
1A
102
{ACAD_REACTORS
330
14
102
}
330
14
100
AcDbVisualStyle
  2
2dWireframe
 70
     4
 71
     0
 72
     2
 73
     0
 90
        0
 40
-0.6
 41
-30.0
 62
     5
 63
     7
 74
     1
 91
        4
 64
     7
 65
   257
 75
     1
175
     1
 42
1.0
 92
        0
 66
   257
 43
1.0
 76
     1
 77
     6
 78
     2
 67
     7
 79
     5
170
     0
171
     0
290
     0
174
     0
 93
        1
 44
0.0
173
     0
291
     0
 45
0.0
1001
ACAD
1000
AcDbSavedByObjectVersion
1070
     0
  0
VISUALSTYLE
  5
1C
102
{ACAD_REACTORS
330
14
102
}
330
14
100
AcDbVisualStyle
  2
3D Hidden
 70
     6
 71
     1
 72
     2
 73
     2
 90
        0
 40
-0.6
 41
-30.0
 62
     5
 63
     7
 74
     2
 91
        2
 64
     7
 65
   257
 75
     2
175
     1
 42
40.0
 92
        0
 66
   257
 43
1.0
 76
     1
 77
     6
 78
     2
 67
     7
 79
     3
170
     0
171
     0
290
     0
174
     0
 93
        1
 44
0.0
173
     0
291
     0
 45
0.0
1001
ACAD
1000
AcDbSavedByObjectVersion
1070
     0
  0
VISUALSTYLE
  5
1B
102
{ACAD_REACTORS
330
14
102
}
330
14
100
AcDbVisualStyle
  2
3dWireframe
 70
     5
 71
     0
 72
     2
 73
     0
 90
        0
 40
-0.6
 41
-30.0
 62
     5
 63
     7
 74
     1
 91
        4
 64
     7
 65
   257
 75
     1
175
     1
 42
1.0
 92
        0
 66
   257
 43
1.0
 76
     1
 77
     6
 78
     2
 67
     7
 79
     5
170
     0
171
     0
290
     0
174
     0
 93
        1
 44
0.0
173
     0
291
     0
 45
0.0
1001
ACAD
1000
AcDbSavedByObjectVersion
1070
     0
  0
VISUALSTYLE
  5
19
102
{ACAD_REACTORS
330
14
102
}
330
14
100
AcDbVisualStyle
  2
Basic
 70
     7
 71
     1
 72
     0
 73
     1
 90
        0
 40
-0.6
 41
-30.0
 62
     5
 63
     7
 74
     0
 91
        4
 64
     7
 65
   257
 75
     1
175
     1
 42
1.0
 92
        8
 66
     7
 43
1.0
 76
     1
 77
     6
 78
     2
 67
     7
 79
     5
170
     0
171
     0
290
     0
174
     0
 93
        1
 44
0.0
173
     0
291
     1
 45
0.0
1001
ACAD
1000
AcDbSavedByObjectVersion
1070
     0
  0
VISUALSTYLE
  5
20
102
{ACAD_REACTORS
330
14
102
}
330
14
100
AcDbVisualStyle
  2
Brighten
 70
    12
 71
     2
 72
     2
 73
     0
 90
        0
 40
-0.6
 41
-30.0
 62
     5
 63
     7
 74
     1
 91
        4
 64
     7
 65
   257
 75
     1
175
     1
 42
1.0
 92
        8
 66
     7
 43
1.0
 76
     1
 77
     6
 78
     2
 67
     7
 79
     5
170
     0
171
     0
290
     0
174
     0
 93
        1
 44
50.0
173
     0
291
     1
 45
0.0
1001
ACAD
1000
AcDbSavedByObjectVersion
1070
     0
  0
VISUALSTYLE
  5
24
102
{ACAD_REACTORS
330
14
102
}
330
14
100
AcDbVisualStyle
  2
ColorChange
 70
    16
 71
     2
 72
     2
 73
     3
 90
        0
 40
-0.6
 41
-30.0
 62
     5
 63
     8
 74
     1
 91
        4
 64
     7
 65
   257
 75
     1
175
     1
 42
1.0
 92
        8
 66
     8
 43
1.0
 76
     1
 77
     6
 78
     2
 67
     7
 79
     5
170
     0
171
     0
290
     0
174
     0
 93
        1
 44
0.0
173
     0
291
     1
 45
0.0
1001
ACAD
1000
AcDbSavedByObjectVersion
1070
     0
  0
VISUALSTYLE
  5
1D
102
{ACAD_REACTORS
330
14
102
}
330
14
100
AcDbVisualStyle
  2
Conceptual
 70
     9
 71
     3
 72
     2
 73
     0
 90
        0
 40
-0.6
 41
-30.0
 62
     5
 63
     7
 74
     2
 91
        2
 64
     7
 65
   257
 75
     1
175
     1
 42
40.0
 92
        8
 66
     7
 43
1.0
 76
     1
 77
     6
 78
     2
 67
     7
 79
     3
170
     0
171
     0
290
     0
174
     0
 93
        1
 44
0.0
173
     0
291
     0
 45
0.0
1001
ACAD
1000
AcDbSavedByObjectVersion
1070
     0
  0
VISUALSTYLE
  5
1F
102
{ACAD_REACTORS
330
14
102
}
330
14
100
AcDbVisualStyle
  2
Dim
 70
    11
 71
     2
 72
     2
 73
     0
 90
        0
 40
-0.6
 41
-30.0
 62
     5
 63
     7
 74
     1
 91
        4
 64
     7
 65
   257
 75
     1
175
     1
 42
1.0
 92
        8
 66
     7
 43
1.0
 76
     1
 77
     6
 78
     2
 67
     7
 79
     5
170
     0
171
     0
290
     0
174
     0
 93
        1
 44
-50.0
173
     0
291
     1
 45
0.0
1001
ACAD
1000
AcDbSavedByObjectVersion
1070
     0
  0
VISUALSTYLE
  5
23
102
{ACAD_REACTORS
330
14
102
}
330
14
100
AcDbVisualStyle
  2
Facepattern
 70
    15
 71
     2
 72
     2
 73
     0
 90
        0
 40
-0.6
 41
-30.0
 62
     5
 63
     7
 74
     1
 91
        4
 64
     7
 65
   257
 75
     1
175
     1
 42
1.0
 92
        8
 66
     7
 43
1.0
 76
     1
 77
     6
 78
     2
 67
     7
 79
     5
170
     0
171
     0
290
     0
174
     0
 93
        1
 44
0.0
173
     0
291
     1
 45
0.0
1001
ACAD
1000
AcDbSavedByObjectVersion
1070
     0
  0
VISUALSTYLE
  5
15
102
{ACAD_REACTORS
330
14
102
}
330
14
100
AcDbVisualStyle
  2
Flat
 70
     0
 71
     2
 72
     1
 73
     1
 90
        2
 40
-0.6
 41
30.0
 62
     5
 63
     7
 74
     0
 91
        4
 64
     7
 65
   257
 75
     1
175
     1
 42
1.0
 92
        8
 66
     7
 43
1.0
 76
     1
 77
     6
 78
     2
 67
     7
 79
     5
170
     0
171
     0
290
     0
174
     0
 93
       13
 44
0.0
173
     0
291
     1
 45
0.0
1001
ACAD
1000
AcDbSavedByObjectVersion
1070
     0
  0
VISUALSTYLE
  5
16
102
{ACAD_REACTORS
330
14
102
}
330
14
100
AcDbVisualStyle
  2
FlatWithEdges
 70
     1
 71
     2
 72
     1
 73
     1
 90
        2
 40
-0.6
 41
30.0
 62
     5
 63
     7
 74
     1
 91
        4
 64
     7
 65
   257
 75
     1
175
     1
 42
1.0
 92
        0
 66
   257
 43
1.0
 76
     1
 77
     6
 78
     2
 67
     7
 79
     5
170
     0
171
     0
290
     0
174
     0
 93
       13
 44
0.0
173
     0
291
     1
 45
0.0
1001
ACAD
1000
AcDbSavedByObjectVersion
1070
     0
  0
VISUALSTYLE
  5
17
102
{ACAD_REACTORS
330
14
102
}
330
14
100
AcDbVisualStyle
  2
Gouraud
 70
     2
 71
     2
 72
     2
 73
     1
 90
        2
 40
-0.6
 41
30.0
 62
     5
 63
     7
 74
     0
 91
        4
 64
     7
 65
   257
 75
     1
175
     1
 42
1.0
 92
        0
 66
     7
 43
1.0
 76
     1
 77
     6
 78
     2
 67
     7
 79
     5
170
     0
171
     0
290
     0
174
     0
 93
       13
 44
0.0
173
     0
291
     1
 45
0.0
1001
ACAD
1000
AcDbSavedByObjectVersion
1070
     0
  0
VISUALSTYLE
  5
18
102
{ACAD_REACTORS
330
14
102
}
330
14
100
AcDbVisualStyle
  2
GouraudWithEdges
 70
     3
 71
     2
 72
     2
 73
     1
 90
        2
 40
-0.6
 41
30.0
 62
     5
 63
     7
 74
     1
 91
        4
 64
     7
 65
   257
 75
     1
175
     1
 42
1.0
 92
        0
 66
   257
 43
1.0
 76
     1
 77
     6
 78
     2
 67
     7
 79
     5
170
     0
171
     0
290
     0
174
     0
 93
       13
 44
0.0
173
     0
291
     1
 45
0.0
1001
ACAD
1000
AcDbSavedByObjectVersion
1070
     0
  0
VISUALSTYLE
  5
22
102
{ACAD_REACTORS
330
14
102
}
330
14
100
AcDbVisualStyle
  2
Linepattern
 70
    14
 71
     2
 72
     2
 73
     0
 90
        0
 40
-0.6
 41
-30.0
 62
     5
 63
     7
 74
     1
 91
        4
 64
     7
 65
   257
 75
     7
175
     7
 42
1.0
 92
        8
 66
     7
 43
1.0
 76
     1
 77
     6
 78
     2
 67
     7
 79
     5
170
     0
171
     0
290
     0
174
     0
 93
        1
 44
0.0
173
     0
291
     1
 45
0.0
1001
ACAD
1000
AcDbSavedByObjectVersion
1070
     0
  0
VISUALSTYLE
  5
1E
102
{ACAD_REACTORS
330
14
102
}
330
14
100
AcDbVisualStyle
  2
Realistic
 70
     8
 71
     2
 72
     2
 73
     0
 90
        0
 40
-0.6
 41
-30.0
 62
     5
 63
     7
 74
     1
 91
        0
 64
     7
 65
   257
 75
     1
175
     1
 42
1.0
 92
        8
 66
     8
 43
1.0
 76
     1
 77
     6
 78
     2
 67
     7
 79
     5
170
     0
171
     0
290
     0
174
     0
 93
       13
 44
0.0
173
     0
291
     0
 45
0.0
1001
ACAD
1000
AcDbSavedByObjectVersion
1070
     0
  0
VISUALSTYLE
  5
21
102
{ACAD_REACTORS
330
14
102
}
330
14
100
AcDbVisualStyle
  2
Thicken
 70
    13
 71
     2
 72
     2
 73
     0
 90
        0
 40
-0.6
 41
-30.0
 62
     5
 63
     7
 74
     1
 91
        4
 64
     7
 65
   257
 75
     1
175
     1
 42
1.0
 92
       12
 66
     7
 43
1.0
 76
     1
 77
     6
 78
     2
 67
     7
 79
     5
170
     0
171
     0
290
     0
174
     0
 93
        1
 44
0.0
173
     0
291
     1
 45
0.0
1001
ACAD
1000
AcDbSavedByObjectVersion
1070
     0
  0
DICTIONARYVAR
  5
B1F
102
{ACAD_REACTORS
330
B1E
102
}
330
B1E
100
DictionaryVariables
280
     0
  1
STANDARD
  0
DICTIONARYVAR
  5
B23
102
{ACAD_REACTORS
330
B1E
102
}
330
B1E
100
DictionaryVariables
280
     0
  1
1
  0
DICTIONARYVAR
  5
B22
102
{ACAD_REACTORS
330
B1E
102
}
330
B1E
100
DictionaryVariables
280
     0
  1
1
  0
DICTIONARYVAR
  5
B21
102
{ACAD_REACTORS
330
B1E
102
}
330
B1E
100
DictionaryVariables
280
     0
  1
0
  0
DICTIONARYVAR
  5
B20
102
{ACAD_REACTORS
330
B1E
102
}
330
B1E
100
DictionaryVariables
280
     0
  1
127
  0
DICTIONARY
  5
B2D
330
36
100
AcDbDictionary
280
     1
281
     1
  3
ACAD_XREC_ROUNDTRIP
360
B2E
  0
DICTIONARY
  5
B31
330
3E
100
AcDbDictionary
280
     1
281
     1
  3
ACAD_XREC_ROUNDTRIP
360
B32
  0
DICTIONARY
  5
B2F
330
3A
100
AcDbDictionary
280
     1
281
     1
  3
ACAD_XREC_ROUNDTRIP
360
B30
  0
DICTIONARY
  5
B27
330
12
100
AcDbDictionary
280
     1
281
     1
  3
ACAD_XREC_ROUNDTRIP
360
B28
  0
DICTIONARY
  5
B25
330
11
100
AcDbDictionary
280
     1
281
     1
  3
ACAD_XREC_ROUNDTRIP
360
B26
  0
DICTIONARY
  5
B29
330
13
100
AcDbDictionary
280
     1
281
     1
  3
ACAD_XREC_ROUNDTRIP
360
B2A
  0
DICTIONARY
  5
B2B
330
32
100
AcDbDictionary
280
     1
281
     1
  3
ACAD_XREC_ROUNDTRIP
360
B2C
  0
XRECORD
  5
B2E
102
{ACAD_REACTORS
330
B2D
102
}
330
B2D
100
AcDbXrecord
280
     1
102
SHADEPLOT
 70
     0
102
SHADEPLOTRESLEVEL
 70
     2
102
SHADEPLOTCUSTOMDPI
 70
   300
  0
XRECORD
  5
B32
102
{ACAD_REACTORS
330
B31
102
}
330
B31
100
AcDbXrecord
280
     1
102
SHADEPLOT
 70
     0
102
SHADEPLOTRESLEVEL
 70
     2
102
SHADEPLOTCUSTOMDPI
 70
   300
  0
XRECORD
  5
B30
102
{ACAD_REACTORS
330
B2F
102
}
330
B2F
100
AcDbXrecord
280
     1
102
SHADEPLOT
 70
     0
102
SHADEPLOTRESLEVEL
 70
     2
102
SHADEPLOTCUSTOMDPI
 70
   300
  0
XRECORD
  5
B28
102
{ACAD_REACTORS
330
B27
102
}
330
B27
100
AcDbXrecord
280
     1
102
MATERIAL
148
0.0
149
0.0
149
0.0
 93
        0
 94
       63
282
     0
 72
     1
 77
     1
171
     1
175
     1
179
     1
273
     0
  0
XRECORD
  5
B26
102
{ACAD_REACTORS
330
B25
102
}
330
B25
100
AcDbXrecord
280
     1
102
MATERIAL
148
0.0
149
0.0
149
0.0
 93
        0
 94
       63
282
     0
 72
     1
 77
     1
171
     1
175
     1
179
     1
273
     0
  0
XRECORD
  5
B2A
102
{ACAD_REACTORS
330
B29
102
}
330
B29
100
AcDbXrecord
280
     1
102
MATERIAL
148
0.0
149
0.0
149
0.0
 93
        0
 94
       63
282
     0
 72
     1
 77
     1
171
     1
175
     1
179
     1
273
     0
  0
XRECORD
  5
B2C
102
{ACAD_REACTORS
330
B2B
102
}
330
B2B
100
AcDbXrecord
280
     1
102
ACAD_ROUNDTRIP_PRE2007_TABLESTYLE
 90
      512
 91
        0
  1

 92
      512
 93
        0
  2

 94
      512
 95
        0
  3

  0
ENDSEC
  0
EOF
