  0
SECTION
  2
HEADER
  9
$ACADVER
  1
AC1015
  9
$ACADMAINTVER
 70
    18
  9
$DWGCODEPAGE
  3
ANSI_1252
  9
$INSBASE
 10
0.0
 20
0.0
 30
0.0
  9
$EXTMIN
 10
0.0
 20
0.0
 30
0.0
  9
$EXTMAX
 10
2.2
 20
1.7
 30
0.0
  9
$LIMMIN
 10
0.0
 20
0.0
  9
$LIMMAX
 10
2.2
 20
1.7
  9
$ORTHOMODE
 70
     0
  9
$REGENMODE
 70
     1
  9
$FILLMODE
 70
     1
  9
$QTEXTMODE
 70
     0
  9
$MIRRTEXT
 70
     0
  9
$LTSCALE
 40
0.2
  9
$ATTMODE
 70
     1
  9
$TEXTSIZE
 40
0.2
  9
$TRACEWID
 40
0.05
  9
$TEXTSTYLE
  7
Standard
  9
$CLAYER
  8
0
  9
$CELTYPE
  6
ByLayer
  9
$CECOLOR
 62
   256
  9
$CELTSCALE
 40
1.0
  9
$DISPSILH
 70
     0
  9
$DIMSCALE
 40
1.0
  9
$DIMASZ
 40
0.0708661417322835
  9
$DIMEXO
 40
0.0625
  9
$DIMDLI
 40
0.38
  9
$DIMRND
 40
0.0
  9
$DIMDLE
 40
0.0
  9
$DIMEXE
 40
0.18
  9
$DIMTP
 40
0.0
  9
$DIMTM
 40
0.0
  9
$DIMTXT
 40
0.3048000037670135
  9
$DIMCEN
 40
0.09
  9
$DIMTSZ
 40
0.0
  9
$DIMTOL
 70
     0
  9
$DIMLIM
 70
     0
  9
$DIMTIH
 70
     1
  9
$DIMTOH
 70
     1
  9
$DIMSE1
 70
     0
  9
$DIMSE2
 70
     0
  9
$DIMTAD
 70
     0
  9
$DIMZIN
 70
     0
  9
$DIMBLK
  1

  9
$DIMASO
 70
     1
  9
$DIMSHO
 70
     1
  9
$DIMPOST
  1

  9
$DIMAPOST
  1

  9
$DIMALT
 70
     0
  9
$DIMALTD
 70
     2
  9
$DIMALTF
 40
25.4
  9
$DIMLFAC
 40
1.0
  9
$DIMTOFL
 70
     0
  9
$DIMTVP
 40
0.0
  9
$DIMTIX
 70
     0
  9
$DIMSOXD
 70
     0
  9
$DIMSAH
 70
     0
  9
$DIMBLK1
  1

  9
$DIMBLK2
  1

  9
$DIMSTYLE
  2
Standard
  9
$DIMCLRD
 70
     0
  9
$DIMCLRE
 70
     0
  9
$DIMCLRT
 70
     0
  9
$DIMTFAC
 40
1.0
  9
$DIMGAP
 40
0.09
  9
$DIMJUST
 70
     0
  9
$DIMSD1
 70
     0
  9
$DIMSD2
 70
     0
  9
$DIMTOLJ
 70
     1
  9
$DIMTZIN
 70
     0
  9
$DIMALTZ
 70
     0
  9
$DIMALTTZ
 70
     0
  9
$DIMUPT
 70
     0
  9
$DIMDEC
 70
     4
  9
$DIMTDEC
 70
     4
  9
$DIMALTU
 70
     2
  9
$DIMALTTD
 70
     2
  9
$DIMTXSTY
  7
Standard
  9
$DIMAUNIT
 70
     0
  9
$DIMADEC
 70
     0
  9
$DIMALTRND
 40
0.0
  9
$DIMAZIN
 70
     0
  9
$DIMDSEP
 70
    46
  9
$DIMATFIT
 70
     3
  9
$DIMFRAC
 70
     0
  9
$DIMLDRBLK
  1

  9
$DIMLUNIT
 70
     2
  9
$DIMLWD
 70
    -2
  9
$DIMLWE
 70
    -2
  9
$DIMTMOVE
 70
     0
  9
$LUNITS
 70
     2
  9
$LUPREC
 70
     4
  9
$SKETCHINC
 40
0.1
  9
$FILLETRAD
 40
0.0
  9
$AUNITS
 70
     0
  9
$AUPREC
 70
     0
  9
$MENU
  1
.
  9
$ELEVATION
 40
0.0
  9
$PELEVATION
 40
0.0
  9
$THICKNESS
 40
0.0
  9
$LIMCHECK
 70
     0
  9
$CHAMFERA
 40
0.0
  9
$CHAMFERB
 40
0.0
  9
$CHAMFERC
 40
0.0
  9
$CHAMFERD
 40
0.0
  9
$SKPOLY
 70
     0
  9
$TDCREATE
 40
2454846.689119826
  9
$TDUCREATE
 40
2454847.022453160
  9
$TDUPDATE
 40
2454846.689119826
  9
$TDUUPDATE
 40
2454847.022453160
  9
$TDINDWG
 40
0.0000291088
  9
$TDUSRTIMER
 40
0.0000291088
  9
$USRTIMER
 70
     1
  9
$ANGBASE
 50
0.0
  9
$ANGDIR
 70
     0
  9
$PDMODE
 70
     0
  9
$PDSIZE
 40
0.0
  9
$PLINEWID
 40
0.0
  9
$SPLFRAME
 70
     0
  9
$SPLINETYPE
 70
     6
  9
$SPLINESEGS
 70
     8
  9
$HANDSEED
  5
67D
  9
$SURFTAB1
 70
     6
  9
$SURFTAB2
 70
     6
  9
$SURFTYPE
 70
     6
  9
$SURFU
 70
     6
  9
$SURFV
 70
     6
  9
$UCSBASE
  2

  9
$UCSNAME
  2

  9
$UCSORG
 10
0.0
 20
0.0
 30
0.0
  9
$UCSXDIR
 10
1.0
 20
0.0
 30
0.0
  9
$UCSYDIR
 10
0.0
 20
1.0
 30
0.0
  9
$UCSORTHOREF
  2

  9
$UCSORTHOVIEW
 70
     0
  9
$UCSORGTOP
 10
0.0
 20
0.0
 30
0.0
  9
$UCSORGBOTTOM
 10
0.0
 20
0.0
 30
0.0
  9
$UCSORGLEFT
 10
0.0
 20
0.0
 30
0.0
  9
$UCSORGRIGHT
 10
0.0
 20
0.0
 30
0.0
  9
$UCSORGFRONT
 10
0.0
 20
0.0
 30
0.0
  9
$UCSORGBACK
 10
0.0
 20
0.0
 30
0.0
  9
$PUCSBASE
  2

  9
$PUCSNAME
  2

  9
$PUCSORG
 10
0.0
 20
0.0
 30
0.0
  9
$PUCSXDIR
 10
1.0
 20
0.0
 30
0.0
  9
$PUCSYDIR
 10
0.0
 20
1.0
 30
0.0
  9
$PUCSORTHOREF
  2

  9
$PUCSORTHOVIEW
 70
     0
  9
$PUCSORGTOP
 10
0.0
 20
0.0
 30
0.0
  9
$PUCSORGBOTTOM
 10
0.0
 20
0.0
 30
0.0
  9
$PUCSORGLEFT
 10
0.0
 20
0.0
 30
0.0
  9
$PUCSORGRIGHT
 10
0.0
 20
0.0
 30
0.0
  9
$PUCSORGFRONT
 10
0.0
 20
0.0
 30
0.0
  9
$PUCSORGBACK
 10
0.0
 20
0.0
 30
0.0
  9
$USERI1
 70
     0
  9
$USERI2
 70
     0
  9
$USERI3
 70
     0
  9
$USERI4
 70
     0
  9
$USERI5
 70
     0
  9
$USERR1
 40
0.0
  9
$USERR2
 40
0.0
  9
$USERR3
 40
0.0
  9
$USERR4
 40
0.0
  9
$USERR5
 40
0.0
  9
$WORLDVIEW
 70
     1
  9
$SHADEDGE
 70
     3
  9
$SHADEDIF
 70
    70
  9
$TILEMODE
 70
     1
  9
$MAXACTVP
 70
    64
  9
$PINSBASE
 10
0.0
 20
0.0
 30
0.0
  9
$PLIMCHECK
 70
     0
  9
$PEXTMIN
 10
0.0
 20
0.0
 30
0.0
  9
$PEXTMAX
 10
2.2
 20
1.7
 30
0.0
  9
$PLIMMIN
 10
0.0
 20
0.0
  9
$PLIMMAX
 10
2.2
 20
1.7
  9
$UNITMODE
 70
     0
  9
$VISRETAIN
 70
     1
  9
$PLINEGEN
 70
     0
  9
$PSLTSCALE
 70
     1
  9
$TREEDEPTH
 70
  3020
  9
$CMLSTYLE
  2
Standard
  9
$CMLJUST
 70
     0
  9
$CMLSCALE
 40
1.0
  9
$PROXYGRAPHICS
 70
     1
  9
$MEASUREMENT
 70
     0
  9
$CELWEIGHT
370
    -1
  9
$ENDCAPS
280
     0
  9
$JOINSTYLE
280
     0
  9
$LWDISPLAY
290
     0
  9
$INSUNITS
 70
     0
  9
$HYPERLINKBASE
  1

  9
$STYLESHEET
  1

  9
$XEDIT
290
     1
  9
$CEPSNTYPE
380
     0
  9
$PSTYLEMODE
290
     1
  9
$FINGERPRINTGUID
  2
{E56F186E-E379-4933-8F16-55EB24CD59FF}
  9
$VERSIONGUID
  2
{40F19FAF-F8AC-4630-8096-BE1F35CD7EA7}
  9
$EXTNAMES
290
     1
  9
$PSVPSCALE
 40
0.0
  9
$OLESTARTUP
290
     0
  0
ENDSEC
  0
SECTION
  2
CLASSES
  0
CLASS
  1
ACDBDICTIONARYWDFLT
  2
AcDbDictionaryWithDefault
  3
ObjectDBX Classes
 90
        0
280
     0
281
     0
  0
CLASS
  1
MATERIAL
  2
AcDbMaterial
  3
ObjectDBX Classes
 90
     1024
280
     0
281
     0
  0
CLASS
  1
VISUALSTYLE
  2
AcDbVisualStyle
  3
ObjectDBX Classes
 90
     4095
280
     0
281
     0
  0
CLASS
  1
TABLESTYLE
  2
AcDbTableStyle
  3
ObjectDBX Classes
 90
     4095
280
     0
281
     0
  0
CLASS
  1
DICTIONARYVAR
  2
AcDbDictionaryVar
  3
ObjectDBX Classes
 90
        0
280
     0
281
     0
  0
CLASS
  1
ACDBPLACEHOLDER
  2
AcDbPlaceHolder
  3
ObjectDBX Classes
 90
        0
280
     0
281
     0
  0
CLASS
  1
LAYOUT
  2
AcDbLayout
  3
ObjectDBX Classes
 90
        0
280
     0
281
     0
  0
ENDSEC
  0
SECTION
  2
TABLES
  0
TABLE
  2
VPORT
  5
8
330
0
100
AcDbSymbolTable
 70
     1
  0
VPORT
  5
28
330
8
100
AcDbSymbolTableRecord
100
AcDbViewportTableRecord
  2
*Active
 70
     0
 10
0.0
 20
0.0
 11
1.0
 21
1.0
 12
1.1
 22
0.85
 13
0.0
 23
0.0
 14
1.0
 24
1.0
 15
0.0
 25
0.0
 16
0.0
 26
0.0
 36
1.0
 17
0.0
 27
0.0
 37
0.0
 40
1.7
 41
1.294117647058823
 42
50.0
 43
0.0
 44
0.0
 50
0.0
 51
0.0
 71
     0
 72
   100
 73
     1
 74
     1
 75
     0
 76
     0
 77
     0
 78
     0
281
     0
 65
     1
110
0.0
120
0.0
130
0.0
111
1.0
121
0.0
131
0.0
112
0.0
122
1.0
132
0.0
 79
     0
146
0.0
  0
ENDTAB
  0
TABLE
  2
LTYPE
  5
5
330
0
100
AcDbSymbolTable
 70
    59
  0
LTYPE
  5
29
330
5
100
AcDbSymbolTableRecord
100
AcDbLinetypeTableRecord
  2
ByBlock
 70
     0
  3

 72
    65
 73
     0
 40
0.0
  0
LTYPE
  5
2A
330
5
100
AcDbSymbolTableRecord
100
AcDbLinetypeTableRecord
  2
ByLayer
 70
     0
  3

 72
    65
 73
     0
 40
0.0
  0
LTYPE
  5
2B
330
5
100
AcDbSymbolTableRecord
100
AcDbLinetypeTableRecord
  2
Continuous
 70
     0
  3
Solid line
 72
    65
 73
     0
 40
0.0
  0
LTYPE
  5
40
330
5
100
AcDbSymbolTableRecord
100
AcDbLinetypeTableRecord
  2
BY_STANDARD
 70
     0
  3
By Standard ____________    ____    ____   _
 72
    65
 73
     6
 40
1.240299999999999
 49
0.6614
 74
     0
 49
-0.0827
 74
     0
 49
0.1654
 74
     0
 49
-0.0827
 74
     0
 49
0.1654
 74
     0
 49
-0.0827
 74
     0
  0
LTYPE
  5
41
330
5
100
AcDbSymbolTableRecord
100
AcDbLinetypeTableRecord
  2
CHAIN
 70
     0
  3
Chain ____ _ ____ _ ____ _ ____ _ ____ _ ____
 72
    65
 73
     4
 40
0.7087
 49
0.4724000000000001
 74
     0
 49
-0.0591
 74
     0
 49
0.1181
 74
     0
 49
-0.0591
 74
     0
  0
LTYPE
  5
42
330
5
100
AcDbSymbolTableRecord
100
AcDbLinetypeTableRecord
  2
DASH_DOT
 70
     0
  3
Dash dot __ . __ . __ . __ . __ . __ . __ . __
 72
    65
 73
     4
 40
0.37
 49
0.24
 74
     0
 49
-0.06
 74
     0
 49
0.01
 74
     0
 49
-0.06
 74
     0
  0
LTYPE
  5
43
330
5
100
AcDbSymbolTableRecord
100
AcDbLinetypeTableRecord
  2
DOUBLE_DASH_DOT
 70
     0
  3
Double-Dash Dot __ __ . __ __ . __ __ . __ _
 72
    65
 73
     6
 40
0.4398
 49
0.24
 74
     0
 49
-0.06
 74
     0
 49
0.0098
 74
     0
 49
-0.06
 74
     0
 49
0.01
 74
     0
 49
-0.06
 74
     0
  0
LTYPE
  5
44
330
5
100
AcDbSymbolTableRecord
100
AcDbLinetypeTableRecord
  2
DASH_TRIPLE_DOT
 70
     0
  3
Dash Triple-Dot _ . . . _ . . . _ . . . _
 72
    65
 73
     8
 40
0.51
 49
0.24
 74
     0
 49
-0.06
 74
     0
 49
0.01
 74
     0
 49
-0.06
 74
     0
 49
0.01
 74
     0
 49
-0.06
 74
     0
 49
0.01
 74
     0
 49
-0.06
 74
     0
  0
LTYPE
  5
45
330
5
100
AcDbSymbolTableRecord
100
AcDbLinetypeTableRecord
  2
DASHED
 70
     0
  3
Dashed __ __ __ __ __ __ __ __ __ __ __ __ __ _
 72
    65
 73
     2
 40
0.2067
 49
0.1654
 74
     0
 49
-0.0413
 74
     0
  0
LTYPE
  5
46
330
5
100
AcDbSymbolTableRecord
100
AcDbLinetypeTableRecord
  2
DASH_DOUBLE_DOT
 70
     0
  3
Dash Double-Dot __ . . __ . . __ . . __ . .
 72
    65
 73
     6
 40
0.4398
 49
0.24
 74
     0
 49
-0.06
 74
     0
 49
0.0098
 74
     0
 49
-0.06
 74
     0
 49
0.01
 74
     0
 49
-0.06
 74
     0
  0
LTYPE
  5
47
330
5
100
AcDbSymbolTableRecord
100
AcDbLinetypeTableRecord
  2
DASHED_SPACE
 70
     0
  3
Dashed Space __ __ __ __ __ __ __ __ __ __ __ _
 72
    65
 73
     2
 40
0.2067
 49
0.1654
 74
     0
 49
-0.0413
 74
     0
  0
LTYPE
  5
48
330
5
100
AcDbSymbolTableRecord
100
AcDbLinetypeTableRecord
  2
DOTTED
 70
     0
  3
Dotted . . . . . . . . . . . . . . . . . . . . 
 72
    65
 73
     2
 40
0.0482
 49
0.0069
 74
     0
 49
-0.0413
 74
     0
  0
LTYPE
  5
49
330
5
100
AcDbSymbolTableRecord
100
AcDbLinetypeTableRecord
  2
DOUBLE_DASH_CHAIN
 70
     0
  3
Double-Dash Chain ______  __  __  ______  __  _
 72
    65
 73
     6
 40
1.240299999999999
 49
0.6614
 74
     0
 49
-0.0827
 74
     0
 49
0.1654
 74
     0
 49
-0.0827
 74
     0
 49
0.1654
 74
     0
 49
-0.0827
 74
     0
  0
LTYPE
  5
4B
330
5
100
AcDbSymbolTableRecord
100
AcDbLinetypeTableRecord
  2
DOUBLE_DASH_DOUBLE_DOT
 70
     0
  3
Double-Dash Double-dot _ _ . . _ _ . . _
 72
    65
 73
     8
 40
0.7400000000000001
 49
0.24
 74
     0
 49
-0.06
 74
     0
 49
0.24
 74
     0
 49
-0.06
 74
     0
 49
0.01
 74
     0
 49
-0.06
 74
     0
 49
0.01
 74
     0
 49
-0.06
 74
     0
  0
LTYPE
  5
4C
330
5
100
AcDbSymbolTableRecord
100
AcDbLinetypeTableRecord
  2
DOUBLE_DASH_TRIPLE_DOT
 70
     0
  3
Double Dash Triple Dot __ __ . . . __ __ . .
 72
    65
 73
    10
 40
0.8100000000000001
 49
0.24
 74
     0
 49
-0.06
 74
     0
 49
0.24
 74
     0
 49
-0.06
 74
     0
 49
0.01
 74
     0
 49
-0.06
 74
     0
 49
0.01
 74
     0
 49
-0.06
 74
     0
 49
0.01
 74
     0
 49
-0.06
 74
     0
  0
LTYPE
  5
4D
330
5
100
AcDbSymbolTableRecord
100
AcDbLinetypeTableRecord
  2
LONG_DASH_DOTTED
 70
     0
  3
Long Dash Dotted ____ . ____ . ____ . ____ . _
 72
    65
 73
     4
 40
0.3543
 49
0.2362
 74
     0
 49
-0.0295
 74
     0
 49
0.0591
 74
     0
 49
-0.0295
 74
     0
  0
LTYPE
  5
4E
330
5
100
AcDbSymbolTableRecord
100
AcDbLinetypeTableRecord
  2
LONG_DASH_DOUBLE_DOT
 70
     0
  3
Long Dash Double Dot ________  .  .  ________  
 72
    65
 73
     6
 40
0.6799999999999999
 49
0.48
 74
     0
 49
-0.06
 74
     0
 49
0.01
 74
     0
 49
-0.06
 74
     0
 49
0.01
 74
     0
 49
-0.06
 74
     0
  0
LTYPE
  5
4F
330
5
100
AcDbSymbolTableRecord
100
AcDbLinetypeTableRecord
  2
LONG_DASH_TRIPLE_DOT
 70
     0
  3
Long Dash Triple Dot ____ ... ____ ... ____
 72
    65
 73
     8
 40
0.3689
 49
0.2362
 74
     0
 49
-0.0295
 74
     0
 49
0.0049
 74
     0
 49
-0.0295
 74
     0
 49
0.0049
 74
     0
 49
-0.0295
 74
     0
 49
0.0049
 74
     0
 49
-0.0295
 74
     0
  0
LTYPE
  5
50
330
5
100
AcDbSymbolTableRecord
100
AcDbLinetypeTableRecord
  2
BORDER
 70
     0
  3
Border __ __ . __ __ . __ __ . __ __ . __ __ .
 72
    65
 73
     6
 40
1.75
 49
0.5
 74
     0
 49
-0.25
 74
     0
 49
0.5
 74
     0
 49
-0.25
 74
     0
 49
0.0
 74
     0
 49
-0.25
 74
     0
  0
LTYPE
  5
51
330
5
100
AcDbSymbolTableRecord
100
AcDbLinetypeTableRecord
  2
BORDER2
 70
     0
  3
Border (.5x) __.__.__.__.__.__.__.__.__.__.__.
 72
    65
 73
     6
 40
0.875
 49
0.25
 74
     0
 49
-0.125
 74
     0
 49
0.25
 74
     0
 49
-0.125
 74
     0
 49
0.0
 74
     0
 49
-0.125
 74
     0
  0
LTYPE
  5
52
330
5
100
AcDbSymbolTableRecord
100
AcDbLinetypeTableRecord
  2
BORDERX2
 70
     0
  3
Border (2x) ____  ____  .  ____  ____  .  ___
 72
    65
 73
     6
 40
3.5
 49
1.0
 74
     0
 49
-0.5
 74
     0
 49
1.0
 74
     0
 49
-0.5
 74
     0
 49
0.0
 74
     0
 49
-0.5
 74
     0
  0
LTYPE
  5
53
330
5
100
AcDbSymbolTableRecord
100
AcDbLinetypeTableRecord
  2
CENTER
 70
     0
  3
Center ____ _ ____ _ ____ _ ____ _ ____ _ ____
 72
    65
 73
     4
 40
2.0
 49
1.25
 74
     0
 49
-0.25
 74
     0
 49
0.25
 74
     0
 49
-0.25
 74
     0
  0
LTYPE
  5
54
330
5
100
AcDbSymbolTableRecord
100
AcDbLinetypeTableRecord
  2
CENTER2
 70
     0
  3
Center (.5x) ___ _ ___ _ ___ _ ___ _ ___ _ ___
 72
    65
 73
     4
 40
1.125
 49
0.75
 74
     0
 49
-0.125
 74
     0
 49
0.125
 74
     0
 49
-0.125
 74
     0
  0
LTYPE
  5
55
330
5
100
AcDbSymbolTableRecord
100
AcDbLinetypeTableRecord
  2
CENTERX2
 70
     0
  3
Center (2x) ________  __  ________  __  _____
 72
    65
 73
     4
 40
4.0
 49
2.5
 74
     0
 49
-0.5
 74
     0
 49
0.5
 74
     0
 49
-0.5
 74
     0
  0
LTYPE
  5
56
330
5
100
AcDbSymbolTableRecord
100
AcDbLinetypeTableRecord
  2
DASHDOT2
 70
     0
  3
Dash dot (.5x) _._._._._._._._._._._._._._._.
 72
    65
 73
     4
 40
0.5
 49
0.25
 74
     0
 49
-0.125
 74
     0
 49
0.0
 74
     0
 49
-0.125
 74
     0
  0
LTYPE
  5
57
330
5
100
AcDbSymbolTableRecord
100
AcDbLinetypeTableRecord
  2
DASHDOTX2
 70
     0
  3
Dash dot (2x) ____  .  ____  .  ____  .  ___
 72
    65
 73
     4
 40
2.0
 49
1.0
 74
     0
 49
-0.5
 74
     0
 49
0.0
 74
     0
 49
-0.5
 74
     0
  0
LTYPE
  5
59
330
5
100
AcDbSymbolTableRecord
100
AcDbLinetypeTableRecord
  2
DASHED2
 70
     0
  3
Dashed (.5x) _ _ _ _ _ _ _ _ _ _ _ _ _ _ _ _ _
 72
    65
 73
     2
 40
0.375
 49
0.25
 74
     0
 49
-0.125
 74
     0
  0
LTYPE
  5
5A
330
5
100
AcDbSymbolTableRecord
100
AcDbLinetypeTableRecord
  2
DASHEDX2
 70
     0
  3
Dashed (2x) ____  ____  ____  ____  ____  ___
 72
    65
 73
     2
 40
1.5
 49
1.0
 74
     0
 49
-0.5
 74
     0
  0
LTYPE
  5
5B
330
5
100
AcDbSymbolTableRecord
100
AcDbLinetypeTableRecord
  2
DIVIDE
 70
     0
  3
Divide ____ . . ____ . . ____ . . ____ . . ____
 72
    65
 73
     6
 40
1.25
 49
0.5
 74
     0
 49
-0.25
 74
     0
 49
0.0
 74
     0
 49
-0.25
 74
     0
 49
0.0
 74
     0
 49
-0.25
 74
     0
  0
LTYPE
  5
5C
330
5
100
AcDbSymbolTableRecord
100
AcDbLinetypeTableRecord
  2
DIVIDE2
 70
     0
  3
Divide (.5x) __..__..__..__..__..__..__..__.._
 72
    65
 73
     6
 40
0.625
 49
0.25
 74
     0
 49
-0.125
 74
     0
 49
0.0
 74
     0
 49
-0.125
 74
     0
 49
0.0
 74
     0
 49
-0.125
 74
     0
  0
LTYPE
  5
5D
330
5
100
AcDbSymbolTableRecord
100
AcDbLinetypeTableRecord
  2
DIVIDEX2
 70
     0
  3
Divide (2x) ________  .  .  ________  .  .  _
 72
    65
 73
     6
 40
2.5
 49
1.0
 74
     0
 49
-0.5
 74
     0
 49
0.0
 74
     0
 49
-0.5
 74
     0
 49
0.0
 74
     0
 49
-0.5
 74
     0
  0
LTYPE
  5
5E
330
5
100
AcDbSymbolTableRecord
100
AcDbLinetypeTableRecord
  2
DOT
 70
     0
  3
Dot . . . . . . . . . . . . . . . . . . . . . .
 72
    65
 73
     2
 40
0.25
 49
0.0
 74
     0
 49
-0.25
 74
     0
  0
LTYPE
  5
5F
330
5
100
AcDbSymbolTableRecord
100
AcDbLinetypeTableRecord
  2
DOT2
 70
     0
  3
Dot (.5x) .....................................
 72
    65
 73
     2
 40
0.125
 49
0.0
 74
     0
 49
-0.125
 74
     0
  0
LTYPE
  5
60
330
5
100
AcDbSymbolTableRecord
100
AcDbLinetypeTableRecord
  2
DOTX2
 70
     0
  3
Dot (2x) .  .  .  .  .  .  .  .  .  .  .  .  . 
 72
    65
 73
     2
 40
0.5
 49
0.0
 74
     0
 49
-0.5
 74
     0
  0
LTYPE
  5
61
330
5
100
AcDbSymbolTableRecord
100
AcDbLinetypeTableRecord
  2
HIDDEN
 70
     0
  3
Hidden __ __ __ __ __ __ __ __ __ __ __ __ __ _
 72
    65
 73
     2
 40
0.375
 49
0.25
 74
     0
 49
-0.125
 74
     0
  0
LTYPE
  5
62
330
5
100
AcDbSymbolTableRecord
100
AcDbLinetypeTableRecord
  2
HIDDEN2
 70
     0
  3
Hidden (.5x) _ _ _ _ _ _ _ _ _ _ _ _ _ _ _ _ _
 72
    65
 73
     2
 40
0.1875
 49
0.125
 74
     0
 49
-0.0625
 74
     0
  0
LTYPE
  5
63
330
5
100
AcDbSymbolTableRecord
100
AcDbLinetypeTableRecord
  2
HIDDENX2
 70
     0
  3
Hidden (2x) ____ ____ ____ ____ ____ ____ ____
 72
    65
 73
     2
 40
0.75
 49
0.5
 74
     0
 49
-0.25
 74
     0
  0
LTYPE
  5
64
330
5
100
AcDbSymbolTableRecord
100
AcDbLinetypeTableRecord
  2
PHANTOM
 70
     0
  3
Phantom ______  __  __  ______  __  __  ______
 72
    65
 73
     6
 40
2.5
 49
1.25
 74
     0
 49
-0.25
 74
     0
 49
0.25
 74
     0
 49
-0.25
 74
     0
 49
0.25
 74
     0
 49
-0.25
 74
     0
  0
LTYPE
  5
65
330
5
100
AcDbSymbolTableRecord
100
AcDbLinetypeTableRecord
  2
PHANTOM2
 70
     0
  3
Phantom (.5x) ___ _ _ ___ _ _ ___ _ _ ___ _ _
 72
    65
 73
     6
 40
1.25
 49
0.625
 74
     0
 49
-0.125
 74
     0
 49
0.125
 74
     0
 49
-0.125
 74
     0
 49
0.125
 74
     0
 49
-0.125
 74
     0
  0
LTYPE
  5
66
330
5
100
AcDbSymbolTableRecord
100
AcDbLinetypeTableRecord
  2
PHANTOMX2
 70
     0
  3
Phantom (2x) ____________    ____    ____   _
 72
    65
 73
     6
 40
5.0
 49
2.5
 74
     0
 49
-0.5
 74
     0
 49
0.5
 74
     0
 49
-0.5
 74
     0
 49
0.5
 74
     0
 49
-0.5
 74
     0
  0
LTYPE
  5
67
330
5
100
AcDbSymbolTableRecord
100
AcDbLinetypeTableRecord
  2
ACAD_ISO02W100
 70
     0
  3
ISO dash __ __ __ __ __ __ __ __ __ __ __ __ __
 72
    65
 73
     2
 40
0.59
 49
0.47
 74
     0
 49
-0.12
 74
     0
  0
LTYPE
  5
68
330
5
100
AcDbSymbolTableRecord
100
AcDbLinetypeTableRecord
  2
ACAD_ISO03W100
 70
     0
  3
ISO dash space __    __    __    __    __    __
 72
    65
 73
     2
 40
1.179999999999999
 49
0.47
 74
     0
 49
-0.71
 74
     0
  0
LTYPE
  5
69
330
5
100
AcDbSymbolTableRecord
100
AcDbLinetypeTableRecord
  2
ACAD_ISO04W100
 70
     0
  3
ISO long-dash dot ____ . ____ . ____ . ____ . _
 72
    65
 73
     4
 40
1.179999999999999
 49
0.9399999999999998
 74
     0
 49
-0.12
 74
     0
 49
0.0
 74
     0
 49
-0.12
 74
     0
  0
LTYPE
  5
6A
330
5
100
AcDbSymbolTableRecord
100
AcDbLinetypeTableRecord
  2
ACAD_ISO05W100
 70
     0
  3
ISO long-dash double-dot ____ .. ____ .. ____ .
 72
    65
 73
     6
 40
1.299999999999999
 49
0.9399999999999998
 74
     0
 49
-0.12
 74
     0
 49
0.0
 74
     0
 49
-0.12
 74
     0
 49
0.0
 74
     0
 49
-0.12
 74
     0
  0
LTYPE
  5
6B
330
5
100
AcDbSymbolTableRecord
100
AcDbLinetypeTableRecord
  2
ACAD_ISO06W100
 70
     0
  3
ISO long-dash triple-dot ____ ... ____ ... ____
 72
    65
 73
     8
 40
1.419999999999999
 49
0.9399999999999998
 74
     0
 49
-0.12
 74
     0
 49
0.0
 74
     0
 49
-0.12
 74
     0
 49
0.0
 74
     0
 49
-0.12
 74
     0
 49
0.0
 74
     0
 49
-0.12
 74
     0
  0
LTYPE
  5
6C
330
5
100
AcDbSymbolTableRecord
100
AcDbLinetypeTableRecord
  2
ACAD_ISO07W100
 70
     0
  3
ISO dot . . . . . . . . . . . . . . . . . . . .
 72
    65
 73
     2
 40
0.12
 49
0.0
 74
     0
 49
-0.12
 74
     0
  0
LTYPE
  5
6D
330
5
100
AcDbSymbolTableRecord
100
AcDbLinetypeTableRecord
  2
ACAD_ISO08W100
 70
     0
  3
ISO long-dash short-dash ____ __ ____ __ ____ _
 72
    65
 73
     4
 40
0.95
 49
0.47
 74
     0
 49
-0.12
 74
     0
 49
0.24
 74
     0
 49
-0.12
 74
     0
  0
LTYPE
  5
6E
330
5
100
AcDbSymbolTableRecord
100
AcDbLinetypeTableRecord
  2
ACAD_ISO09W100
 70
     0
  3
ISO long-dash double-short-dash ____ __ __ ____
 72
    65
 73
     6
 40
1.31
 49
0.47
 74
     0
 49
-0.12
 74
     0
 49
0.24
 74
     0
 49
-0.12
 74
     0
 49
0.24
 74
     0
 49
-0.12
 74
     0
  0
LTYPE
  5
6F
330
5
100
AcDbSymbolTableRecord
100
AcDbLinetypeTableRecord
  2
ACAD_ISO10W100
 70
     0
  3
ISO dash dot __ . __ . __ . __ . __ . __ . __ .
 72
    65
 73
     4
 40
0.71
 49
0.47
 74
     0
 49
-0.12
 74
     0
 49
0.0
 74
     0
 49
-0.12
 74
     0
  0
LTYPE
  5
70
330
5
100
AcDbSymbolTableRecord
100
AcDbLinetypeTableRecord
  2
ACAD_ISO11W100
 70
     0
  3
ISO double-dash dot __ __ . __ __ . __ __ . __ 
 72
    65
 73
     6
 40
1.299999999999999
 49
0.47
 74
     0
 49
-0.12
 74
     0
 49
0.47
 74
     0
 49
-0.12
 74
     0
 49
0.0
 74
     0
 49
-0.12
 74
     0
  0
LTYPE
  5
71
330
5
100
AcDbSymbolTableRecord
100
AcDbLinetypeTableRecord
  2
ACAD_ISO12W100
 70
     0
  3
ISO dash double-dot __ . . __ . . __ . . __ . .
 72
    65
 73
     6
 40
0.8299999999999998
 49
0.47
 74
     0
 49
-0.12
 74
     0
 49
0.0
 74
     0
 49
-0.12
 74
     0
 49
0.0
 74
     0
 49
-0.12
 74
     0
  0
LTYPE
  5
72
330
5
100
AcDbSymbolTableRecord
100
AcDbLinetypeTableRecord
  2
ACAD_ISO13W100
 70
     0
  3
ISO double-dash double-dot __ __ . . __ __ . . 
 72
    65
 73
     8
 40
1.419999999999999
 49
0.47
 74
     0
 49
-0.12
 74
     0
 49
0.47
 74
     0
 49
-0.12
 74
     0
 49
0.0
 74
     0
 49
-0.12
 74
     0
 49
0.0
 74
     0
 49
-0.12
 74
     0
  0
LTYPE
  5
73
330
5
100
AcDbSymbolTableRecord
100
AcDbLinetypeTableRecord
  2
ACAD_ISO14W100
 70
     0
  3
ISO dash triple-dot __ . . . __ . . . __ . . . 
 72
    65
 73
     8
 40
0.95
 49
0.47
 74
     0
 49
-0.12
 74
     0
 49
0.0
 74
     0
 49
-0.12
 74
     0
 49
0.0
 74
     0
 49
-0.12
 74
     0
 49
0.0
 74
     0
 49
-0.12
 74
     0
  0
LTYPE
  5
74
330
5
100
AcDbSymbolTableRecord
100
AcDbLinetypeTableRecord
  2
ACAD_ISO15W100
 70
     0
  3
ISO double-dash triple-dot __ __ . . . __ __ . 
 72
    65
 73
    10
 40
1.539999999999999
 49
0.47
 74
     0
 49
-0.12
 74
     0
 49
0.47
 74
     0
 49
-0.12
 74
     0
 49
0.0
 74
     0
 49
-0.12
 74
     0
 49
0.0
 74
     0
 49
-0.12
 74
     0
 49
0.0
 74
     0
 49
-0.12
 74
     0
  0
LTYPE
  5
77
330
5
100
AcDbSymbolTableRecord
100
AcDbLinetypeTableRecord
  2
FENCELINE1
 70
     0
  3
Fenceline circle ----0-----0----0-----0----0---
 72
    65
 73
     4
 40
1.45
 49
0.25
 74
     0
 49
-0.1
 74
     4
 75
   133
340
76
 46
0.1
 50
0.0
 44
-0.1
 45
0.0
 49
-0.1
 74
     0
 49
1.0
 74
     0
  0
LTYPE
  5
78
330
5
100
AcDbSymbolTableRecord
100
AcDbLinetypeTableRecord
  2
FENCELINE2
 70
     0
  3
Fenceline square ----[]-----[]----[]-----[]----
 72
    65
 73
     4
 40
1.45
 49
0.25
 74
     0
 49
-0.1
 74
     4
 75
   132
340
76
 46
0.1
 50
0.0
 44
-0.1
 45
0.0
 49
-0.1
 74
     0
 49
1.0
 74
     0
  0
LTYPE
  5
79
330
5
100
AcDbSymbolTableRecord
100
AcDbLinetypeTableRecord
  2
TRACKS
 70
     0
  3
Tracks -|-|-|-|-|-|-|-|-|-|-|-|-|-|-|-|-|-|-|-|
 72
    65
 73
     2
 40
0.3
 49
0.15
 74
     4
 75
   130
340
76
 46
0.25
 50
0.0
 44
0.0
 45
0.0
 49
0.15
 74
     0
  0
LTYPE
  5
7A
330
5
100
AcDbSymbolTableRecord
100
AcDbLinetypeTableRecord
  2
BATTING
 70
     0
  3
Batting SSSSSSSSSSSSSSSSSSSSSSSSSSSSSSSSSSSSSSS
 72
    65
 73
     4
 40
0.4001000000000001
 49
0.0001
 74
     0
 49
-0.1
 74
     4
 75
   134
340
76
 46
0.1
 50
0.0
 44
-0.1
 45
0.0
 49
-0.2
 74
     4
 75
   134
340
76
 46
0.1
 50
180.0
 44
0.1
 45
0.0
 49
-0.1
 74
     0
  0
LTYPE
  5
7B
330
5
100
AcDbSymbolTableRecord
100
AcDbLinetypeTableRecord
  2
HOT_WATER_SUPPLY
 70
     0
  3
Hot water supply ---- HW ---- HW ---- HW ----
 72
    65
 73
     3
 40
0.9
 49
0.5
 74
     0
 49
-0.2
 74
     2
 75
     0
340
26
 46
0.1
 50
0.0
 44
-0.1
 45
-0.05
  9
HW
 49
-0.2
 74
     0
  0
LTYPE
  5
7C
330
5
100
AcDbSymbolTableRecord
100
AcDbLinetypeTableRecord
  2
GAS_LINE
 70
     0
  3
Gas line ----GAS----GAS----GAS----GAS----GAS---
 72
    65
 73
     3
 40
0.95
 49
0.5
 74
     0
 49
-0.2
 74
     2
 75
     0
340
26
 46
0.1
 50
0.0
 44
-0.1
 45
-0.05
  9
GAS
 49
-0.25
 74
     0
  0
LTYPE
  5
7D
330
5
100
AcDbSymbolTableRecord
100
AcDbLinetypeTableRecord
  2
ZIGZAG
 70
     0
  3
Zig zag /\/\/\/\/\/\/\/\/\/\/\/\/\/\/\/\/\/\/\/
 72
    65
 73
     4
 40
0.8001000000000001
 49
0.0001
 74
     0
 49
-0.2
 74
     4
 75
   131
340
76
 46
0.2
 50
0.0
 44
-0.2
 45
0.0
 49
-0.4
 74
     4
 75
   131
340
76
 46
0.2
 50
180.0
 44
0.2
 45
0.0
 49
-0.2
 74
     0
  0
ENDTAB
  0
TABLE
  2
LAYER
  5
2
330
0
100
AcDbSymbolTable
 70
    26
  0
LAYER
  5
25
330
2
100
AcDbSymbolTableRecord
100
AcDbLayerTableRecord
  2
0
 70
     0
 62
     7
  6
Continuous
370
    -3
390
F
  0
LAYER
  5
81
330
2
100
AcDbSymbolTableRecord
100
AcDbLayerTableRecord
  2
Border (ANSI)
 70
     0
 62
     7
  6
Continuous
370
    70
390
F
  0
LAYER
  5
83
330
2
100
AcDbSymbolTableRecord
100
AcDbLayerTableRecord
  2
Center Mark (ANSI)
 70
     0
 62
     7
  6
Continuous
370
    25
390
F
  0
LAYER
  5
84
330
2
100
AcDbSymbolTableRecord
100
AcDbLayerTableRecord
  2
Centerline (ANSI)
 70
     0
 62
     7
  6
Continuous
370
    25
390
F
  0
LAYER
  5
86
330
2
100
AcDbSymbolTableRecord
100
AcDbLayerTableRecord
  2
Dimension (ANSI)
 70
     0
 62
     7
  6
Continuous
370
    25
390
F
  0
LAYER
  5
89
330
2
100
AcDbSymbolTableRecord
100
AcDbLayerTableRecord
  2
Hidden Narrow (ANSI)
 70
     0
 62
     7
  6
DASHED
370
    25
390
F
  0
LAYER
  5
8E
330
2
100
AcDbSymbolTableRecord
100
AcDbLayerTableRecord
  2
Symbol (ANSI)
 70
     0
 62
     7
  6
Continuous
370
    25
390
F
  0
LAYER
  5
91
330
2
100
AcDbSymbolTableRecord
100
AcDbLayerTableRecord
  2
Visible (ANSI)
 70
     0
 62
     7
  6
Continuous
370
    50
390
F
  0
LAYER
  5
12A
330
2
100
AcDbSymbolTableRecord
100
AcDbLayerTableRecord
  2
Defpoints
 70
     0
 62
     7
  6
Continuous
290
     0
370
    -3
390
F
  0
ENDTAB
  0
TABLE
  2
STYLE
  5
3
330
0
100
AcDbSymbolTable
 70
    12
  0
STYLE
  5
26
330
3
100
AcDbSymbolTableRecord
100
AcDbTextStyleTableRecord
  2
Standard
 70
     0
 40
0.0
 41
1.0
 50
0.0
 71
     0
 42
0.2
  3
TAHOMA.TTF
  4

1001
ACAD
1000
Tahoma
1071
      256
  0
STYLE
  5
76
330
3
100
AcDbSymbolTableRecord
100
AcDbTextStyleTableRecord
  2

 70
     1
 40
0.0
 41
1.0
 50
0.0
 71
     0
 42
0.2
  3
ltypeshp.shx
  4

  0
STYLE
  5
96
330
3
100
AcDbSymbolTableRecord
100
AcDbTextStyleTableRecord
  2
Label Text (ANSI)
 70
     0
 40
0.0
 41
1.0
 50
0.0
 71
     0
 42
0.2
  3
TAHOMA.TTF
  4

1001
ACAD
1000
Tahoma
1071
      256
  0
STYLE
  5
97
330
3
100
AcDbSymbolTableRecord
100
AcDbTextStyleTableRecord
  2
Label Text (DIN)
 70
     0
 40
0.0
 41
1.0
 50
0.0
 71
     0
 42
0.2
  3
isocpeur.ttf
  4

1001
ACAD
1000
ISOCPEUR
1071
      256
  0
STYLE
  5
98
330
3
100
AcDbSymbolTableRecord
100
AcDbTextStyleTableRecord
  2
Label Text (ISO)
 70
     0
 40
0.0
 41
1.0
 50
0.0
 71
     0
 42
0.2
  3
TAHOMA.TTF
  4

1001
ACAD
1000
Tahoma
1071
      256
  0
STYLE
  5
99
330
3
100
AcDbSymbolTableRecord
100
AcDbTextStyleTableRecord
  2
Label Text (JIS)
 70
     0
 40
0.0
 41
1.0
 50
0.0
 71
     0
 42
0.2
  3
TAHOMA.TTF
  4

1001
ACAD
1000
Tahoma
1071
      256
  0
STYLE
  5
9A
330
3
100
AcDbSymbolTableRecord
100
AcDbTextStyleTableRecord
  2
Note Text (ANSI)
 70
     0
 40
0.0
 41
1.0
 50
0.0
 71
     0
 42
0.2
  3
TAHOMA.TTF
  4

1001
ACAD
1000
Tahoma
1071
      256
  0
STYLE
  5
9B
330
3
100
AcDbSymbolTableRecord
100
AcDbTextStyleTableRecord
  2
Note Text (DIN)
 70
     0
 40
0.0
 41
1.0
 50
0.0
 71
     0
 42
0.2
  3
isocpeur.ttf
  4

1001
ACAD
1000
ISOCPEUR
1071
      256
  0
STYLE
  5
9C
330
3
100
AcDbSymbolTableRecord
100
AcDbTextStyleTableRecord
  2
Note Text (ISO)
 70
     0
 40
0.0
 41
1.0
 50
0.0
 71
     0
 42
0.2
  3
TAHOMA.TTF
  4

1001
ACAD
1000
Tahoma
1071
      256
  0
STYLE
  5
9D
330
3
100
AcDbSymbolTableRecord
100
AcDbTextStyleTableRecord
  2
Note Text (JIS)
 70
     0
 40
0.0
 41
1.0
 50
0.0
 71
     0
 42
0.2
  3
TAHOMA.TTF
  4

1001
ACAD
1000
Tahoma
1071
      256
  0
STYLE
  5
F1
330
3
100
AcDbSymbolTableRecord
100
AcDbTextStyleTableRecord
  2
Text Style29
 70
     0
 40
0.0
 41
1.0
 50
0.0
 71
     0
 42
0.2
  3
TAHOMA.TTF
  4

1001
ACAD
1000
Tahoma
1071
      256
  0
STYLE
  5
622
330
3
100
AcDbSymbolTableRecord
100
AcDbTextStyleTableRecord
  2
Text Style6
 70
     0
 40
0.0
 41
1.0
 50
0.0
 71
     0
 42
0.2
  3
AIGDT___.TTF
  4

1001
ACAD
1000
AIGDT
1071
      514
  0
ENDTAB
  0
TABLE
  2
VIEW
  5
6
330
0
100
AcDbSymbolTable
 70
     0
  0
ENDTAB
  0
TABLE
  2
UCS
  5
7
330
0
100
AcDbSymbolTable
 70
     0
  0
ENDTAB
  0
TABLE
  2
APPID
  5
9
330
0
100
AcDbSymbolTable
 70
     1
  0
APPID
  5
27
330
9
100
AcDbSymbolTableRecord
100
AcDbRegAppTableRecord
  2
ACAD
 70
     0
  0
ENDTAB
  0
TABLE
  2
DIMSTYLE
  5
A
330
0
100
AcDbSymbolTable
 70
    15
100
AcDbDimStyleTable
 71
     2
340
A6
340
3F
  0
DIMSTYLE
105
3F
330
A
100
AcDbSymbolTableRecord
100
AcDbDimStyleTableRecord
  2
Standard
 70
     0
340
26
  0
DIMSTYLE
105
9E
330
A
100
AcDbSymbolTableRecord
100
AcDbDimStyleTableRecord
  2
Architectural (ANSI)
 70
     0
 40
0.2
 41
0.0984251946210861
 42
0.0625
 43
0.2362204724409449
 44
0.125
 45
0.00000001
 46
0.3937007874015748
 78
     4
 79
     3
140
0.1200000047683716
144
0.0833333333333333
147
0.031496062992126
171
     1
176
   256
177
   256
178
   256
272
     2
274
     1
276
     2
277
     4
284
    12
286
    12
340
9A
371
    -1
372
    -1
  0
DIMSTYLE
105
9F
330
A
100
AcDbSymbolTableRecord
100
AcDbDimStyleTableRecord
  2
Architectural (ANSI)$7
 70
     0
 40
0.2
 41
0.0984251946210861
 42
0.0625
 43
0.2362204724409449
 44
0.125
 45
0.00000001
 46
0.3937007874015748
 78
     4
 79
     3
140
0.1200000047683716
144
0.0833333333333333
147
0.031496062992126
171
     1
176
   256
177
   256
178
   256
272
     2
274
     1
276
     2
277
     4
284
    12
286
    12
340
9A
371
    -1
372
    -1
  0
DIMSTYLE
105
A0
330
A
100
AcDbSymbolTableRecord
100
AcDbDimStyleTableRecord
  2
Default - Fraction (ANSI)
 70
     0
 40
0.2
 41
0.0984251946210861
 42
0.0625
 43
0.2362204724409449
 44
0.125
 45
0.00000001
 46
0.3937007874015748
 78
    12
 79
     3
140
0.1200000047683716
147
0.031496062992126
171
     1
176
   256
177
   256
178
   256
272
     2
274
     1
276
     2
277
     5
284
    12
286
    12
340
9A
371
    -1
372
    -1
  0
DIMSTYLE
105
A1
330
A
100
AcDbSymbolTableRecord
100
AcDbDimStyleTableRecord
  2
Default - Fraction (ANSI)$7
 70
     0
 40
0.2
 41
0.0984251946210861
 42
0.0625
 43
0.2362204724409449
 44
0.125
 45
0.00000001
 46
0.3937007874015748
 78
    12
 79
     3
140
0.1200000047683716
147
0.031496062992126
171
     1
176
   256
177
   256
178
   256
272
     2
274
     1
276
     2
277
     5
284
    12
286
    12
340
9A
371
    -1
372
    -1
  0
DIMSTYLE
105
A2
330
A
100
AcDbSymbolTableRecord
100
AcDbDimStyleTableRecord
  2
Default - mm (ANSI)
 70
     0
 40
0.2
 41
0.0984251946210861
 42
0.063
 43
0.2362204724409449
 44
0.125
 45
0.00000001
 46
0.3937007874015748
 73
     0
140
0.1200000047683716
143
1.0
144
25.4
147
0.031496062992126
171
     1
176
   256
177
   256
178
   256
179
     1
271
     2
272
     2
274
     1
340
9A
371
    -1
372
    -1
  0
DIMSTYLE
105
A3
330
A
100
AcDbSymbolTableRecord
100
AcDbDimStyleTableRecord
  2
Default - mm (ANSI)$7
 70
     0
 40
0.2
 41
0.0984251946210861
 42
0.063
 43
0.2362204724409449
 44
0.125
 45
0.00000001
 46
0.3937007874015748
 73
     0
140
0.1200000047683716
143
1.0
144
25.4
147
0.031496062992126
171
     1
176
   256
177
   256
178
   256
179
     1
271
     2
272
     2
274
     1
340
9A
371
    -1
372
    -1
  0
DIMSTYLE
105
A4
330
A
100
AcDbSymbolTableRecord
100
AcDbDimStyleTableRecord
  2
Default - mm [in] (ANSI)
 70
     0
  4
 in
 40
0.2
 41
0.0984251946210861
 42
0.063
 43
0.25
 44
0.125
 45
0.00000001
 46
0.3937007874015748
 73
     0
 78
     4
 79
     1
140
0.1200000047683716
143
0.03937
144
25.4
147
0.031496062992126
170
     1
171
     3
176
   256
177
   256
178
   256
179
     1
271
     2
272
     2
274
     3
284
     4
286
     4
340
9A
371
    -1
372
    -1
  0
DIMSTYLE
105
A5
330
A
100
AcDbSymbolTableRecord
100
AcDbDimStyleTableRecord
  2
Default - mm [in] (ANSI)$7
 70
     0
  4
 in
 40
0.2
 41
0.0984251946210861
 42
0.063
 43
0.25
 44
0.125
 45
0.00000001
 46
0.3937007874015748
 73
     0
 78
     4
 79
     1
140
0.1200000047683716
143
0.03937
144
25.4
147
0.031496062992126
170
     1
171
     3
176
   256
177
   256
178
   256
179
     1
271
     2
272
     2
274
     3
284
     4
286
     4
340
9A
371
    -1
372
    -1
  0
DIMSTYLE
105
A6
102
{ACAD_REACTORS
330
129
330
20A
330
2D6
330
3B6
330
44D
330
4E6
102
}
330
A
100
AcDbSymbolTableRecord
100
AcDbDimStyleTableRecord
  2
Default (ANSI)
 70
     0
  3
 in
 40
0.2
 41
0.0984251946210861
 42
0.0625
 43
0.2362204724409449
 44
0.125
 45
0.00000001
 46
0.3937007874015748
140
0.1200000047683716
147
0.031496062992126
171
     1
176
   256
177
   256
178
   256
271
     3
272
     3
274
     1
340
9A
371
    -1
372
    -1
  0
DIMSTYLE
105
A7
330
A
100
AcDbSymbolTableRecord
100
AcDbDimStyleTableRecord
  2
Default (ANSI)$7
 70
     0
  3
 in
 40
0.2
 41
0.0984251946210861
 42
0.0625
 43
0.2362204724409449
 44
0.125
 45
0.00000001
 46
0.3937007874015748
140
0.1200000047683716
147
0.031496062992126
171
     1
176
   256
177
   256
178
   256
271
     3
272
     3
274
     1
340
9A
371
    -1
372
    -1
  0
DIMSTYLE
105
B6
330
A
100
AcDbSymbolTableRecord
100
AcDbDimStyleTableRecord
  2
Miscellaneous Object (ANSI)
 70
     0
  3
 in
 40
0.2
 41
0.1968503892421722
 42
0.0625
 43
0.2362204724409449
 44
0.125
 45
0.00000001
 46
0.3937007874015748
140
0.1799999922513962
146
0.666666721856155
147
0.031496062992126
171
     1
176
   256
177
   256
178
   256
271
     3
272
     2
274
     1
340
96
341
A8
371
    -1
372
    -1
  0
DIMSTYLE
105
B7
330
A
100
AcDbSymbolTableRecord
100
AcDbDimStyleTableRecord
  2
Miscellaneous Object (ANSI)$7
 70
     0
  3
 in
 40
0.2
 41
0.1959999948740005
 42
0.0625
 43
0.2362204724409449
 44
0.125
 45
0.00000001
 46
0.3937007874015748
140
0.1799999922513962
146
0.666666721856155
147
0.031496062992126
171
     1
176
   256
177
   256
178
   256
271
     3
272
     2
274
     1
340
96
341
A8
371
    -1
372
    -1
  0
DIMSTYLE
105
B8
330
A
100
AcDbSymbolTableRecord
100
AcDbDimStyleTableRecord
  2
Alternate (ANSI)
 70
     0
 40
0.2
 41
0.0979999974370003
340
26
342
B9
  0
DIMSTYLE
105
CA
330
A
100
AcDbSymbolTableRecord
100
AcDbDimStyleTableRecord
  2
Datum (ANSI)
 70
     0
 40
0.2
 41
0.0979999974370003
340
26
342
B9
  0
ENDTAB
  0
TABLE
  2
BLOCK_RECORD
  5
1
330
0
100
AcDbSymbolTable
 70
    15
  0
BLOCK_RECORD
  5
37
330
1
100
AcDbSymbolTableRecord
100
AcDbBlockTableRecord
  2
*Model_Space
340
3A
  0
BLOCK_RECORD
  5
33
330
1
100
AcDbSymbolTableRecord
100
AcDbBlockTableRecord
  2
*Paper_Space
340
36
  0
BLOCK_RECORD
  5
3B
330
1
100
AcDbSymbolTableRecord
100
AcDbBlockTableRecord
  2
*Paper_Space0
340
3E
  0
BLOCK_RECORD
  5
A8
330
1
100
AcDbSymbolTableRecord
100
AcDbBlockTableRecord
  2
Filled-1
340
0
  0
BLOCK_RECORD
  5
B9
330
1
100
AcDbSymbolTableRecord
100
AcDbBlockTableRecord
  2
_Closed
340
0
  0
BLOCK_RECORD
  5
C0
330
1
100
AcDbSymbolTableRecord
100
AcDbBlockTableRecord
  2
DatumFilled45
340
0
  0
BLOCK_RECORD
  5
CB
330
1
100
AcDbSymbolTableRecord
100
AcDbBlockTableRecord
  2
Borders Default Border
340
0
102
{BLKREFS
331
FC
102
}
  0
BLOCK_RECORD
  5
12B
330
1
100
AcDbSymbolTableRecord
100
AcDbBlockTableRecord
  2
*D5
340
0
  0
BLOCK_RECORD
  5
20B
330
1
100
AcDbSymbolTableRecord
100
AcDbBlockTableRecord
  2
*D6
340
0
  0
BLOCK_RECORD
  5
2D7
330
1
100
AcDbSymbolTableRecord
100
AcDbBlockTableRecord
  2
*D7
340
0
  0
BLOCK_RECORD
  5
3B7
330
1
100
AcDbSymbolTableRecord
100
AcDbBlockTableRecord
  2
*D8
340
0
  0
BLOCK_RECORD
  5
44E
330
1
100
AcDbSymbolTableRecord
100
AcDbBlockTableRecord
  2
*D9
340
0
  0
BLOCK_RECORD
  5
4E7
330
1
100
AcDbSymbolTableRecord
100
AcDbBlockTableRecord
  2
*D10
340
0
  0
BLOCK_RECORD
  5
5D6
330
1
100
AcDbSymbolTableRecord
100
AcDbBlockTableRecord
  2
Origin Indicator Symbol4
340
0
102
{BLKREFS
331
5FC
102
}
  0
BLOCK_RECORD
  5
5FD
330
1
100
AcDbSymbolTableRecord
100
AcDbBlockTableRecord
  2
Hole Table4
340
0
102
{BLKREFS
331
642
102
}
  0
BLOCK_RECORD
  5
643
330
1
100
AcDbSymbolTableRecord
100
AcDbBlockTableRecord
  2
Leader Text14
340
0
102
{BLKREFS
331
654
102
}
  0
BLOCK_RECORD
  5
655
330
1
100
AcDbSymbolTableRecord
100
AcDbBlockTableRecord
  2
Leader Text15
340
0
102
{BLKREFS
331
666
102
}
  0
ENDTAB
  0
ENDSEC
  0
SECTION
  2
BLOCKS
  0
BLOCK
  5
38
330
37
100
AcDbEntity
  8
0
100
AcDbBlockBegin
  2
*Model_Space
 70
     0
 10
0.0
 20
0.0
 30
0.0
  3
*Model_Space
  1

  0
ENDBLK
  5
39
330
37
100
AcDbEntity
  8
0
100
AcDbBlockEnd
  0
BLOCK
  5
34
330
33
100
AcDbEntity
 67
     1
  8
0
100
AcDbBlockBegin
  2
*Paper_Space
 70
     0
 10
0.0
 20
0.0
 30
0.0
  3
*Paper_Space
  1

  0
ENDBLK
  5
35
330
33
100
AcDbEntity
 67
     1
  8
0
100
AcDbBlockEnd
  0
BLOCK
  5
3C
330
3B
100
AcDbEntity
 67
     1
  8
0
100
AcDbBlockBegin
  2
*Paper_Space0
 70
     0
 10
0.0
 20
0.0
 30
0.0
  3
*Paper_Space0
  1

  0
ENDBLK
  5
3D
330
3B
100
AcDbEntity
 67
     1
  8
0
100
AcDbBlockEnd
  0
BLOCK
  5
A9
330
A8
100
AcDbEntity
  8
0
100
AcDbBlockBegin
  2
Filled-1
 70
     0
 10
0.0
 20
0.0
 30
0.0
  3
Filled-1
  1

  0
LINE
  5
AB
330
A8
100
AcDbEntity
  8
0
 62
     0
100
AcDbLine
 10
-0.9999999999999998
 20
0.0
 30
0.0
 11
0.0
 21
0.0
 31
0.0
  0
POLYLINE
  5
AC
330
A8
100
AcDbEntity
  8
0
 62
     0
100
AcDb2dPolyline
 66
     1
 10
0.0
 20
0.0
 30
0.0
 70
   128
  0
VERTEX
  5
AD
330
AC
100
AcDbEntity
  8
0
 62
     0
100
AcDbVertex
100
AcDb2dVertex
 10
-0.9999999999999998
 20
-0.0994897959183674
 30
0.0
  0
VERTEX
  5
AE
330
AC
100
AcDbEntity
  8
0
 62
     0
100
AcDbVertex
100
AcDb2dVertex
 10
0.0
 20
0.0
 30
0.0
  0
VERTEX
  5
B0
330
AC
100
AcDbEntity
  8
0
 62
     0
100
AcDbVertex
100
AcDb2dVertex
 10
-0.9999999999999998
 20
0.0994897959183674
 30
0.0
  0
VERTEX
  5
B1
330
AC
100
AcDbEntity
  8
0
 62
     0
100
AcDbVertex
100
AcDb2dVertex
 10
-0.9999999999999998
 20
-0.0994897959183674
 30
0.0
  0
SEQEND
  5
AF
330
AC
100
AcDbEntity
  8
0
 62
     0
  0
SOLID
  5
B2
330
A8
100
AcDbEntity
  8
0
 62
     0
100
AcDbTrace
 10
-0.9999999999999998
 20
-0.0994897959183674
 30
0.0
 11
0.0
 21
0.0
 31
0.0
 12
-0.9999999999999998
 22
0.0994897959183674
 32
0.0
 13
-0.9999999999999998
 23
-0.0994897959183674
 33
0.0
  0
LINE
  5
B3
330
A8
100
AcDbEntity
  8
0
 62
     0
100
AcDbLine
 10
-0.9999999999999998
 20
-0.0994897959183674
 30
0.0
 11
0.0
 21
0.0
 31
0.0
  0
LINE
  5
B4
330
A8
100
AcDbEntity
  8
0
 62
     0
100
AcDbLine
 10
0.0
 20
0.0
 30
0.0
 11
-0.9999999999999998
 21
0.0994897959183674
 31
0.0
  0
LINE
  5
B5
330
A8
100
AcDbEntity
  8
0
 62
     0
100
AcDbLine
 10
-0.9999999999999998
 20
0.0994897959183674
 30
0.0
 11
-0.9999999999999998
 21
-0.0994897959183674
 31
0.0
  0
ENDBLK
  5
AA
330
A8
100
AcDbEntity
  8
0
100
AcDbBlockEnd
  0
BLOCK
  5
BE
330
B9
100
AcDbEntity
  8
0
100
AcDbBlockBegin
  2
_Closed
 70
     0
 10
0.0
 20
0.0
 30
0.0
  3
_Closed
  1

  0
LINE
  5
BA
330
B9
100
AcDbEntity
  8
0
  6
ByBlock
 62
     0
370
    -2
100
AcDbLine
 10
-1.0
 20
0.1666666666666666
 30
0.0
 11
0.0
 21
0.0
 31
0.0
  0
LINE
  5
BB
330
B9
100
AcDbEntity
  8
0
  6
ByBlock
 62
     0
370
    -2
100
AcDbLine
 10
0.0
 20
0.0
 30
0.0
 11
-1.0
 21
-0.1666666666666666
 31
0.0
  0
LINE
  5
BC
330
B9
100
AcDbEntity
  8
0
  6
ByBlock
 62
     0
370
    -2
100
AcDbLine
 10
-1.0
 20
0.1666666666666666
 30
0.0
 11
-1.0
 21
-0.1666666666666666
 31
0.0
  0
LINE
  5
BD
330
B9
100
AcDbEntity
  8
0
  6
ByBlock
 62
     0
370
    -2
100
AcDbLine
 10
0.0
 20
0.0
 30
0.0
 11
-1.0
 21
0.0
 31
0.0
  0
ENDBLK
  5
BF
330
B9
100
AcDbEntity
  8
0
100
AcDbBlockEnd
  0
BLOCK
  5
C1
330
C0
100
AcDbEntity
  8
0
100
AcDbBlockBegin
  2
DatumFilled45
 70
     0
 10
0.0
 20
0.0
 30
0.0
  3
DatumFilled45
  1

  0
POLYLINE
  5
C3
330
C0
100
AcDbEntity
  8
0
 62
     0
100
AcDb2dPolyline
 66
     1
 10
0.0
 20
0.0
 30
0.0
 70
   128
  0
VERTEX
  5
C4
330
C3
100
AcDbEntity
  8
0
 62
     0
100
AcDbVertex
100
AcDb2dVertex
 10
0.0
 20
0.9999999999999998
 30
0.0
  0
VERTEX
  5
C5
330
C3
100
AcDbEntity
  8
0
 62
     0
100
AcDbVertex
100
AcDb2dVertex
 10
0.0
 20
-0.9999999999999998
 30
0.0
  0
VERTEX
  5
C7
330
C3
100
AcDbEntity
  8
0
 62
     0
100
AcDbVertex
100
AcDb2dVertex
 10
-0.9999999999999998
 20
0.0
 30
0.0
  0
VERTEX
  5
C8
330
C3
100
AcDbEntity
  8
0
 62
     0
100
AcDbVertex
100
AcDb2dVertex
 10
0.0
 20
0.9999999999999998
 30
0.0
  0
SEQEND
  5
C6
330
C3
100
AcDbEntity
  8
0
 62
     0
  0
SOLID
  5
C9
330
C0
100
AcDbEntity
  8
0
 62
     0
100
AcDbTrace
 10
0.0
 20
0.9999999999999998
 30
0.0
 11
0.0
 21
-0.9999999999999998
 31
0.0
 12
-0.9999999999999998
 22
0.0
 32
0.0
 13
0.0
 23
0.9999999999999998
 33
0.0
  0
ENDBLK
  5
C2
330
C0
100
AcDbEntity
  8
0
100
AcDbBlockEnd
  0
BLOCK
  5
CC
330
CB
100
AcDbEntity
  8
0
100
AcDbBlockBegin
  2
Borders Default Border
 70
     0
 10
0.0
 20
0.0
 30
0.0
  3
Borders Default Border
  1

  0
POLYLINE
  5
CE
330
CB
100
AcDbEntity
  8
Border (ANSI)
100
AcDb2dPolyline
 66
     1
 10
0.0
 20
0.0
 30
0.0
 70
   128
  0
VERTEX
  5
CF
330
CE
100
AcDbEntity
  8
Border (ANSI)
100
AcDbVertex
100
AcDb2dVertex
 10
0.380000002740875
 20
0.380000002740875
 30
0.0
  0
VERTEX
  5
D0
330
CE
100
AcDbEntity
  8
Border (ANSI)
100
AcDbVertex
100
AcDb2dVertex
 10
0.380000002740875
 20
8.119999893068328
 30
0.0
  0
VERTEX
  5
D2
330
CE
100
AcDbEntity
  8
Border (ANSI)
100
AcDbVertex
100
AcDb2dVertex
 10
10.62000004325326
 20
8.119999893068328
 30
0.0
  0
VERTEX
  5
D3
330
CE
100
AcDbEntity
  8
Border (ANSI)
100
AcDbVertex
100
AcDb2dVertex
 10
10.62000004325326
 20
0.380000002740875
 30
0.0
  0
VERTEX
  5
D4
330
CE
100
AcDbEntity
  8
Border (ANSI)
100
AcDbVertex
100
AcDb2dVertex
 10
0.380000002740875
 20
0.380000002740875
 30
0.0
  0
SEQEND
  5
D1
330
CE
100
AcDbEntity
  8
Border (ANSI)
  0
POLYLINE
  5
D5
330
CB
100
AcDbEntity
  8
Border (ANSI)
100
AcDb2dPolyline
 66
     1
 10
0.0
 20
0.0
 30
0.0
 70
   128
  0
VERTEX
  5
D6
330
D5
100
AcDbEntity
  8
Border (ANSI)
100
AcDbVertex
100
AcDb2dVertex
 10
5.500000105129451
 20
0.1299999947623005
 30
0.0
  0
VERTEX
  5
D7
330
D5
100
AcDbEntity
  8
Border (ANSI)
100
AcDbVertex
100
AcDb2dVertex
 10
5.500000105129451
 20
0.380000002740875
 30
0.0
  0
VERTEX
  5
D9
330
D5
100
AcDbEntity
  8
Border (ANSI)
100
AcDbVertex
100
AcDb2dVertex
 10
5.413397466103861
 20
0.2300000096869281
 30
0.0
  0
VERTEX
  5
DA
330
D5
100
AcDbEntity
  8
Border (ANSI)
100
AcDbVertex
100
AcDb2dVertex
 10
5.586602368692712
 20
0.2300000096869281
 30
0.0
  0
VERTEX
  5
DB
330
D5
100
AcDbEntity
  8
Border (ANSI)
100
AcDbVertex
100
AcDb2dVertex
 10
5.500000105129451
 20
0.380000002740875
 30
0.0
  0
SEQEND
  5
D8
330
D5
100
AcDbEntity
  8
Border (ANSI)
  0
POLYLINE
  5
DC
330
CB
100
AcDbEntity
  8
Border (ANSI)
100
AcDb2dPolyline
 66
     1
 10
0.0
 20
0.0
 30
0.0
 70
   128
  0
VERTEX
  5
DD
330
DC
100
AcDbEntity
  8
Border (ANSI)
100
AcDbVertex
100
AcDb2dVertex
 10
5.500000105129451
 20
8.369999983179287
 30
0.0
  0
VERTEX
  5
DE
330
DC
100
AcDbEntity
  8
Border (ANSI)
100
AcDbVertex
100
AcDb2dVertex
 10
5.500000105129451
 20
8.119999893068328
 30
0.0
  0
VERTEX
  5
E0
330
DC
100
AcDbEntity
  8
Border (ANSI)
100
AcDbVertex
100
AcDb2dVertex
 10
5.413397466103861
 20
8.270000097319835
 30
0.0
  0
VERTEX
  5
E1
330
DC
100
AcDbEntity
  8
Border (ANSI)
100
AcDbVertex
100
AcDb2dVertex
 10
5.586602368692712
 20
8.270000097319835
 30
0.0
  0
VERTEX
  5
E2
330
DC
100
AcDbEntity
  8
Border (ANSI)
100
AcDbVertex
100
AcDb2dVertex
 10
5.500000105129451
 20
8.119999893068328
 30
0.0
  0
SEQEND
  5
DF
330
DC
100
AcDbEntity
  8
Border (ANSI)
  0
POLYLINE
  5
E3
330
CB
100
AcDbEntity
  8
Border (ANSI)
100
AcDb2dPolyline
 66
     1
 10
0.0
 20
0.0
 30
0.0
 70
   128
  0
VERTEX
  5
E4
330
E3
100
AcDbEntity
  8
Border (ANSI)
100
AcDbVertex
100
AcDb2dVertex
 10
0.1299999947623005
 20
4.250000030036986
 30
0.0
  0
VERTEX
  5
E5
330
E3
100
AcDbEntity
  8
Border (ANSI)
100
AcDbVertex
100
AcDb2dVertex
 10
0.380000002740875
 20
4.250000030036986
 30
0.0
  0
VERTEX
  5
E7
330
E3
100
AcDbEntity
  8
Border (ANSI)
100
AcDbVertex
100
AcDb2dVertex
 10
0.2300000096869281
 20
4.336602669062576
 30
0.0
  0
VERTEX
  5
E8
330
E3
100
AcDbEntity
  8
Border (ANSI)
100
AcDbVertex
100
AcDb2dVertex
 10
0.2300000096869281
 20
4.163397391011395
 30
0.0
  0
VERTEX
  5
E9
330
E3
100
AcDbEntity
  8
Border (ANSI)
100
AcDbVertex
100
AcDb2dVertex
 10
0.380000002740875
 20
4.250000030036986
 30
0.0
  0
SEQEND
  5
E6
330
E3
100
AcDbEntity
  8
Border (ANSI)
  0
POLYLINE
  5
EA
330
CB
100
AcDbEntity
  8
Border (ANSI)
100
AcDb2dPolyline
 66
     1
 10
0.0
 20
0.0
 30
0.0
 70
   128
  0
VERTEX
  5
EB
330
EA
100
AcDbEntity
  8
Border (ANSI)
100
AcDbVertex
100
AcDb2dVertex
 10
10.87000013336422
 20
4.250000030036986
 30
0.0
  0
VERTEX
  5
EC
330
EA
100
AcDbEntity
  8
Border (ANSI)
100
AcDbVertex
100
AcDb2dVertex
 10
10.62000004325326
 20
4.250000030036986
 30
0.0
  0
VERTEX
  5
EE
330
EA
100
AcDbEntity
  8
Border (ANSI)
100
AcDbVertex
100
AcDb2dVertex
 10
10.77000024750476
 20
4.336602669062576
 30
0.0
  0
VERTEX
  5
EF
330
EA
100
AcDbEntity
  8
Border (ANSI)
100
AcDbVertex
100
AcDb2dVertex
 10
10.77000024750476
 20
4.163397391011395
 30
0.0
  0
VERTEX
  5
F0
330
EA
100
AcDbEntity
  8
Border (ANSI)
100
AcDbVertex
100
AcDb2dVertex
 10
10.62000004325326
 20
4.250000030036986
 30
0.0
  0
SEQEND
  5
ED
330
EA
100
AcDbEntity
  8
Border (ANSI)
  0
MTEXT
  5
F2
330
CB
100
AcDbEntity
  8
Border (ANSI)
100
AcDbMText
 10
8.24092395498058
 20
8.16
 30
0.0
 40
0.1200000014830762
 41
0.0
 71
     7
 72
     1
  1
1
  7
Text Style29
 73
     1
 44
2.927434206008911
1001
ACAD
1000
MTEXTBEGIN
1070
    73
1070
     1
1070
    44
1040
2.927434206008911
1070
    74
1070
     0
1000
MTEXTEND
  0
MTEXT
  5
F5
330
CB
100
AcDbEntity
  8
Border (ANSI)
100
AcDbMText
 10
8.24092395498058
 20
0.2199999985169238
 30
0.0
 40
0.1200000014830762
 41
0.0
 71
     7
 72
     1
  1
1
  7
Text Style29
 73
     1
 44
1.0
1001
ACAD
1000
MTEXTBEGIN
1070
    73
1070
     1
1070
    44
1040
1.0
1070
    74
1070
     0
1000
MTEXTEND
  0
MTEXT
  5
F6
330
CB
100
AcDbEntity
  8
Border (ANSI)
100
AcDbMText
 10
2.722276993858532
 20
8.16
 30
0.0
 40
0.1200000014830762
 41
0.0
 71
     7
 72
     1
  1
2
  7
Text Style29
 73
     1
 44
1.0
1001
ACAD
1000
MTEXTBEGIN
1070
    73
1070
     1
1070
    44
1040
1.0
1070
    74
1070
     0
1000
MTEXTEND
  0
MTEXT
  5
F7
330
CB
100
AcDbEntity
  8
Border (ANSI)
100
AcDbMText
 10
2.722276993858532
 20
0.2199999985169238
 30
0.0
 40
0.1200000014830762
 41
0.0
 71
     7
 72
     1
  1
2
  7
Text Style29
 73
     1
 44
1.0
1001
ACAD
1000
MTEXTBEGIN
1070
    73
1070
     1
1070
    44
1040
1.0
1070
    74
1070
     0
1000
MTEXTEND
  0
MTEXT
  5
F8
330
CB
100
AcDbEntity
  8
Border (ANSI)
100
AcDbMText
 10
0.2281865791448458
 20
2.064999999258461
 30
0.0
 40
0.1200000014830762
 41
0.0
 71
     7
 72
     1
  1
A
  7
Text Style29
 73
     1
 44
1.0
1001
ACAD
1000
MTEXTBEGIN
1070
    73
1070
     1
1070
    44
1040
1.0
1070
    74
1070
     0
1000
MTEXTEND
  0
MTEXT
  5
F9
330
CB
100
AcDbEntity
  8
Border (ANSI)
100
AcDbMText
 10
10.66818658062792
 20
2.064999999258461
 30
0.0
 40
0.1200000014830762
 41
0.0
 71
     7
 72
     1
  1
A
  7
Text Style29
 73
     1
 44
1.811805725097656
1001
ACAD
1000
MTEXTBEGIN
1070
    73
1070
     1
1070
    44
1040
1.811805725097656
1070
    74
1070
     0
1000
MTEXTEND
  0
MTEXT
  5
FA
330
CB
100
AcDbEntity
  8
Border (ANSI)
100
AcDbMText
 10
0.2554072225563169
 20
6.314999999258461
 30
0.0
 40
0.1200000014830762
 41
0.0
 71
     7
 72
     1
  1
B
  7
Text Style29
 73
     1
 44
1.0
1001
ACAD
1000
MTEXTBEGIN
1070
    73
1070
     1
1070
    44
1040
1.0
1070
    74
1070
     0
1000
MTEXTEND
  0
MTEXT
  5
FB
330
CB
100
AcDbEntity
  8
Border (ANSI)
100
AcDbMText
 10
10.69540722403939
 20
6.314999999258461
 30
0.0
 40
0.1200000014830762
 41
0.0
 71
     7
 72
     1
  1
B
  7
Text Style29
 73
     1
 44
1.821098923683166
1001
ACAD
1000
MTEXTBEGIN
1070
    73
1070
     1
1070
    44
1040
1.821098923683166
1070
    74
1070
     0
1000
MTEXTEND
  0
ENDBLK
  5
CD
330
CB
100
AcDbEntity
  8
0
100
AcDbBlockEnd
  0
BLOCK
  5
136
330
12B
100
AcDbEntity
  8
0
100
AcDbBlockBegin
  2
*D5
 70
     1
 10
0.0
 20
0.0
 30
0.0
  3
*D5
  1

  0
LINE
  5
200
330
12B
100
AcDbEntity
  8
Dimension (ANSI)
100
AcDbLine
 10
1.147797487998978
 20
1.037135552581128
 30
0.0
 11
1.147797487998978
 21
1.108305657107866
 31
0.0
  0
LINE
  5
201
330
12B
100
AcDbEntity
  8
Dimension (ANSI)
100
AcDbLine
 10
1.108847487998926
 20
0.9371355525810065
 30
0.0
 11
1.108847487998926
 21
1.108305657107866
 31
0.0
  0
LINE
  5
202
330
12B
100
AcDbEntity
  8
Dimension (ANSI)
100
AcDbLine
 10
1.167482526923195
 20
1.083305657107866
 30
0.0
 11
1.187167565847412
 21
1.083305657107866
 31
0.0
  0
LINE
  5
203
330
12B
100
AcDbEntity
  8
Dimension (ANSI)
100
AcDbLine
 10
1.089162449074709
 20
1.083305657107866
 30
0.0
 11
1.062168820653619
 21
1.083305657107866
 31
0.0
  0
SOLID
  5
204
330
12B
100
AcDbEntity
  8
Dimension (ANSI)
100
AcDbTrace
 10
1.167482526923195
 20
1.086586496928569
 30
0.0
 11
1.167482526923195
 21
1.080024817287163
 31
0.0
 12
1.147797487998978
 22
1.083305657107866
 32
0.0
 13
1.147797487998978
 23
1.083305657107866
 33
0.0
  0
SOLID
  5
205
330
12B
100
AcDbEntity
  8
Dimension (ANSI)
100
AcDbTrace
 10
1.089162449074709
 20
1.086586496928569
 30
0.0
 11
1.089162449074709
 21
1.080024817287163
 31
0.0
 12
1.108847487998926
 22
1.083305657107866
 32
0.0
 13
1.108847487998926
 23
1.083305657107866
 33
0.0
  0
MTEXT
  5
206
330
12B
100
AcDbEntity
  8
Dimension (ANSI)
100
AcDbMText
 10
0.9409307183301089
 20
1.095805321808722
 30
0.0
 40
0.0240000009536743
 41
0.0
 71
     1
 72
     1
  1
\A1;0.039 in
  7
Note Text (ANSI)
 73
     1
 44
1.0
1001
ACAD
1000
MTEXTBEGIN
1070
    73
1070
     1
1070
    44
1040
1.0
1070
    74
1070
     0
1000
MTEXTEND
  0
POINT
  5
207
330
12B
100
AcDbEntity
  8
Defpoints
 62
     0
100
AcDbPoint
 10
1.147797487998978
 20
1.024635552581128
 30
0.0
  0
POINT
  5
208
330
12B
100
AcDbEntity
  8
Defpoints
 62
     0
100
AcDbPoint
 10
1.108847487998926
 20
0.9246355525810066
 30
0.0
  0
POINT
  5
209
330
12B
100
AcDbEntity
  8
Defpoints
 62
     0
100
AcDbPoint
 10
1.108847487998926
 20
1.083305657107866
 30
0.0
  0
ENDBLK
  5
137
330
12B
100
AcDbEntity
  8
0
100
AcDbBlockEnd
  0
BLOCK
  5
216
330
20B
100
AcDbEntity
  8
0
100
AcDbBlockBegin
  2
*D6
 70
     1
 10
0.0
 20
0.0
 30
0.0
  3
*D6
  1

  0
LINE
  5
2CC
330
20B
100
AcDbEntity
  8
Dimension (ANSI)
100
AcDbLine
 10
1.160297487998978
 20
1.024635552581128
 30
0.0
 11
1.340120322644647
 21
1.024635552581128
 31
0.0
  0
LINE
  5
2CD
330
20B
100
AcDbEntity
  8
Dimension (ANSI)
100
AcDbLine
 10
1.121347487998926
 20
0.9246355525810066
 30
0.0
 11
1.340120322644647
 21
0.9246355525810065
 31
0.0
  0
LINE
  5
2CE
330
20B
100
AcDbEntity
  8
Dimension (ANSI)
100
AcDbLine
 10
1.315120322644647
 20
1.004950513656911
 30
0.0
 11
1.315120322644647
 21
0.9986469581730805
 31
0.0
  0
LINE
  5
2CF
330
20B
100
AcDbEntity
  8
Dimension (ANSI)
100
AcDbLine
 10
1.315120322644647
 20
0.9443205915052237
 30
0.0
 11
1.315120322644647
 21
0.9610653217752929
 31
0.0
  0
SOLID
  5
2D0
330
20B
100
AcDbEntity
  8
Dimension (ANSI)
100
AcDbTrace
 10
1.311839482823944
 20
1.004950513656911
 30
0.0
 11
1.31840116246535
 21
1.004950513656911
 31
0.0
 12
1.315120322644647
 22
1.024635552581128
 32
0.0
 13
1.315120322644647
 23
1.024635552581128
 33
0.0
  0
SOLID
  5
2D1
330
20B
100
AcDbEntity
  8
Dimension (ANSI)
100
AcDbTrace
 10
1.311839482823944
 20
0.9443205915052237
 30
0.0
 11
1.31840116246535
 21
0.9443205915052237
 31
0.0
 12
1.315120322644647
 22
0.9246355525810065
 32
0.0
 13
1.315120322644647
 23
0.9246355525810065
 33
0.0
  0
MTEXT
  5
2D2
330
20B
100
AcDbEntity
  8
Dimension (ANSI)
100
AcDbMText
 10
1.257650877782104
 20
0.9923477455746553
 30
0.0
 40
0.0240000009536743
 41
0.0
 71
     1
 72
     1
  1
\A1;0.100 in
  7
Note Text (ANSI)
 73
     1
 44
1.0
1001
ACAD
1000
MTEXTBEGIN
1070
    73
1070
     1
1070
    44
1040
1.0
1070
    74
1070
     0
1000
MTEXTEND
  0
POINT
  5
2D3
330
20B
100
AcDbEntity
  8
Defpoints
 62
     0
100
AcDbPoint
 10
1.147797487998978
 20
1.024635552581128
 30
0.0
  0
POINT
  5
2D4
330
20B
100
AcDbEntity
  8
Defpoints
 62
     0
100
AcDbPoint
 10
1.108847487998926
 20
0.9246355525810066
 30
0.0
  0
POINT
  5
2D5
330
20B
100
AcDbEntity
  8
Defpoints
 62
     0
100
AcDbPoint
 10
1.315120322644647
 20
0.9246355525810065
 30
0.0
  0
ENDBLK
  5
217
330
20B
100
AcDbEntity
  8
0
100
AcDbBlockEnd
  0
BLOCK
  5
2E2
330
2D7
100
AcDbEntity
  8
0
100
AcDbBlockBegin
  2
*D7
 70
     1
 10
0.0
 20
0.0
 30
0.0
  3
*D7
  1

  0
LINE
  5
3AC
330
2D7
100
AcDbEntity
  8
Dimension (ANSI)
100
AcDbLine
 10
1.068847487998878
 20
1.062135552581128
 30
0.0
 11
1.068847487998878
 21
1.153375710061443
 31
0.0
  0
LINE
  5
3AD
330
2D7
100
AcDbEntity
  8
Dimension (ANSI)
100
AcDbLine
 10
1.148847487998976
 20
1.073320033177648
 30
0.0
 11
1.148847487998976
 21
1.153375710061443
 31
0.0
  0
LINE
  5
3AE
330
2D7
100
AcDbEntity
  8
Dimension (ANSI)
100
AcDbLine
 10
1.129162449074759
 20
1.128375710061443
 30
0.0
 11
1.088532526923095
 21
1.128375710061443
 31
0.0
  0
LINE
  5
3AF
330
2D7
100
AcDbEntity
  8
Dimension (ANSI)
100
AcDbLine
 10
1.068847487998878
 20
1.128375710061443
 30
0.0
 11
1.049162449074661
 21
1.128375710061443
 31
0.0
  0
SOLID
  5
3B0
330
2D7
100
AcDbEntity
  8
Dimension (ANSI)
100
AcDbTrace
 10
1.129162449074759
 20
1.131656549882146
 30
0.0
 11
1.129162449074759
 21
1.12509487024074
 31
0.0
 12
1.148847487998976
 22
1.128375710061443
 32
0.0
 13
1.148847487998976
 23
1.128375710061443
 33
0.0
  0
SOLID
  5
3B1
330
2D7
100
AcDbEntity
  8
Dimension (ANSI)
100
AcDbTrace
 10
1.088532526923095
 20
1.131656549882146
 30
0.0
 11
1.088532526923095
 21
1.12509487024074
 31
0.0
 12
1.068847487998878
 22
1.128375710061443
 32
0.0
 13
1.068847487998878
 23
1.128375710061443
 33
0.0
  0
MTEXT
  5
3B2
330
2D7
100
AcDbEntity
  8
Dimension (ANSI)
100
AcDbMText
 10
0.9279243467511513
 20
1.140923729364624
 30
0.0
 40
0.0240000009536743
 41
0.0
 71
     1
 72
     1
  1
\A1;0.080 in
  7
Note Text (ANSI)
 73
     1
 44
1.0
1001
ACAD
1000
MTEXTBEGIN
1070
    73
1070
     1
1070
    44
1040
1.0
1070
    74
1070
     0
1000
MTEXTEND
  0
POINT
  5
3B3
330
2D7
100
AcDbEntity
  8
Defpoints
 62
     0
100
AcDbPoint
 10
1.068847487998878
 20
1.049635552581128
 30
0.0
  0
POINT
  5
3B4
330
2D7
100
AcDbEntity
  8
Defpoints
 62
     0
100
AcDbPoint
 10
1.148847487998976
 20
1.060820033177648
 30
0.0
  0
POINT
  5
3B5
330
2D7
100
AcDbEntity
  8
Defpoints
 62
     0
100
AcDbPoint
 10
1.148847487998976
 20
1.128375710061443
 30
0.0
  0
ENDBLK
  5
2E3
330
2D7
100
AcDbEntity
  8
0
100
AcDbBlockEnd
  0
BLOCK
  5
3BD
330
3B7
100
AcDbEntity
  8
0
100
AcDbBlockBegin
  2
*D8
 70
     1
 10
0.0
 20
0.0
 30
0.0
  3
*D8
  1

  0
LINE
  5
447
330
3B7
100
AcDbEntity
  8
Dimension (ANSI)
100
AcDbLine
 10
1.02734198204265
 20
0.828213845446201
 30
0.0
 11
1.053178389428897
 21
0.8282138454462012
 31
0.0
  0
LINE
  5
448
330
3B7
100
AcDbEntity
  8
Dimension (ANSI)
100
AcDbLine
 10
1.053178389428897
 20
0.8282138454462012
 30
0.0
 11
1.08362996853679
 21
0.8809575276317499
 31
0.0
  0
MTEXT
  5
449
330
3B7
100
AcDbEntity
  8
Dimension (ANSI)
100
AcDbMText
 10
0.8686935357208342
 20
0.8407618647493814
 30
0.0
 40
0.0240000009536743
 41
0.0
 71
     1
 72
     1
  1
\A1;R0.0308 in
  7
Note Text (ANSI)
 73
     1
 44
1.0
1001
ACAD
1000
MTEXTBEGIN
1070
    73
1070
     1
1070
    44
1040
1.0
1070
    74
1070
     0
1000
MTEXTEND
  0
SOLID
  5
44A
330
3B7
100
AcDbEntity
  8
Dimension (ANSI)
100
AcDbTrace
 10
1.080788677906314
 20
0.882597947542102
 30
0.0
 11
1.086471259167266
 21
0.879317107721398
 31
0.0
 12
1.093472487998902
 22
0.8980052714146054
 32
0.0
 13
1.093472487998902
 23
0.8980052714146054
 33
0.0
  0
POINT
  5
44B
330
3B7
100
AcDbEntity
  8
Defpoints
 62
     0
100
AcDbPoint
 10
1.093472487998902
 20
0.8980052714146054
 30
0.0
  0
POINT
  5
44C
330
3B7
100
AcDbEntity
  8
Defpoints
 62
     0
100
AcDbPoint
 10
1.108847487998926
 20
0.9246355525810065
 30
0.0
  0
ENDBLK
  5
3BE
330
3B7
100
AcDbEntity
  8
0
100
AcDbBlockEnd
  0
BLOCK
  5
454
330
44E
100
AcDbEntity
  8
0
100
AcDbBlockBegin
  2
*D9
 70
     1
 10
0.0
 20
0.0
 30
0.0
  3
*D9
  1

  0
LINE
  5
4DE
330
44E
100
AcDbEntity
  8
Dimension (ANSI)
100
AcDbLine
 10
1.223593347956216
 20
0.8280027757575915
 30
0.0
 11
1.197756940569963
 21
0.8280027757575917
 31
0.0
  0
LINE
  5
4DF
330
44E
100
AcDbEntity
  8
Dimension (ANSI)
100
AcDbLine
 10
1.197756940569963
 20
0.8280027757575917
 30
0.0
 11
1.155522481217971
 21
0.8739060286379054
 31
0.0
  0
MTEXT
  5
4E0
330
44E
100
AcDbEntity
  8
Dimension (ANSI)
100
AcDbMText
 10
1.229892560554641
 20
0.8405024404584477
 30
0.0
 40
0.0240000009536743
 41
0.0
 71
     1
 72
     1
  1
\A1;R0.0493 in
  7
Note Text (ANSI)
 73
     1
 44
1.0
1001
ACAD
1000
MTEXTBEGIN
1070
    73
1070
     1
1070
    44
1040
1.0
1070
    74
1070
     0
1000
MTEXTEND
  0
SOLID
  5
4E1
330
44E
100
AcDbEntity
  8
Dimension (ANSI)
100
AcDbTrace
 10
1.157936862131292
 20
0.8761274414168592
 30
0.0
 11
1.15310810030465
 21
0.8716846158589511
 31
0.0
 12
1.142194004544247
 22
0.8883923141178321
 32
0.0
 13
1.142194004544247
 23
0.8883923141178321
 33
0.0
  0
POINT
  5
4E2
330
44E
100
AcDbEntity
  8
Defpoints
 62
     0
100
AcDbPoint
 10
1.142194004544247
 20
0.8883923141178321
 30
0.0
  0
POINT
  5
4E3
330
44E
100
AcDbEntity
  8
Defpoints
 62
     0
100
AcDbPoint
 10
1.108847487998925
 20
0.9246355525810059
 30
0.0
  0
ENDBLK
  5
455
330
44E
100
AcDbEntity
  8
0
100
AcDbBlockEnd
  0
BLOCK
  5
4F2
330
4E7
100
AcDbEntity
  8
0
100
AcDbBlockBegin
  2
*D10
 70
     1
 10
0.0
 20
0.0
 30
0.0
  3
*D10
  1

  0
LINE
  5
5B8
330
4E7
100
AcDbEntity
  8
Dimension (ANSI)
100
AcDbLine
 10
1.147797487998978
 20
1.037135552581128
 30
0.0
 11
1.147797487998978
 21
1.080592215224853
 31
0.0
  0
LINE
  5
5B9
330
4E7
100
AcDbEntity
  8
Dimension (ANSI)
100
AcDbLine
 10
1.168532526923193
 20
1.055592215224853
 30
0.0
 11
1.18821756584741
 21
1.055592215224853
 31
0.0
  0
LINE
  5
5BA
330
4E7
100
AcDbEntity
  8
Dimension (ANSI)
100
AcDbLine
 10
1.12811244907476
 20
1.055592215224853
 30
0.0
 11
1.030298361618981
 21
1.055592215224853
 31
0.0
  0
SOLID
  5
5BB
330
4E7
100
AcDbEntity
  8
Dimension (ANSI)
100
AcDbTrace
 10
1.168532526923193
 20
1.058873055045556
 30
0.0
 11
1.168532526923193
 21
1.05231137540415
 31
0.0
 12
1.148847487998976
 22
1.055592215224853
 32
0.0
 13
1.148847487998976
 23
1.055592215224853
 33
0.0
  0
SOLID
  5
5BC
330
4E7
100
AcDbEntity
  8
Dimension (ANSI)
100
AcDbTrace
 10
1.12811244907476
 20
1.058873055045556
 30
0.0
 11
1.12811244907476
 21
1.05231137540415
 31
0.0
 12
1.147797487998978
 22
1.055592215224853
 32
0.0
 13
1.147797487998978
 23
1.055592215224853
 33
0.0
  0
MTEXT
  5
5BD
330
4E7
100
AcDbEntity
  8
Dimension (ANSI)
100
AcDbMText
 10
0.9090602592954709
 20
1.068083820825321
 30
0.0
 40
0.0240000009536743
 41
0.0
 71
     1
 72
     1
  1
\A1;0.001 in
  7
Note Text (ANSI)
 73
     1
 44
1.0
1001
ACAD
1000
MTEXTBEGIN
1070
    73
1070
     1
1070
    44
1040
1.0
1070
    74
1070
     0
1000
MTEXTEND
  0
POINT
  5
5BE
330
4E7
100
AcDbEntity
  8
Defpoints
 62
     0
100
AcDbPoint
 10
1.147797487998978
 20
1.024635552581128
 30
0.0
  0
POINT
  5
5BF
330
4E7
100
AcDbEntity
  8
Defpoints
 62
     0
100
AcDbPoint
 10
1.148847487998976
 20
1.060820033177648
 30
0.0
  0
POINT
  5
5C0
330
4E7
100
AcDbEntity
  8
Defpoints
 62
     0
100
AcDbPoint
 10
1.148847487998976
 20
1.055592215224853
 30
0.0
  0
ENDBLK
  5
4F3
330
4E7
100
AcDbEntity
  8
0
100
AcDbBlockEnd
  0
BLOCK
  5
5D7
330
5D6
100
AcDbEntity
  8
0
100
AcDbBlockBegin
  2
Origin Indicator Symbol4
 70
     0
 10
0.0
 20
0.0
 30
0.0
  3
Origin Indicator Symbol4
  1

  0
CIRCLE
  5
5D9
330
5D6
100
AcDbEntity
  8
Dimension (ANSI)
100
AcDbCircle
 10
7.728326664425338
 20
5.123177762905643
 30
0.0
 40
0.0984251968503937
  0
LINE
  5
5DA
102
{ACAD_REACTORS
330
5DC
102
}
330
5D6
100
AcDbEntity
  8
Dimension (ANSI)
100
AcDbLine
 10
7.728326664425338
 20
5.221602959756037
 30
0.0
 11
7.826751861275732
 21
5.123177762905643
 31
0.0
  0
ARC
  5
5DB
102
{ACAD_REACTORS
330
5DC
102
}
330
5D6
100
AcDbEntity
  8
Dimension (ANSI)
100
AcDbCircle
 10
7.728326664425338
 20
5.123177762905643
 30
0.0
 40
0.0984251968503937
100
AcDbArc
 50
0.0
 51
90.0
  0
HATCH
  5
5DC
330
5D6
100
AcDbEntity
  8
Dimension (ANSI)
100
AcDbHatch
 10
0.0
 20
0.0
 30
0.0
210
0.0
220
0.0
230
1.0
  2
SOLID
 70
     1
 71
     1
 91
        1
 92
        0
 93
        2
 72
     1
 10
7.728326664425338
 20
5.221602959756037
 11
7.826751861275732
 21
5.123177762905643
 72
     2
 10
7.728326664425338
 20
5.123177762905643
 40
0.0984251968503937
 50
0.0
 51
90.0
 73
     1
 97
        2
330
5DA
330
5DB
 75
     0
 76
     1
 98
        1
 10
0.0
 20
0.0
  0
LINE
  5
5DD
102
{ACAD_REACTORS
330
5DF
102
}
330
5D6
100
AcDbEntity
  8
Dimension (ANSI)
100
AcDbLine
 10
7.728326664425338
 20
5.02475256605525
 30
0.0
 11
7.629901467574945
 21
5.123177762905643
 31
0.0
  0
ARC
  5
5DE
102
{ACAD_REACTORS
330
5DF
102
}
330
5D6
100
AcDbEntity
  8
Dimension (ANSI)
100
AcDbCircle
 10
7.728326664425338
 20
5.123177762905643
 30
0.0
 40
0.0984251968503937
100
AcDbArc
 50
180.0
 51
270.0
  0
HATCH
  5
5DF
330
5D6
100
AcDbEntity
  8
Dimension (ANSI)
100
AcDbHatch
 10
0.0
 20
0.0
 30
0.0
210
0.0
220
0.0
230
1.0
  2
SOLID
 70
     1
 71
     1
 91
        1
 92
        0
 93
        2
 72
     1
 10
7.728326664425338
 20
5.02475256605525
 11
7.629901467574945
 21
5.123177762905643
 72
     2
 10
7.728326664425338
 20
5.123177762905643
 40
0.0984251968503937
 50
180.0
 51
270.0
 73
     1
 97
        2
330
5DD
330
5DE
 75
     0
 76
     1
 98
        1
 10
0.0
 20
0.0
  0
POLYLINE
  5
5E0
330
5D6
100
AcDbEntity
  8
Dimension (ANSI)
100
AcDb2dPolyline
 66
     1
 10
0.0
 20
0.0
 30
0.0
 70
   128
  0
VERTEX
  5
5E1
330
5E0
100
AcDbEntity
  8
Dimension (ANSI)
100
AcDbVertex
100
AcDb2dVertex
 10
7.728326602244939
 20
5.12317785127895
 30
0.0
  0
VERTEX
  5
5E2
330
5E0
100
AcDbEntity
  8
Dimension (ANSI)
100
AcDbVertex
100
AcDb2dVertex
 10
7.826751799095333
 20
5.12317785127895
 30
0.0
  0
VERTEX
  5
5E4
330
5E0
100
AcDbEntity
  8
Dimension (ANSI)
100
AcDbVertex
100
AcDb2dVertex
 10
7.728326602244939
 20
5.221603048129344
 30
0.0
  0
VERTEX
  5
5E5
330
5E0
100
AcDbEntity
  8
Dimension (ANSI)
100
AcDbVertex
100
AcDb2dVertex
 10
7.728326602244939
 20
5.12317785127895
 30
0.0
  0
SEQEND
  5
5E3
330
5E0
100
AcDbEntity
  8
Dimension (ANSI)
  0
SOLID
  5
5E6
330
5D6
100
AcDbEntity
  8
Dimension (ANSI)
100
AcDbTrace
 10
7.728326602244939
 20
5.12317785127895
 30
0.0
 11
7.826751799095333
 21
5.12317785127895
 31
0.0
 12
7.728326602244939
 22
5.221603048129344
 32
0.0
 13
7.728326602244939
 23
5.12317785127895
 33
0.0
  0
POLYLINE
  5
5E7
330
5D6
100
AcDbEntity
  8
Dimension (ANSI)
100
AcDb2dPolyline
 66
     1
 10
0.0
 20
0.0
 30
0.0
 70
   128
  0
VERTEX
  5
5E8
330
5E7
100
AcDbEntity
  8
Dimension (ANSI)
100
AcDbVertex
100
AcDb2dVertex
 10
7.728326602244939
 20
5.12317785127895
 30
0.0
  0
VERTEX
  5
5E9
330
5E7
100
AcDbEntity
  8
Dimension (ANSI)
100
AcDbVertex
100
AcDb2dVertex
 10
7.728326602244939
 20
5.221603048129344
 30
0.0
  0
VERTEX
  5
5EB
330
5E7
100
AcDbEntity
  8
Dimension (ANSI)
100
AcDbVertex
100
AcDb2dVertex
 10
7.728326602244939
 20
5.024752654428557
 30
0.0
  0
VERTEX
  5
5EC
330
5E7
100
AcDbEntity
  8
Dimension (ANSI)
100
AcDbVertex
100
AcDb2dVertex
 10
7.728326602244939
 20
5.12317785127895
 30
0.0
  0
SEQEND
  5
5EA
330
5E7
100
AcDbEntity
  8
Dimension (ANSI)
  0
SOLID
  5
5ED
330
5D6
100
AcDbEntity
  8
Dimension (ANSI)
100
AcDbTrace
 10
7.728326602244939
 20
5.12317785127895
 30
0.0
 11
7.728326602244939
 21
5.221603048129344
 31
0.0
 12
7.728326602244939
 22
5.024752654428557
 32
0.0
 13
7.728326602244939
 23
5.12317785127895
 33
0.0
  0
POLYLINE
  5
5EE
330
5D6
100
AcDbEntity
  8
Dimension (ANSI)
100
AcDb2dPolyline
 66
     1
 10
0.0
 20
0.0
 30
0.0
 70
   128
  0
VERTEX
  5
5EF
330
5EE
100
AcDbEntity
  8
Dimension (ANSI)
100
AcDbVertex
100
AcDb2dVertex
 10
7.728326602244939
 20
5.12317785127895
 30
0.0
  0
VERTEX
  5
5F0
330
5EE
100
AcDbEntity
  8
Dimension (ANSI)
100
AcDbVertex
100
AcDb2dVertex
 10
7.728326602244939
 20
5.024752654428557
 30
0.0
  0
VERTEX
  5
5F2
330
5EE
100
AcDbEntity
  8
Dimension (ANSI)
100
AcDbVertex
100
AcDb2dVertex
 10
7.629901405394545
 20
5.12317785127895
 30
0.0
  0
VERTEX
  5
5F3
330
5EE
100
AcDbEntity
  8
Dimension (ANSI)
100
AcDbVertex
100
AcDb2dVertex
 10
7.728326602244939
 20
5.12317785127895
 30
0.0
  0
SEQEND
  5
5F1
330
5EE
100
AcDbEntity
  8
Dimension (ANSI)
  0
SOLID
  5
5F4
330
5D6
100
AcDbEntity
  8
Dimension (ANSI)
100
AcDbTrace
 10
7.728326602244939
 20
5.12317785127895
 30
0.0
 11
7.728326602244939
 21
5.024752654428557
 31
0.0
 12
7.629901405394545
 22
5.12317785127895
 32
0.0
 13
7.728326602244939
 23
5.12317785127895
 33
0.0
  0
POLYLINE
  5
5F5
330
5D6
100
AcDbEntity
  8
Dimension (ANSI)
100
AcDb2dPolyline
 66
     1
 10
0.0
 20
0.0
 30
0.0
 70
   128
  0
VERTEX
  5
5F6
330
5F5
100
AcDbEntity
  8
Dimension (ANSI)
100
AcDbVertex
100
AcDb2dVertex
 10
7.728326602244939
 20
5.12317785127895
 30
0.0
  0
VERTEX
  5
5F7
330
5F5
100
AcDbEntity
  8
Dimension (ANSI)
100
AcDbVertex
100
AcDb2dVertex
 10
7.629901405394545
 20
5.12317785127895
 30
0.0
  0
VERTEX
  5
5F9
330
5F5
100
AcDbEntity
  8
Dimension (ANSI)
100
AcDbVertex
100
AcDb2dVertex
 10
7.728326602244939
 20
5.12317785127895
 30
0.0
  0
VERTEX
  5
5FA
330
5F5
100
AcDbEntity
  8
Dimension (ANSI)
100
AcDbVertex
100
AcDb2dVertex
 10
7.728326602244939
 20
5.12317785127895
 30
0.0
  0
SEQEND
  5
5F8
330
5F5
100
AcDbEntity
  8
Dimension (ANSI)
  0
SOLID
  5
5FB
330
5D6
100
AcDbEntity
  8
Dimension (ANSI)
100
AcDbTrace
 10
7.728326602244939
 20
5.12317785127895
 30
0.0
 11
7.629901405394545
 21
5.12317785127895
 31
0.0
 12
7.728326602244939
 22
5.12317785127895
 32
0.0
 13
7.728326602244939
 23
5.12317785127895
 33
0.0
  0
ENDBLK
  5
5D8
330
5D6
100
AcDbEntity
  8
0
100
AcDbBlockEnd
  0
BLOCK
  5
5FE
330
5FD
100
AcDbEntity
  8
0
100
AcDbBlockBegin
  2
Hole Table4
 70
     0
 10
0.0
 20
0.0
 30
0.0
  3
Hole Table4
  1

  0
MTEXT
  5
600
330
5FD
100
AcDbEntity
  8
Symbol (ANSI)
100
AcDbMText
 10
7.222695071183616
 20
2.315209819735359
 30
0.0
 40
0.1200000014830762
 41
0.0
 71
     7
 72
     1
  1
Hole Table
  7
Text Style29
 73
     1
 44
1.0
1001
ACAD
1000
MTEXTBEGIN
1070
    73
1070
     1
1070
    44
1040
1.0
1070
    74
1070
     0
1000
MTEXTEND
  0
LINE
  5
601
330
5FD
100
AcDbEntity
  8
Symbol (ANSI)
100
AcDbLine
 10
4.932406517279698
 20
2.284108860092578
 30
0.0
 11
5.420599495948153
 21
2.284108860092578
 31
0.0
  0
LINE
  5
602
330
5FD
100
AcDbEntity
  8
Symbol (ANSI)
100
AcDbLine
 10
5.420599495948153
 20
2.284108860092578
 30
0.0
 11
5.420599495948153
 21
2.094030118452022
 31
0.0
  0
LINE
  5
603
330
5FD
100
AcDbEntity
  8
Symbol (ANSI)
100
AcDbLine
 10
4.932406517279698
 20
2.094030118452022
 30
0.0
 11
5.420599495948153
 21
2.094030118452022
 31
0.0
  0
MTEXT
  5
604
330
5FD
100
AcDbEntity
  8
Symbol (ANSI)
100
AcDbMText
 10
4.999090133435909
 20
2.126541126706321
 30
0.0
 40
0.1200000014830762
 41
0.0
 71
     7
 72
     1
  1
HOLE
  7
Text Style29
 73
     1
 44
1.0
1001
ACAD
1000
MTEXTBEGIN
1070
    73
1070
     1
1070
    44
1040
1.0
1070
    74
1070
     0
1000
MTEXTEND
  0
LINE
  5
605
330
5FD
100
AcDbEntity
  8
Symbol (ANSI)
100
AcDbLine
 10
5.420599495948153
 20
2.284108860092578
 30
0.0
 11
6.011150677050515
 21
2.284108860092578
 31
0.0
  0
LINE
  5
606
330
5FD
100
AcDbEntity
  8
Symbol (ANSI)
100
AcDbLine
 10
5.420599495948153
 20
2.284108860092578
 30
0.0
 11
5.420599495948153
 21
2.094030118452022
 31
0.0
  0
LINE
  5
607
330
5FD
100
AcDbEntity
  8
Symbol (ANSI)
100
AcDbLine
 10
6.011150677050515
 20
2.284108860092578
 30
0.0
 11
6.011150677050515
 21
2.094030118452022
 31
0.0
  0
LINE
  5
608
330
5FD
100
AcDbEntity
  8
Symbol (ANSI)
100
AcDbLine
 10
5.420599495948153
 20
2.094030118452022
 30
0.0
 11
6.011150677050515
 21
2.094030118452022
 31
0.0
  0
MTEXT
  5
609
330
5FD
100
AcDbEntity
  8
Symbol (ANSI)
100
AcDbMText
 10
5.518987357763178
 20
2.129069489733872
 30
0.0
 40
0.1200000014830762
 41
0.0
 71
     7
 72
     1
  1
XDIM
  7
Text Style29
 73
     1
 44
1.0
1001
ACAD
1000
MTEXTBEGIN
1070
    73
1070
     1
1070
    44
1040
1.0
1070
    74
1070
     0
1000
MTEXTEND
  0
LINE
  5
60A
330
5FD
100
AcDbEntity
  8
Symbol (ANSI)
100
AcDbLine
 10
6.011150677050515
 20
2.284108860092578
 30
0.0
 11
6.667251912384554
 21
2.284108860092578
 31
0.0
  0
LINE
  5
60B
330
5FD
100
AcDbEntity
  8
Symbol (ANSI)
100
AcDbLine
 10
6.011150677050515
 20
2.284108860092578
 30
0.0
 11
6.011150677050515
 21
2.094030118452022
 31
0.0
  0
LINE
  5
60C
330
5FD
100
AcDbEntity
  8
Symbol (ANSI)
100
AcDbLine
 10
6.667251912384554
 20
2.284108860092578
 30
0.0
 11
6.667251912384554
 21
2.094030118452022
 31
0.0
  0
LINE
  5
60D
330
5FD
100
AcDbEntity
  8
Symbol (ANSI)
100
AcDbLine
 10
6.011150677050515
 20
2.094030118452022
 30
0.0
 11
6.667251912384554
 21
2.094030118452022
 31
0.0
  0
MTEXT
  5
60E
330
5FD
100
AcDbEntity
  8
Symbol (ANSI)
100
AcDbMText
 10
6.139578135181309
 20
2.129069489733872
 30
0.0
 40
0.1200000014830762
 41
0.0
 71
     7
 72
     1
  1
YDIM
  7
Text Style29
 73
     1
 44
1.0
1001
ACAD
1000
MTEXTBEGIN
1070
    73
1070
     1
1070
    44
1040
1.0
1070
    74
1070
     0
1000
MTEXTEND
  0
LINE
  5
60F
330
5FD
100
AcDbEntity
  8
Symbol (ANSI)
100
AcDbLine
 10
6.667251912384554
 20
2.284108860092578
 30
0.0
 11
10.24084015976007
 21
2.284108860092578
 31
0.0
  0
LINE
  5
610
330
5FD
100
AcDbEntity
  8
Symbol (ANSI)
100
AcDbLine
 10
6.667251912384554
 20
2.284108860092578
 30
0.0
 11
6.667251912384554
 21
2.094030118452022
 31
0.0
  0
LINE
  5
611
330
5FD
100
AcDbEntity
  8
Symbol (ANSI)
100
AcDbLine
 10
6.667251912384554
 20
2.094030118452022
 30
0.0
 11
10.24084015976007
 21
2.094030118452022
 31
0.0
  0
MTEXT
  5
612
330
5FD
100
AcDbEntity
  8
Symbol (ANSI)
100
AcDbMText
 10
7.96039328119106
 20
2.126541126706321
 30
0.0
 40
0.1200000014830762
 41
0.0
 71
     7
 72
     1
  1
DESCRIPTION
  7
Text Style29
 73
     1
 44
1.0
1001
ACAD
1000
MTEXTBEGIN
1070
    73
1070
     1
1070
    44
1040
1.0
1070
    74
1070
     0
1000
MTEXTEND
  0
LINE
  5
613
330
5FD
100
AcDbEntity
  8
Symbol (ANSI)
100
AcDbLine
 10
4.932406517279698
 20
2.094030118452022
 30
0.0
 11
5.420599495948153
 21
2.094030118452022
 31
0.0
  0
LINE
  5
614
330
5FD
100
AcDbEntity
  8
Symbol (ANSI)
100
AcDbLine
 10
5.420599495948153
 20
2.094030118452022
 30
0.0
 11
5.420599495948153
 21
1.848237090609945
 31
0.0
  0
LINE
  5
615
330
5FD
100
AcDbEntity
  8
Symbol (ANSI)
100
AcDbLine
 10
4.932406517279698
 20
1.848237090609945
 30
0.0
 11
5.420599495948153
 21
1.848237090609945
 31
0.0
  0
MTEXT
  5
616
330
5FD
100
AcDbEntity
  8
Symbol (ANSI)
100
AcDbMText
 10
5.167426961594506
 20
1.910939115528899
 30
0.0
 40
0.1200000014830762
 41
0.0
 71
     7
 72
     1
  1
1
  7
Text Style29
 73
     1
 44
1.875
1001
ACAD
1000
MTEXTBEGIN
1070
    73
1070
     1
1070
    44
1040
1.875
1070
    74
1070
     0
1000
MTEXTEND
  0
LINE
  5
617
330
5FD
100
AcDbEntity
  8
Symbol (ANSI)
100
AcDbLine
 10
5.420599495948153
 20
2.094030118452022
 30
0.0
 11
6.011150677050515
 21
2.094030118452022
 31
0.0
  0
LINE
  5
618
330
5FD
100
AcDbEntity
  8
Symbol (ANSI)
100
AcDbLine
 10
5.420599495948153
 20
2.094030118452022
 30
0.0
 11
5.420599495948153
 21
1.848237090609945
 31
0.0
  0
LINE
  5
619
330
5FD
100
AcDbEntity
  8
Symbol (ANSI)
100
AcDbLine
 10
6.011150677050515
 20
2.094030118452022
 30
0.0
 11
6.011150677050515
 21
1.848237090609945
 31
0.0
  0
LINE
  5
61A
330
5FD
100
AcDbEntity
  8
Symbol (ANSI)
100
AcDbLine
 10
5.420599495948153
 20
1.848237090609945
 30
0.0
 11
6.011150677050515
 21
1.848237090609945
 31
0.0
  0
MTEXT
  5
61B
330
5FD
100
AcDbEntity
  8
Symbol (ANSI)
100
AcDbMText
 10
5.479025963400616
 20
1.908410752501348
 30
0.0
 40
0.1200000014830762
 41
0.0
 71
     7
 72
     1
  1
0.1989
  7
Text Style29
 73
     1
 44
1.0
1001
ACAD
1000
MTEXTBEGIN
1070
    73
1070
     1
1070
    44
1040
1.0
1070
    74
1070
     0
1000
MTEXTEND
  0
LINE
  5
61C
330
5FD
100
AcDbEntity
  8
Symbol (ANSI)
100
AcDbLine
 10
6.011150677050515
 20
2.094030118452022
 30
0.0
 11
6.667251912384554
 21
2.094030118452022
 31
0.0
  0
LINE
  5
61D
330
5FD
100
AcDbEntity
  8
Symbol (ANSI)
100
AcDbLine
 10
6.011150677050515
 20
2.094030118452022
 30
0.0
 11
6.011150677050515
 21
1.848237090609945
 31
0.0
  0
LINE
  5
61E
330
5FD
100
AcDbEntity
  8
Symbol (ANSI)
100
AcDbLine
 10
6.667251912384554
 20
2.094030118452022
 30
0.0
 11
6.667251912384554
 21
1.848237090609945
 31
0.0
  0
LINE
  5
61F
330
5FD
100
AcDbEntity
  8
Symbol (ANSI)
100
AcDbLine
 10
6.011150677050515
 20
1.848237090609945
 30
0.0
 11
6.667251912384554
 21
1.848237090609945
 31
0.0
  0
MTEXT
  5
620
330
5FD
100
AcDbEntity
  8
Symbol (ANSI)
100
AcDbMText
 10
6.073554210961981
 20
1.908410752501348
 30
0.0
 40
0.1200000014830762
 41
0.0
 71
     7
 72
     1
  1
-0.1989
  7
Text Style29
 73
     1
 44
1.0
1001
ACAD
1000
MTEXTBEGIN
1070
    73
1070
     1
1070
    44
1040
1.0
1070
    74
1070
     0
1000
MTEXTEND
  0
MTEXT
  5
621
330
5FD
100
AcDbEntity
  8
Symbol (ANSI)
100
AcDbMText
 10
7.617033696776946
 20
1.913392291142209
 30
0.0
 40
0.1200000014830762
 41
0.0
 71
     7
 72
     1
  1
REAM 
  7
Text Style29
 73
     1
 44
1.0
1001
ACAD
1000
MTEXTBEGIN
1070
    73
1070
     1
1070
    44
1040
1.0
1070
    74
1070
     0
1000
MTEXTEND
  0
MTEXT
  5
623
330
5FD
100
AcDbEntity
  8
Symbol (ANSI)
100
AcDbMText
 10
8.079551801195002
 20
1.883276460688685
 30
0.0
 40
0.1200000014830762
 41
0.0
 71
     7
 72
     1
  1
n
  7
Text Style6
 73
     1
 44
1.0
1001
ACAD
1000
MTEXTBEGIN
1070
    73
1070
     1
1070
    44
1040
1.0
1070
    74
1070
     0
1000
MTEXTEND
  0
MTEXT
  5
625
330
5FD
100
AcDbEntity
  8
Symbol (ANSI)
100
AcDbMText
 10
8.200189525444384
 20
1.910863928114658
 30
0.0
 40
0.1200000014830762
 41
0.0
 71
     7
 72
     1
  1
 0.0635 
  7
Text Style29
 73
     1
 44
1.0
1001
ACAD
1000
MTEXTBEGIN
1070
    73
1070
     1
1070
    44
1040
1.0
1070
    74
1070
     0
1000
MTEXTEND
  0
MTEXT
  5
626
330
5FD
100
AcDbEntity
  8
Symbol (ANSI)
100
AcDbMText
 10
8.823872910467366
 20
1.905284182943183
 30
0.0
 40
0.1200000014830762
 41
0.0
 71
     7
 72
     1
  1
x
  7
Text Style6
 73
     1
 44
1.0
1001
ACAD
1000
MTEXTBEGIN
1070
    73
1070
     1
1070
    44
1040
1.0
1070
    74
1070
     0
1000
MTEXTEND
  0
MTEXT
  5
627
330
5FD
100
AcDbEntity
  8
Symbol (ANSI)
100
AcDbMText
 10
8.943418602531997
 20
1.910863928114658
 30
0.0
 40
0.1200000014830762
 41
0.0
 71
     7
 72
     1
  1
 0.20
  7
Text Style29
 73
     1
 44
1.0
1001
ACAD
1000
MTEXTBEGIN
1070
    73
1070
     1
1070
    44
1040
1.0
1070
    74
1070
     0
1000
MTEXTEND
  0
LINE
  5
628
330
5FD
100
AcDbEntity
  8
Symbol (ANSI)
100
AcDbLine
 10
4.932406517279698
 20
1.848237090609945
 30
0.0
 11
5.420599495948153
 21
1.848237090609945
 31
0.0
  0
LINE
  5
629
330
5FD
100
AcDbEntity
  8
Symbol (ANSI)
100
AcDbLine
 10
5.420599495948153
 20
1.848237090609945
 30
0.0
 11
5.420599495948153
 21
1.297797796760659
 31
0.0
  0
MTEXT
  5
62A
330
5FD
100
AcDbEntity
  8
Symbol (ANSI)
100
AcDbMText
 10
5.10570883936752
 20
1.511753262633099
 30
0.0
 40
0.1200000014830762
 41
0.0
 71
     7
 72
     1
  1
 2
  7
Text Style29
 73
     1
 44
1.0
1001
ACAD
1000
MTEXTBEGIN
1070
    73
1070
     1
1070
    44
1040
1.0
1070
    74
1070
     0
1000
MTEXTEND
  0
LINE
  5
62B
330
5FD
100
AcDbEntity
  8
Symbol (ANSI)
100
AcDbLine
 10
5.420599495948153
 20
1.848237090609945
 30
0.0
 11
6.011150677050515
 21
1.848237090609945
 31
0.0
  0
LINE
  5
62C
330
5FD
100
AcDbEntity
  8
Symbol (ANSI)
100
AcDbLine
 10
5.420599495948153
 20
1.848237090609945
 30
0.0
 11
5.420599495948153
 21
1.297797796760659
 31
0.0
  0
LINE
  5
62D
330
5FD
100
AcDbEntity
  8
Symbol (ANSI)
100
AcDbLine
 10
6.011150677050515
 20
1.848237090609945
 30
0.0
 11
6.011150677050515
 21
1.297797796760659
 31
0.0
  0
MTEXT
  5
62E
330
5FD
100
AcDbEntity
  8
Symbol (ANSI)
100
AcDbMText
 10
5.524050279542541
 20
1.510489081119324
 30
0.0
 40
0.1200000014830762
 41
0.0
 71
     7
 72
     1
  1
0.330
  7
Text Style29
 73
     1
 44
1.0
1001
ACAD
1000
MTEXTBEGIN
1070
    73
1070
     1
1070
    44
1040
1.0
1070
    74
1070
     0
1000
MTEXTEND
  0
LINE
  5
62F
330
5FD
100
AcDbEntity
  8
Symbol (ANSI)
100
AcDbLine
 10
6.011150677050515
 20
1.848237090609945
 30
0.0
 11
6.667251912384554
 21
1.848237090609945
 31
0.0
  0
LINE
  5
630
330
5FD
100
AcDbEntity
  8
Symbol (ANSI)
100
AcDbLine
 10
6.011150677050515
 20
1.848237090609945
 30
0.0
 11
6.011150677050515
 21
1.297797796760659
 31
0.0
  0
LINE
  5
631
330
5FD
100
AcDbEntity
  8
Symbol (ANSI)
100
AcDbLine
 10
6.667251912384554
 20
1.848237090609945
 30
0.0
 11
6.667251912384554
 21
1.297797796760659
 31
0.0
  0
MTEXT
  5
632
330
5FD
100
AcDbEntity
  8
Symbol (ANSI)
100
AcDbMText
 10
6.118578527103906
 20
1.510489081119324
 30
0.0
 40
0.1200000014830762
 41
0.0
 71
     7
 72
     1
  1
-0.330
  7
Text Style29
 73
     1
 44
1.0
1001
ACAD
1000
MTEXTBEGIN
1070
    73
1070
     1
1070
    44
1040
1.0
1070
    74
1070
     0
1000
MTEXTEND
  0
LINE
  5
633
330
5FD
100
AcDbEntity
  8
Symbol (ANSI)
100
AcDbLine
 10
6.667251912384554
 20
1.848237090609945
 30
0.0
 11
10.24084015976007
 21
1.848237090609945
 31
0.0
  0
LINE
  5
634
330
5FD
100
AcDbEntity
  8
Symbol (ANSI)
100
AcDbLine
 10
6.667251912384554
 20
1.848237090609945
 30
0.0
 11
6.667251912384554
 21
1.297797796760659
 31
0.0
  0
MTEXT
  5
635
330
5FD
100
AcDbEntity
  8
Symbol (ANSI)
100
AcDbMText
 10
6.966348920743004
 20
1.485160299843004
 30
0.0
 40
0.1200000014830762
 41
0.0
 71
     7
 72
     1
  1
n
  7
Text Style6
 73
     1
 44
1.0
1001
ACAD
1000
MTEXTBEGIN
1070
    73
1070
     1
1070
    44
1040
1.0
1070
    74
1070
     0
1000
MTEXTEND
  0
MTEXT
  5
636
330
5FD
100
AcDbEntity
  8
Symbol (ANSI)
100
AcDbMText
 10
7.100250978161677
 20
1.512747767268976
 30
0.0
 40
0.1200000014830762
 41
0.0
 71
     7
 72
     1
  1
0.067 in 
  7
Text Style29
 73
     1
 44
1.0
1001
ACAD
1000
MTEXTBEGIN
1070
    73
1070
     1
1070
    44
1040
1.0
1070
    74
1070
     0
1000
MTEXTEND
  0
MTEXT
  5
637
330
5FD
100
AcDbEntity
  8
Symbol (ANSI)
100
AcDbMText
 10
7.750345885276502
 20
1.507168022097502
 30
0.0
 40
0.1200000014830762
 41
0.0
 71
     7
 72
     1
  1
x
  7
Text Style6
 73
     1
 44
1.0
1001
ACAD
1000
MTEXTBEGIN
1070
    73
1070
     1
1070
    44
1040
1.0
1070
    74
1070
     0
1000
MTEXTEND
  0
MTEXT
  5
638
330
5FD
100
AcDbEntity
  8
Symbol (ANSI)
100
AcDbMText
 10
7.869891577341133
 20
1.485421997625057
 30
0.0
 40
0.1200000014830762
 41
0.0
 71
     7
 72
     1
  1
 0.25, 2-56 UNC - 2B 
  7
Text Style29
 73
     1
 44
1.0
1001
ACAD
1000
MTEXTBEGIN
1070
    73
1070
     1
1070
    44
1040
1.0
1070
    74
1070
     0
1000
MTEXTEND
  0
MTEXT
  5
639
330
5FD
100
AcDbEntity
  8
Symbol (ANSI)
100
AcDbMText
 10
9.464369140733591
 20
1.507168022097502
 30
0.0
 40
0.1200000014830762
 41
0.0
 71
     7
 72
     1
  1
x
  7
Text Style6
 73
     1
 44
1.0
1001
ACAD
1000
MTEXTBEGIN
1070
    73
1070
     1
1070
    44
1040
1.0
1070
    74
1070
     0
1000
MTEXTEND
  0
MTEXT
  5
63A
330
5FD
100
AcDbEntity
  8
Symbol (ANSI)
100
AcDbMText
 10
9.583914832798223
 20
1.512747767268976
 30
0.0
 40
0.1200000014830762
 41
0.0
 71
     7
 72
     1
  1
 0.19
  7
Text Style29
 73
     1
 44
1.0
1001
ACAD
1000
MTEXTBEGIN
1070
    73
1070
     1
1070
    44
1040
1.0
1070
    74
1070
     0
1000
MTEXTEND
  0
LINE
  5
63B
330
5FD
100
AcDbEntity
  8
Symbol (ANSI)
100
AcDbLine
 10
6.667251912384554
 20
1.848237090609945
 30
0.0
 11
10.24084015976007
 21
1.848237090609945
 31
0.0
  0
LINE
  5
63C
330
5FD
100
AcDbEntity
  8
Symbol (ANSI)
100
AcDbLine
 10
6.667251912384554
 20
1.848237090609945
 30
0.0
 11
6.667251912384554
 21
1.297797796760659
 31
0.0
  0
LINE
  5
63D
330
5FD
100
AcDbEntity
  8
Symbol (ANSI)
100
AcDbLine
 10
10.24084015976007
 20
1.848237090609945
 30
0.0
 11
10.24084015976007
 21
1.297797796760659
 31
0.0
  0
LINE
  5
63E
330
5FD
100
AcDbEntity
  8
Symbol (ANSI)
100
AcDbLine
 10
4.932406517279698
 20
1.297797796760659
 30
0.0
 11
4.932406517279698
 21
2.474187601733135
 31
0.0
  0
LINE
  5
63F
330
5FD
100
AcDbEntity
  8
Symbol (ANSI)
100
AcDbLine
 10
4.932406517279698
 20
2.474187601733135
 30
0.0
 11
10.24084015976007
 21
2.474187601733135
 31
0.0
  0
LINE
  5
640
330
5FD
100
AcDbEntity
  8
Symbol (ANSI)
100
AcDbLine
 10
10.24084015976007
 20
2.474187601733135
 30
0.0
 11
10.24084015976007
 21
1.297797796760659
 31
0.0
  0
LINE
  5
641
330
5FD
100
AcDbEntity
  8
Symbol (ANSI)
100
AcDbLine
 10
10.24084015976007
 20
1.297797796760659
 30
0.0
 11
4.932406517279698
 21
1.297797796760659
 31
0.0
  0
ENDBLK
  5
5FF
330
5FD
100
AcDbEntity
  8
0
100
AcDbBlockEnd
  0
BLOCK
  5
644
330
643
100
AcDbEntity
  8
0
100
AcDbBlockBegin
  2
Leader Text14
 70
     0
 10
0.0
 20
0.0
 30
0.0
  3
Leader Text14
  1

  0
LINE
  5
646
330
643
100
AcDbEntity
  8
Symbol (ANSI)
100
AcDbLine
 10
8.852230423918985
 20
4.350979518740033
 30
0.0
 11
8.802655296620837
 21
4.265951134488589
 31
0.0
  0
POLYLINE
  5
647
330
643
100
AcDbEntity
  8
Symbol (ANSI)
100
AcDb2dPolyline
 66
     1
 10
0.0
 20
0.0
 30
0.0
 70
   128
  0
VERTEX
  5
648
330
647
100
AcDbEntity
  8
Symbol (ANSI)
100
AcDbVertex
100
AcDb2dVertex
 10
8.835224842462013
 20
4.360894706305556
 30
0.0
  0
VERTEX
  5
649
330
647
100
AcDbEntity
  8
Symbol (ANSI)
100
AcDbVertex
100
AcDb2dVertex
 10
8.802654987245093
 20
4.265951171634704
 30
0.0
  0
VERTEX
  5
64B
330
647
100
AcDbEntity
  8
Symbol (ANSI)
100
AcDbVertex
100
AcDb2dVertex
 10
8.869236473023422
 20
4.341064663383903
 30
0.0
  0
VERTEX
  5
64C
330
647
100
AcDbEntity
  8
Symbol (ANSI)
100
AcDbVertex
100
AcDb2dVertex
 10
8.835224842462013
 20
4.360894706305556
 30
0.0
  0
SEQEND
  5
64A
330
647
100
AcDbEntity
  8
Symbol (ANSI)
  0
SOLID
  5
64D
330
643
100
AcDbEntity
  8
Symbol (ANSI)
100
AcDbTrace
 10
8.835224842462013
 20
4.360894706305556
 30
0.0
 11
8.802654987245093
 21
4.265951171634704
 31
0.0
 12
8.869236473023422
 22
4.341064663383903
 32
0.0
 13
8.835224842462013
 23
4.360894706305556
 33
0.0
  0
LINE
  5
64E
330
643
100
AcDbEntity
  8
Symbol (ANSI)
100
AcDbLine
 10
8.835224747068696
 20
4.360894544199663
 30
0.0
 11
8.802655296620837
 21
4.265951134488589
 31
0.0
  0
LINE
  5
64F
330
643
100
AcDbEntity
  8
Symbol (ANSI)
100
AcDbLine
 10
8.802655296620837
 20
4.265951134488589
 30
0.0
 11
8.869236100769272
 21
4.341064493280404
 31
0.0
  0
LINE
  5
650
330
643
100
AcDbEntity
  8
Symbol (ANSI)
100
AcDbLine
 10
8.869236100769272
 20
4.341064493280404
 30
0.0
 11
8.835224747068696
 21
4.360894544199663
 31
0.0
  0
LINE
  5
651
330
643
100
AcDbEntity
  8
Symbol (ANSI)
100
AcDbLine
 10
8.852230423918985
 20
4.350979518740033
 30
0.0
 11
8.942009680870357
 21
4.504963695360709
 31
0.0
  0
LINE
  5
652
330
643
100
AcDbEntity
  8
Symbol (ANSI)
100
AcDbLine
 10
8.942009680870357
 20
4.504963695360709
 30
0.0
 11
9.040434877720752
 21
4.504963695360709
 31
0.0
  0
MTEXT
  5
653
330
643
100
AcDbEntity
  8
Symbol (ANSI)
100
AcDbMText
 10
9.076383142976657
 20
4.444769206358625
 30
0.0
 40
0.1200000014830762
 41
0.0
 71
     7
 72
     1
  1
1
  7
Text Style29
 73
     1
 44
1.875
1001
ACAD
1000
MTEXTBEGIN
1070
    73
1070
     1
1070
    44
1040
1.875
1070
    74
1070
     0
1000
MTEXTEND
  0
ENDBLK
  5
645
330
643
100
AcDbEntity
  8
0
100
AcDbBlockEnd
  0
BLOCK
  5
656
330
655
100
AcDbEntity
  8
0
100
AcDbBlockBegin
  2
Leader Text15
 70
     0
 10
0.0
 20
0.0
 30
0.0
  3
Leader Text15
  1

  0
LINE
  5
658
330
655
100
AcDbEntity
  8
Symbol (ANSI)
100
AcDbLine
 10
9.505877846104105
 20
3.70651637173799
 30
0.0
 11
9.458668140842105
 21
3.620152240849559
 31
0.0
  0
POLYLINE
  5
659
330
655
100
AcDbEntity
  8
Symbol (ANSI)
100
AcDb2dPolyline
 66
     1
 10
0.0
 20
0.0
 30
0.0
 70
   128
  0
VERTEX
  5
65A
330
659
100
AcDbEntity
  8
Symbol (ANSI)
100
AcDbVertex
100
AcDb2dVertex
 10
9.488605138823741
 20
3.715958182267316
 30
0.0
  0
VERTEX
  5
65B
330
659
100
AcDbEntity
  8
Symbol (ANSI)
100
AcDbVertex
100
AcDb2dVertex
 10
9.458668025459829
 20
3.620152210626076
 30
0.0
  0
VERTEX
  5
65D
330
659
100
AcDbEntity
  8
Symbol (ANSI)
100
AcDbVertex
100
AcDb2dVertex
 10
9.523150676817405
 20
3.697074304415484
 30
0.0
  0
VERTEX
  5
65E
330
659
100
AcDbEntity
  8
Symbol (ANSI)
100
AcDbVertex
100
AcDb2dVertex
 10
9.488605138823741
 20
3.715958182267316
 30
0.0
  0
SEQEND
  5
65C
330
659
100
AcDbEntity
  8
Symbol (ANSI)
  0
SOLID
  5
65F
330
655
100
AcDbEntity
  8
Symbol (ANSI)
100
AcDbTrace
 10
9.488605138823741
 20
3.715958182267316
 30
0.0
 11
9.458668025459829
 21
3.620152210626076
 31
0.0
 12
9.523150676817405
 22
3.697074304415484
 32
0.0
 13
9.488605138823741
 23
3.715958182267316
 33
0.0
  0
LINE
  5
660
330
655
100
AcDbEntity
  8
Symbol (ANSI)
100
AcDbLine
 10
9.488605019926417
 20
3.71595831279039
 30
0.0
 11
9.458668140842105
 21
3.620152240849559
 31
0.0
  0
LINE
  5
661
330
655
100
AcDbEntity
  8
Symbol (ANSI)
100
AcDbLine
 10
9.458668140842105
 20
3.620152240849559
 30
0.0
 11
9.52315067228179
 21
3.69707443068559
 31
0.0
  0
LINE
  5
662
330
655
100
AcDbEntity
  8
Symbol (ANSI)
100
AcDbLine
 10
9.52315067228179
 20
3.69707443068559
 30
0.0
 11
9.488605019926417
 21
3.71595831279039
 31
0.0
  0
LINE
  5
663
330
655
100
AcDbEntity
  8
Symbol (ANSI)
100
AcDbLine
 10
9.505877846104105
 20
3.70651637173799
 30
0.0
 11
9.65147381242478
 21
3.972865611208206
 31
0.0
  0
LINE
  5
664
330
655
100
AcDbEntity
  8
Symbol (ANSI)
100
AcDbLine
 10
9.65147381242478
 20
3.972865611208206
 30
0.0
 11
9.749899009275173
 21
3.972865611208206
 31
0.0
  0
MTEXT
  5
665
330
655
100
AcDbEntity
  8
Symbol (ANSI)
100
AcDbMText
 10
9.749899009275173
 20
3.911601430156003
 30
0.0
 40
0.1200000014830762
 41
0.0
 71
     7
 72
     1
  1
 2
  7
Text Style29
 73
     1
 44
1.0
1001
ACAD
1000
MTEXTBEGIN
1070
    73
1070
     1
1070
    44
1040
1.0
1070
    74
1070
     0
1000
MTEXTEND
  0
ENDBLK
  5
657
330
655
100
AcDbEntity
  8
0
100
AcDbBlockEnd
  0
ENDSEC
  0
SECTION
  2
ENTITIES
  0
INSERT
  5
FC
330
37
100
AcDbEntity
  8
0
100
AcDbBlockReference
  2
Borders Default Border
 10
0.0
 20
0.0
 30
0.0
 41
0.2
 42
0.2
 43
0.2
  0
LINE
  5
FD
330
37
100
AcDbEntity
  8
Visible (ANSI)
100
AcDbLine
 10
1.147797487998978
 20
1.024635552581127
 30
0.0
 11
1.15809748799899
 21
1.024635552581127
 31
0.0
  0
LINE
  5
FE
330
37
100
AcDbEntity
  8
Visible (ANSI)
100
AcDbLine
 10
1.158097487998989
 20
1.024635552581127
 30
0.0
 11
1.218097487999061
 21
1.024635552581127
 31
0.0
  0
LINE
  5
FF
330
37
100
AcDbEntity
  8
Visible (ANSI)
100
AcDbLine
 10
0.3180974979979616
 20
0.5746355525805794
 30
0.0
 11
1.218097487999061
 21
0.5746355525805794
 31
0.0
  0
LINE
  5
100
330
37
100
AcDbEntity
  8
Visible (ANSI)
100
AcDbLine
 10
1.009597487998805
 20
1.024635552581127
 30
0.0
 11
0.3180974979979616
 21
1.024635552581127
 31
0.0
  0
LINE
  5
101
330
37
100
AcDbEntity
  8
Visible (ANSI)
100
AcDbLine
 10
1.009597487998805
 20
1.006135552581103
 30
0.0
 11
1.009597487998805
 21
1.024635552581127
 31
0.0
  0
LINE
  5
102
330
37
100
AcDbEntity
  8
Visible (ANSI)
100
AcDbLine
 10
0.3180974979979616
 20
1.024635552581127
 30
0.0
 11
0.3180974979979616
 21
0.5746355525805794
 31
0.0
  0
LINE
  5
103
330
37
100
AcDbEntity
  8
Visible (ANSI)
100
AcDbLine
 10
1.218097487999061
 20
0.5746355525805794
 30
0.0
 11
1.218097487999061
 21
1.002635552581098
 31
0.0
  0
LINE
  5
104
330
37
100
AcDbEntity
  8
Visible (ANSI)
100
AcDbLine
 10
1.218097487999061
 20
1.002635552581098
 30
0.0
 11
1.158097487998989
 21
1.002635552581098
 31
0.0
  0
LINE
  5
105
330
37
100
AcDbEntity
  8
Visible (ANSI)
100
AcDbLine
 10
1.158097487998989
 20
1.002635552581098
 30
0.0
 11
1.158097487998989
 21
0.9246355525810042
 31
0.0
  0
ARC
  5
106
330
37
100
AcDbEntity
  8
Visible (ANSI)
100
AcDbCircle
 10
1.108847487998927
 20
0.9246355525810018
 30
0.0
 40
0.0492500000000594
100
AcDbArc
 50
180.0
 51
0.0
  0
LINE
  5
107
330
37
100
AcDbEntity
  8
Visible (ANSI)
100
AcDbLine
 10
1.059597487998867
 20
0.9246355525810042
 30
0.0
 11
1.059597487998867
 21
1.024635552581127
 31
0.0
  0
LINE
  5
108
330
37
100
AcDbEntity
  8
Visible (ANSI)
100
AcDbLine
 10
1.059597487998867
 20
1.024635552581127
 30
0.0
 11
1.02809748799883
 21
1.024635552581127
 31
0.0
  0
LINE
  5
109
330
37
100
AcDbEntity
  8
Visible (ANSI)
100
AcDbLine
 10
1.02809748799883
 20
1.024635552581127
 30
0.0
 11
1.02809748799883
 21
1.006135552581103
 31
0.0
  0
LINE
  5
10A
330
37
100
AcDbEntity
  8
Visible (ANSI)
100
AcDbLine
 10
1.02809748799883
 20
1.006135552581103
 30
0.0
 11
1.009597487998805
 21
1.006135552581103
 31
0.0
  0
LINE
  5
10B
330
37
100
AcDbEntity
  8
Visible (ANSI)
100
AcDbLine
 10
1.218097487999061
 20
1.024635552581126
 30
0.0
 11
1.218097487999061
 21
1.002635552581099
 31
0.0
  0
LINE
  5
10C
330
37
100
AcDbEntity
  8
Visible (ANSI)
100
AcDbLine
 10
1.059597487998867
 20
1.024635552581127
 30
0.0
 11
1.078097487998889
 21
1.024635552581127
 31
0.0
  0
LINE
  5
10D
330
37
100
AcDbEntity
  8
Visible (ANSI)
100
AcDbLine
 10
1.147797487998978
 20
1.024635552581127
 30
0.0
 11
1.078097487998889
 21
1.024635552581127
 31
0.0
  0
LINE
  5
10E
330
37
100
AcDbEntity
  8
Visible (ANSI)
100
AcDbLine
 10
1.009597487998804
 20
1.024635552581127
 30
0.0
 11
1.028097487998828
 21
1.024635552581127
 31
0.0
  0
LINE
  5
10F
330
37
100
AcDbEntity
  8
Visible (ANSI)
100
AcDbLine
 10
1.147797487998978
 20
1.016135552581117
 30
0.0
 11
1.147797487998978
 21
1.024635552581127
 31
0.0
  0
LINE
  5
110
330
37
100
AcDbEntity
  8
Visible (ANSI)
100
AcDbLine
 10
1.078097487998889
 20
1.024635552581127
 30
0.0
 11
1.078097487998889
 21
0.9246355525810042
 31
0.0
  0
ARC
  5
111
330
37
100
AcDbEntity
  8
Visible (ANSI)
100
AcDbCircle
 10
1.108847487998927
 20
0.9246355525810042
 30
0.0
 40
0.0307500000000367
100
AcDbArc
 50
180.0
 51
0.0
  0
LINE
  5
112
330
37
100
AcDbEntity
  8
Visible (ANSI)
100
AcDbLine
 10
1.139597487998963
 20
0.9246355525810042
 30
0.0
 11
1.139597487998963
 21
1.012635552581112
 31
0.0
  0
ARC
  5
113
330
37
100
AcDbEntity
  8
Visible (ANSI)
100
AcDbCircle
 10
1.143097487998966
 20
1.012635552581114
 30
0.0
 40
0.0035000000000004
100
AcDbArc
 50
89.99999999995422
 51
180.0
  0
LINE
  5
114
330
37
100
AcDbEntity
  8
Visible (ANSI)
100
AcDbLine
 10
1.143097487998968
 20
1.016135552581117
 30
0.0
 11
1.147797487998978
 21
1.016135552581117
 31
0.0
  0
LINE
  5
115
330
37
100
AcDbEntity
  8
Visible (ANSI)
100
AcDbLine
 10
1.139597487998963
 20
1.006135552581103
 30
0.0
 11
1.158097487998989
 21
1.006135552581103
 31
0.0
  0
LINE
  5
116
330
37
100
AcDbEntity
  8
Visible (ANSI)
100
AcDbLine
 10
1.158097487998989
 20
1.0026355525811
 30
0.0
 11
1.158097487998989
 21
1.024635552581126
 31
0.0
  0
CIRCLE
  5
117
330
37
100
AcDbEntity
  8
Visible (ANSI)
100
AcDbCircle
 10
0.5817267487982848
 20
0.925640603381008
 30
0.0
 40
0.0445
  0
CIRCLE
  5
118
330
37
100
AcDbEntity
  8
Visible (ANSI)
100
AcDbCircle
 10
0.779716647198525
 20
0.925640603381008
 30
0.0
 40
0.0445
  0
CIRCLE
  5
119
330
37
100
AcDbEntity
  8
Visible (ANSI)
100
AcDbCircle
 10
0.779716647198525
 20
0.925640603381008
 30
0.0
 40
0.0475000000000011
  0
CIRCLE
  5
11A
330
37
100
AcDbEntity
  8
Visible (ANSI)
100
AcDbCircle
 10
0.5817267487982848
 20
0.925640603381008
 30
0.0
 40
0.0475000000000011
  0
CIRCLE
  5
11B
330
37
100
AcDbEntity
  8
Visible (ANSI)
100
AcDbCircle
 10
0.9787216979987704
 20
0.6776355525807044
 30
0.0
 40
0.0460000000000537
  0
CIRCLE
  5
11C
330
37
100
AcDbEntity
  8
Visible (ANSI)
100
AcDbCircle
 10
0.432736897998101
 20
0.6776355525807044
 30
0.0
 40
0.0510000000000011
  0
CIRCLE
  5
11D
330
37
100
AcDbEntity
  8
Visible (ANSI)
100
AcDbCircle
 10
0.572721697998275
 20
0.7746355525808228
 30
0.0
 40
0.0500000000000011
  0
CIRCLE
  5
11E
330
37
100
AcDbEntity
  8
Visible (ANSI)
100
AcDbCircle
 10
0.9787216979987704
 20
0.9246355525810042
 30
0.0
 40
0.0500000000000011
  0
CIRCLE
  5
11F
330
37
100
AcDbEntity
  8
Visible (ANSI)
100
AcDbCircle
 10
0.9787216979987704
 20
0.9246355525810042
 30
0.0
 40
0.047
  0
CIRCLE
  5
120
330
37
100
AcDbEntity
  8
Visible (ANSI)
100
AcDbCircle
 10
0.9787216979987704
 20
0.6776355525807044
 30
0.0
 40
0.0430000000000526
  0
CIRCLE
  5
121
330
37
100
AcDbEntity
  8
Visible (ANSI)
100
AcDbCircle
 10
0.572721697998275
 20
0.7746355525808228
 30
0.0
 40
0.047
  0
CIRCLE
  5
122
330
37
100
AcDbEntity
  8
Visible (ANSI)
100
AcDbCircle
 10
0.432736897998101
 20
0.6776355525807044
 30
0.0
 40
0.048
  0
CIRCLE
  5
123
330
37
100
AcDbEntity
  8
Hidden Narrow (ANSI)
 48
1.089247584342956
100
AcDbCircle
 10
0.432736897998101
 20
0.6776355525807044
 30
0.0
 40
0.043
  0
CIRCLE
  5
124
330
37
100
AcDbEntity
  8
Hidden Narrow (ANSI)
 48
1.14316713809967
100
AcDbCircle
 10
0.9787216979987704
 20
0.6776355525807044
 30
0.0
 40
0.0526500000000526
  0
LINE
  5
125
330
37
100
AcDbEntity
  8
Center Mark (ANSI)
  6
CHAIN
 48
0.3096053600311279
100
AcDbLine
 10
1.164597487998964
 20
0.9246355525810066
 30
0.0
 11
1.053097487998889
 21
0.9246355525810066
 31
0.0
  0
LINE
  5
126
330
37
100
AcDbEntity
  8
Center Mark (ANSI)
  6
CHAIN
 48
0.1547526866197586
100
AcDbLine
 10
1.108847487998926
 20
0.9246355525810066
 30
0.0
 11
1.108847487998926
 21
0.8688855525809691
 31
0.0
  0
LINE
  5
127
330
37
100
AcDbEntity
  8
Centerline (ANSI)
  6
CHAIN
 48
0.4165439903736115
100
AcDbLine
 10
1.068847487998878
 20
0.8996355525810065
 30
0.0
 11
1.068847487998878
 21
1.049635552581128
 31
0.0
  0
LINE
  5
128
330
37
100
AcDbEntity
  8
Centerline (ANSI)
  6
CHAIN
 48
0.4476102888584137
100
AcDbLine
 10
1.148847487998976
 20
0.8996355525810065
 30
0.0
 11
1.148847487998976
 21
1.060820033177648
 31
0.0
  0
DIMENSION
  5
129
330
37
100
AcDbEntity
  8
Dimension (ANSI)
100
AcDbDimension
  2
*D5
 10
1.108847487998926
 20
1.083305657107866
 30
0.0
 11
0.9984001631926513
 21
1.083305657107866
 31
0.0
 70
   160
  1
<>
 42
0.0389500000000513
  3
Default (ANSI)
100
AcDbAlignedDimension
 13
1.147797487998978
 23
1.024635552581128
 33
0.0
 14
1.108847487998926
 24
0.9246355525810066
 34
0.0
100
AcDbRotatedDimension
1001
ACAD
1000
DSTYLE
1002
{
1070
    73
1070
     0
1070
    74
1070
     0
1070
   271
1070
     3
1070
   272
1070
     3
1070
    48
1040
0.0
1070
    47
1040
0.0
1002
}
  0
DIMENSION
  5
20A
330
37
100
AcDbEntity
  8
Dimension (ANSI)
100
AcDbDimension
  2
*D6
 10
1.315120322644647
 20
0.9246355525810065
 30
0.0
 11
1.315120322644647
 21
0.9798561399741869
 31
0.0
 70
   160
  1
<>
 42
0.1000000000001222
  3
Default (ANSI)
100
AcDbAlignedDimension
 13
1.147797487998978
 23
1.024635552581128
 33
0.0
 14
1.108847487998926
 24
0.9246355525810066
 34
0.0
 50
90.0
100
AcDbRotatedDimension
1001
ACAD
1000
DSTYLE
1002
{
1070
   271
1070
     3
1070
   272
1070
     3
1070
    48
1040
0.0
1070
    47
1040
0.0
1002
}
  0
DIMENSION
  5
2D6
330
37
100
AcDbEntity
  8
Dimension (ANSI)
100
AcDbDimension
  2
*D7
 10
1.148847487998976
 20
1.128375710061443
 30
0.0
 11
0.9853937916136937
 21
1.128375710061443
 31
0.0
 70
   160
  1
<>
 42
0.0800000000000976
  3
Default (ANSI)
100
AcDbAlignedDimension
 13
1.068847487998878
 23
1.049635552581128
 33
0.0
 14
1.148847487998976
 24
1.060820033177648
 34
0.0
100
AcDbRotatedDimension
1001
ACAD
1000
DSTYLE
1002
{
1070
    73
1070
     0
1070
    74
1070
     0
1070
   271
1070
     3
1070
   272
1070
     3
1070
    48
1040
0.0
1070
    47
1040
0.0
1002
}
  0
DIMENSION
  5
3B6
330
37
100
AcDbEntity
  8
Dimension (ANSI)
100
AcDbDimension
  2
*D8
 10
1.108847487998926
 20
0.9246355525810065
 30
0.0
 11
0.94486815258253
 21
0.828213845446201
 31
0.0
 70
   164
  1
<>
 42
0.0307500000000376
  3
Default (ANSI)
100
AcDbRadialDimension
 15
1.093472487998902
 25
0.8980052714146054
 35
0.0
 40
0.0
1001
ACAD
1000
DSTYLE
1002
{
1070
   271
1070
     4
1070
   141
1040
0.0
1070
   272
1070
     3
1070
    48
1040
0.0
1070
    47
1040
0.0
1002
}
  0
DIMENSION
  5
44D
330
37
100
AcDbEntity
  8
Dimension (ANSI)
100
AcDbDimension
  2
*D9
 10
1.108847487998925
 20
0.9246355525810059
 30
0.0
 11
1.306067177416337
 21
0.8280027757575918
 31
0.0
 70
   164
  1
<>
 42
0.04925000000006
  3
Default (ANSI)
100
AcDbRadialDimension
 15
1.142194004544247
 25
0.8883923141178321
 35
0.0
 40
0.0
1001
ACAD
1000
DSTYLE
1002
{
1070
   271
1070
     4
1070
   141
1040
0.0
1070
   272
1070
     3
1070
    48
1040
0.0
1070
    47
1040
0.0
1002
}
  0
MTEXT
  5
4E4
102
{ACAD_REACTORS
330
4E5
102
}
330
37
100
AcDbEntity
  8
Symbol (ANSI)
100
AcDbMText
 10
1.248006769629051
 20
1.094876833945311
 30
0.0
 40
0.0240000002966153
 41
0.1729789305859663
 71
     1
 72
     1
  1
{Tuning stub}
  7
Note Text (ANSI)
 73
     1
 44
1.0
1001
ACAD
1000
MTEXTBEGIN
1070
    73
1070
     1
1070
    44
1040
1.0
1070
    74
1070
     0
1000
MTEXTEND
  0
LEADER
  5
4E5
330
37
100
AcDbEntity
  8
Symbol (ANSI)
100
AcDbLeader
  3
Default (ANSI)$7
 73
     0
 40
0.0318979184600414
 41
0.1721101431613549
 76
     4
 10
1.142053241091679
 20
1.021016015894289
 30
0.0
 10
1.19591844408394
 20
1.076564505439583
 30
0.0
 10
1.228321730258972
 20
1.082876833797003
 30
0.0
 10
1.241707557030626
 20
1.082876833797003
 30
0.0
340
4E4
213
0.0
223
-0.0120000001483076
233
0.0
1001
ACAD
1000
DSTYLE
1002
{
1070
    77
1070
     0
1002
}
  0
DIMENSION
  5
4E6
330
37
100
AcDbEntity
  8
Dimension (ANSI)
100
AcDbDimension
  2
*D10
 10
1.148847487998976
 20
1.055592215224853
 30
0.0
 11
0.9665297041580133
 21
1.055592215224853
 31
0.0
 70
   160
  1
<>
 42
0.0010499999999982
  3
Default (ANSI)
100
AcDbAlignedDimension
 13
1.147797487998978
 23
1.024635552581128
 33
0.0
 14
1.148847487998976
 24
1.060820033177648
 34
0.0
100
AcDbRotatedDimension
1001
ACAD
1000
DSTYLE
1002
{
1070
    73
1070
     0
1070
    74
1070
     0
1070
   271
1070
     3
1070
    76
1070
     1
1070
   272
1070
     3
1070
    48
1040
0.0
1070
    47
1040
0.0
1002
}
  0
MTEXT
  5
5C1
330
37
100
AcDbEntity
  8
Symbol (ANSI)
100
AcDbMText
 10
1.790619011585176
 20
1.528425063303568
 30
0.0
 40
0.0240000002966153
 41
0.2371021143094761
 71
     1
 72
     1
  1
{4 of 4 (BLOCK3)}
  7
Note Text (ANSI)
 73
     1
 44
1.0
1001
ACAD
1000
MTEXTBEGIN
1070
    73
1070
     1
1070
    44
1040
1.0
1070
    74
1070
     0
1000
MTEXTEND
  0
MTEXT
  5
5C2
330
37
100
AcDbEntity
  8
Symbol (ANSI)
100
AcDbMText
 10
1.639857883630019
 20
0.1893115515163548
 30
0.0
 40
0.0240000002966153
 41
0.0
 71
     1
 72
     1
  1
{B3}
  7
Note Text (ANSI)
 73
     1
 44
1.0
1001
ACAD
1000
MTEXTBEGIN
1070
    73
1070
     1
1070
    44
1040
1.0
1070
    74
1070
     0
1000
MTEXTEND
  0
LINE
  5
5C3
330
37
100
AcDbEntity
  8
Visible (ANSI)
100
AcDbLine
 10
1.567665332885115
 20
1.024635552581127
 30
0.0
 11
1.995665332885638
 21
1.024635552581127
 31
0.0
  0
LINE
  5
5C4
330
37
100
AcDbEntity
  8
Visible (ANSI)
100
AcDbLine
 10
1.545665332885088
 20
0.5746355525805794
 30
0.0
 11
1.995665332885638
 21
0.5746355525805794
 31
0.0
  0
LINE
  5
5C5
330
37
100
AcDbEntity
  8
Visible (ANSI)
100
AcDbLine
 10
1.995665332885638
 20
1.024635552581127
 30
0.0
 11
1.995665332885638
 21
0.5746355525805794
 31
0.0
  0
LINE
  5
5C6
330
37
100
AcDbEntity
  8
Visible (ANSI)
100
AcDbLine
 10
1.545665332885088
 20
0.5746355525805794
 30
0.0
 11
1.545665332885088
 21
1.002635552581098
 31
0.0
  0
ARC
  5
5C7
330
37
100
AcDbEntity
  8
Visible (ANSI)
100
AcDbCircle
 10
1.545665332885091
 20
1.024635552581123
 30
0.0
 40
0.0220000000000239
100
AcDbArc
 50
269.999999999992
 51
0.0
  0
LINE
  5
5C8
330
37
100
AcDbEntity
  8
Visible (ANSI)
100
AcDbLine
 10
1.545665332885067
 20
1.024635552581127
 30
0.0
 11
1.554165332885078
 21
1.024635552581127
 31
0.0
  0
LINE
  5
5C9
330
37
100
AcDbEntity
  8
Visible (ANSI)
100
AcDbLine
 10
1.554165332885076
 20
1.024635552581127
 30
0.0
 11
1.557665332885079
 21
1.024635552581127
 31
0.0
  0
LINE
  5
5CA
330
37
100
AcDbEntity
  8
Visible (ANSI)
100
AcDbLine
 10
1.557665332885079
 20
1.024635552581127
 30
0.0
 11
1.567665332885091
 21
1.024635552581127
 31
0.0
  0
LINE
  5
5CB
330
37
100
AcDbEntity
  8
Visible (ANSI)
100
AcDbLine
 10
1.545665332885067
 20
1.016135552581117
 30
0.0
 11
1.545665332885067
 21
1.024635552581127
 31
0.0
  0
LINE
  5
5CC
330
37
100
AcDbEntity
  8
Visible (ANSI)
100
AcDbLine
 10
1.545665332885065
 20
1.002635552581098
 30
0.0
 11
1.545665332885065
 21
1.012635552581112
 31
0.0
  0
LINE
  5
5CD
330
37
100
AcDbEntity
  8
Visible (ANSI)
100
AcDbLine
 10
1.545665332885065
 20
1.012635552581111
 30
0.0
 11
1.545665332885066
 21
1.016135552581114
 31
0.0
  0
LINE
  5
5CE
330
37
100
AcDbEntity
  8
Visible (ANSI)
100
AcDbLine
 10
1.545665332885067
 20
1.016135552581117
 30
0.0
 11
1.554165332885078
 21
1.016135552581117
 31
0.0
  0
LINE
  5
5CF
330
37
100
AcDbEntity
  8
Visible (ANSI)
100
AcDbLine
 10
1.554165332885078
 20
1.024635552581127
 30
0.0
 11
1.554165332885078
 21
1.016135552581117
 31
0.0
  0
LINE
  5
5D0
330
37
100
AcDbEntity
  8
Visible (ANSI)
100
AcDbLine
 10
1.554165332885076
 20
1.016135552581116
 30
0.0
 11
1.557665332885079
 21
1.012635552581112
 31
0.0
  0
CIRCLE
  5
5D1
330
37
100
AcDbEntity
  8
Visible (ANSI)
100
AcDbCircle
 10
1.875665332885491
 20
0.694635552580725
 30
0.0
 40
0.0430000000000526
  0
CIRCLE
  5
5D2
330
37
100
AcDbEntity
  8
Visible (ANSI)
100
AcDbCircle
 10
1.875665332885491
 20
0.694635552580725
 30
0.0
 40
0.0460000000000526
  0
CIRCLE
  5
5D3
330
37
100
AcDbEntity
  8
Visible (ANSI)
100
AcDbCircle
 10
1.744539114760331
 20
0.8257617707058859
 30
0.0
 40
0.03475
  0
CIRCLE
  5
5D4
330
37
100
AcDbEntity
  8
Visible (ANSI)
100
AcDbCircle
 10
1.74453911476033
 20
0.8257617707058859
 30
0.0
 40
0.03175
  0
CIRCLE
  5
5D5
330
37
100
AcDbEntity
  8
Hidden Narrow (ANSI)
 48
1.14316713809967
100
AcDbCircle
 10
1.875665332885491
 20
0.694635552580725
 30
0.0
 40
0.0526500000000526
  0
INSERT
  5
5FC
330
37
100
AcDbEntity
  8
Dimension (ANSI)
100
AcDbBlockReference
  2
Origin Indicator Symbol4
 10
0.0
 20
0.0
 30
0.0
 41
0.2
 42
0.2
 43
0.2
  0
INSERT
  5
642
330
37
100
AcDbEntity
  8
Symbol (ANSI)
100
AcDbBlockReference
  2
Hole Table4
 10
0.0
 20
0.0
 30
0.0
 41
0.2
 42
0.2
 43
0.2
  0
INSERT
  5
654
330
37
100
AcDbEntity
  8
Symbol (ANSI)
100
AcDbBlockReference
  2
Leader Text14
 10
0.0
 20
0.0
 30
0.0
 41
0.2
 42
0.2
 43
0.2
  0
INSERT
  5
666
330
37
100
AcDbEntity
  8
Symbol (ANSI)
100
AcDbBlockReference
  2
Leader Text15
 10
0.0
 20
0.0
 30
0.0
 41
0.2
 42
0.2
 43
0.2
  0
MTEXT
  5
667
330
37
100
AcDbEntity
  8
Symbol (ANSI)
100
AcDbMText
 10
0.3406516927223413
 20
0.2890799422952037
 30
0.0
 40
0.0240000002966153
 41
0.1625931920029047
 71
     1
 72
     1
  1
{SCALE: 5:1}
  7
Note Text (ANSI)
 73
     1
 44
1.0
1001
ACAD
1000
MTEXTBEGIN
1070
    73
1070
     1
1070
    44
1040
1.0
1070
    74
1070
     0
1000
MTEXTEND
  0
ENDSEC
  0
SECTION
  2
OBJECTS
  0
DICTIONARY
  5
C
330
0
100
AcDbDictionary
281
     1
  3
ACAD_COLOR
350
30
  3
ACAD_GROUP
350
D
  3
ACAD_LAYOUT
350
2F
  3
ACAD_MATERIAL
350
10
  3
ACAD_MLINESTYLE
350
2C
  3
ACAD_PLOTSETTINGS
350
2E
  3
ACAD_PLOTSTYLENAME
350
E
  3
ACAD_TABLESTYLE
350
31
  3
ACAD_VISUALSTYLE
350
14
  3
AcDbVariableDictionary
350
668
  3
DWGPROPS
350
66E
  0
DICTIONARY
  5
30
102
{ACAD_REACTORS
330
C
102
}
330
C
100
AcDbDictionary
281
     1
  0
DICTIONARY
  5
D
102
{ACAD_REACTORS
330
C
102
}
330
C
100
AcDbDictionary
281
     1
  0
DICTIONARY
  5
2F
102
{ACAD_REACTORS
330
C
102
}
330
C
100
AcDbDictionary
281
     1
  3
Layout1
350
36
  3
Layout2
350
3E
  3
Model
350
3A
  0
DICTIONARY
  5
10
102
{ACAD_REACTORS
330
C
102
}
330
C
100
AcDbDictionary
281
     1
  3
ByBlock
350
12
  3
ByLayer
350
11
  3
Global
350
13
  0
DICTIONARY
  5
2C
102
{ACAD_REACTORS
330
C
102
}
330
C
100
AcDbDictionary
281
     1
  3
Standard
350
2D
  0
DICTIONARY
  5
2E
102
{ACAD_REACTORS
330
C
102
}
330
C
100
AcDbDictionary
281
     1
  0
ACDBDICTIONARYWDFLT
  5
E
102
{ACAD_REACTORS
330
C
102
}
330
C
100
AcDbDictionary
281
     1
  3
Normal
350
F
100
AcDbDictionaryWithDefault
340
F
  0
DICTIONARY
  5
31
102
{ACAD_REACTORS
330
C
102
}
330
C
100
AcDbDictionary
281
     1
  3
Standard
350
32
  0
DICTIONARY
  5
14
102
{ACAD_REACTORS
330
C
102
}
330
C
100
AcDbDictionary
281
     1
  3
2dWireframe
350
1A
  3
3D Hidden
350
1C
  3
3dWireframe
350
1B
  3
Basic
350
19
  3
Brighten
350
20
  3
ColorChange
350
24
  3
Conceptual
350
1D
  3
Dim
350
1F
  3
Facepattern
350
23
  3
Flat
350
15
  3
FlatWithEdges
350
16
  3
Gouraud
350
17
  3
GouraudWithEdges
350
18
  3
Linepattern
350
22
  3
Realistic
350
1E
  3
Thicken
350
21
  0
DICTIONARY
  5
668
102
{ACAD_REACTORS
330
C
102
}
330
C
100
AcDbDictionary
281
     1
  3
CTABLESTYLE
350
669
  3
DIMASSOC
350
66D
  3
HIDETEXT
350
66C
  3
INDEXCTL
350
66B
  3
SORTENTS
350
66A
  0
XRECORD
  5
66E
102
{ACAD_REACTORS
330
C
102
}
330
C
100
AcDbXrecord
280
     1
  1
DWGPROPS COOKIE
  2

  3

  4
Da Chow
  6

  7

  8

  9

300
Manager=
301
Company=RADIO ASTRONOMY LABORATORY
302
Category=
303
Part Number=Block3-V61
304
Description=
305
Project=
306
Designer=Da Chow
307
Engineer=
308
Authority=
309
Cost Center=
 40
0.0000224189814815
 41
2454846.689119826
 42
2454846.689119826
  1

 90
       17
300
Vendor=
300
User Status=
300
Design Status=WorkInProgress
300
Checked by=
300
Date Checked=01/14/2009
300
Engr Approved by=
300
Mfg Approved by=
  0
LAYOUT
  5
36
102
{ACAD_XDICTIONARY
360
677
102
}
102
{ACAD_REACTORS
330
2F
102
}
330
2F
100
AcDbPlotSettings
  1

  2

  4

  6

 40
0.0
 41
0.0
 42
0.0
 43
0.0
 44
0.0
 45
0.0
 46
0.0
 47
0.0
 48
0.0
 49
0.0
140
0.0
141
0.0
142
1.0
143
1.0
 70
   688
 72
     0
 73
     0
 74
     5
  7

 75
    16
147
1.0
148
0.0
149
0.0
100
AcDbLayout
  1
Layout1
 70
     1
 71
     1
 10
0.0
 20
0.0
 11
12.0
 21
9.0
 12
0.0
 22
0.0
 32
0.0
 14
0.0
 24
0.0
 34
0.0
 15
0.0
 25
0.0
 35
0.0
146
0.0
 13
0.0
 23
0.0
 33
0.0
 16
1.0
 26
0.0
 36
0.0
 17
0.0
 27
1.0
 37
0.0
 76
     0
330
33
  0
LAYOUT
  5
3E
102
{ACAD_XDICTIONARY
360
67B
102
}
102
{ACAD_REACTORS
330
2F
102
}
330
2F
100
AcDbPlotSettings
  1

  2

  4

  6

 40
0.0
 41
0.0
 42
0.0
 43
0.0
 44
0.0
 45
0.0
 46
0.0
 47
0.0
 48
0.0
 49
0.0
140
0.0
141
0.0
142
1.0
143
1.0
 70
   688
 72
     0
 73
     0
 74
     5
  7

 75
    16
147
1.0
148
0.0
149
0.0
100
AcDbLayout
  1
Layout2
 70
     1
 71
     2
 10
0.0
 20
0.0
 11
12.0
 21
9.0
 12
0.0
 22
0.0
 32
0.0
 14
0.0
 24
0.0
 34
0.0
 15
0.0
 25
0.0
 35
0.0
146
0.0
 13
0.0
 23
0.0
 33
0.0
 16
1.0
 26
0.0
 36
0.0
 17
0.0
 27
1.0
 37
0.0
 76
     0
330
3B
  0
LAYOUT
  5
3A
102
{ACAD_XDICTIONARY
360
679
102
}
102
{ACAD_REACTORS
330
2F
102
}
330
2F
100
AcDbPlotSettings
  1

  2

  4

  6

 40
0.0
 41
0.0
 42
0.0
 43
0.0
 44
0.0
 45
0.0
 46
0.0
 47
0.0
 48
0.0
 49
0.0
140
0.0
141
0.0
142
1.0
143
1.0
 70
  1712
 72
     0
 73
     0
 74
     0
  7

 75
     0
147
1.0
148
0.0
149
0.0
100
AcDbLayout
  1
Model
 70
     1
 71
     0
 10
0.0
 20
0.0
 11
12.0
 21
9.0
 12
0.0
 22
0.0
 32
0.0
 14
0.0
 24
0.0
 34
0.0
 15
0.0
 25
0.0
 35
0.0
146
0.0
 13
0.0
 23
0.0
 33
0.0
 16
1.0
 26
0.0
 36
0.0
 17
0.0
 27
1.0
 37
0.0
 76
     0
330
37
  0
MATERIAL
  5
12
102
{ACAD_XDICTIONARY
360
671
102
}
102
{ACAD_REACTORS
330
10
102
}
330
10
100
AcDbMaterial
  1
ByBlock
  0
MATERIAL
  5
11
102
{ACAD_XDICTIONARY
360
66F
102
}
102
{ACAD_REACTORS
330
10
102
}
330
10
100
AcDbMaterial
  1
ByLayer
  0
MATERIAL
  5
13
102
{ACAD_XDICTIONARY
360
673
102
}
102
{ACAD_REACTORS
330
10
102
}
330
10
100
AcDbMaterial
  1
Global
  0
MLINESTYLE
  5
2D
102
{ACAD_REACTORS
330
2C
102
}
330
2C
100
AcDbMlineStyle
  2
STANDARD
 70
     0
  3

 62
   256
 51
90.0
 52
90.0
 71
     2
 49
0.5
 62
   256
  6
BYLAYER
 49
-0.5
 62
   256
  6
BYLAYER
  0
ACDBPLACEHOLDER
  5
F
102
{ACAD_REACTORS
330
E
102
}
330
E
  0
TABLESTYLE
  5
32
102
{ACAD_XDICTIONARY
360
675
102
}
102
{ACAD_REACTORS
330
31
102
}
330
31
100
AcDbTableStyle
  3
Standard
 70
     0
 71
     0
 40
0.06
 41
0.06
280
     0
281
     0
  7
Standard
140
0.18
170
     2
 62
     0
 63
     7
283
     0
274
    -2
284
     1
 64
     0
275
    -2
285
     1
 65
     0
276
    -2
286
     1
 66
     0
277
    -2
287
     1
 67
     0
278
    -2
288
     1
 68
     0
279
    -2
289
     1
 69
     0
  7
Standard
140
0.25
170
     5
 62
     0
 63
     7
283
     0
274
    -2
284
     1
 64
     0
275
    -2
285
     1
 65
     0
276
    -2
286
     1
 66
     0
277
    -2
287
     1
 67
     0
278
    -2
288
     1
 68
     0
279
    -2
289
     1
 69
     0
  7
Standard
140
0.18
170
     5
 62
     0
 63
     7
283
     0
274
    -2
284
     1
 64
     0
275
    -2
285
     1
 65
     0
276
    -2
286
     1
 66
     0
277
    -2
287
     1
 67
     0
278
    -2
288
     1
 68
     0
279
    -2
289
     1
 69
     0
  0
VISUALSTYLE
  5
1A
102
{ACAD_REACTORS
330
14
102
}
330
14
100
AcDbVisualStyle
  2
2dWireframe
 70
     4
 71
     0
 72
     2
 73
     0
 90
        0
 40
-0.6
 41
-30.0
 62
     5
 63
     7
 74
     1
 91
        4
 64
     7
 65
   257
 75
     1
175
     1
 42
1.0
 92
        0
 66
   257
 43
1.0
 76
     1
 77
     6
 78
     2
 67
     7
 79
     5
170
     0
171
     0
290
     0
174
     0
 93
        1
 44
0.0
173
     0
291
     0
 45
0.0
1001
ACAD
1000
AcDbSavedByObjectVersion
1070
     0
  0
VISUALSTYLE
  5
1C
102
{ACAD_REACTORS
330
14
102
}
330
14
100
AcDbVisualStyle
  2
3D Hidden
 70
     6
 71
     1
 72
     2
 73
     2
 90
        0
 40
-0.6
 41
-30.0
 62
     5
 63
     7
 74
     2
 91
        2
 64
     7
 65
   257
 75
     2
175
     1
 42
40.0
 92
        0
 66
   257
 43
1.0
 76
     1
 77
     6
 78
     2
 67
     7
 79
     3
170
     0
171
     0
290
     0
174
     0
 93
        1
 44
0.0
173
     0
291
     0
 45
0.0
1001
ACAD
1000
AcDbSavedByObjectVersion
1070
     0
  0
VISUALSTYLE
  5
1B
102
{ACAD_REACTORS
330
14
102
}
330
14
100
AcDbVisualStyle
  2
3dWireframe
 70
     5
 71
     0
 72
     2
 73
     0
 90
        0
 40
-0.6
 41
-30.0
 62
     5
 63
     7
 74
     1
 91
        4
 64
     7
 65
   257
 75
     1
175
     1
 42
1.0
 92
        0
 66
   257
 43
1.0
 76
     1
 77
     6
 78
     2
 67
     7
 79
     5
170
     0
171
     0
290
     0
174
     0
 93
        1
 44
0.0
173
     0
291
     0
 45
0.0
1001
ACAD
1000
AcDbSavedByObjectVersion
1070
     0
  0
VISUALSTYLE
  5
19
102
{ACAD_REACTORS
330
14
102
}
330
14
100
AcDbVisualStyle
  2
Basic
 70
     7
 71
     1
 72
     0
 73
     1
 90
        0
 40
-0.6
 41
-30.0
 62
     5
 63
     7
 74
     0
 91
        4
 64
     7
 65
   257
 75
     1
175
     1
 42
1.0
 92
        8
 66
     7
 43
1.0
 76
     1
 77
     6
 78
     2
 67
     7
 79
     5
170
     0
171
     0
290
     0
174
     0
 93
        1
 44
0.0
173
     0
291
     1
 45
0.0
1001
ACAD
1000
AcDbSavedByObjectVersion
1070
     0
  0
VISUALSTYLE
  5
20
102
{ACAD_REACTORS
330
14
102
}
330
14
100
AcDbVisualStyle
  2
Brighten
 70
    12
 71
     2
 72
     2
 73
     0
 90
        0
 40
-0.6
 41
-30.0
 62
     5
 63
     7
 74
     1
 91
        4
 64
     7
 65
   257
 75
     1
175
     1
 42
1.0
 92
        8
 66
     7
 43
1.0
 76
     1
 77
     6
 78
     2
 67
     7
 79
     5
170
     0
171
     0
290
     0
174
     0
 93
        1
 44
50.0
173
     0
291
     1
 45
0.0
1001
ACAD
1000
AcDbSavedByObjectVersion
1070
     0
  0
VISUALSTYLE
  5
24
102
{ACAD_REACTORS
330
14
102
}
330
14
100
AcDbVisualStyle
  2
ColorChange
 70
    16
 71
     2
 72
     2
 73
     3
 90
        0
 40
-0.6
 41
-30.0
 62
     5
 63
     8
 74
     1
 91
        4
 64
     7
 65
   257
 75
     1
175
     1
 42
1.0
 92
        8
 66
     8
 43
1.0
 76
     1
 77
     6
 78
     2
 67
     7
 79
     5
170
     0
171
     0
290
     0
174
     0
 93
        1
 44
0.0
173
     0
291
     1
 45
0.0
1001
ACAD
1000
AcDbSavedByObjectVersion
1070
     0
  0
VISUALSTYLE
  5
1D
102
{ACAD_REACTORS
330
14
102
}
330
14
100
AcDbVisualStyle
  2
Conceptual
 70
     9
 71
     3
 72
     2
 73
     0
 90
        0
 40
-0.6
 41
-30.0
 62
     5
 63
     7
 74
     2
 91
        2
 64
     7
 65
   257
 75
     1
175
     1
 42
40.0
 92
        8
 66
     7
 43
1.0
 76
     1
 77
     6
 78
     2
 67
     7
 79
     3
170
     0
171
     0
290
     0
174
     0
 93
        1
 44
0.0
173
     0
291
     0
 45
0.0
1001
ACAD
1000
AcDbSavedByObjectVersion
1070
     0
  0
VISUALSTYLE
  5
1F
102
{ACAD_REACTORS
330
14
102
}
330
14
100
AcDbVisualStyle
  2
Dim
 70
    11
 71
     2
 72
     2
 73
     0
 90
        0
 40
-0.6
 41
-30.0
 62
     5
 63
     7
 74
     1
 91
        4
 64
     7
 65
   257
 75
     1
175
     1
 42
1.0
 92
        8
 66
     7
 43
1.0
 76
     1
 77
     6
 78
     2
 67
     7
 79
     5
170
     0
171
     0
290
     0
174
     0
 93
        1
 44
-50.0
173
     0
291
     1
 45
0.0
1001
ACAD
1000
AcDbSavedByObjectVersion
1070
     0
  0
VISUALSTYLE
  5
23
102
{ACAD_REACTORS
330
14
102
}
330
14
100
AcDbVisualStyle
  2
Facepattern
 70
    15
 71
     2
 72
     2
 73
     0
 90
        0
 40
-0.6
 41
-30.0
 62
     5
 63
     7
 74
     1
 91
        4
 64
     7
 65
   257
 75
     1
175
     1
 42
1.0
 92
        8
 66
     7
 43
1.0
 76
     1
 77
     6
 78
     2
 67
     7
 79
     5
170
     0
171
     0
290
     0
174
     0
 93
        1
 44
0.0
173
     0
291
     1
 45
0.0
1001
ACAD
1000
AcDbSavedByObjectVersion
1070
     0
  0
VISUALSTYLE
  5
15
102
{ACAD_REACTORS
330
14
102
}
330
14
100
AcDbVisualStyle
  2
Flat
 70
     0
 71
     2
 72
     1
 73
     1
 90
        2
 40
-0.6
 41
30.0
 62
     5
 63
     7
 74
     0
 91
        4
 64
     7
 65
   257
 75
     1
175
     1
 42
1.0
 92
        8
 66
     7
 43
1.0
 76
     1
 77
     6
 78
     2
 67
     7
 79
     5
170
     0
171
     0
290
     0
174
     0
 93
       13
 44
0.0
173
     0
291
     1
 45
0.0
1001
ACAD
1000
AcDbSavedByObjectVersion
1070
     0
  0
VISUALSTYLE
  5
16
102
{ACAD_REACTORS
330
14
102
}
330
14
100
AcDbVisualStyle
  2
FlatWithEdges
 70
     1
 71
     2
 72
     1
 73
     1
 90
        2
 40
-0.6
 41
30.0
 62
     5
 63
     7
 74
     1
 91
        4
 64
     7
 65
   257
 75
     1
175
     1
 42
1.0
 92
        0
 66
   257
 43
1.0
 76
     1
 77
     6
 78
     2
 67
     7
 79
     5
170
     0
171
     0
290
     0
174
     0
 93
       13
 44
0.0
173
     0
291
     1
 45
0.0
1001
ACAD
1000
AcDbSavedByObjectVersion
1070
     0
  0
VISUALSTYLE
  5
17
102
{ACAD_REACTORS
330
14
102
}
330
14
100
AcDbVisualStyle
  2
Gouraud
 70
     2
 71
     2
 72
     2
 73
     1
 90
        2
 40
-0.6
 41
30.0
 62
     5
 63
     7
 74
     0
 91
        4
 64
     7
 65
   257
 75
     1
175
     1
 42
1.0
 92
        0
 66
     7
 43
1.0
 76
     1
 77
     6
 78
     2
 67
     7
 79
     5
170
     0
171
     0
290
     0
174
     0
 93
       13
 44
0.0
173
     0
291
     1
 45
0.0
1001
ACAD
1000
AcDbSavedByObjectVersion
1070
     0
  0
VISUALSTYLE
  5
18
102
{ACAD_REACTORS
330
14
102
}
330
14
100
AcDbVisualStyle
  2
GouraudWithEdges
 70
     3
 71
     2
 72
     2
 73
     1
 90
        2
 40
-0.6
 41
30.0
 62
     5
 63
     7
 74
     1
 91
        4
 64
     7
 65
   257
 75
     1
175
     1
 42
1.0
 92
        0
 66
   257
 43
1.0
 76
     1
 77
     6
 78
     2
 67
     7
 79
     5
170
     0
171
     0
290
     0
174
     0
 93
       13
 44
0.0
173
     0
291
     1
 45
0.0
1001
ACAD
1000
AcDbSavedByObjectVersion
1070
     0
  0
VISUALSTYLE
  5
22
102
{ACAD_REACTORS
330
14
102
}
330
14
100
AcDbVisualStyle
  2
Linepattern
 70
    14
 71
     2
 72
     2
 73
     0
 90
        0
 40
-0.6
 41
-30.0
 62
     5
 63
     7
 74
     1
 91
        4
 64
     7
 65
   257
 75
     7
175
     7
 42
1.0
 92
        8
 66
     7
 43
1.0
 76
     1
 77
     6
 78
     2
 67
     7
 79
     5
170
     0
171
     0
290
     0
174
     0
 93
        1
 44
0.0
173
     0
291
     1
 45
0.0
1001
ACAD
1000
AcDbSavedByObjectVersion
1070
     0
  0
VISUALSTYLE
  5
1E
102
{ACAD_REACTORS
330
14
102
}
330
14
100
AcDbVisualStyle
  2
Realistic
 70
     8
 71
     2
 72
     2
 73
     0
 90
        0
 40
-0.6
 41
-30.0
 62
     5
 63
     7
 74
     1
 91
        0
 64
     7
 65
   257
 75
     1
175
     1
 42
1.0
 92
        8
 66
     8
 43
1.0
 76
     1
 77
     6
 78
     2
 67
     7
 79
     5
170
     0
171
     0
290
     0
174
     0
 93
       13
 44
0.0
173
     0
291
     0
 45
0.0
1001
ACAD
1000
AcDbSavedByObjectVersion
1070
     0
  0
VISUALSTYLE
  5
21
102
{ACAD_REACTORS
330
14
102
}
330
14
100
AcDbVisualStyle
  2
Thicken
 70
    13
 71
     2
 72
     2
 73
     0
 90
        0
 40
-0.6
 41
-30.0
 62
     5
 63
     7
 74
     1
 91
        4
 64
     7
 65
   257
 75
     1
175
     1
 42
1.0
 92
       12
 66
     7
 43
1.0
 76
     1
 77
     6
 78
     2
 67
     7
 79
     5
170
     0
171
     0
290
     0
174
     0
 93
        1
 44
0.0
173
     0
291
     1
 45
0.0
1001
ACAD
1000
AcDbSavedByObjectVersion
1070
     0
  0
DICTIONARYVAR
  5
669
102
{ACAD_REACTORS
330
668
102
}
330
668
100
DictionaryVariables
280
     0
  1
STANDARD
  0
DICTIONARYVAR
  5
66D
102
{ACAD_REACTORS
330
668
102
}
330
668
100
DictionaryVariables
280
     0
  1
1
  0
DICTIONARYVAR
  5
66C
102
{ACAD_REACTORS
330
668
102
}
330
668
100
DictionaryVariables
280
     0
  1
1
  0
DICTIONARYVAR
  5
66B
102
{ACAD_REACTORS
330
668
102
}
330
668
100
DictionaryVariables
280
     0
  1
0
  0
DICTIONARYVAR
  5
66A
102
{ACAD_REACTORS
330
668
102
}
330
668
100
DictionaryVariables
280
     0
  1
127
  0
DICTIONARY
  5
677
330
36
100
AcDbDictionary
280
     1
281
     1
  3
ACAD_XREC_ROUNDTRIP
360
678
  0
DICTIONARY
  5
67B
330
3E
100
AcDbDictionary
280
     1
281
     1
  3
ACAD_XREC_ROUNDTRIP
360
67C
  0
DICTIONARY
  5
679
330
3A
100
AcDbDictionary
280
     1
281
     1
  3
ACAD_XREC_ROUNDTRIP
360
67A
  0
DICTIONARY
  5
671
330
12
100
AcDbDictionary
280
     1
281
     1
  3
ACAD_XREC_ROUNDTRIP
360
672
  0
DICTIONARY
  5
66F
330
11
100
AcDbDictionary
280
     1
281
     1
  3
ACAD_XREC_ROUNDTRIP
360
670
  0
DICTIONARY
  5
673
330
13
100
AcDbDictionary
280
     1
281
     1
  3
ACAD_XREC_ROUNDTRIP
360
674
  0
DICTIONARY
  5
675
330
32
100
AcDbDictionary
280
     1
281
     1
  3
ACAD_XREC_ROUNDTRIP
360
676
  0
XRECORD
  5
678
102
{ACAD_REACTORS
330
677
102
}
330
677
100
AcDbXrecord
280
     1
102
SHADEPLOT
 70
     0
102
SHADEPLOTRESLEVEL
 70
     2
102
SHADEPLOTCUSTOMDPI
 70
   300
  0
XRECORD
  5
67C
102
{ACAD_REACTORS
330
67B
102
}
330
67B
100
AcDbXrecord
280
     1
102
SHADEPLOT
 70
     0
102
SHADEPLOTRESLEVEL
 70
     2
102
SHADEPLOTCUSTOMDPI
 70
   300
  0
XRECORD
  5
67A
102
{ACAD_REACTORS
330
679
102
}
330
679
100
AcDbXrecord
280
     1
102
SHADEPLOT
 70
     0
102
SHADEPLOTRESLEVEL
 70
     2
102
SHADEPLOTCUSTOMDPI
 70
   300
  0
XRECORD
  5
672
102
{ACAD_REACTORS
330
671
102
}
330
671
100
AcDbXrecord
280
     1
102
MATERIAL
148
0.0
149
0.0
149
0.0
 93
        0
 94
       63
282
     0
 72
     1
 77
     1
171
     1
175
     1
179
     1
273
     0
  0
XRECORD
  5
670
102
{ACAD_REACTORS
330
66F
102
}
330
66F
100
AcDbXrecord
280
     1
102
MATERIAL
148
0.0
149
0.0
149
0.0
 93
        0
 94
       63
282
     0
 72
     1
 77
     1
171
     1
175
     1
179
     1
273
     0
  0
XRECORD
  5
674
102
{ACAD_REACTORS
330
673
102
}
330
673
100
AcDbXrecord
280
     1
102
MATERIAL
148
0.0
149
0.0
149
0.0
 93
        0
 94
       63
282
     0
 72
     1
 77
     1
171
     1
175
     1
179
     1
273
     0
  0
XRECORD
  5
676
102
{ACAD_REACTORS
330
675
102
}
330
675
100
AcDbXrecord
280
     1
102
ACAD_ROUNDTRIP_PRE2007_TABLESTYLE
 90
      512
 91
        0
  1

 92
      512
 93
        0
  2

 94
      512
 95
        0
  3

  0
ENDSEC
  0
EOF
