  0
SECTION
  2
HEADER
  9
$ACADVER
  1
AC1015
  9
$ACADMAINTVER
 70
    18
  9
$DWGCODEPAGE
  3
ANSI_1252
  9
$INSBASE
 10
0.0
 20
0.0
 30
0.0
  9
$EXTMIN
 10
0.0
 20
0.0
 30
0.0
  9
$EXTMAX
 10
2.2
 20
1.7
 30
0.0
  9
$LIMMIN
 10
0.0
 20
0.0
  9
$LIMMAX
 10
2.2
 20
1.7
  9
$ORTHOMODE
 70
     0
  9
$REGENMODE
 70
     1
  9
$FILLMODE
 70
     1
  9
$QTEXTMODE
 70
     0
  9
$MIRRTEXT
 70
     0
  9
$LTSCALE
 40
0.2
  9
$ATTMODE
 70
     1
  9
$TEXTSIZE
 40
0.2
  9
$TRACEWID
 40
0.05
  9
$TEXTSTYLE
  7
Standard
  9
$CLAYER
  8
0
  9
$CELTYPE
  6
ByLayer
  9
$CECOLOR
 62
   256
  9
$CELTSCALE
 40
1.0
  9
$DISPSILH
 70
     0
  9
$DIMSCALE
 40
1.0
  9
$DIMASZ
 40
0.0708661417322835
  9
$DIMEXO
 40
0.0625
  9
$DIMDLI
 40
0.38
  9
$DIMRND
 40
0.0
  9
$DIMDLE
 40
0.0
  9
$DIMEXE
 40
0.18
  9
$DIMTP
 40
0.0
  9
$DIMTM
 40
0.0
  9
$DIMTXT
 40
0.3048000037670135
  9
$DIMCEN
 40
0.09
  9
$DIMTSZ
 40
0.0
  9
$DIMTOL
 70
     0
  9
$DIMLIM
 70
     0
  9
$DIMTIH
 70
     1
  9
$DIMTOH
 70
     1
  9
$DIMSE1
 70
     0
  9
$DIMSE2
 70
     0
  9
$DIMTAD
 70
     0
  9
$DIMZIN
 70
     0
  9
$DIMBLK
  1

  9
$DIMASO
 70
     1
  9
$DIMSHO
 70
     1
  9
$DIMPOST
  1

  9
$DIMAPOST
  1

  9
$DIMALT
 70
     0
  9
$DIMALTD
 70
     2
  9
$DIMALTF
 40
25.4
  9
$DIMLFAC
 40
1.0
  9
$DIMTOFL
 70
     0
  9
$DIMTVP
 40
0.0
  9
$DIMTIX
 70
     0
  9
$DIMSOXD
 70
     0
  9
$DIMSAH
 70
     0
  9
$DIMBLK1
  1

  9
$DIMBLK2
  1

  9
$DIMSTYLE
  2
Standard
  9
$DIMCLRD
 70
     0
  9
$DIMCLRE
 70
     0
  9
$DIMCLRT
 70
     0
  9
$DIMTFAC
 40
1.0
  9
$DIMGAP
 40
0.09
  9
$DIMJUST
 70
     0
  9
$DIMSD1
 70
     0
  9
$DIMSD2
 70
     0
  9
$DIMTOLJ
 70
     1
  9
$DIMTZIN
 70
     0
  9
$DIMALTZ
 70
     0
  9
$DIMALTTZ
 70
     0
  9
$DIMUPT
 70
     0
  9
$DIMDEC
 70
     4
  9
$DIMTDEC
 70
     4
  9
$DIMALTU
 70
     2
  9
$DIMALTTD
 70
     2
  9
$DIMTXSTY
  7
Standard
  9
$DIMAUNIT
 70
     0
  9
$DIMADEC
 70
     0
  9
$DIMALTRND
 40
0.0
  9
$DIMAZIN
 70
     0
  9
$DIMDSEP
 70
    46
  9
$DIMATFIT
 70
     3
  9
$DIMFRAC
 70
     0
  9
$DIMLDRBLK
  1

  9
$DIMLUNIT
 70
     2
  9
$DIMLWD
 70
    -2
  9
$DIMLWE
 70
    -2
  9
$DIMTMOVE
 70
     0
  9
$LUNITS
 70
     2
  9
$LUPREC
 70
     4
  9
$SKETCHINC
 40
0.1
  9
$FILLETRAD
 40
0.0
  9
$AUNITS
 70
     0
  9
$AUPREC
 70
     0
  9
$MENU
  1
.
  9
$ELEVATION
 40
0.0
  9
$PELEVATION
 40
0.0
  9
$THICKNESS
 40
0.0
  9
$LIMCHECK
 70
     0
  9
$CHAMFERA
 40
0.0
  9
$CHAMFERB
 40
0.0
  9
$CHAMFERC
 40
0.0
  9
$CHAMFERD
 40
0.0
  9
$SKPOLY
 70
     0
  9
$TDCREATE
 40
2454846.639357998
  9
$TDUCREATE
 40
2454846.972691331
  9
$TDUPDATE
 40
2454846.639357998
  9
$TDUUPDATE
 40
2454846.972691331
  9
$TDINDWG
 40
0.0000383333
  9
$TDUSRTIMER
 40
0.0000383333
  9
$USRTIMER
 70
     1
  9
$ANGBASE
 50
0.0
  9
$ANGDIR
 70
     0
  9
$PDMODE
 70
     0
  9
$PDSIZE
 40
0.0
  9
$PLINEWID
 40
0.0
  9
$SPLFRAME
 70
     0
  9
$SPLINETYPE
 70
     6
  9
$SPLINESEGS
 70
     8
  9
$HANDSEED
  5
D78
  9
$SURFTAB1
 70
     6
  9
$SURFTAB2
 70
     6
  9
$SURFTYPE
 70
     6
  9
$SURFU
 70
     6
  9
$SURFV
 70
     6
  9
$UCSBASE
  2

  9
$UCSNAME
  2

  9
$UCSORG
 10
0.0
 20
0.0
 30
0.0
  9
$UCSXDIR
 10
1.0
 20
0.0
 30
0.0
  9
$UCSYDIR
 10
0.0
 20
1.0
 30
0.0
  9
$UCSORTHOREF
  2

  9
$UCSORTHOVIEW
 70
     0
  9
$UCSORGTOP
 10
0.0
 20
0.0
 30
0.0
  9
$UCSORGBOTTOM
 10
0.0
 20
0.0
 30
0.0
  9
$UCSORGLEFT
 10
0.0
 20
0.0
 30
0.0
  9
$UCSORGRIGHT
 10
0.0
 20
0.0
 30
0.0
  9
$UCSORGFRONT
 10
0.0
 20
0.0
 30
0.0
  9
$UCSORGBACK
 10
0.0
 20
0.0
 30
0.0
  9
$PUCSBASE
  2

  9
$PUCSNAME
  2

  9
$PUCSORG
 10
0.0
 20
0.0
 30
0.0
  9
$PUCSXDIR
 10
1.0
 20
0.0
 30
0.0
  9
$PUCSYDIR
 10
0.0
 20
1.0
 30
0.0
  9
$PUCSORTHOREF
  2

  9
$PUCSORTHOVIEW
 70
     0
  9
$PUCSORGTOP
 10
0.0
 20
0.0
 30
0.0
  9
$PUCSORGBOTTOM
 10
0.0
 20
0.0
 30
0.0
  9
$PUCSORGLEFT
 10
0.0
 20
0.0
 30
0.0
  9
$PUCSORGRIGHT
 10
0.0
 20
0.0
 30
0.0
  9
$PUCSORGFRONT
 10
0.0
 20
0.0
 30
0.0
  9
$PUCSORGBACK
 10
0.0
 20
0.0
 30
0.0
  9
$USERI1
 70
     0
  9
$USERI2
 70
     0
  9
$USERI3
 70
     0
  9
$USERI4
 70
     0
  9
$USERI5
 70
     0
  9
$USERR1
 40
0.0
  9
$USERR2
 40
0.0
  9
$USERR3
 40
0.0
  9
$USERR4
 40
0.0
  9
$USERR5
 40
0.0
  9
$WORLDVIEW
 70
     1
  9
$SHADEDGE
 70
     3
  9
$SHADEDIF
 70
    70
  9
$TILEMODE
 70
     1
  9
$MAXACTVP
 70
    64
  9
$PINSBASE
 10
0.0
 20
0.0
 30
0.0
  9
$PLIMCHECK
 70
     0
  9
$PEXTMIN
 10
0.0
 20
0.0
 30
0.0
  9
$PEXTMAX
 10
2.2
 20
1.7
 30
0.0
  9
$PLIMMIN
 10
0.0
 20
0.0
  9
$PLIMMAX
 10
2.2
 20
1.7
  9
$UNITMODE
 70
     0
  9
$VISRETAIN
 70
     1
  9
$PLINEGEN
 70
     0
  9
$PSLTSCALE
 70
     1
  9
$TREEDEPTH
 70
  3020
  9
$CMLSTYLE
  2
Standard
  9
$CMLJUST
 70
     0
  9
$CMLSCALE
 40
1.0
  9
$PROXYGRAPHICS
 70
     1
  9
$MEASUREMENT
 70
     0
  9
$CELWEIGHT
370
    -1
  9
$ENDCAPS
280
     0
  9
$JOINSTYLE
280
     0
  9
$LWDISPLAY
290
     0
  9
$INSUNITS
 70
     0
  9
$HYPERLINKBASE
  1

  9
$STYLESHEET
  1

  9
$XEDIT
290
     1
  9
$CEPSNTYPE
380
     0
  9
$PSTYLEMODE
290
     1
  9
$FINGERPRINTGUID
  2
{67D198E5-78C7-44FD-9596-4AD00904E08A}
  9
$VERSIONGUID
  2
{C8F8E85E-B9A5-42FB-9801-87135937B6F3}
  9
$EXTNAMES
290
     1
  9
$PSVPSCALE
 40
0.0
  9
$OLESTARTUP
290
     0
  0
ENDSEC
  0
SECTION
  2
CLASSES
  0
CLASS
  1
ACDBDICTIONARYWDFLT
  2
AcDbDictionaryWithDefault
  3
ObjectDBX Classes
 90
        0
280
     0
281
     0
  0
CLASS
  1
MATERIAL
  2
AcDbMaterial
  3
ObjectDBX Classes
 90
     1024
280
     0
281
     0
  0
CLASS
  1
VISUALSTYLE
  2
AcDbVisualStyle
  3
ObjectDBX Classes
 90
     4095
280
     0
281
     0
  0
CLASS
  1
TABLESTYLE
  2
AcDbTableStyle
  3
ObjectDBX Classes
 90
     4095
280
     0
281
     0
  0
CLASS
  1
DICTIONARYVAR
  2
AcDbDictionaryVar
  3
ObjectDBX Classes
 90
        0
280
     0
281
     0
  0
CLASS
  1
ACDBPLACEHOLDER
  2
AcDbPlaceHolder
  3
ObjectDBX Classes
 90
        0
280
     0
281
     0
  0
CLASS
  1
LAYOUT
  2
AcDbLayout
  3
ObjectDBX Classes
 90
        0
280
     0
281
     0
  0
ENDSEC
  0
SECTION
  2
TABLES
  0
TABLE
  2
VPORT
  5
8
330
0
100
AcDbSymbolTable
 70
     1
  0
VPORT
  5
28
330
8
100
AcDbSymbolTableRecord
100
AcDbViewportTableRecord
  2
*Active
 70
     0
 10
0.0
 20
0.0
 11
1.0
 21
1.0
 12
1.1
 22
0.85
 13
0.0
 23
0.0
 14
1.0
 24
1.0
 15
0.0
 25
0.0
 16
0.0
 26
0.0
 36
1.0
 17
0.0
 27
0.0
 37
0.0
 40
1.7
 41
1.294117647058823
 42
50.0
 43
0.0
 44
0.0
 50
0.0
 51
0.0
 71
     0
 72
   100
 73
     1
 74
     1
 75
     0
 76
     0
 77
     0
 78
     0
281
     0
 65
     1
110
0.0
120
0.0
130
0.0
111
1.0
121
0.0
131
0.0
112
0.0
122
1.0
132
0.0
 79
     0
146
0.0
  0
ENDTAB
  0
TABLE
  2
LTYPE
  5
5
330
0
100
AcDbSymbolTable
 70
    59
  0
LTYPE
  5
29
330
5
100
AcDbSymbolTableRecord
100
AcDbLinetypeTableRecord
  2
ByBlock
 70
     0
  3

 72
    65
 73
     0
 40
0.0
  0
LTYPE
  5
2A
330
5
100
AcDbSymbolTableRecord
100
AcDbLinetypeTableRecord
  2
ByLayer
 70
     0
  3

 72
    65
 73
     0
 40
0.0
  0
LTYPE
  5
2B
330
5
100
AcDbSymbolTableRecord
100
AcDbLinetypeTableRecord
  2
Continuous
 70
     0
  3
Solid line
 72
    65
 73
     0
 40
0.0
  0
LTYPE
  5
40
330
5
100
AcDbSymbolTableRecord
100
AcDbLinetypeTableRecord
  2
BY_STANDARD
 70
     0
  3
By Standard ____________    ____    ____   _
 72
    65
 73
     6
 40
1.240299999999999
 49
0.6614
 74
     0
 49
-0.0827
 74
     0
 49
0.1654
 74
     0
 49
-0.0827
 74
     0
 49
0.1654
 74
     0
 49
-0.0827
 74
     0
  0
LTYPE
  5
41
330
5
100
AcDbSymbolTableRecord
100
AcDbLinetypeTableRecord
  2
CHAIN
 70
     0
  3
Chain ____ _ ____ _ ____ _ ____ _ ____ _ ____
 72
    65
 73
     4
 40
0.7087
 49
0.4724000000000001
 74
     0
 49
-0.0591
 74
     0
 49
0.1181
 74
     0
 49
-0.0591
 74
     0
  0
LTYPE
  5
42
330
5
100
AcDbSymbolTableRecord
100
AcDbLinetypeTableRecord
  2
DASH_DOT
 70
     0
  3
Dash dot __ . __ . __ . __ . __ . __ . __ . __
 72
    65
 73
     4
 40
0.37
 49
0.24
 74
     0
 49
-0.06
 74
     0
 49
0.01
 74
     0
 49
-0.06
 74
     0
  0
LTYPE
  5
43
330
5
100
AcDbSymbolTableRecord
100
AcDbLinetypeTableRecord
  2
DOUBLE_DASH_DOT
 70
     0
  3
Double-Dash Dot __ __ . __ __ . __ __ . __ _
 72
    65
 73
     6
 40
0.4398
 49
0.24
 74
     0
 49
-0.06
 74
     0
 49
0.0098
 74
     0
 49
-0.06
 74
     0
 49
0.01
 74
     0
 49
-0.06
 74
     0
  0
LTYPE
  5
44
330
5
100
AcDbSymbolTableRecord
100
AcDbLinetypeTableRecord
  2
DASH_TRIPLE_DOT
 70
     0
  3
Dash Triple-Dot _ . . . _ . . . _ . . . _
 72
    65
 73
     8
 40
0.51
 49
0.24
 74
     0
 49
-0.06
 74
     0
 49
0.01
 74
     0
 49
-0.06
 74
     0
 49
0.01
 74
     0
 49
-0.06
 74
     0
 49
0.01
 74
     0
 49
-0.06
 74
     0
  0
LTYPE
  5
45
330
5
100
AcDbSymbolTableRecord
100
AcDbLinetypeTableRecord
  2
DASHED
 70
     0
  3
Dashed __ __ __ __ __ __ __ __ __ __ __ __ __ _
 72
    65
 73
     2
 40
0.2067
 49
0.1654
 74
     0
 49
-0.0413
 74
     0
  0
LTYPE
  5
46
330
5
100
AcDbSymbolTableRecord
100
AcDbLinetypeTableRecord
  2
DASH_DOUBLE_DOT
 70
     0
  3
Dash Double-Dot __ . . __ . . __ . . __ . .
 72
    65
 73
     6
 40
0.4398
 49
0.24
 74
     0
 49
-0.06
 74
     0
 49
0.0098
 74
     0
 49
-0.06
 74
     0
 49
0.01
 74
     0
 49
-0.06
 74
     0
  0
LTYPE
  5
47
330
5
100
AcDbSymbolTableRecord
100
AcDbLinetypeTableRecord
  2
DASHED_SPACE
 70
     0
  3
Dashed Space __ __ __ __ __ __ __ __ __ __ __ _
 72
    65
 73
     2
 40
0.2067
 49
0.1654
 74
     0
 49
-0.0413
 74
     0
  0
LTYPE
  5
48
330
5
100
AcDbSymbolTableRecord
100
AcDbLinetypeTableRecord
  2
DOTTED
 70
     0
  3
Dotted . . . . . . . . . . . . . . . . . . . . 
 72
    65
 73
     2
 40
0.0482
 49
0.0069
 74
     0
 49
-0.0413
 74
     0
  0
LTYPE
  5
49
330
5
100
AcDbSymbolTableRecord
100
AcDbLinetypeTableRecord
  2
DOUBLE_DASH_CHAIN
 70
     0
  3
Double-Dash Chain ______  __  __  ______  __  _
 72
    65
 73
     6
 40
1.240299999999999
 49
0.6614
 74
     0
 49
-0.0827
 74
     0
 49
0.1654
 74
     0
 49
-0.0827
 74
     0
 49
0.1654
 74
     0
 49
-0.0827
 74
     0
  0
LTYPE
  5
4B
330
5
100
AcDbSymbolTableRecord
100
AcDbLinetypeTableRecord
  2
DOUBLE_DASH_DOUBLE_DOT
 70
     0
  3
Double-Dash Double-dot _ _ . . _ _ . . _
 72
    65
 73
     8
 40
0.7400000000000001
 49
0.24
 74
     0
 49
-0.06
 74
     0
 49
0.24
 74
     0
 49
-0.06
 74
     0
 49
0.01
 74
     0
 49
-0.06
 74
     0
 49
0.01
 74
     0
 49
-0.06
 74
     0
  0
LTYPE
  5
4C
330
5
100
AcDbSymbolTableRecord
100
AcDbLinetypeTableRecord
  2
DOUBLE_DASH_TRIPLE_DOT
 70
     0
  3
Double Dash Triple Dot __ __ . . . __ __ . .
 72
    65
 73
    10
 40
0.8100000000000001
 49
0.24
 74
     0
 49
-0.06
 74
     0
 49
0.24
 74
     0
 49
-0.06
 74
     0
 49
0.01
 74
     0
 49
-0.06
 74
     0
 49
0.01
 74
     0
 49
-0.06
 74
     0
 49
0.01
 74
     0
 49
-0.06
 74
     0
  0
LTYPE
  5
4D
330
5
100
AcDbSymbolTableRecord
100
AcDbLinetypeTableRecord
  2
LONG_DASH_DOTTED
 70
     0
  3
Long Dash Dotted ____ . ____ . ____ . ____ . _
 72
    65
 73
     4
 40
0.3543
 49
0.2362
 74
     0
 49
-0.0295
 74
     0
 49
0.0591
 74
     0
 49
-0.0295
 74
     0
  0
LTYPE
  5
4E
330
5
100
AcDbSymbolTableRecord
100
AcDbLinetypeTableRecord
  2
LONG_DASH_DOUBLE_DOT
 70
     0
  3
Long Dash Double Dot ________  .  .  ________  
 72
    65
 73
     6
 40
0.6799999999999999
 49
0.48
 74
     0
 49
-0.06
 74
     0
 49
0.01
 74
     0
 49
-0.06
 74
     0
 49
0.01
 74
     0
 49
-0.06
 74
     0
  0
LTYPE
  5
4F
330
5
100
AcDbSymbolTableRecord
100
AcDbLinetypeTableRecord
  2
LONG_DASH_TRIPLE_DOT
 70
     0
  3
Long Dash Triple Dot ____ ... ____ ... ____
 72
    65
 73
     8
 40
0.3689
 49
0.2362
 74
     0
 49
-0.0295
 74
     0
 49
0.0049
 74
     0
 49
-0.0295
 74
     0
 49
0.0049
 74
     0
 49
-0.0295
 74
     0
 49
0.0049
 74
     0
 49
-0.0295
 74
     0
  0
LTYPE
  5
50
330
5
100
AcDbSymbolTableRecord
100
AcDbLinetypeTableRecord
  2
BORDER
 70
     0
  3
Border __ __ . __ __ . __ __ . __ __ . __ __ .
 72
    65
 73
     6
 40
1.75
 49
0.5
 74
     0
 49
-0.25
 74
     0
 49
0.5
 74
     0
 49
-0.25
 74
     0
 49
0.0
 74
     0
 49
-0.25
 74
     0
  0
LTYPE
  5
51
330
5
100
AcDbSymbolTableRecord
100
AcDbLinetypeTableRecord
  2
BORDER2
 70
     0
  3
Border (.5x) __.__.__.__.__.__.__.__.__.__.__.
 72
    65
 73
     6
 40
0.875
 49
0.25
 74
     0
 49
-0.125
 74
     0
 49
0.25
 74
     0
 49
-0.125
 74
     0
 49
0.0
 74
     0
 49
-0.125
 74
     0
  0
LTYPE
  5
52
330
5
100
AcDbSymbolTableRecord
100
AcDbLinetypeTableRecord
  2
BORDERX2
 70
     0
  3
Border (2x) ____  ____  .  ____  ____  .  ___
 72
    65
 73
     6
 40
3.5
 49
1.0
 74
     0
 49
-0.5
 74
     0
 49
1.0
 74
     0
 49
-0.5
 74
     0
 49
0.0
 74
     0
 49
-0.5
 74
     0
  0
LTYPE
  5
53
330
5
100
AcDbSymbolTableRecord
100
AcDbLinetypeTableRecord
  2
CENTER
 70
     0
  3
Center ____ _ ____ _ ____ _ ____ _ ____ _ ____
 72
    65
 73
     4
 40
2.0
 49
1.25
 74
     0
 49
-0.25
 74
     0
 49
0.25
 74
     0
 49
-0.25
 74
     0
  0
LTYPE
  5
54
330
5
100
AcDbSymbolTableRecord
100
AcDbLinetypeTableRecord
  2
CENTER2
 70
     0
  3
Center (.5x) ___ _ ___ _ ___ _ ___ _ ___ _ ___
 72
    65
 73
     4
 40
1.125
 49
0.75
 74
     0
 49
-0.125
 74
     0
 49
0.125
 74
     0
 49
-0.125
 74
     0
  0
LTYPE
  5
55
330
5
100
AcDbSymbolTableRecord
100
AcDbLinetypeTableRecord
  2
CENTERX2
 70
     0
  3
Center (2x) ________  __  ________  __  _____
 72
    65
 73
     4
 40
4.0
 49
2.5
 74
     0
 49
-0.5
 74
     0
 49
0.5
 74
     0
 49
-0.5
 74
     0
  0
LTYPE
  5
56
330
5
100
AcDbSymbolTableRecord
100
AcDbLinetypeTableRecord
  2
DASHDOT2
 70
     0
  3
Dash dot (.5x) _._._._._._._._._._._._._._._.
 72
    65
 73
     4
 40
0.5
 49
0.25
 74
     0
 49
-0.125
 74
     0
 49
0.0
 74
     0
 49
-0.125
 74
     0
  0
LTYPE
  5
57
330
5
100
AcDbSymbolTableRecord
100
AcDbLinetypeTableRecord
  2
DASHDOTX2
 70
     0
  3
Dash dot (2x) ____  .  ____  .  ____  .  ___
 72
    65
 73
     4
 40
2.0
 49
1.0
 74
     0
 49
-0.5
 74
     0
 49
0.0
 74
     0
 49
-0.5
 74
     0
  0
LTYPE
  5
59
330
5
100
AcDbSymbolTableRecord
100
AcDbLinetypeTableRecord
  2
DASHED2
 70
     0
  3
Dashed (.5x) _ _ _ _ _ _ _ _ _ _ _ _ _ _ _ _ _
 72
    65
 73
     2
 40
0.375
 49
0.25
 74
     0
 49
-0.125
 74
     0
  0
LTYPE
  5
5A
330
5
100
AcDbSymbolTableRecord
100
AcDbLinetypeTableRecord
  2
DASHEDX2
 70
     0
  3
Dashed (2x) ____  ____  ____  ____  ____  ___
 72
    65
 73
     2
 40
1.5
 49
1.0
 74
     0
 49
-0.5
 74
     0
  0
LTYPE
  5
5B
330
5
100
AcDbSymbolTableRecord
100
AcDbLinetypeTableRecord
  2
DIVIDE
 70
     0
  3
Divide ____ . . ____ . . ____ . . ____ . . ____
 72
    65
 73
     6
 40
1.25
 49
0.5
 74
     0
 49
-0.25
 74
     0
 49
0.0
 74
     0
 49
-0.25
 74
     0
 49
0.0
 74
     0
 49
-0.25
 74
     0
  0
LTYPE
  5
5C
330
5
100
AcDbSymbolTableRecord
100
AcDbLinetypeTableRecord
  2
DIVIDE2
 70
     0
  3
Divide (.5x) __..__..__..__..__..__..__..__.._
 72
    65
 73
     6
 40
0.625
 49
0.25
 74
     0
 49
-0.125
 74
     0
 49
0.0
 74
     0
 49
-0.125
 74
     0
 49
0.0
 74
     0
 49
-0.125
 74
     0
  0
LTYPE
  5
5D
330
5
100
AcDbSymbolTableRecord
100
AcDbLinetypeTableRecord
  2
DIVIDEX2
 70
     0
  3
Divide (2x) ________  .  .  ________  .  .  _
 72
    65
 73
     6
 40
2.5
 49
1.0
 74
     0
 49
-0.5
 74
     0
 49
0.0
 74
     0
 49
-0.5
 74
     0
 49
0.0
 74
     0
 49
-0.5
 74
     0
  0
LTYPE
  5
5E
330
5
100
AcDbSymbolTableRecord
100
AcDbLinetypeTableRecord
  2
DOT
 70
     0
  3
Dot . . . . . . . . . . . . . . . . . . . . . .
 72
    65
 73
     2
 40
0.25
 49
0.0
 74
     0
 49
-0.25
 74
     0
  0
LTYPE
  5
5F
330
5
100
AcDbSymbolTableRecord
100
AcDbLinetypeTableRecord
  2
DOT2
 70
     0
  3
Dot (.5x) .....................................
 72
    65
 73
     2
 40
0.125
 49
0.0
 74
     0
 49
-0.125
 74
     0
  0
LTYPE
  5
60
330
5
100
AcDbSymbolTableRecord
100
AcDbLinetypeTableRecord
  2
DOTX2
 70
     0
  3
Dot (2x) .  .  .  .  .  .  .  .  .  .  .  .  . 
 72
    65
 73
     2
 40
0.5
 49
0.0
 74
     0
 49
-0.5
 74
     0
  0
LTYPE
  5
61
330
5
100
AcDbSymbolTableRecord
100
AcDbLinetypeTableRecord
  2
HIDDEN
 70
     0
  3
Hidden __ __ __ __ __ __ __ __ __ __ __ __ __ _
 72
    65
 73
     2
 40
0.375
 49
0.25
 74
     0
 49
-0.125
 74
     0
  0
LTYPE
  5
62
330
5
100
AcDbSymbolTableRecord
100
AcDbLinetypeTableRecord
  2
HIDDEN2
 70
     0
  3
Hidden (.5x) _ _ _ _ _ _ _ _ _ _ _ _ _ _ _ _ _
 72
    65
 73
     2
 40
0.1875
 49
0.125
 74
     0
 49
-0.0625
 74
     0
  0
LTYPE
  5
63
330
5
100
AcDbSymbolTableRecord
100
AcDbLinetypeTableRecord
  2
HIDDENX2
 70
     0
  3
Hidden (2x) ____ ____ ____ ____ ____ ____ ____
 72
    65
 73
     2
 40
0.75
 49
0.5
 74
     0
 49
-0.25
 74
     0
  0
LTYPE
  5
64
330
5
100
AcDbSymbolTableRecord
100
AcDbLinetypeTableRecord
  2
PHANTOM
 70
     0
  3
Phantom ______  __  __  ______  __  __  ______
 72
    65
 73
     6
 40
2.5
 49
1.25
 74
     0
 49
-0.25
 74
     0
 49
0.25
 74
     0
 49
-0.25
 74
     0
 49
0.25
 74
     0
 49
-0.25
 74
     0
  0
LTYPE
  5
65
330
5
100
AcDbSymbolTableRecord
100
AcDbLinetypeTableRecord
  2
PHANTOM2
 70
     0
  3
Phantom (.5x) ___ _ _ ___ _ _ ___ _ _ ___ _ _
 72
    65
 73
     6
 40
1.25
 49
0.625
 74
     0
 49
-0.125
 74
     0
 49
0.125
 74
     0
 49
-0.125
 74
     0
 49
0.125
 74
     0
 49
-0.125
 74
     0
  0
LTYPE
  5
66
330
5
100
AcDbSymbolTableRecord
100
AcDbLinetypeTableRecord
  2
PHANTOMX2
 70
     0
  3
Phantom (2x) ____________    ____    ____   _
 72
    65
 73
     6
 40
5.0
 49
2.5
 74
     0
 49
-0.5
 74
     0
 49
0.5
 74
     0
 49
-0.5
 74
     0
 49
0.5
 74
     0
 49
-0.5
 74
     0
  0
LTYPE
  5
67
330
5
100
AcDbSymbolTableRecord
100
AcDbLinetypeTableRecord
  2
ACAD_ISO02W100
 70
     0
  3
ISO dash __ __ __ __ __ __ __ __ __ __ __ __ __
 72
    65
 73
     2
 40
0.59
 49
0.47
 74
     0
 49
-0.12
 74
     0
  0
LTYPE
  5
68
330
5
100
AcDbSymbolTableRecord
100
AcDbLinetypeTableRecord
  2
ACAD_ISO03W100
 70
     0
  3
ISO dash space __    __    __    __    __    __
 72
    65
 73
     2
 40
1.179999999999999
 49
0.47
 74
     0
 49
-0.71
 74
     0
  0
LTYPE
  5
69
330
5
100
AcDbSymbolTableRecord
100
AcDbLinetypeTableRecord
  2
ACAD_ISO04W100
 70
     0
  3
ISO long-dash dot ____ . ____ . ____ . ____ . _
 72
    65
 73
     4
 40
1.179999999999999
 49
0.9399999999999998
 74
     0
 49
-0.12
 74
     0
 49
0.0
 74
     0
 49
-0.12
 74
     0
  0
LTYPE
  5
6A
330
5
100
AcDbSymbolTableRecord
100
AcDbLinetypeTableRecord
  2
ACAD_ISO05W100
 70
     0
  3
ISO long-dash double-dot ____ .. ____ .. ____ .
 72
    65
 73
     6
 40
1.299999999999999
 49
0.9399999999999998
 74
     0
 49
-0.12
 74
     0
 49
0.0
 74
     0
 49
-0.12
 74
     0
 49
0.0
 74
     0
 49
-0.12
 74
     0
  0
LTYPE
  5
6B
330
5
100
AcDbSymbolTableRecord
100
AcDbLinetypeTableRecord
  2
ACAD_ISO06W100
 70
     0
  3
ISO long-dash triple-dot ____ ... ____ ... ____
 72
    65
 73
     8
 40
1.419999999999999
 49
0.9399999999999998
 74
     0
 49
-0.12
 74
     0
 49
0.0
 74
     0
 49
-0.12
 74
     0
 49
0.0
 74
     0
 49
-0.12
 74
     0
 49
0.0
 74
     0
 49
-0.12
 74
     0
  0
LTYPE
  5
6C
330
5
100
AcDbSymbolTableRecord
100
AcDbLinetypeTableRecord
  2
ACAD_ISO07W100
 70
     0
  3
ISO dot . . . . . . . . . . . . . . . . . . . .
 72
    65
 73
     2
 40
0.12
 49
0.0
 74
     0
 49
-0.12
 74
     0
  0
LTYPE
  5
6D
330
5
100
AcDbSymbolTableRecord
100
AcDbLinetypeTableRecord
  2
ACAD_ISO08W100
 70
     0
  3
ISO long-dash short-dash ____ __ ____ __ ____ _
 72
    65
 73
     4
 40
0.95
 49
0.47
 74
     0
 49
-0.12
 74
     0
 49
0.24
 74
     0
 49
-0.12
 74
     0
  0
LTYPE
  5
6E
330
5
100
AcDbSymbolTableRecord
100
AcDbLinetypeTableRecord
  2
ACAD_ISO09W100
 70
     0
  3
ISO long-dash double-short-dash ____ __ __ ____
 72
    65
 73
     6
 40
1.31
 49
0.47
 74
     0
 49
-0.12
 74
     0
 49
0.24
 74
     0
 49
-0.12
 74
     0
 49
0.24
 74
     0
 49
-0.12
 74
     0
  0
LTYPE
  5
6F
330
5
100
AcDbSymbolTableRecord
100
AcDbLinetypeTableRecord
  2
ACAD_ISO10W100
 70
     0
  3
ISO dash dot __ . __ . __ . __ . __ . __ . __ .
 72
    65
 73
     4
 40
0.71
 49
0.47
 74
     0
 49
-0.12
 74
     0
 49
0.0
 74
     0
 49
-0.12
 74
     0
  0
LTYPE
  5
70
330
5
100
AcDbSymbolTableRecord
100
AcDbLinetypeTableRecord
  2
ACAD_ISO11W100
 70
     0
  3
ISO double-dash dot __ __ . __ __ . __ __ . __ 
 72
    65
 73
     6
 40
1.299999999999999
 49
0.47
 74
     0
 49
-0.12
 74
     0
 49
0.47
 74
     0
 49
-0.12
 74
     0
 49
0.0
 74
     0
 49
-0.12
 74
     0
  0
LTYPE
  5
71
330
5
100
AcDbSymbolTableRecord
100
AcDbLinetypeTableRecord
  2
ACAD_ISO12W100
 70
     0
  3
ISO dash double-dot __ . . __ . . __ . . __ . .
 72
    65
 73
     6
 40
0.8299999999999998
 49
0.47
 74
     0
 49
-0.12
 74
     0
 49
0.0
 74
     0
 49
-0.12
 74
     0
 49
0.0
 74
     0
 49
-0.12
 74
     0
  0
LTYPE
  5
72
330
5
100
AcDbSymbolTableRecord
100
AcDbLinetypeTableRecord
  2
ACAD_ISO13W100
 70
     0
  3
ISO double-dash double-dot __ __ . . __ __ . . 
 72
    65
 73
     8
 40
1.419999999999999
 49
0.47
 74
     0
 49
-0.12
 74
     0
 49
0.47
 74
     0
 49
-0.12
 74
     0
 49
0.0
 74
     0
 49
-0.12
 74
     0
 49
0.0
 74
     0
 49
-0.12
 74
     0
  0
LTYPE
  5
73
330
5
100
AcDbSymbolTableRecord
100
AcDbLinetypeTableRecord
  2
ACAD_ISO14W100
 70
     0
  3
ISO dash triple-dot __ . . . __ . . . __ . . . 
 72
    65
 73
     8
 40
0.95
 49
0.47
 74
     0
 49
-0.12
 74
     0
 49
0.0
 74
     0
 49
-0.12
 74
     0
 49
0.0
 74
     0
 49
-0.12
 74
     0
 49
0.0
 74
     0
 49
-0.12
 74
     0
  0
LTYPE
  5
74
330
5
100
AcDbSymbolTableRecord
100
AcDbLinetypeTableRecord
  2
ACAD_ISO15W100
 70
     0
  3
ISO double-dash triple-dot __ __ . . . __ __ . 
 72
    65
 73
    10
 40
1.539999999999999
 49
0.47
 74
     0
 49
-0.12
 74
     0
 49
0.47
 74
     0
 49
-0.12
 74
     0
 49
0.0
 74
     0
 49
-0.12
 74
     0
 49
0.0
 74
     0
 49
-0.12
 74
     0
 49
0.0
 74
     0
 49
-0.12
 74
     0
  0
LTYPE
  5
77
330
5
100
AcDbSymbolTableRecord
100
AcDbLinetypeTableRecord
  2
FENCELINE1
 70
     0
  3
Fenceline circle ----0-----0----0-----0----0---
 72
    65
 73
     4
 40
1.45
 49
0.25
 74
     0
 49
-0.1
 74
     4
 75
   133
340
76
 46
0.1
 50
0.0
 44
-0.1
 45
0.0
 49
-0.1
 74
     0
 49
1.0
 74
     0
  0
LTYPE
  5
78
330
5
100
AcDbSymbolTableRecord
100
AcDbLinetypeTableRecord
  2
FENCELINE2
 70
     0
  3
Fenceline square ----[]-----[]----[]-----[]----
 72
    65
 73
     4
 40
1.45
 49
0.25
 74
     0
 49
-0.1
 74
     4
 75
   132
340
76
 46
0.1
 50
0.0
 44
-0.1
 45
0.0
 49
-0.1
 74
     0
 49
1.0
 74
     0
  0
LTYPE
  5
79
330
5
100
AcDbSymbolTableRecord
100
AcDbLinetypeTableRecord
  2
TRACKS
 70
     0
  3
Tracks -|-|-|-|-|-|-|-|-|-|-|-|-|-|-|-|-|-|-|-|
 72
    65
 73
     2
 40
0.3
 49
0.15
 74
     4
 75
   130
340
76
 46
0.25
 50
0.0
 44
0.0
 45
0.0
 49
0.15
 74
     0
  0
LTYPE
  5
7A
330
5
100
AcDbSymbolTableRecord
100
AcDbLinetypeTableRecord
  2
BATTING
 70
     0
  3
Batting SSSSSSSSSSSSSSSSSSSSSSSSSSSSSSSSSSSSSSS
 72
    65
 73
     4
 40
0.4001000000000001
 49
0.0001
 74
     0
 49
-0.1
 74
     4
 75
   134
340
76
 46
0.1
 50
0.0
 44
-0.1
 45
0.0
 49
-0.2
 74
     4
 75
   134
340
76
 46
0.1
 50
180.0
 44
0.1
 45
0.0
 49
-0.1
 74
     0
  0
LTYPE
  5
7B
330
5
100
AcDbSymbolTableRecord
100
AcDbLinetypeTableRecord
  2
HOT_WATER_SUPPLY
 70
     0
  3
Hot water supply ---- HW ---- HW ---- HW ----
 72
    65
 73
     3
 40
0.9
 49
0.5
 74
     0
 49
-0.2
 74
     2
 75
     0
340
26
 46
0.1
 50
0.0
 44
-0.1
 45
-0.05
  9
HW
 49
-0.2
 74
     0
  0
LTYPE
  5
7C
330
5
100
AcDbSymbolTableRecord
100
AcDbLinetypeTableRecord
  2
GAS_LINE
 70
     0
  3
Gas line ----GAS----GAS----GAS----GAS----GAS---
 72
    65
 73
     3
 40
0.95
 49
0.5
 74
     0
 49
-0.2
 74
     2
 75
     0
340
26
 46
0.1
 50
0.0
 44
-0.1
 45
-0.05
  9
GAS
 49
-0.25
 74
     0
  0
LTYPE
  5
7D
330
5
100
AcDbSymbolTableRecord
100
AcDbLinetypeTableRecord
  2
ZIGZAG
 70
     0
  3
Zig zag /\/\/\/\/\/\/\/\/\/\/\/\/\/\/\/\/\/\/\/
 72
    65
 73
     4
 40
0.8001000000000001
 49
0.0001
 74
     0
 49
-0.2
 74
     4
 75
   131
340
76
 46
0.2
 50
0.0
 44
-0.2
 45
0.0
 49
-0.4
 74
     4
 75
   131
340
76
 46
0.2
 50
180.0
 44
0.2
 45
0.0
 49
-0.2
 74
     0
  0
ENDTAB
  0
TABLE
  2
LAYER
  5
2
330
0
100
AcDbSymbolTable
 70
    26
  0
LAYER
  5
25
330
2
100
AcDbSymbolTableRecord
100
AcDbLayerTableRecord
  2
0
 70
     0
 62
     7
  6
Continuous
370
    -3
390
F
  0
LAYER
  5
81
330
2
100
AcDbSymbolTableRecord
100
AcDbLayerTableRecord
  2
Border (ANSI)
 70
     0
 62
     7
  6
Continuous
370
    70
390
F
  0
LAYER
  5
82
330
2
100
AcDbSymbolTableRecord
100
AcDbLayerTableRecord
  2
Break Line (ANSI)
 70
     0
 62
     7
  6
Continuous
370
    50
390
F
  0
LAYER
  5
84
330
2
100
AcDbSymbolTableRecord
100
AcDbLayerTableRecord
  2
Centerline (ANSI)
 70
     0
 62
     7
  6
Continuous
370
    25
390
F
  0
LAYER
  5
85
330
2
100
AcDbSymbolTableRecord
100
AcDbLayerTableRecord
  2
Detail Boundary (ANSI)
 70
     0
 62
     7
  6
DOUBLE_DASH_CHAIN
370
    50
390
F
  0
LAYER
  5
86
330
2
100
AcDbSymbolTableRecord
100
AcDbLayerTableRecord
  2
Dimension (ANSI)
 70
     0
 62
     7
  6
Continuous
370
    25
390
F
  0
LAYER
  5
89
330
2
100
AcDbSymbolTableRecord
100
AcDbLayerTableRecord
  2
Hidden Narrow (ANSI)
 70
     0
 62
     7
  6
DASHED
370
    25
390
F
  0
LAYER
  5
8E
330
2
100
AcDbSymbolTableRecord
100
AcDbLayerTableRecord
  2
Symbol (ANSI)
 70
     0
 62
     7
  6
Continuous
370
    25
390
F
  0
LAYER
  5
91
330
2
100
AcDbSymbolTableRecord
100
AcDbLayerTableRecord
  2
Visible (ANSI)
 70
     0
 62
     7
  6
Continuous
370
    50
390
F
  0
LAYER
  5
171
330
2
100
AcDbSymbolTableRecord
100
AcDbLayerTableRecord
  2
Defpoints
 70
     0
 62
     7
  6
Continuous
290
     0
370
    -3
390
F
  0
ENDTAB
  0
TABLE
  2
STYLE
  5
3
330
0
100
AcDbSymbolTable
 70
    12
  0
STYLE
  5
26
330
3
100
AcDbSymbolTableRecord
100
AcDbTextStyleTableRecord
  2
Standard
 70
     0
 40
0.0
 41
1.0
 50
0.0
 71
     0
 42
0.2
  3
TAHOMA.TTF
  4

1001
ACAD
1000
Tahoma
1071
      256
  0
STYLE
  5
76
330
3
100
AcDbSymbolTableRecord
100
AcDbTextStyleTableRecord
  2

 70
     1
 40
0.0
 41
1.0
 50
0.0
 71
     0
 42
0.2
  3
ltypeshp.shx
  4

  0
STYLE
  5
96
330
3
100
AcDbSymbolTableRecord
100
AcDbTextStyleTableRecord
  2
Label Text (ANSI)
 70
     0
 40
0.0
 41
1.0
 50
0.0
 71
     0
 42
0.2
  3
TAHOMA.TTF
  4

1001
ACAD
1000
Tahoma
1071
      256
  0
STYLE
  5
97
330
3
100
AcDbSymbolTableRecord
100
AcDbTextStyleTableRecord
  2
Label Text (DIN)
 70
     0
 40
0.0
 41
1.0
 50
0.0
 71
     0
 42
0.2
  3
isocpeur.ttf
  4

1001
ACAD
1000
ISOCPEUR
1071
      256
  0
STYLE
  5
98
330
3
100
AcDbSymbolTableRecord
100
AcDbTextStyleTableRecord
  2
Label Text (ISO)
 70
     0
 40
0.0
 41
1.0
 50
0.0
 71
     0
 42
0.2
  3
TAHOMA.TTF
  4

1001
ACAD
1000
Tahoma
1071
      256
  0
STYLE
  5
99
330
3
100
AcDbSymbolTableRecord
100
AcDbTextStyleTableRecord
  2
Label Text (JIS)
 70
     0
 40
0.0
 41
1.0
 50
0.0
 71
     0
 42
0.2
  3
TAHOMA.TTF
  4

1001
ACAD
1000
Tahoma
1071
      256
  0
STYLE
  5
9A
330
3
100
AcDbSymbolTableRecord
100
AcDbTextStyleTableRecord
  2
Note Text (ANSI)
 70
     0
 40
0.0
 41
1.0
 50
0.0
 71
     0
 42
0.2
  3
TAHOMA.TTF
  4

1001
ACAD
1000
Tahoma
1071
      256
  0
STYLE
  5
9B
330
3
100
AcDbSymbolTableRecord
100
AcDbTextStyleTableRecord
  2
Note Text (DIN)
 70
     0
 40
0.0
 41
1.0
 50
0.0
 71
     0
 42
0.2
  3
isocpeur.ttf
  4

1001
ACAD
1000
ISOCPEUR
1071
      256
  0
STYLE
  5
9C
330
3
100
AcDbSymbolTableRecord
100
AcDbTextStyleTableRecord
  2
Note Text (ISO)
 70
     0
 40
0.0
 41
1.0
 50
0.0
 71
     0
 42
0.2
  3
TAHOMA.TTF
  4

1001
ACAD
1000
Tahoma
1071
      256
  0
STYLE
  5
9D
330
3
100
AcDbSymbolTableRecord
100
AcDbTextStyleTableRecord
  2
Note Text (JIS)
 70
     0
 40
0.0
 41
1.0
 50
0.0
 71
     0
 42
0.2
  3
TAHOMA.TTF
  4

1001
ACAD
1000
Tahoma
1071
      256
  0
STYLE
  5
F3
330
3
100
AcDbSymbolTableRecord
100
AcDbTextStyleTableRecord
  2
Text Style29
 70
     0
 40
0.0
 41
1.0
 50
0.0
 71
     0
 42
0.2
  3
TAHOMA.TTF
  4

1001
ACAD
1000
Tahoma
1071
      256
  0
STYLE
  5
12A
330
3
100
AcDbSymbolTableRecord
100
AcDbTextStyleTableRecord
  2
Text Style30
 70
     0
 40
0.0
 41
1.0
 50
0.0
 71
     0
 42
0.2
  3
TAHOMA.TTF
  4

1001
ACAD
1000
Tahoma
1071
      256
  0
ENDTAB
  0
TABLE
  2
VIEW
  5
6
330
0
100
AcDbSymbolTable
 70
     0
  0
ENDTAB
  0
TABLE
  2
UCS
  5
7
330
0
100
AcDbSymbolTable
 70
     0
  0
ENDTAB
  0
TABLE
  2
APPID
  5
9
330
0
100
AcDbSymbolTable
 70
     1
  0
APPID
  5
27
330
9
100
AcDbSymbolTableRecord
100
AcDbRegAppTableRecord
  2
ACAD
 70
     0
  0
ENDTAB
  0
TABLE
  2
DIMSTYLE
  5
A
330
0
100
AcDbSymbolTable
 70
    17
100
AcDbDimStyleTable
 71
     2
340
A8
340
3F
  0
DIMSTYLE
105
3F
330
A
100
AcDbSymbolTableRecord
100
AcDbDimStyleTableRecord
  2
Standard
 70
     0
340
26
  0
DIMSTYLE
105
9E
330
A
100
AcDbSymbolTableRecord
100
AcDbDimStyleTableRecord
  2
Architectural (ANSI)
 70
     0
 40
0.2
 41
0.0984251946210861
 42
0.0625
 43
0.2362204724409449
 44
0.125
 45
0.00000001
 46
0.3937007874015748
 78
     4
 79
     3
140
0.1200000047683716
144
0.0833333333333333
147
0.031496062992126
171
     1
176
   256
177
   256
178
   256
272
     2
274
     1
276
     2
277
     4
284
    12
286
    12
340
9A
371
    -1
372
    -1
  0
DIMSTYLE
105
9F
330
A
100
AcDbSymbolTableRecord
100
AcDbDimStyleTableRecord
  2
Architectural (ANSI)$7
 70
     0
 40
0.2
 41
0.0984251946210861
 42
0.0625
 43
0.2362204724409449
 44
0.125
 45
0.00000001
 46
0.3937007874015748
 78
     4
 79
     3
140
0.1200000047683716
144
0.0833333333333333
147
0.031496062992126
171
     1
176
   256
177
   256
178
   256
272
     2
274
     1
276
     2
277
     4
284
    12
286
    12
340
9A
371
    -1
372
    -1
  0
DIMSTYLE
105
A0
330
A
100
AcDbSymbolTableRecord
100
AcDbDimStyleTableRecord
  2
blind-dep-tap
 70
     0
  3
 in
 40
0.2
 41
0.0984251946210861
 42
0.0625
 43
0.2362204724409449
 44
0.125
 45
0.00000001
 46
0.3937007874015748
140
0.1200000047683716
147
0.031496062992126
171
     1
176
   256
177
   256
178
   256
274
     1
340
9A
371
    -1
372
    -1
  0
DIMSTYLE
105
A1
330
A
100
AcDbSymbolTableRecord
100
AcDbDimStyleTableRecord
  2
blind-dep-tap$7
 70
     0
  3
 in
 40
0.2
 41
0.0984251946210861
 42
0.0625
 43
0.2362204724409449
 44
0.125
 45
0.00000001
 46
0.3937007874015748
140
0.1200000047683716
147
0.031496062992126
171
     1
176
   256
177
   256
178
   256
274
     1
340
9A
371
    -1
372
    -1
  0
DIMSTYLE
105
A2
330
A
100
AcDbSymbolTableRecord
100
AcDbDimStyleTableRecord
  2
Default - Fraction (ANSI)
 70
     0
 40
0.2
 41
0.0984251946210861
 42
0.0625
 43
0.2362204724409449
 44
0.125
 45
0.00000001
 46
0.3937007874015748
 78
    12
 79
     3
140
0.1200000047683716
147
0.031496062992126
171
     1
176
   256
177
   256
178
   256
272
     2
274
     1
276
     2
277
     5
284
    12
286
    12
340
9A
371
    -1
372
    -1
  0
DIMSTYLE
105
A3
330
A
100
AcDbSymbolTableRecord
100
AcDbDimStyleTableRecord
  2
Default - Fraction (ANSI)$7
 70
     0
 40
0.2
 41
0.0984251946210861
 42
0.0625
 43
0.2362204724409449
 44
0.125
 45
0.00000001
 46
0.3937007874015748
 78
    12
 79
     3
140
0.1200000047683716
147
0.031496062992126
171
     1
176
   256
177
   256
178
   256
272
     2
274
     1
276
     2
277
     5
284
    12
286
    12
340
9A
371
    -1
372
    -1
  0
DIMSTYLE
105
A4
330
A
100
AcDbSymbolTableRecord
100
AcDbDimStyleTableRecord
  2
Default - mm (ANSI)
 70
     0
 40
0.2
 41
0.0984251946210861
 42
0.063
 43
0.2362204724409449
 44
0.125
 45
0.00000001
 46
0.3937007874015748
 73
     0
140
0.1200000047683716
143
1.0
144
25.4
147
0.031496062992126
171
     1
176
   256
177
   256
178
   256
179
     1
271
     2
272
     2
274
     1
340
9A
371
    -1
372
    -1
  0
DIMSTYLE
105
A5
330
A
100
AcDbSymbolTableRecord
100
AcDbDimStyleTableRecord
  2
Default - mm (ANSI)$7
 70
     0
 40
0.2
 41
0.0984251946210861
 42
0.063
 43
0.2362204724409449
 44
0.125
 45
0.00000001
 46
0.3937007874015748
 73
     0
140
0.1200000047683716
143
1.0
144
25.4
147
0.031496062992126
171
     1
176
   256
177
   256
178
   256
179
     1
271
     2
272
     2
274
     1
340
9A
371
    -1
372
    -1
  0
DIMSTYLE
105
A6
330
A
100
AcDbSymbolTableRecord
100
AcDbDimStyleTableRecord
  2
Default - mm [in] (ANSI)
 70
     0
  4
 in
 40
0.2
 41
0.0984251946210861
 42
0.063
 43
0.25
 44
0.125
 45
0.00000001
 46
0.3937007874015748
 73
     0
 78
     4
 79
     1
140
0.1200000047683716
143
0.03937
144
25.4
147
0.031496062992126
170
     1
171
     3
176
   256
177
   256
178
   256
179
     1
271
     2
272
     2
274
     3
284
     4
286
     4
340
9A
371
    -1
372
    -1
  0
DIMSTYLE
105
A7
330
A
100
AcDbSymbolTableRecord
100
AcDbDimStyleTableRecord
  2
Default - mm [in] (ANSI)$7
 70
     0
  4
 in
 40
0.2
 41
0.0984251946210861
 42
0.063
 43
0.25
 44
0.125
 45
0.00000001
 46
0.3937007874015748
 73
     0
 78
     4
 79
     1
140
0.1200000047683716
143
0.03937
144
25.4
147
0.031496062992126
170
     1
171
     3
176
   256
177
   256
178
   256
179
     1
271
     2
272
     2
274
     3
284
     4
286
     4
340
9A
371
    -1
372
    -1
  0
DIMSTYLE
105
A8
102
{ACAD_REACTORS
330
170
330
20C
330
2F6
330
3EB
330
4D6
330
573
330
610
330
6F4
330
7EC
330
921
330
9BE
330
AA8
330
B93
330
C7D
102
}
330
A
100
AcDbSymbolTableRecord
100
AcDbDimStyleTableRecord
  2
Default (ANSI)
 70
     0
  3
 in
 40
0.2
 41
0.0984251946210861
 42
0.0625
 43
0.2362204724409449
 44
0.125
 45
0.00000001
 46
0.3937007874015748
140
0.1200000047683716
147
0.031496062992126
171
     1
176
   256
177
   256
178
   256
271
     3
274
     1
340
9A
371
    -1
372
    -1
  0
DIMSTYLE
105
A9
330
A
100
AcDbSymbolTableRecord
100
AcDbDimStyleTableRecord
  2
Default (ANSI)$7
 70
     0
  3
 in
 40
0.2
 41
0.0984251946210861
 42
0.0625
 43
0.2362204724409449
 44
0.125
 45
0.00000001
 46
0.3937007874015748
140
0.1200000047683716
147
0.031496062992126
171
     1
176
   256
177
   256
178
   256
271
     3
274
     1
340
9A
371
    -1
372
    -1
  0
DIMSTYLE
105
B8
330
A
100
AcDbSymbolTableRecord
100
AcDbDimStyleTableRecord
  2
Miscellaneous Object (ANSI)
 70
     0
 40
0.2
 41
0.1968503892421722
 42
0.0625
 43
0.2362204724409449
 44
0.125
 45
0.00000001
 46
0.3937007874015748
140
0.1799999922513962
146
0.666666721856155
147
0.031496062992126
171
     1
176
   256
177
   256
178
   256
271
     2
272
     2
274
     1
340
96
341
AA
371
    -1
372
    -1
  0
DIMSTYLE
105
B9
330
A
100
AcDbSymbolTableRecord
100
AcDbDimStyleTableRecord
  2
Miscellaneous Object (ANSI)$7
 70
     0
 40
0.2
 41
0.1959999948740005
 42
0.0625
 43
0.2362204724409449
 44
0.125
 45
0.00000001
 46
0.3937007874015748
140
0.1799999922513962
146
0.666666721856155
147
0.031496062992126
171
     1
176
   256
177
   256
178
   256
271
     2
272
     2
274
     1
340
96
341
AA
371
    -1
372
    -1
  0
DIMSTYLE
105
BA
330
A
100
AcDbSymbolTableRecord
100
AcDbDimStyleTableRecord
  2
Alternate (ANSI)
 70
     0
 40
0.2
 41
0.0979999974370003
340
26
342
BB
  0
DIMSTYLE
105
CC
330
A
100
AcDbSymbolTableRecord
100
AcDbDimStyleTableRecord
  2
Datum (ANSI)
 70
     0
 40
0.2
 41
0.0979999974370003
340
26
342
BB
  0
ENDTAB
  0
TABLE
  2
BLOCK_RECORD
  5
1
330
0
100
AcDbSymbolTable
 70
    22
  0
BLOCK_RECORD
  5
37
330
1
100
AcDbSymbolTableRecord
100
AcDbBlockTableRecord
  2
*Model_Space
340
3A
  0
BLOCK_RECORD
  5
33
330
1
100
AcDbSymbolTableRecord
100
AcDbBlockTableRecord
  2
*Paper_Space
340
36
  0
BLOCK_RECORD
  5
3B
330
1
100
AcDbSymbolTableRecord
100
AcDbBlockTableRecord
  2
*Paper_Space0
340
3E
  0
BLOCK_RECORD
  5
AA
330
1
100
AcDbSymbolTableRecord
100
AcDbBlockTableRecord
  2
Filled-1
340
0
  0
BLOCK_RECORD
  5
BB
330
1
100
AcDbSymbolTableRecord
100
AcDbBlockTableRecord
  2
_Closed
340
0
  0
BLOCK_RECORD
  5
C2
330
1
100
AcDbSymbolTableRecord
100
AcDbBlockTableRecord
  2
DatumFilled45
340
0
  0
BLOCK_RECORD
  5
CD
330
1
100
AcDbSymbolTableRecord
100
AcDbBlockTableRecord
  2
Borders Default Border
340
0
102
{BLKREFS
331
FE
102
}
  0
BLOCK_RECORD
  5
127
330
1
100
AcDbSymbolTableRecord
100
AcDbBlockTableRecord
  2
2dDetail0
340
0
102
{BLKREFS
331
143
102
}
  0
BLOCK_RECORD
  5
172
330
1
100
AcDbSymbolTableRecord
100
AcDbBlockTableRecord
  2
*D6
340
0
  0
BLOCK_RECORD
  5
20D
330
1
100
AcDbSymbolTableRecord
100
AcDbBlockTableRecord
  2
*D7
340
0
  0
BLOCK_RECORD
  5
2F7
330
1
100
AcDbSymbolTableRecord
100
AcDbBlockTableRecord
  2
*D8
340
0
  0
BLOCK_RECORD
  5
3EC
330
1
100
AcDbSymbolTableRecord
100
AcDbBlockTableRecord
  2
*D9
340
0
  0
BLOCK_RECORD
  5
4D7
330
1
100
AcDbSymbolTableRecord
100
AcDbBlockTableRecord
  2
*D10
340
0
  0
BLOCK_RECORD
  5
574
330
1
100
AcDbSymbolTableRecord
100
AcDbBlockTableRecord
  2
*D11
340
0
  0
BLOCK_RECORD
  5
611
330
1
100
AcDbSymbolTableRecord
100
AcDbBlockTableRecord
  2
*D12
340
0
  0
BLOCK_RECORD
  5
6F5
330
1
100
AcDbSymbolTableRecord
100
AcDbBlockTableRecord
  2
*D13
340
0
  0
BLOCK_RECORD
  5
7ED
330
1
100
AcDbSymbolTableRecord
100
AcDbBlockTableRecord
  2
*D14
340
0
  0
BLOCK_RECORD
  5
8EA
330
1
100
AcDbSymbolTableRecord
100
AcDbBlockTableRecord
  2
2dDetail1
340
0
102
{BLKREFS
331
905
102
}
  0
BLOCK_RECORD
  5
922
330
1
100
AcDbSymbolTableRecord
100
AcDbBlockTableRecord
  2
*D16
340
0
  0
BLOCK_RECORD
  5
9BF
330
1
100
AcDbSymbolTableRecord
100
AcDbBlockTableRecord
  2
*D17
340
0
  0
BLOCK_RECORD
  5
AA9
330
1
100
AcDbSymbolTableRecord
100
AcDbBlockTableRecord
  2
*D18
340
0
  0
BLOCK_RECORD
  5
B94
330
1
100
AcDbSymbolTableRecord
100
AcDbBlockTableRecord
  2
*D19
340
0
  0
BLOCK_RECORD
  5
C7E
330
1
100
AcDbSymbolTableRecord
100
AcDbBlockTableRecord
  2
*D20
340
0
  0
BLOCK_RECORD
  5
D5D
330
1
100
AcDbSymbolTableRecord
100
AcDbBlockTableRecord
  2
_Dot
340
0
  0
ENDTAB
  0
ENDSEC
  0
SECTION
  2
BLOCKS
  0
BLOCK
  5
38
330
37
100
AcDbEntity
  8
0
100
AcDbBlockBegin
  2
*Model_Space
 70
     0
 10
0.0
 20
0.0
 30
0.0
  3
*Model_Space
  1

  0
ENDBLK
  5
39
330
37
100
AcDbEntity
  8
0
100
AcDbBlockEnd
  0
BLOCK
  5
34
330
33
100
AcDbEntity
 67
     1
  8
0
100
AcDbBlockBegin
  2
*Paper_Space
 70
     0
 10
0.0
 20
0.0
 30
0.0
  3
*Paper_Space
  1

  0
ENDBLK
  5
35
330
33
100
AcDbEntity
 67
     1
  8
0
100
AcDbBlockEnd
  0
BLOCK
  5
3C
330
3B
100
AcDbEntity
 67
     1
  8
0
100
AcDbBlockBegin
  2
*Paper_Space0
 70
     0
 10
0.0
 20
0.0
 30
0.0
  3
*Paper_Space0
  1

  0
ENDBLK
  5
3D
330
3B
100
AcDbEntity
 67
     1
  8
0
100
AcDbBlockEnd
  0
BLOCK
  5
AB
330
AA
100
AcDbEntity
  8
0
100
AcDbBlockBegin
  2
Filled-1
 70
     0
 10
0.0
 20
0.0
 30
0.0
  3
Filled-1
  1

  0
LINE
  5
AD
330
AA
100
AcDbEntity
  8
0
 62
     0
100
AcDbLine
 10
-0.9999999999999998
 20
0.0
 30
0.0
 11
0.0
 21
0.0
 31
0.0
  0
POLYLINE
  5
AE
330
AA
100
AcDbEntity
  8
0
 62
     0
100
AcDb2dPolyline
 66
     1
 10
0.0
 20
0.0
 30
0.0
 70
   128
  0
VERTEX
  5
AF
330
AE
100
AcDbEntity
  8
0
 62
     0
100
AcDbVertex
100
AcDb2dVertex
 10
-0.9999999999999998
 20
-0.0994897959183674
 30
0.0
  0
VERTEX
  5
B0
330
AE
100
AcDbEntity
  8
0
 62
     0
100
AcDbVertex
100
AcDb2dVertex
 10
0.0
 20
0.0
 30
0.0
  0
VERTEX
  5
B2
330
AE
100
AcDbEntity
  8
0
 62
     0
100
AcDbVertex
100
AcDb2dVertex
 10
-0.9999999999999998
 20
0.0994897959183674
 30
0.0
  0
VERTEX
  5
B3
330
AE
100
AcDbEntity
  8
0
 62
     0
100
AcDbVertex
100
AcDb2dVertex
 10
-0.9999999999999998
 20
-0.0994897959183674
 30
0.0
  0
SEQEND
  5
B1
330
AE
100
AcDbEntity
  8
0
 62
     0
  0
SOLID
  5
B4
330
AA
100
AcDbEntity
  8
0
 62
     0
100
AcDbTrace
 10
-0.9999999999999998
 20
-0.0994897959183674
 30
0.0
 11
0.0
 21
0.0
 31
0.0
 12
-0.9999999999999998
 22
0.0994897959183674
 32
0.0
 13
-0.9999999999999998
 23
-0.0994897959183674
 33
0.0
  0
LINE
  5
B5
330
AA
100
AcDbEntity
  8
0
 62
     0
100
AcDbLine
 10
-0.9999999999999998
 20
-0.0994897959183674
 30
0.0
 11
0.0
 21
0.0
 31
0.0
  0
LINE
  5
B6
330
AA
100
AcDbEntity
  8
0
 62
     0
100
AcDbLine
 10
0.0
 20
0.0
 30
0.0
 11
-0.9999999999999998
 21
0.0994897959183674
 31
0.0
  0
LINE
  5
B7
330
AA
100
AcDbEntity
  8
0
 62
     0
100
AcDbLine
 10
-0.9999999999999998
 20
0.0994897959183674
 30
0.0
 11
-0.9999999999999998
 21
-0.0994897959183674
 31
0.0
  0
ENDBLK
  5
AC
330
AA
100
AcDbEntity
  8
0
100
AcDbBlockEnd
  0
BLOCK
  5
C0
330
BB
100
AcDbEntity
  8
0
100
AcDbBlockBegin
  2
_Closed
 70
     0
 10
0.0
 20
0.0
 30
0.0
  3
_Closed
  1

  0
LINE
  5
BC
330
BB
100
AcDbEntity
  8
0
  6
ByBlock
 62
     0
370
    -2
100
AcDbLine
 10
-1.0
 20
0.1666666666666666
 30
0.0
 11
0.0
 21
0.0
 31
0.0
  0
LINE
  5
BD
330
BB
100
AcDbEntity
  8
0
  6
ByBlock
 62
     0
370
    -2
100
AcDbLine
 10
0.0
 20
0.0
 30
0.0
 11
-1.0
 21
-0.1666666666666666
 31
0.0
  0
LINE
  5
BE
330
BB
100
AcDbEntity
  8
0
  6
ByBlock
 62
     0
370
    -2
100
AcDbLine
 10
-1.0
 20
0.1666666666666666
 30
0.0
 11
-1.0
 21
-0.1666666666666666
 31
0.0
  0
LINE
  5
BF
330
BB
100
AcDbEntity
  8
0
  6
ByBlock
 62
     0
370
    -2
100
AcDbLine
 10
0.0
 20
0.0
 30
0.0
 11
-1.0
 21
0.0
 31
0.0
  0
ENDBLK
  5
C1
330
BB
100
AcDbEntity
  8
0
100
AcDbBlockEnd
  0
BLOCK
  5
C3
330
C2
100
AcDbEntity
  8
0
100
AcDbBlockBegin
  2
DatumFilled45
 70
     0
 10
0.0
 20
0.0
 30
0.0
  3
DatumFilled45
  1

  0
POLYLINE
  5
C5
330
C2
100
AcDbEntity
  8
0
 62
     0
100
AcDb2dPolyline
 66
     1
 10
0.0
 20
0.0
 30
0.0
 70
   128
  0
VERTEX
  5
C6
330
C5
100
AcDbEntity
  8
0
 62
     0
100
AcDbVertex
100
AcDb2dVertex
 10
0.0
 20
0.9999999999999998
 30
0.0
  0
VERTEX
  5
C7
330
C5
100
AcDbEntity
  8
0
 62
     0
100
AcDbVertex
100
AcDb2dVertex
 10
0.0
 20
-0.9999999999999998
 30
0.0
  0
VERTEX
  5
C9
330
C5
100
AcDbEntity
  8
0
 62
     0
100
AcDbVertex
100
AcDb2dVertex
 10
-0.9999999999999998
 20
0.0
 30
0.0
  0
VERTEX
  5
CA
330
C5
100
AcDbEntity
  8
0
 62
     0
100
AcDbVertex
100
AcDb2dVertex
 10
0.0
 20
0.9999999999999998
 30
0.0
  0
SEQEND
  5
C8
330
C5
100
AcDbEntity
  8
0
 62
     0
  0
SOLID
  5
CB
330
C2
100
AcDbEntity
  8
0
 62
     0
100
AcDbTrace
 10
0.0
 20
0.9999999999999998
 30
0.0
 11
0.0
 21
-0.9999999999999998
 31
0.0
 12
-0.9999999999999998
 22
0.0
 32
0.0
 13
0.0
 23
0.9999999999999998
 33
0.0
  0
ENDBLK
  5
C4
330
C2
100
AcDbEntity
  8
0
100
AcDbBlockEnd
  0
BLOCK
  5
CE
330
CD
100
AcDbEntity
  8
0
100
AcDbBlockBegin
  2
Borders Default Border
 70
     0
 10
0.0
 20
0.0
 30
0.0
  3
Borders Default Border
  1

  0
POLYLINE
  5
D0
330
CD
100
AcDbEntity
  8
Border (ANSI)
100
AcDb2dPolyline
 66
     1
 10
0.0
 20
0.0
 30
0.0
 70
   128
  0
VERTEX
  5
D1
330
D0
100
AcDbEntity
  8
Border (ANSI)
100
AcDbVertex
100
AcDb2dVertex
 10
0.380000002740875
 20
0.380000002740875
 30
0.0
  0
VERTEX
  5
D2
330
D0
100
AcDbEntity
  8
Border (ANSI)
100
AcDbVertex
100
AcDb2dVertex
 10
0.380000002740875
 20
8.119999893068328
 30
0.0
  0
VERTEX
  5
D4
330
D0
100
AcDbEntity
  8
Border (ANSI)
100
AcDbVertex
100
AcDb2dVertex
 10
10.62000004325326
 20
8.119999893068328
 30
0.0
  0
VERTEX
  5
D5
330
D0
100
AcDbEntity
  8
Border (ANSI)
100
AcDbVertex
100
AcDb2dVertex
 10
10.62000004325326
 20
0.380000002740875
 30
0.0
  0
VERTEX
  5
D6
330
D0
100
AcDbEntity
  8
Border (ANSI)
100
AcDbVertex
100
AcDb2dVertex
 10
0.380000002740875
 20
0.380000002740875
 30
0.0
  0
SEQEND
  5
D3
330
D0
100
AcDbEntity
  8
Border (ANSI)
  0
POLYLINE
  5
D7
330
CD
100
AcDbEntity
  8
Border (ANSI)
100
AcDb2dPolyline
 66
     1
 10
0.0
 20
0.0
 30
0.0
 70
   128
  0
VERTEX
  5
D8
330
D7
100
AcDbEntity
  8
Border (ANSI)
100
AcDbVertex
100
AcDb2dVertex
 10
5.500000105129451
 20
0.1299999947623005
 30
0.0
  0
VERTEX
  5
D9
330
D7
100
AcDbEntity
  8
Border (ANSI)
100
AcDbVertex
100
AcDb2dVertex
 10
5.500000105129451
 20
0.380000002740875
 30
0.0
  0
VERTEX
  5
DB
330
D7
100
AcDbEntity
  8
Border (ANSI)
100
AcDbVertex
100
AcDb2dVertex
 10
5.413397466103861
 20
0.2300000096869281
 30
0.0
  0
VERTEX
  5
DC
330
D7
100
AcDbEntity
  8
Border (ANSI)
100
AcDbVertex
100
AcDb2dVertex
 10
5.586602368692712
 20
0.2300000096869281
 30
0.0
  0
VERTEX
  5
DD
330
D7
100
AcDbEntity
  8
Border (ANSI)
100
AcDbVertex
100
AcDb2dVertex
 10
5.500000105129451
 20
0.380000002740875
 30
0.0
  0
SEQEND
  5
DA
330
D7
100
AcDbEntity
  8
Border (ANSI)
  0
POLYLINE
  5
DE
330
CD
100
AcDbEntity
  8
Border (ANSI)
100
AcDb2dPolyline
 66
     1
 10
0.0
 20
0.0
 30
0.0
 70
   128
  0
VERTEX
  5
DF
330
DE
100
AcDbEntity
  8
Border (ANSI)
100
AcDbVertex
100
AcDb2dVertex
 10
5.500000105129451
 20
8.369999983179287
 30
0.0
  0
VERTEX
  5
E0
330
DE
100
AcDbEntity
  8
Border (ANSI)
100
AcDbVertex
100
AcDb2dVertex
 10
5.500000105129451
 20
8.119999893068328
 30
0.0
  0
VERTEX
  5
E2
330
DE
100
AcDbEntity
  8
Border (ANSI)
100
AcDbVertex
100
AcDb2dVertex
 10
5.413397466103861
 20
8.270000097319835
 30
0.0
  0
VERTEX
  5
E3
330
DE
100
AcDbEntity
  8
Border (ANSI)
100
AcDbVertex
100
AcDb2dVertex
 10
5.586602368692712
 20
8.270000097319835
 30
0.0
  0
VERTEX
  5
E4
330
DE
100
AcDbEntity
  8
Border (ANSI)
100
AcDbVertex
100
AcDb2dVertex
 10
5.500000105129451
 20
8.119999893068328
 30
0.0
  0
SEQEND
  5
E1
330
DE
100
AcDbEntity
  8
Border (ANSI)
  0
POLYLINE
  5
E5
330
CD
100
AcDbEntity
  8
Border (ANSI)
100
AcDb2dPolyline
 66
     1
 10
0.0
 20
0.0
 30
0.0
 70
   128
  0
VERTEX
  5
E6
330
E5
100
AcDbEntity
  8
Border (ANSI)
100
AcDbVertex
100
AcDb2dVertex
 10
0.1299999947623005
 20
4.250000030036986
 30
0.0
  0
VERTEX
  5
E7
330
E5
100
AcDbEntity
  8
Border (ANSI)
100
AcDbVertex
100
AcDb2dVertex
 10
0.380000002740875
 20
4.250000030036986
 30
0.0
  0
VERTEX
  5
E9
330
E5
100
AcDbEntity
  8
Border (ANSI)
100
AcDbVertex
100
AcDb2dVertex
 10
0.2300000096869281
 20
4.336602669062576
 30
0.0
  0
VERTEX
  5
EA
330
E5
100
AcDbEntity
  8
Border (ANSI)
100
AcDbVertex
100
AcDb2dVertex
 10
0.2300000096869281
 20
4.163397391011395
 30
0.0
  0
VERTEX
  5
EB
330
E5
100
AcDbEntity
  8
Border (ANSI)
100
AcDbVertex
100
AcDb2dVertex
 10
0.380000002740875
 20
4.250000030036986
 30
0.0
  0
SEQEND
  5
E8
330
E5
100
AcDbEntity
  8
Border (ANSI)
  0
POLYLINE
  5
EC
330
CD
100
AcDbEntity
  8
Border (ANSI)
100
AcDb2dPolyline
 66
     1
 10
0.0
 20
0.0
 30
0.0
 70
   128
  0
VERTEX
  5
ED
330
EC
100
AcDbEntity
  8
Border (ANSI)
100
AcDbVertex
100
AcDb2dVertex
 10
10.87000013336422
 20
4.250000030036986
 30
0.0
  0
VERTEX
  5
EE
330
EC
100
AcDbEntity
  8
Border (ANSI)
100
AcDbVertex
100
AcDb2dVertex
 10
10.62000004325326
 20
4.250000030036986
 30
0.0
  0
VERTEX
  5
F0
330
EC
100
AcDbEntity
  8
Border (ANSI)
100
AcDbVertex
100
AcDb2dVertex
 10
10.77000024750476
 20
4.336602669062576
 30
0.0
  0
VERTEX
  5
F1
330
EC
100
AcDbEntity
  8
Border (ANSI)
100
AcDbVertex
100
AcDb2dVertex
 10
10.77000024750476
 20
4.163397391011395
 30
0.0
  0
VERTEX
  5
F2
330
EC
100
AcDbEntity
  8
Border (ANSI)
100
AcDbVertex
100
AcDb2dVertex
 10
10.62000004325326
 20
4.250000030036986
 30
0.0
  0
SEQEND
  5
EF
330
EC
100
AcDbEntity
  8
Border (ANSI)
  0
MTEXT
  5
F4
330
CD
100
AcDbEntity
  8
Border (ANSI)
100
AcDbMText
 10
8.24092395498058
 20
8.16
 30
0.0
 40
0.1200000014830762
 41
0.0
 71
     7
 72
     1
  1
1
  7
Text Style29
 73
     1
 44
1.0
1001
ACAD
1000
MTEXTBEGIN
1070
    73
1070
     1
1070
    44
1040
1.0
1070
    74
1070
     0
1000
MTEXTEND
  0
MTEXT
  5
F7
330
CD
100
AcDbEntity
  8
Border (ANSI)
100
AcDbMText
 10
8.24092395498058
 20
0.2199999985169238
 30
0.0
 40
0.1200000014830762
 41
0.0
 71
     7
 72
     1
  1
1
  7
Text Style29
 73
     1
 44
1.0
1001
ACAD
1000
MTEXTBEGIN
1070
    73
1070
     1
1070
    44
1040
1.0
1070
    74
1070
     0
1000
MTEXTEND
  0
MTEXT
  5
F8
330
CD
100
AcDbEntity
  8
Border (ANSI)
100
AcDbMText
 10
2.722276993858532
 20
8.16
 30
0.0
 40
0.1200000014830762
 41
0.0
 71
     7
 72
     1
  1
2
  7
Text Style29
 73
     1
 44
1.0
1001
ACAD
1000
MTEXTBEGIN
1070
    73
1070
     1
1070
    44
1040
1.0
1070
    74
1070
     0
1000
MTEXTEND
  0
MTEXT
  5
F9
330
CD
100
AcDbEntity
  8
Border (ANSI)
100
AcDbMText
 10
2.722276993858532
 20
0.2199999985169238
 30
0.0
 40
0.1200000014830762
 41
0.0
 71
     7
 72
     1
  1
2
  7
Text Style29
 73
     1
 44
1.0
1001
ACAD
1000
MTEXTBEGIN
1070
    73
1070
     1
1070
    44
1040
1.0
1070
    74
1070
     0
1000
MTEXTEND
  0
MTEXT
  5
FA
330
CD
100
AcDbEntity
  8
Border (ANSI)
100
AcDbMText
 10
0.2281865791448458
 20
2.064999999258461
 30
0.0
 40
0.1200000014830762
 41
0.0
 71
     7
 72
     1
  1
A
  7
Text Style29
 73
     1
 44
1.0
1001
ACAD
1000
MTEXTBEGIN
1070
    73
1070
     1
1070
    44
1040
1.0
1070
    74
1070
     0
1000
MTEXTEND
  0
MTEXT
  5
FB
330
CD
100
AcDbEntity
  8
Border (ANSI)
100
AcDbMText
 10
10.66818658062792
 20
2.064999999258461
 30
0.0
 40
0.1200000014830762
 41
0.0
 71
     7
 72
     1
  1
A
  7
Text Style29
 73
     1
 44
1.0
1001
ACAD
1000
MTEXTBEGIN
1070
    73
1070
     1
1070
    44
1040
1.0
1070
    74
1070
     0
1000
MTEXTEND
  0
MTEXT
  5
FC
330
CD
100
AcDbEntity
  8
Border (ANSI)
100
AcDbMText
 10
0.2554072225563169
 20
6.314999999258461
 30
0.0
 40
0.1200000014830762
 41
0.0
 71
     7
 72
     1
  1
B
  7
Text Style29
 73
     1
 44
1.0
1001
ACAD
1000
MTEXTBEGIN
1070
    73
1070
     1
1070
    44
1040
1.0
1070
    74
1070
     0
1000
MTEXTEND
  0
MTEXT
  5
FD
330
CD
100
AcDbEntity
  8
Border (ANSI)
100
AcDbMText
 10
10.69540722403939
 20
6.314999999258461
 30
0.0
 40
0.1200000014830762
 41
0.0
 71
     7
 72
     1
  1
B
  7
Text Style29
 73
     1
 44
1.0
1001
ACAD
1000
MTEXTBEGIN
1070
    73
1070
     1
1070
    44
1040
1.0
1070
    74
1070
     0
1000
MTEXTEND
  0
ENDBLK
  5
CF
330
CD
100
AcDbEntity
  8
0
100
AcDbBlockEnd
  0
BLOCK
  5
128
330
127
100
AcDbEntity
  8
0
100
AcDbBlockBegin
  2
2dDetail0
 70
     0
 10
0.0
 20
0.0
 30
0.0
  3
2dDetail0
  1

  0
MTEXT
  5
12B
330
127
100
AcDbEntity
  8
Detail Boundary (ANSI)
100
AcDbMText
 10
5.347685979593582
 20
6.60509221970783
 30
0.0
 40
0.1799999963580154
 41
0.0
 71
     7
 72
     1
  1
A
  7
Text Style30
 73
     1
 44
1.0
1001
ACAD
1000
MTEXTBEGIN
1070
    73
1070
     1
1070
    44
1040
1.0
1070
    74
1070
     0
1000
MTEXTEND
  0
LINE
  5
12C
330
127
100
AcDbEntity
  8
Detail Boundary (ANSI)
  6
Continuous
100
AcDbLine
 10
5.008151615282654
 20
6.566909174418372
 30
0.0
 11
5.204983856681012
 21
6.564235928029877
 31
0.0
  0
POLYLINE
  5
12D
330
127
100
AcDbEntity
  8
Detail Boundary (ANSI)
  6
Continuous
100
AcDb2dPolyline
 66
     1
 10
0.0
 20
0.0
 30
0.0
 70
   128
  0
VERTEX
  5
12E
330
12D
100
AcDbEntity
  8
Detail Boundary (ANSI)
  6
Continuous
100
AcDbVertex
100
AcDb2dVertex
 10
5.007616929181916
 20
6.527542504738634
 30
0.0
  0
VERTEX
  5
12F
330
12D
100
AcDbEntity
  8
Detail Boundary (ANSI)
  6
Continuous
100
AcDbVertex
100
AcDb2dVertex
 10
5.204983959047813
 20
6.564235687255858
 30
0.0
  0
VERTEX
  5
131
330
12D
100
AcDbEntity
  8
Detail Boundary (ANSI)
  6
Continuous
100
AcDbVertex
100
AcDb2dVertex
 10
5.008686245895745
 20
6.606275453342226
 30
0.0
  0
VERTEX
  5
132
330
12D
100
AcDbEntity
  8
Detail Boundary (ANSI)
  6
Continuous
100
AcDbVertex
100
AcDb2dVertex
 10
5.007616929181916
 20
6.527542504738634
 30
0.0
  0
SEQEND
  5
130
330
12D
100
AcDbEntity
  8
Detail Boundary (ANSI)
  6
Continuous
  0
SOLID
  5
133
330
127
100
AcDbEntity
  8
Detail Boundary (ANSI)
100
AcDbTrace
 10
5.007616929181916
 20
6.527542504738634
 30
0.0
 11
5.204983959047813
 21
6.564235687255858
 31
0.0
 12
5.008686245895745
 22
6.606275453342226
 32
0.0
 13
5.007616929181916
 23
6.527542504738634
 33
0.0
  0
LINE
  5
134
330
127
100
AcDbEntity
  8
Detail Boundary (ANSI)
  6
Continuous
100
AcDbLine
 10
5.007616966004956
 20
6.527542726138699
 30
0.0
 11
5.204983856681012
 21
6.564235928029877
 31
0.0
  0
LINE
  5
135
330
127
100
AcDbEntity
  8
Detail Boundary (ANSI)
  6
Continuous
100
AcDbLine
 10
5.204983856681012
 20
6.564235928029877
 30
0.0
 11
5.008686264560354
 21
6.606275622698043
 31
0.0
  0
LINE
  5
136
330
127
100
AcDbEntity
  8
Detail Boundary (ANSI)
  6
Continuous
100
AcDbLine
 10
5.008686264560354
 20
6.606275622698043
 30
0.0
 11
5.007616966004956
 21
6.527542726138699
 31
0.0
  0
LINE
  5
137
330
127
100
AcDbEntity
  8
Detail Boundary (ANSI)
  6
Continuous
100
AcDbLine
 10
5.687633064938535
 20
7.042546176363602
 30
0.0
 11
5.62277272589208
 21
6.856688128598825
 31
0.0
  0
POLYLINE
  5
138
330
127
100
AcDbEntity
  8
Detail Boundary (ANSI)
  6
Continuous
100
AcDb2dPolyline
 66
     1
 10
0.0
 20
0.0
 30
0.0
 70
   128
  0
VERTEX
  5
139
330
138
100
AcDbEntity
  8
Detail Boundary (ANSI)
  6
Continuous
100
AcDbVertex
100
AcDb2dVertex
 10
5.650461377121331
 20
7.055518383116233
 30
0.0
  0
VERTEX
  5
13A
330
138
100
AcDbEntity
  8
Detail Boundary (ANSI)
  6
Continuous
100
AcDbVertex
100
AcDb2dVertex
 10
5.62277290764756
 20
6.85668780109075
 30
0.0
  0
VERTEX
  5
13C
330
138
100
AcDbEntity
  8
Detail Boundary (ANSI)
  6
Continuous
100
AcDbVertex
100
AcDb2dVertex
 10
5.72480479563315
 20
7.029573936162031
 30
0.0
  0
VERTEX
  5
13D
330
138
100
AcDbEntity
  8
Detail Boundary (ANSI)
  6
Continuous
100
AcDbVertex
100
AcDb2dVertex
 10
5.650461377121331
 20
7.055518383116233
 30
0.0
  0
SEQEND
  5
13B
330
138
100
AcDbEntity
  8
Detail Boundary (ANSI)
  6
Continuous
  0
SOLID
  5
13E
330
127
100
AcDbEntity
  8
Detail Boundary (ANSI)
100
AcDbTrace
 10
5.650461377121331
 20
7.055518383116233
 30
0.0
 11
5.62277290764756
 21
6.85668780109075
 31
0.0
 12
5.72480479563315
 22
7.029573936162031
 32
0.0
 13
5.650461377121331
 23
7.055518383116233
 33
0.0
  0
LINE
  5
13F
330
127
100
AcDbEntity
  8
Detail Boundary (ANSI)
  6
Continuous
100
AcDbLine
 10
5.650461455385579
 20
7.055518244172893
 30
0.0
 11
5.62277272589208
 21
6.856688128598825
 31
0.0
  0
LINE
  5
140
330
127
100
AcDbEntity
  8
Detail Boundary (ANSI)
  6
Continuous
100
AcDbLine
 10
5.62277272589208
 20
6.856688128598825
 30
0.0
 11
5.72480467449149
 21
7.029574108554311
 31
0.0
  0
LINE
  5
141
330
127
100
AcDbEntity
  8
Detail Boundary (ANSI)
  6
Continuous
100
AcDbLine
 10
5.72480467449149
 20
7.029574108554311
 30
0.0
 11
5.650461455385579
 21
7.055518244172893
 31
0.0
  0
ARC
  5
142
330
127
100
AcDbEntity
  8
Detail Boundary (ANSI)
 48
0.5759652256965638
100
AcDbCircle
 10
5.017786203214058
 20
7.27630788366206
 30
0.0
 40
0.7094641315536819
100
AcDbArc
 50
340.7621448014132
 51
269.2218941453647
  0
ENDBLK
  5
129
330
127
100
AcDbEntity
  8
0
100
AcDbBlockEnd
  0
BLOCK
  5
178
330
172
100
AcDbEntity
  8
0
100
AcDbBlockBegin
  2
*D6
 70
     1
 10
0.0
 20
0.0
 30
0.0
  3
*D6
  1

  0
LINE
  5
206
330
172
100
AcDbEntity
  8
Dimension (ANSI)
100
AcDbLine
 10
1.023512487266478
 20
0.6364428882819455
 30
0.0
 11
0.9976760798802219
 21
0.6364428882819454
 31
0.0
  0
LINE
  5
207
330
172
100
AcDbEntity
  8
Dimension (ANSI)
100
AcDbLine
 10
0.9976760798802219
 20
0.6364428882819454
 30
0.0
 11
0.7513956749571996
 21
0.7862401113038779
 31
0.0
  0
MTEXT
  5
208
330
172
100
AcDbEntity
  8
Dimension (ANSI)
100
AcDbMText
 10
1.029811699864903
 20
0.6489425529828013
 30
0.0
 40
0.0240000009536743
 41
0.0
 71
     1
 72
     1
  1
\A1;R0.0035 in
  7
Note Text (ANSI)
 73
     1
 44
1.0
1001
ACAD
1000
MTEXTBEGIN
1070
    73
1070
     1
1070
    44
1040
1.0
1070
    74
1070
     0
1000
MTEXTEND
  0
SOLID
  5
209
330
172
100
AcDbEntity
  8
Dimension (ANSI)
100
AcDbTrace
 10
0.7531006025040213
 20
0.7890431689181982
 30
0.0
 11
0.7496907474103781
 21
0.7834370536895577
 31
0.0
 12
0.7345773292712785
 22
0.7964696765848077
 32
0.0
 13
0.7345773292712785
 23
0.7964696765848077
 33
0.0
  0
POINT
  5
20A
330
172
100
AcDbEntity
  8
Defpoints
 62
     0
100
AcDbPoint
 10
0.7345773292712785
 20
0.7964696765848077
 30
0.0
  0
POINT
  5
20B
330
172
100
AcDbEntity
  8
Defpoints
 62
     0
100
AcDbPoint
 10
0.7435482350633378
 20
0.7910132263403723
 30
0.0
  0
ENDBLK
  5
179
330
172
100
AcDbEntity
  8
0
100
AcDbBlockEnd
  0
BLOCK
  5
218
330
20D
100
AcDbEntity
  8
0
100
AcDbBlockBegin
  2
*D7
 70
     1
 10
0.0
 20
0.0
 30
0.0
  3
*D7
  1

  0
LINE
  5
2EC
330
20D
100
AcDbEntity
  8
Dimension (ANSI)
100
AcDbLine
 10
0.7576482350633219
 20
0.8395132263402516
 30
0.0
 11
0.7576482350633219
 21
0.9172435876452029
 31
0.0
  0
LINE
  5
2ED
330
20D
100
AcDbEntity
  8
Dimension (ANSI)
100
AcDbLine
 10
0.7330482350633955
 20
0.8035132263403724
 30
0.0
 11
0.7330482350633955
 21
0.9172435876452029
 31
0.0
  0
LINE
  5
2EE
330
20D
100
AcDbEntity
  8
Dimension (ANSI)
100
AcDbLine
 10
0.7773332739875391
 20
0.8922435876452027
 30
0.0
 11
0.7970183129117565
 21
0.8922435876452027
 31
0.0
  0
LINE
  5
2EF
330
20D
100
AcDbEntity
  8
Dimension (ANSI)
100
AcDbLine
 10
0.7133631961391782
 20
0.8922435876452027
 30
0.0
 11
0.693678157214961
 21
0.8922435876452027
 31
0.0
  0
SOLID
  5
2F0
330
20D
100
AcDbEntity
  8
Dimension (ANSI)
100
AcDbTrace
 10
0.7773332739875391
 20
0.8955244274659056
 30
0.0
 11
0.7773332739875391
 21
0.8889627478244999
 31
0.0
 12
0.7576482350633219
 22
0.8922435876452027
 32
0.0
 13
0.7576482350633219
 23
0.8922435876452027
 33
0.0
  0
SOLID
  5
2F1
330
20D
100
AcDbEntity
  8
Dimension (ANSI)
100
AcDbTrace
 10
0.7133631961391782
 20
0.8955244274659056
 30
0.0
 11
0.7133631961391782
 21
0.8889627478244999
 31
0.0
 12
0.7330482350633955
 22
0.8922435876452027
 32
0.0
 13
0.7330482350633955
 23
0.8922435876452027
 33
0.0
  0
MTEXT
  5
2F2
330
20D
100
AcDbEntity
  8
Dimension (ANSI)
100
AcDbMText
 10
0.5544199064252266
 20
0.904791606948383
 30
0.0
 40
0.0240000009536743
 41
0.0
 71
     1
 72
     1
  1
\A1;0.0082 in
  7
Note Text (ANSI)
 73
     1
 44
1.0
1001
ACAD
1000
MTEXTBEGIN
1070
    73
1070
     1
1070
    44
1040
1.0
1070
    74
1070
     0
1000
MTEXTEND
  0
POINT
  5
2F3
330
20D
100
AcDbEntity
  8
Defpoints
 62
     0
100
AcDbPoint
 10
0.7576482350633219
 20
0.8270132263402516
 30
0.0
  0
POINT
  5
2F4
330
20D
100
AcDbEntity
  8
Defpoints
 62
     0
100
AcDbPoint
 10
0.7330482350633955
 20
0.7910132263403725
 30
0.0
  0
POINT
  5
2F5
330
20D
100
AcDbEntity
  8
Defpoints
 62
     0
100
AcDbPoint
 10
0.7330482350633955
 20
0.8922435876452027
 30
0.0
  0
ENDBLK
  5
219
330
20D
100
AcDbEntity
  8
0
100
AcDbBlockEnd
  0
BLOCK
  5
302
330
2F7
100
AcDbEntity
  8
0
100
AcDbBlockBegin
  2
*D8
 70
     1
 10
0.0
 20
0.0
 30
0.0
  3
*D8
  1

  0
LINE
  5
3E1
330
2F7
100
AcDbEntity
  8
Dimension (ANSI)
100
AcDbLine
 10
0.7760482350634554
 20
0.7715132263404603
 30
0.0
 11
0.6559241839251656
 21
0.7715132263404604
 31
0.0
  0
LINE
  5
3E2
330
2F7
100
AcDbEntity
  8
Dimension (ANSI)
100
AcDbLine
 10
0.6809241839251657
 20
0.8073281874160345
 30
0.0
 11
0.6809241839251657
 21
0.7911982652646776
 31
0.0
  0
LINE
  5
3E3
330
2F7
100
AcDbEntity
  8
Dimension (ANSI)
100
AcDbLine
 10
0.6612391450009483
 20
0.4746445515713573
 30
0.0
 11
0.6809241839251655
 21
0.4746445515713573
 31
0.0
  0
LINE
  5
3E4
330
2F7
100
AcDbEntity
  8
Dimension (ANSI)
100
AcDbLine
 10
0.6809241839251655
 20
0.4746445515713573
 30
0.0
 11
0.6809241839251657
 21
0.7715132263404604
 31
0.0
  0
MTEXT
  5
3E5
330
2F7
100
AcDbEntity
  8
Dimension (ANSI)
100
AcDbMText
 10
0.5219808942112138
 20
0.4871925708745377
 30
0.0
 40
0.0240000009536743
 41
0.0
 71
     1
 72
     1
  1
\A1;0.0185 in
  7
Note Text (ANSI)
 73
     1
 44
1.0
1001
ACAD
1000
MTEXTBEGIN
1070
    73
1070
     1
1070
    44
1040
1.0
1070
    74
1070
     0
1000
MTEXTEND
  0
SOLID
  5
3E6
330
2F7
100
AcDbEntity
  8
Dimension (ANSI)
100
AcDbTrace
 10
0.6776433441044629
 20
0.8073281874160345
 30
0.0
 11
0.6842050237458685
 21
0.8073281874160345
 31
0.0
 12
0.6809241839251657
 22
0.8270132263402517
 32
0.0
 13
0.6809241839251657
 23
0.8270132263402517
 33
0.0
  0
SOLID
  5
3E7
330
2F7
100
AcDbEntity
  8
Dimension (ANSI)
100
AcDbTrace
 10
0.6776433441044629
 20
0.7911982652646776
 30
0.0
 11
0.6842050237458685
 21
0.7911982652646776
 31
0.0
 12
0.6809241839251657
 22
0.7715132263404604
 32
0.0
 13
0.6809241839251657
 23
0.7715132263404604
 33
0.0
  0
POINT
  5
3E8
330
2F7
100
AcDbEntity
  8
Defpoints
 62
     0
100
AcDbPoint
 10
0.7885482350633359
 20
0.8270132263402516
 30
0.0
  0
POINT
  5
3E9
330
2F7
100
AcDbEntity
  8
Defpoints
 62
     0
100
AcDbPoint
 10
0.7885482350634554
 20
0.7715132263404603
 30
0.0
  0
POINT
  5
3EA
330
2F7
100
AcDbEntity
  8
Defpoints
 62
     0
100
AcDbPoint
 10
0.6809241839251657
 20
0.7715132263404604
 30
0.0
  0
ENDBLK
  5
303
330
2F7
100
AcDbEntity
  8
0
100
AcDbBlockEnd
  0
BLOCK
  5
3F7
330
3EC
100
AcDbEntity
  8
0
100
AcDbBlockBegin
  2
*D9
 70
     1
 10
0.0
 20
0.0
 30
0.0
  3
*D9
  1

  0
LINE
  5
4CB
330
3EC
100
AcDbEntity
  8
Dimension (ANSI)
100
AcDbLine
 10
0.3430482350634064
 20
0.8395132263402516
 30
0.0
 11
0.3430482350634064
 21
0.9307533838205666
 31
0.0
  0
LINE
  5
4CC
330
3EC
100
AcDbEntity
  8
Dimension (ANSI)
100
AcDbLine
 10
0.3985482350633321
 20
0.8395132263402516
 30
0.0
 11
0.3985482350633321
 21
0.9307533838205666
 31
0.0
  0
LINE
  5
4CD
330
3EC
100
AcDbEntity
  8
Dimension (ANSI)
100
AcDbLine
 10
0.3788631961391148
 20
0.9057533838205666
 30
0.0
 11
0.3627332739876237
 21
0.9057533838205666
 31
0.0
  0
LINE
  5
4CE
330
3EC
100
AcDbEntity
  8
Dimension (ANSI)
100
AcDbLine
 10
0.3430482350634064
 20
0.9057533838205666
 30
0.0
 11
0.2750206295285761
 21
0.9057533838205666
 31
0.0
  0
SOLID
  5
4CF
330
3EC
100
AcDbEntity
  8
Dimension (ANSI)
100
AcDbTrace
 10
0.3788631961391148
 20
0.9090342236412693
 30
0.0
 11
0.3788631961391148
 21
0.9024725439998636
 31
0.0
 12
0.3985482350633321
 22
0.9057533838205666
 32
0.0
 13
0.3985482350633321
 23
0.9057533838205666
 33
0.0
  0
SOLID
  5
4D0
330
3EC
100
AcDbEntity
  8
Dimension (ANSI)
100
AcDbTrace
 10
0.3627332739876237
 20
0.9090342236412693
 30
0.0
 11
0.3627332739876237
 21
0.9024725439998636
 31
0.0
 12
0.3430482350634064
 22
0.9057533838205666
 32
0.0
 13
0.3430482350634064
 23
0.9057533838205666
 33
0.0
  0
MTEXT
  5
4D1
330
3EC
100
AcDbEntity
  8
Dimension (ANSI)
100
AcDbMText
 10
0.1357623787388416
 20
0.9183014031237469
 30
0.0
 40
0.0240000009536743
 41
0.0
 71
     1
 72
     1
  1
\A1;0.0185 in
  7
Note Text (ANSI)
 73
     1
 44
1.0
1001
ACAD
1000
MTEXTBEGIN
1070
    73
1070
     1
1070
    44
1040
1.0
1070
    74
1070
     0
1000
MTEXTEND
  0
POINT
  5
4D2
330
3EC
100
AcDbEntity
  8
Defpoints
 62
     0
100
AcDbPoint
 10
0.3430482350634064
 20
0.8270132263402516
 30
0.0
  0
POINT
  5
4D3
330
3EC
100
AcDbEntity
  8
Defpoints
 62
     0
100
AcDbPoint
 10
0.3985482350633321
 20
0.8270132263402516
 30
0.0
  0
POINT
  5
4D4
330
3EC
100
AcDbEntity
  8
Defpoints
 62
     0
100
AcDbPoint
 10
0.3985482350633321
 20
0.9057533838205666
 30
0.0
  0
ENDBLK
  5
3F8
330
3EC
100
AcDbEntity
  8
0
100
AcDbBlockEnd
  0
BLOCK
  5
4DD
330
4D7
100
AcDbEntity
  8
0
100
AcDbBlockBegin
  2
*D10
 70
     1
 10
0.0
 20
0.0
 30
0.0
  3
*D10
  1

  0
LINE
  5
56D
330
4D7
100
AcDbEntity
  8
Dimension (ANSI)
100
AcDbLine
 10
0.3807508041924695
 20
0.2083299141924353
 30
0.0
 11
0.4065872115787172
 21
0.2083299141924353
 31
0.0
  0
LINE
  5
56E
330
4D7
100
AcDbEntity
  8
Dimension (ANSI)
100
AcDbLine
 10
0.4065872115787172
 20
0.2083299141924353
 30
0.0
 11
0.4822531876236609
 21
0.3597860340961773
 31
0.0
  0
MTEXT
  5
56F
330
4D7
100
AcDbEntity
  8
Dimension (ANSI)
100
AcDbMText
 10
0.222102357870653
 20
0.2208779334956156
 30
0.0
 40
0.0240000009536743
 41
0.0
 71
     1
 72
     1
  1
\A1;R0.0558 in
  7
Note Text (ANSI)
 73
     1
 44
1.0
1001
ACAD
1000
MTEXTBEGIN
1070
    73
1070
     1
1070
    44
1040
1.0
1070
    74
1070
     0
1000
MTEXTEND
  0
SOLID
  5
570
330
4D7
100
AcDbEntity
  8
Dimension (ANSI)
100
AcDbTrace
 10
0.4793182342057439
 20
0.3612523077281327
 30
0.0
 11
0.4851881410415777
 21
0.358319760464222
 31
0.0
 12
0.491050829415393
 22
0.3773957546036788
 32
0.0
 13
0.491050829415393
 23
0.3773957546036788
 33
0.0
  0
POINT
  5
571
330
4D7
100
AcDbEntity
  8
Defpoints
 62
     0
100
AcDbPoint
 10
0.491050829415393
 20
0.3773957546036788
 30
0.0
  0
POINT
  5
572
330
4D7
100
AcDbEntity
  8
Defpoints
 62
     0
100
AcDbPoint
 10
0.5657982350634981
 20
0.5270132263403635
 30
0.0
  0
ENDBLK
  5
4DE
330
4D7
100
AcDbEntity
  8
0
100
AcDbBlockEnd
  0
BLOCK
  5
57A
330
574
100
AcDbEntity
  8
0
100
AcDbBlockBegin
  2
*D11
 70
     1
 10
0.0
 20
0.0
 30
0.0
  3
*D11
  1

  0
LINE
  5
60A
330
574
100
AcDbEntity
  8
Dimension (ANSI)
100
AcDbLine
 10
0.6946271236000447
 20
0.1402522169018212
 30
0.0
 11
0.6598023785862928
 21
0.1402522169018212
 31
0.0
  0
LINE
  5
60B
330
574
100
AcDbEntity
  8
Dimension (ANSI)
100
AcDbLine
 10
0.6598023785862928
 20
0.1402522169018212
 30
0.0
 11
0.6230562391725778
 21
0.2914367651570964
 31
0.0
  0
MTEXT
  5
60C
330
574
100
AcDbEntity
  8
Dimension (ANSI)
100
AcDbMText
 10
0.7009263361984699
 20
0.1527518816026771
 30
0.0
 40
0.0240000009536743
 41
0.0
 71
     1
 72
     1
  1
\A1;R0.0743 in
  7
Note Text (ANSI)
 73
     1
 44
1.0
1001
ACAD
1000
MTEXTBEGIN
1070
    73
1070
     1
1070
    44
1040
1.0
1070
    74
1070
     0
1000
MTEXTEND
  0
SOLID
  5
60D
330
574
100
AcDbEntity
  8
Dimension (ANSI)
100
AcDbTrace
 10
0.6262442628101672
 20
0.2922116298002958
 30
0.0
 11
0.6198682155349884
 21
0.2906619005138971
 31
0.0
 12
0.6184070513133816
 22
0.3105649069826332
 32
0.0
 13
0.6184070513133816
 23
0.3105649069826332
 33
0.0
  0
POINT
  5
60E
330
574
100
AcDbEntity
  8
Defpoints
 62
     0
100
AcDbPoint
 10
0.6184070513133816
 20
0.3105649069826332
 30
0.0
  0
POINT
  5
60F
330
574
100
AcDbEntity
  8
Defpoints
 62
     0
100
AcDbPoint
 10
0.5657982350634978
 20
0.5270132263403635
 30
0.0
  0
ENDBLK
  5
57B
330
574
100
AcDbEntity
  8
0
100
AcDbBlockEnd
  0
BLOCK
  5
61C
330
611
100
AcDbEntity
  8
0
100
AcDbBlockBegin
  2
*D12
 70
     1
 10
0.0
 20
0.0
 30
0.0
  3
*D12
  1

  0
LINE
  5
6EB
330
611
100
AcDbEntity
  8
Dimension (ANSI)
100
AcDbLine
 10
0.7576482350633219
 20
0.8395132263402516
 30
0.0
 11
0.7576482350633219
 21
1.024289098806847
 31
0.0
  0
LINE
  5
6EC
330
611
100
AcDbEntity
  8
Dimension (ANSI)
100
AcDbLine
 10
0.7379631961391047
 20
0.999289098806847
 30
0.0
 11
0.729989179783429
 21
0.999289098806847
 31
0.0
  0
LINE
  5
6ED
330
611
100
AcDbEntity
  8
Dimension (ANSI)
100
AcDbLine
 10
0.5854832739875811
 20
0.999289098806847
 30
0.0
 11
0.6024518648614937
 21
0.999289098806847
 31
0.0
  0
SOLID
  5
6EE
330
611
100
AcDbEntity
  8
Dimension (ANSI)
100
AcDbTrace
 10
0.7379631961391047
 20
1.002569938627549
 30
0.0
 11
0.7379631961391047
 21
0.9960082589861443
 31
0.0
 12
0.7576482350633219
 22
0.999289098806847
 32
0.0
 13
0.7576482350633219
 23
0.999289098806847
 33
0.0
  0
SOLID
  5
6EF
330
611
100
AcDbEntity
  8
Dimension (ANSI)
100
AcDbTrace
 10
0.5854832739875811
 20
1.002569938627549
 30
0.0
 11
0.5854832739875811
 21
0.9960082589861443
 31
0.0
 12
0.5657982350633639
 22
0.999289098806847
 32
0.0
 13
0.5657982350633639
 23
0.999289098806847
 33
0.0
  0
MTEXT
  5
6F0
330
611
100
AcDbEntity
  8
Dimension (ANSI)
100
AcDbMText
 10
0.6087510774599189
 20
1.011780704407315
 30
0.0
 40
0.0240000009536743
 41
0.0
 71
     1
 72
     1
  1
\A1;0.064 in
  7
Note Text (ANSI)
 73
     1
 44
1.0
1001
ACAD
1000
MTEXTBEGIN
1070
    73
1070
     1
1070
    44
1040
1.0
1070
    74
1070
     0
1000
MTEXTEND
  0
POINT
  5
6F1
330
611
100
AcDbEntity
  8
Defpoints
 62
     0
100
AcDbPoint
 10
0.7576482350633219
 20
0.8270132263402516
 30
0.0
  0
POINT
  5
6F2
330
611
100
AcDbEntity
  8
Defpoints
 62
     0
100
AcDbPoint
 10
0.5657982350633639
 20
0.8996582127189252
 30
0.0
  0
POINT
  5
6F3
330
611
100
AcDbEntity
  8
Defpoints
 62
     0
100
AcDbPoint
 10
0.5657982350633639
 20
0.999289098806847
 30
0.0
  0
ENDBLK
  5
61D
330
611
100
AcDbEntity
  8
0
100
AcDbBlockEnd
  0
BLOCK
  5
700
330
6F5
100
AcDbEntity
  8
0
100
AcDbBlockBegin
  2
*D13
 70
     1
 10
0.0
 20
0.0
 30
0.0
  3
*D13
  1

  0
LINE
  5
7E1
330
6F5
100
AcDbEntity
  8
Dimension (ANSI)
100
AcDbLine
 10
0.5360482350632763
 20
0.8270132263402516
 30
0.0
 11
0.4448080775829613
 21
0.8270132263402516
 31
0.0
  0
LINE
  5
7E2
330
6F5
100
AcDbEntity
  8
Dimension (ANSI)
100
AcDbLine
 10
0.5532982350634982
 20
0.5270132263403635
 30
0.0
 11
0.4448080775829612
 21
0.5270132263403635
 31
0.0
  0
LINE
  5
7E3
330
6F5
100
AcDbEntity
  8
Dimension (ANSI)
100
AcDbLine
 10
0.4698080775829613
 20
0.8073281874160343
 30
0.0
 11
0.4698080775829612
 21
0.5466982652645807
 31
0.0
  0
LINE
  5
7E4
330
6F5
100
AcDbEntity
  8
Dimension (ANSI)
100
AcDbLine
 10
0.4501230386587441
 20
0.9651658762224249
 30
0.0
 11
0.4698080775829613
 21
0.9651658762224249
 31
0.0
  0
LINE
  5
7E5
330
6F5
100
AcDbEntity
  8
Dimension (ANSI)
100
AcDbLine
 10
0.4698080775829613
 20
0.9651658762224249
 30
0.0
 11
0.4698080775829613
 21
0.8270132263402516
 31
0.0
  0
MTEXT
  5
7E6
330
6F5
100
AcDbEntity
  8
Dimension (ANSI)
100
AcDbMText
 10
0.3288849363352337
 20
0.9776574818228935
 30
0.0
 40
0.0240000009536743
 41
0.0
 71
     1
 72
     1
  1
\A1;0.100 in
  7
Note Text (ANSI)
 73
     1
 44
1.0
1001
ACAD
1000
MTEXTBEGIN
1070
    73
1070
     1
1070
    44
1040
1.0
1070
    74
1070
     0
1000
MTEXTEND
  0
SOLID
  5
7E7
330
6F5
100
AcDbEntity
  8
Dimension (ANSI)
100
AcDbTrace
 10
0.4665272377622584
 20
0.8073281874160343
 30
0.0
 11
0.4730889174036641
 21
0.8073281874160343
 31
0.0
 12
0.4698080775829613
 22
0.8270132263402516
 32
0.0
 13
0.4698080775829613
 23
0.8270132263402516
 33
0.0
  0
SOLID
  5
7E8
330
6F5
100
AcDbEntity
  8
Dimension (ANSI)
100
AcDbTrace
 10
0.4665272377622583
 20
0.5466982652645807
 30
0.0
 11
0.4730889174036641
 21
0.5466982652645807
 31
0.0
 12
0.4698080775829612
 22
0.5270132263403635
 32
0.0
 13
0.4698080775829612
 23
0.5270132263403635
 33
0.0
  0
POINT
  5
7E9
330
6F5
100
AcDbEntity
  8
Defpoints
 62
     0
100
AcDbPoint
 10
0.5485482350632763
 20
0.8270132263402516
 30
0.0
  0
POINT
  5
7EA
330
6F5
100
AcDbEntity
  8
Defpoints
 62
     0
100
AcDbPoint
 10
0.5657982350634981
 20
0.5270132263403635
 30
0.0
  0
POINT
  5
7EB
330
6F5
100
AcDbEntity
  8
Defpoints
 62
     0
100
AcDbPoint
 10
0.4698080775829612
 20
0.5270132263403635
 30
0.0
  0
ENDBLK
  5
701
330
6F5
100
AcDbEntity
  8
0
100
AcDbBlockEnd
  0
BLOCK
  5
7F8
330
7ED
100
AcDbEntity
  8
0
100
AcDbBlockBegin
  2
*D14
 70
     1
 10
0.0
 20
0.0
 30
0.0
  3
*D14
  1

  0
LINE
  5
8CC
330
7ED
100
AcDbEntity
  8
Dimension (ANSI)
100
AcDbLine
 10
0.7885482350634554
 20
0.8065132263402515
 30
0.0
 11
0.7885482350634554
 21
1.020023695983794
 31
0.0
  0
LINE
  5
8CD
330
7ED
100
AcDbEntity
  8
Dimension (ANSI)
100
AcDbLine
 10
0.968548235063254
 20
0.8065132263402515
 30
0.0
 11
0.968548235063254
 21
1.020023695983794
 31
0.0
  0
LINE
  5
8CE
330
7ED
100
AcDbEntity
  8
Dimension (ANSI)
100
AcDbLine
 10
0.8082332739876726
 20
0.9950236959837944
 30
0.0
 11
0.9488631961390368
 21
0.9950236959837944
 31
0.0
  0
LINE
  5
8CF
330
7ED
100
AcDbEntity
  8
Dimension (ANSI)
100
AcDbLine
 10
0.968548235063254
 20
0.9950236959837944
 30
0.0
 11
1.018103381029433
 21
0.9950236959837944
 31
0.0
  0
SOLID
  5
8D0
330
7ED
100
AcDbEntity
  8
Dimension (ANSI)
100
AcDbTrace
 10
0.8082332739876726
 20
0.9983045358044972
 30
0.0
 11
0.8082332739876726
 21
0.9917428561630915
 31
0.0
 12
0.7885482350634554
 22
0.9950236959837944
 32
0.0
 13
0.7885482350634554
 23
0.9950236959837944
 33
0.0
  0
SOLID
  5
8D1
330
7ED
100
AcDbEntity
  8
Dimension (ANSI)
100
AcDbTrace
 10
0.9488631961390368
 20
0.9983045358044972
 30
0.0
 11
0.9488631961390368
 21
0.9917428561630915
 31
0.0
 12
0.968548235063254
 22
0.9950236959837944
 32
0.0
 13
0.968548235063254
 23
0.9950236959837944
 33
0.0
  0
MTEXT
  5
8D2
330
7ED
100
AcDbEntity
  8
Dimension (ANSI)
100
AcDbMText
 10
1.024402593627858
 20
1.007515301584262
 30
0.0
 40
0.0240000009536743
 41
0.0
 71
     1
 72
     1
  1
\A1;0.060 in
  7
Note Text (ANSI)
 73
     1
 44
1.0
1001
ACAD
1000
MTEXTBEGIN
1070
    73
1070
     1
1070
    44
1040
1.0
1070
    74
1070
     0
1000
MTEXTEND
  0
POINT
  5
8D3
330
7ED
100
AcDbEntity
  8
Defpoints
 62
     0
100
AcDbPoint
 10
0.7885482350634554
 20
0.7940132263402516
 30
0.0
  0
POINT
  5
8D4
330
7ED
100
AcDbEntity
  8
Defpoints
 62
     0
100
AcDbPoint
 10
0.968548235063254
 20
0.7940132263402516
 30
0.0
  0
POINT
  5
8D5
330
7ED
100
AcDbEntity
  8
Defpoints
 62
     0
100
AcDbPoint
 10
0.968548235063254
 20
0.9950236959837944
 30
0.0
  0
ENDBLK
  5
7F9
330
7ED
100
AcDbEntity
  8
0
100
AcDbBlockEnd
  0
BLOCK
  5
8EB
330
8EA
100
AcDbEntity
  8
0
100
AcDbBlockBegin
  2
2dDetail1
 70
     0
 10
0.0
 20
0.0
 30
0.0
  3
2dDetail1
  1

  0
MTEXT
  5
8ED
330
8EA
100
AcDbEntity
  8
Detail Boundary (ANSI)
100
AcDbMText
 10
7.562689428212228
 20
7.05986326328655
 30
0.0
 40
0.1799999963580154
 41
0.0
 71
     7
 72
     1
  1
B
  7
Text Style30
 73
     1
 44
1.0
1001
ACAD
1000
MTEXTBEGIN
1070
    73
1070
     1
1070
    44
1040
1.0
1070
    74
1070
     0
1000
MTEXTEND
  0
LINE
  5
8EE
330
8EA
100
AcDbEntity
  8
Detail Boundary (ANSI)
  6
Continuous
100
AcDbLine
 10
7.26714224030422
 20
7.007050504471035
 30
0.0
 11
7.463924327846937
 21
7.00186518649762
 31
0.0
  0
POLYLINE
  5
8EF
330
8EA
100
AcDbEntity
  8
Detail Boundary (ANSI)
  6
Continuous
100
AcDb2dPolyline
 66
     1
 10
0.0
 20
0.0
 30
0.0
 70
   128
  0
VERTEX
  5
8F0
330
8EF
100
AcDbEntity
  8
Detail Boundary (ANSI)
  6
Continuous
100
AcDbVertex
100
AcDb2dVertex
 10
7.266105441596562
 20
6.96769398967112
 30
0.0
  0
VERTEX
  5
8F1
330
8EF
100
AcDbEntity
  8
Detail Boundary (ANSI)
  6
Continuous
100
AcDbVertex
100
AcDb2dVertex
 10
7.463924528106927
 20
7.001864816260149
 30
0.0
  0
VERTEX
  5
8F3
330
8EF
100
AcDbEntity
  8
Detail Boundary (ANSI)
  6
Continuous
100
AcDbVertex
100
AcDb2dVertex
 10
7.268179495503581
 20
7.046406663308931
 30
0.0
  0
VERTEX
  5
8F4
330
8EF
100
AcDbEntity
  8
Detail Boundary (ANSI)
  6
Continuous
100
AcDbVertex
100
AcDb2dVertex
 10
7.266105441596562
 20
6.96769398967112
 30
0.0
  0
SEQEND
  5
8F2
330
8EF
100
AcDbEntity
  8
Detail Boundary (ANSI)
  6
Continuous
  0
SOLID
  5
8F5
330
8EA
100
AcDbEntity
  8
Detail Boundary (ANSI)
100
AcDbTrace
 10
7.266105441596562
 20
6.96769398967112
 30
0.0
 11
7.463924528106927
 21
7.001864816260149
 31
0.0
 12
7.268179495503581
 22
7.046406663308931
 32
0.0
 13
7.266105441596562
 23
6.96769398967112
 33
0.0
  0
LINE
  5
8F6
330
8EA
100
AcDbEntity
  8
Detail Boundary (ANSI)
  6
Continuous
100
AcDbLine
 10
7.266105176709538
 20
6.967694086962493
 30
0.0
 11
7.463924327846937
 21
7.00186518649762
 31
0.0
  0
LINE
  5
8F7
330
8EA
100
AcDbEntity
  8
Detail Boundary (ANSI)
  6
Continuous
100
AcDbLine
 10
7.463924327846937
 20
7.00186518649762
 30
0.0
 11
7.268179303898904
 21
7.046406921979579
 31
0.0
  0
LINE
  5
8F8
330
8EA
100
AcDbEntity
  8
Detail Boundary (ANSI)
  6
Continuous
100
AcDbLine
 10
7.268179303898904
 20
7.046406921979579
 30
0.0
 11
7.266105176709538
 21
6.967694086962493
 31
0.0
  0
LINE
  5
8F9
330
8EA
100
AcDbEntity
  8
Detail Boundary (ANSI)
  6
Continuous
100
AcDbLine
 10
7.735592253817788
 20
7.501525532220701
 30
0.0
 11
7.75139911278582
 21
7.305310801097577
 31
0.0
  0
POLYLINE
  5
8FA
330
8EA
100
AcDbEntity
  8
Detail Boundary (ANSI)
  6
Continuous
100
AcDb2dPolyline
 66
     1
 10
0.0
 20
0.0
 30
0.0
 70
   128
  0
VERTEX
  5
8FB
330
8FA
100
AcDbEntity
  8
Detail Boundary (ANSI)
  6
Continuous
100
AcDbVertex
100
AcDb2dVertex
 10
7.696349226583643
 20
7.498364185723731
 30
0.0
  0
VERTEX
  5
8FC
330
8FA
100
AcDbEntity
  8
Detail Boundary (ANSI)
  6
Continuous
100
AcDbVertex
100
AcDb2dVertex
 10
7.751398762380042
 20
7.305310467096763
 30
0.0
  0
VERTEX
  5
8FE
330
8FA
100
AcDbEntity
  8
Detail Boundary (ANSI)
  6
Continuous
100
AcDbVertex
100
AcDb2dVertex
 10
7.774835120974561
 20
7.504686971349039
 30
0.0
  0
VERTEX
  5
8FF
330
8FA
100
AcDbEntity
  8
Detail Boundary (ANSI)
  6
Continuous
100
AcDbVertex
100
AcDb2dVertex
 10
7.696349226583643
 20
7.498364185723731
 30
0.0
  0
SEQEND
  5
8FD
330
8FA
100
AcDbEntity
  8
Detail Boundary (ANSI)
  6
Continuous
  0
SOLID
  5
900
330
8EA
100
AcDbEntity
  8
Detail Boundary (ANSI)
100
AcDbTrace
 10
7.696349226583643
 20
7.498364185723731
 30
0.0
 11
7.751398762380042
 21
7.305310467096763
 31
0.0
 12
7.774835120974561
 22
7.504686971349039
 32
0.0
 13
7.696349226583643
 23
7.498364185723731
 33
0.0
  0
LINE
  5
901
330
8EA
100
AcDbEntity
  8
Detail Boundary (ANSI)
  6
Continuous
100
AcDbLine
 10
7.696349307593163
 20
7.498364160427094
 30
0.0
 11
7.75139911278582
 21
7.305310801097577
 31
0.0
  0
LINE
  5
902
330
8EA
100
AcDbEntity
  8
Detail Boundary (ANSI)
  6
Continuous
100
AcDbLine
 10
7.75139911278582
 20
7.305310801097577
 30
0.0
 11
7.774835200042414
 21
7.504686904014307
 31
0.0
  0
LINE
  5
903
330
8EA
100
AcDbEntity
  8
Detail Boundary (ANSI)
  6
Continuous
100
AcDbLine
 10
7.774835200042414
 20
7.504686904014307
 30
0.0
 11
7.696349307593163
 21
7.498364160427094
 31
0.0
  0
ARC
  5
904
330
8EA
100
AcDbEntity
  8
Detail Boundary (ANSI)
 48
0.5667398571968079
100
AcDbCircle
 10
7.279203122541416
 20
7.464759288466551
 30
0.0
 40
0.4578676619144365
100
AcDbArc
 50
4.605743473621983
 51
268.4905734846255
  0
ENDBLK
  5
8EC
330
8EA
100
AcDbEntity
  8
0
100
AcDbBlockEnd
  0
BLOCK
  5
928
330
922
100
AcDbEntity
  8
0
100
AcDbBlockBegin
  2
*D16
 70
     1
 10
0.0
 20
0.0
 30
0.0
  3
*D16
  1

  0
LINE
  5
9B8
330
922
100
AcDbEntity
  8
Dimension (ANSI)
100
AcDbLine
 10
1.778877694213444
 20
0.4953752911933901
 30
0.0
 11
1.753036071129191
 21
0.49537529119339
 31
0.0
  0
LINE
  5
9B9
330
922
100
AcDbEntity
  8
Dimension (ANSI)
100
AcDbLine
 10
1.753036071129191
 20
0.49537529119339
 30
0.0
 11
1.490030918643687
 21
0.7583804436765567
 31
0.0
  0
MTEXT
  5
9BA
330
922
100
AcDbEntity
  8
Dimension (ANSI)
100
AcDbMText
 10
1.78517690681187
 20
0.5078749558942461
 30
0.0
 40
0.0240000009536743
 41
0.0
 71
     1
 72
     1
  1
\A1;R0.022 in
  7
Note Text (ANSI)
 73
     1
 44
1.0
1001
ACAD
1000
MTEXTBEGIN
1070
    73
1070
     1
1070
    44
1040
1.0
1070
    74
1070
     0
1000
MTEXTEND
  0
SOLID
  5
9BB
330
922
100
AcDbEntity
  8
Dimension (ANSI)
100
AcDbTrace
 10
1.492350822728882
 20
0.7607003477617729
 30
0.0
 11
1.487711014558491
 21
0.7560605395913404
 31
0.0
 12
1.47611149413239
 22
0.77229986818773
 32
0.0
 13
1.47611149413239
 23
0.77229986818773
 33
0.0
  0
POINT
  5
9BC
330
922
100
AcDbEntity
  8
Defpoints
 62
     0
100
AcDbPoint
 10
1.47611149413239
 20
0.77229986818773
 30
0.0
  0
POINT
  5
9BD
330
922
100
AcDbEntity
  8
Defpoints
 62
     0
100
AcDbPoint
 10
1.42944244657387
 20
0.8189689157458346
 30
0.0
  0
ENDBLK
  5
929
330
922
100
AcDbEntity
  8
0
100
AcDbBlockEnd
  0
BLOCK
  5
9CA
330
9BF
100
AcDbEntity
  8
0
100
AcDbBlockBegin
  2
*D17
 70
     1
 10
0.0
 20
0.0
 30
0.0
  3
*D17
  1

  0
LINE
  5
A9E
330
9BF
100
AcDbEntity
  8
Dimension (ANSI)
100
AcDbLine
 10
1.45494244657382
 20
0.8314689157458349
 30
0.0
 11
1.45494244657382
 21
0.8881334859781627
 31
0.0
  0
LINE
  5
A9F
330
9BF
100
AcDbEntity
  8
Dimension (ANSI)
100
AcDbLine
 10
1.42944244657382
 20
0.8314689157458349
 30
0.0
 11
1.42944244657382
 21
0.8881334859781627
 31
0.0
  0
LINE
  5
AA0
330
9BF
100
AcDbEntity
  8
Dimension (ANSI)
100
AcDbLine
 10
1.409757407649602
 20
0.8631334859781627
 30
0.0
 11
1.390072368725385
 21
0.8631334859781627
 31
0.0
  0
LINE
  5
AA1
330
9BF
100
AcDbEntity
  8
Dimension (ANSI)
100
AcDbLine
 10
1.474627485498037
 20
0.8631334859781627
 30
0.0
 11
1.52297005210865
 21
0.8631334859781627
 31
0.0
  0
SOLID
  5
AA2
330
9BF
100
AcDbEntity
  8
Dimension (ANSI)
100
AcDbTrace
 10
1.409757407649602
 20
0.8664143257988657
 30
0.0
 11
1.409757407649602
 21
0.85985264615746
 31
0.0
 12
1.42944244657382
 22
0.8631334859781627
 32
0.0
 13
1.42944244657382
 23
0.8631334859781627
 33
0.0
  0
SOLID
  5
AA3
330
9BF
100
AcDbEntity
  8
Dimension (ANSI)
100
AcDbTrace
 10
1.474627485498037
 20
0.8664143257988657
 30
0.0
 11
1.474627485498037
 21
0.85985264615746
 31
0.0
 12
1.45494244657382
 22
0.8631334859781627
 32
0.0
 13
1.45494244657382
 23
0.8631334859781627
 33
0.0
  0
MTEXT
  5
AA4
330
9BF
100
AcDbEntity
  8
Dimension (ANSI)
100
AcDbMText
 10
1.529269264707075
 20
0.8756815052813431
 30
0.0
 40
0.0240000009536743
 41
0.0
 71
     1
 72
     1
  1
\A1;0.0085 in
  7
Note Text (ANSI)
 73
     1
 44
1.0
1001
ACAD
1000
MTEXTBEGIN
1070
    73
1070
     1
1070
    44
1040
1.0
1070
    74
1070
     0
1000
MTEXTEND
  0
POINT
  5
AA5
330
9BF
100
AcDbEntity
  8
Defpoints
 62
     0
100
AcDbPoint
 10
1.45494244657382
 20
0.8189689157458349
 30
0.0
  0
POINT
  5
AA6
330
9BF
100
AcDbEntity
  8
Defpoints
 62
     0
100
AcDbPoint
 10
1.42944244657382
 20
0.8189689157458349
 30
0.0
  0
POINT
  5
AA7
330
9BF
100
AcDbEntity
  8
Defpoints
 62
     0
100
AcDbPoint
 10
1.42944244657382
 20
0.8631334859781627
 30
0.0
  0
ENDBLK
  5
9CB
330
9BF
100
AcDbEntity
  8
0
100
AcDbBlockEnd
  0
BLOCK
  5
AB4
330
AA9
100
AcDbEntity
  8
0
100
AcDbBlockBegin
  2
*D18
 70
     1
 10
0.0
 20
0.0
 30
0.0
  3
*D18
  1

  0
LINE
  5
B82
330
AA9
100
AcDbEntity
  8
Dimension (ANSI)
100
AcDbLine
 10
1.441942446573819
 20
0.7934689157460326
 30
0.0
 11
1.470792821583065
 21
0.7934689157460326
 31
0.0
  0
LINE
  5
B83
330
AA9
100
AcDbEntity
  8
Dimension (ANSI)
100
AcDbLine
 10
1.441942446573819
 20
0.8189689157458349
 30
0.0
 11
1.470792821583065
 21
0.8189689157458349
 31
0.0
  0
LINE
  5
B84
330
AA9
100
AcDbEntity
  8
Dimension (ANSI)
100
AcDbLine
 10
1.445792821583065
 20
0.8386539546700523
 30
0.0
 11
1.445792821583065
 21
0.8583389935942696
 31
0.0
  0
LINE
  5
B85
330
AA9
100
AcDbEntity
  8
Dimension (ANSI)
100
AcDbLine
 10
1.445792821583065
 20
0.7737838768218153
 30
0.0
 11
1.445792821583065
 21
0.7360693829717872
 31
0.0
  0
LINE
  5
B86
330
AA9
100
AcDbEntity
  8
Dimension (ANSI)
100
AcDbLine
 10
1.445792821583065
 20
0.7360693829717872
 30
0.0
 11
1.426107782658848
 21
0.7360693829717872
 31
0.0
  0
SOLID
  5
B87
330
AA9
100
AcDbEntity
  8
Dimension (ANSI)
100
AcDbTrace
 10
1.442511981762362
 20
0.8386539546700523
 30
0.0
 11
1.449073661403768
 21
0.8386539546700523
 31
0.0
 12
1.445792821583065
 22
0.8189689157458349
 32
0.0
 13
1.445792821583065
 23
0.8189689157458349
 33
0.0
  0
SOLID
  5
B88
330
AA9
100
AcDbEntity
  8
Dimension (ANSI)
100
AcDbTrace
 10
1.442511981762362
 20
0.7737838768218153
 30
0.0
 11
1.449073661403768
 21
0.7737838768218153
 31
0.0
 12
1.445792821583065
 22
0.7934689157460326
 32
0.0
 13
1.445792821583065
 23
0.7934689157460326
 33
0.0
  0
MTEXT
  5
B89
330
AA9
100
AcDbEntity
  8
Dimension (ANSI)
100
AcDbMText
 10
1.286849531869113
 20
0.7486174022749676
 30
0.0
 40
0.0240000009536743
 41
0.0
 71
     1
 72
     1
  1
\A1;0.0085 in
  7
Note Text (ANSI)
 73
     1
 44
1.0
1001
ACAD
1000
MTEXTBEGIN
1070
    73
1070
     1
1070
    44
1040
1.0
1070
    74
1070
     0
1000
MTEXTEND
  0
POINT
  5
B8A
330
AA9
100
AcDbEntity
  8
Defpoints
 62
     0
100
AcDbPoint
 10
1.42944244657382
 20
0.7934689157460326
 30
0.0
  0
POINT
  5
B8B
330
AA9
100
AcDbEntity
  8
Defpoints
 62
     0
100
AcDbPoint
 10
1.42944244657382
 20
0.8189689157458349
 30
0.0
  0
POINT
  5
B8C
330
AA9
100
AcDbEntity
  8
Defpoints
 62
     0
100
AcDbPoint
 10
1.445792821583065
 20
0.8189689157458349
 30
0.0
  0
ENDBLK
  5
AB5
330
AA9
100
AcDbEntity
  8
0
100
AcDbBlockEnd
  0
BLOCK
  5
B9F
330
B94
100
AcDbEntity
  8
0
100
AcDbBlockBegin
  2
*D19
 70
     1
 10
0.0
 20
0.0
 30
0.0
  3
*D19
  1

  0
LINE
  5
C73
330
B94
100
AcDbEntity
  8
Dimension (ANSI)
100
AcDbLine
 10
0.7607982350634255
 20
0.868031664866052
 30
0.0
 11
0.7607982350634255
 21
0.9711219801396897
 31
0.0
  0
LINE
  5
C74
330
B94
100
AcDbEntity
  8
Dimension (ANSI)
100
AcDbLine
 10
0.7576482350633219
 20
0.8395132263402516
 30
0.0
 11
0.7576482350633219
 21
0.9711219801396897
 31
0.0
  0
LINE
  5
C75
330
B94
100
AcDbEntity
  8
Dimension (ANSI)
100
AcDbLine
 10
0.7379631961391047
 20
0.9461219801396897
 30
0.0
 11
0.7182781572148875
 21
0.9461219801396897
 31
0.0
  0
LINE
  5
C76
330
B94
100
AcDbEntity
  8
Dimension (ANSI)
100
AcDbLine
 10
0.7804832739876427
 20
0.9461219801396897
 30
0.0
 11
0.8154967523927453
 21
0.9461219801396897
 31
0.0
  0
SOLID
  5
C77
330
B94
100
AcDbEntity
  8
Dimension (ANSI)
100
AcDbTrace
 10
0.7379631961391047
 20
0.9494028199603924
 30
0.0
 11
0.7379631961391047
 21
0.9428411403189869
 31
0.0
 12
0.7576482350633219
 22
0.9461219801396897
 32
0.0
 13
0.7576482350633219
 23
0.9461219801396897
 33
0.0
  0
SOLID
  5
C78
330
B94
100
AcDbEntity
  8
Dimension (ANSI)
100
AcDbTrace
 10
0.7804832739876427
 20
0.9494028199603924
 30
0.0
 11
0.7804832739876427
 21
0.9428411403189869
 31
0.0
 12
0.7607982350634255
 22
0.9461219801396897
 32
0.0
 13
0.7607982350634255
 23
0.9461219801396897
 33
0.0
  0
MTEXT
  5
C79
330
B94
100
AcDbEntity
  8
Dimension (ANSI)
100
AcDbMText
 10
0.8217959649911705
 20
0.9586135857401581
 30
0.0
 40
0.0240000009536743
 41
0.0
 71
     1
 72
     1
  1
\A1;0.001 in
  7
Note Text (ANSI)
 73
     1
 44
1.0
1001
ACAD
1000
MTEXTBEGIN
1070
    73
1070
     1
1070
    44
1040
1.0
1070
    74
1070
     0
1000
MTEXTEND
  0
POINT
  5
C7A
330
B94
100
AcDbEntity
  8
Defpoints
 62
     0
100
AcDbPoint
 10
0.7607982350634255
 20
0.855531664866052
 30
0.0
  0
POINT
  5
C7B
330
B94
100
AcDbEntity
  8
Defpoints
 62
     0
100
AcDbPoint
 10
0.7576482350633219
 20
0.8270132263402516
 30
0.0
  0
POINT
  5
C7C
330
B94
100
AcDbEntity
  8
Defpoints
 62
     0
100
AcDbPoint
 10
0.7576482350633219
 20
0.9461219801396897
 30
0.0
  0
ENDBLK
  5
BA0
330
B94
100
AcDbEntity
  8
0
100
AcDbBlockEnd
  0
BLOCK
  5
C89
330
C7E
100
AcDbEntity
  8
0
100
AcDbBlockBegin
  2
*D20
 70
     1
 10
0.0
 20
0.0
 30
0.0
  3
*D20
  1

  0
LINE
  5
D52
330
C7E
100
AcDbEntity
  8
Dimension (ANSI)
100
AcDbLine
 10
0.3904832739875865
 20
0.5775631849071652
 30
0.0
 11
0.7411131961392083
 21
0.5775631849071652
 31
0.0
  0
LINE
  5
D53
330
C7E
100
AcDbEntity
  8
Dimension (ANSI)
100
AcDbLine
 10
0.7607982350634255
 20
0.5775631849071652
 30
0.0
 11
0.8050748216304874
 21
0.5775631849071652
 31
0.0
  0
SOLID
  5
D54
330
C7E
100
AcDbEntity
  8
Dimension (ANSI)
100
AcDbTrace
 10
0.3904832739875865
 20
0.5808440247278681
 30
0.0
 11
0.3904832739875865
 21
0.5742823450864624
 31
0.0
 12
0.3707982350633693
 22
0.5775631849071652
 32
0.0
 13
0.3707982350633693
 23
0.5775631849071652
 33
0.0
  0
SOLID
  5
D55
330
C7E
100
AcDbEntity
  8
Dimension (ANSI)
100
AcDbTrace
 10
0.7411131961392083
 20
0.5808440247278681
 30
0.0
 11
0.7411131961392083
 21
0.5742823450864624
 31
0.0
 12
0.7607982350634255
 22
0.5775631849071652
 32
0.0
 13
0.7607982350634255
 23
0.5775631849071652
 33
0.0
  0
MTEXT
  5
D56
330
C7E
100
AcDbEntity
  8
Dimension (ANSI)
100
AcDbMText
 10
0.8113740342289126
 20
0.5900628496080211
 30
0.0
 40
0.0240000009536743
 41
0.0
 71
     1
 72
     1
  1
\A1;0.130 in
  7
Note Text (ANSI)
 73
     1
 44
1.0
1001
ACAD
1000
MTEXTBEGIN
1070
    73
1070
     1
1070
    44
1040
1.0
1070
    74
1070
     0
1000
MTEXTEND
  0
POINT
  5
D57
330
C7E
100
AcDbEntity
  8
Defpoints
 62
     0
100
AcDbPoint
 10
0.3707982350633693
 20
0.54925012275042
 30
0.0
  0
POINT
  5
D58
330
C7E
100
AcDbEntity
  8
Defpoints
 62
     0
100
AcDbPoint
 10
0.7607982350634255
 20
0.54925012275042
 30
0.0
  0
POINT
  5
D59
330
C7E
100
AcDbEntity
  8
Defpoints
 62
     0
100
AcDbPoint
 10
0.7607982350634255
 20
0.5775631849071652
 30
0.0
  0
ENDBLK
  5
C8A
330
C7E
100
AcDbEntity
  8
0
100
AcDbBlockEnd
  0
BLOCK
  5
D60
330
D5D
100
AcDbEntity
  8
0
100
AcDbBlockBegin
  2
_Dot
 70
     0
 10
0.0
 20
0.0
 30
0.0
  3
_Dot
  1

  0
LWPOLYLINE
  5
D5E
330
D5D
100
AcDbEntity
  8
0
  6
ByBlock
 62
     0
100
AcDbPolyline
 90
        2
 70
     1
 43
0.5
 10
-0.25
 20
0.0
 42
1.0
 10
0.25
 20
0.0
 42
1.0
  0
LINE
  5
D5F
330
D5D
100
AcDbEntity
  8
0
  6
ByBlock
 62
     0
370
    -2
100
AcDbLine
 10
-0.5
 20
0.0
 30
0.0
 11
-1.0
 21
0.0
 31
0.0
  0
ENDBLK
  5
D61
330
D5D
100
AcDbEntity
  8
0
100
AcDbBlockEnd
  0
ENDSEC
  0
SECTION
  2
ENTITIES
  0
INSERT
  5
FE
330
37
100
AcDbEntity
  8
0
100
AcDbBlockReference
  2
Borders Default Border
 10
0.0
 20
0.0
 30
0.0
 41
0.2
 42
0.2
 43
0.2
  0
CIRCLE
  5
FF
330
37
100
AcDbEntity
  8
Visible (ANSI)
100
AcDbCircle
 10
0.7745660521496167
 20
1.175517725922135
 30
0.0
 40
0.0445
  0
CIRCLE
  5
100
330
37
100
AcDbEntity
  8
Visible (ANSI)
100
AcDbCircle
 10
0.7745660521496167
 20
1.175517725922135
 30
0.0
 40
0.0474999999999899
  0
CIRCLE
  5
101
330
37
100
AcDbEntity
  8
Visible (ANSI)
100
AcDbCircle
 10
0.3285863521496211
 20
1.416522775922117
 30
0.0
 40
0.0474999999999899
  0
CIRCLE
  5
102
330
37
100
AcDbEntity
  8
Visible (ANSI)
100
AcDbCircle
 10
0.3585863521496457
 20
1.265517725922137
 30
0.0
 40
0.0499999999999899
  0
CIRCLE
  5
103
330
37
100
AcDbEntity
  8
Visible (ANSI)
100
AcDbCircle
 10
0.9205711521496603
 20
1.147517725922074
 30
0.0
 40
0.0499999999999899
  0
CIRCLE
  5
104
330
37
100
AcDbEntity
  8
Visible (ANSI)
100
AcDbCircle
 10
0.5765762029496248
 20
1.416522776722043
 30
0.0
 40
0.0474999999999899
  0
CIRCLE
  5
105
330
37
100
AcDbEntity
  8
Visible (ANSI)
100
AcDbCircle
 10
0.7745661013496277
 20
1.416522776722043
 30
0.0
 40
0.0474999999999899
  0
CIRCLE
  5
106
330
37
100
AcDbEntity
  8
Visible (ANSI)
100
AcDbCircle
 10
0.3285863521496211
 20
1.416522775922117
 30
0.0
 40
0.0445
  0
CIRCLE
  5
107
330
37
100
AcDbEntity
  8
Visible (ANSI)
100
AcDbCircle
 10
0.7745661013496277
 20
1.416522776722043
 30
0.0
 40
0.0445
  0
CIRCLE
  5
108
330
37
100
AcDbEntity
  8
Visible (ANSI)
100
AcDbCircle
 10
0.3585863521496457
 20
1.265517725922137
 30
0.0
 40
0.047
  0
CIRCLE
  5
109
330
37
100
AcDbEntity
  8
Visible (ANSI)
100
AcDbCircle
 10
0.5765762029496248
 20
1.416522776722043
 30
0.0
 40
0.0445
  0
CIRCLE
  5
10A
330
37
100
AcDbEntity
  8
Visible (ANSI)
100
AcDbCircle
 10
0.9205711521496603
 20
1.147517725922074
 30
0.0
 40
0.047
  0
LINE
  5
10B
330
37
100
AcDbEntity
  8
Visible (ANSI)
100
AcDbLine
 10
0.9054469421496074
 20
1.415517725922045
 30
0.0
 11
0.9054469421496074
 21
1.515517725921937
 31
0.0
  0
LINE
  5
10C
330
37
100
AcDbEntity
  8
Visible (ANSI)
100
AcDbLine
 10
0.2139469521496248
 20
1.515517725921937
 30
0.0
 11
0.9054469421496074
 21
1.515517725921937
 31
0.0
  0
LINE
  5
10D
330
37
100
AcDbEntity
  8
Visible (ANSI)
100
AcDbLine
 10
0.2139469521496248
 20
1.065517725921925
 30
0.0
 11
0.2139469521496248
 21
1.515517725921937
 31
0.0
  0
LINE
  5
10E
330
37
100
AcDbEntity
  8
Visible (ANSI)
100
AcDbLine
 10
1.113946942149574
 20
1.065517725921925
 30
0.0
 11
0.2139469521496248
 21
1.065517725921925
 31
0.0
  0
LINE
  5
10F
330
37
100
AcDbEntity
  8
Visible (ANSI)
100
AcDbLine
 10
1.113946942149574
 20
1.065517725921925
 30
0.0
 11
1.113946942149574
 21
1.493517725921981
 31
0.0
  0
LINE
  5
110
330
37
100
AcDbEntity
  8
Visible (ANSI)
100
AcDbLine
 10
1.113946942149574
 20
1.493517725921981
 30
0.0
 11
1.053946942149668
 21
1.493517725921981
 31
0.0
  0
LINE
  5
111
330
37
100
AcDbEntity
  8
Visible (ANSI)
100
AcDbLine
 10
1.053946942149668
 20
1.493517725921981
 30
0.0
 11
1.053946942149668
 21
1.415517725922045
 31
0.0
  0
ARC
  5
112
330
37
100
AcDbEntity
  8
Visible (ANSI)
100
AcDbCircle
 10
0.9796969421496736
 20
1.415517725922045
 30
0.0
 40
0.0742499999999858
100
AcDbArc
 50
180.0
 51
0.0
  0
LINE
  5
113
330
37
100
AcDbEntity
  8
Visible (ANSI)
100
AcDbLine
 10
0.9054469421496074
 20
1.515517725921937
 30
0.0
 11
0.9239469421496094
 21
1.515517725921937
 31
0.0
  0
LINE
  5
114
330
37
100
AcDbEntity
  8
Visible (ANSI)
100
AcDbLine
 10
0.9239469421496094
 20
1.515517725921937
 30
0.0
 11
0.9554469421496245
 21
1.515517725921937
 31
0.0
  0
LINE
  5
115
330
37
100
AcDbEntity
  8
Visible (ANSI)
100
AcDbLine
 10
0.9554469421495976
 20
1.515517725921937
 30
0.0
 11
0.9739469421495703
 21
1.515517725921937
 31
0.0
  0
LINE
  5
116
330
37
100
AcDbEntity
  8
Visible (ANSI)
100
AcDbLine
 10
1.04364694214957
 20
1.515517725921937
 30
0.0
 11
1.053946942149575
 21
1.515517725921937
 31
0.0
  0
LINE
  5
117
330
37
100
AcDbEntity
  8
Visible (ANSI)
100
AcDbLine
 10
1.053946942149668
 20
1.515517725921937
 30
0.0
 11
1.113946942149574
 21
1.515517725921937
 31
0.0
  0
LINE
  5
118
330
37
100
AcDbEntity
  8
Visible (ANSI)
100
AcDbLine
 10
1.113946942149574
 20
1.515517725921937
 30
0.0
 11
1.113946942149574
 21
1.493517725922136
 31
0.0
  0
LINE
  5
119
330
37
100
AcDbEntity
  8
Visible (ANSI)
100
AcDbLine
 10
1.053946942149668
 20
1.497017725922078
 30
0.0
 11
1.035446942149594
 21
1.497017725922078
 31
0.0
  0
LINE
  5
11A
330
37
100
AcDbEntity
  8
Visible (ANSI)
100
AcDbLine
 10
0.9239469421496094
 20
1.515517725921937
 30
0.0
 11
0.9239469421496094
 21
1.415517725922045
 31
0.0
  0
ARC
  5
11B
330
37
100
AcDbEntity
  8
Visible (ANSI)
100
AcDbCircle
 10
0.9796969421496736
 20
1.415517725922045
 30
0.0
 40
0.0557500000000106
100
AcDbArc
 50
180.0
 51
0.0
  0
ARC
  5
11C
330
37
100
AcDbEntity
  8
Visible (ANSI)
100
AcDbCircle
 10
1.038946942149548
 20
1.503517725922299
 30
0.0
 40
0.0034999999998913
100
AcDbArc
 50
89.99999999853459
 51
180.0
  0
LINE
  5
11D
330
37
100
AcDbEntity
  8
Visible (ANSI)
100
AcDbLine
 10
1.03894694214962
 20
1.50701772592211
 30
0.0
 11
1.043646942149623
 21
1.50701772592211
 31
0.0
  0
LINE
  5
11E
330
37
100
AcDbEntity
  8
Visible (ANSI)
100
AcDbLine
 10
1.043646942149623
 20
1.50701772592211
 30
0.0
 11
1.043646942149623
 21
1.515517725921937
 31
0.0
  0
LINE
  5
11F
330
37
100
AcDbEntity
  8
Visible (ANSI)
100
AcDbLine
 10
1.035446942149594
 20
1.415517725922045
 30
0.0
 11
1.035446942149594
 21
1.503517725922013
 31
0.0
  0
LINE
  5
120
330
37
100
AcDbEntity
  8
Visible (ANSI)
100
AcDbLine
 10
0.9739469421495549
 20
1.497017725922078
 30
0.0
 11
0.9554469421496245
 21
1.497017725922078
 31
0.0
  0
LINE
  5
121
330
37
100
AcDbEntity
  8
Visible (ANSI)
100
AcDbLine
 10
1.053946942149668
 20
1.493517725921981
 30
0.0
 11
1.053946942149668
 21
1.515517725921937
 31
0.0
  0
LINE
  5
122
330
37
100
AcDbEntity
  8
Visible (ANSI)
100
AcDbLine
 10
0.9554469421496245
 20
1.497017725922078
 30
0.0
 11
0.9554469421496245
 21
1.515517725921937
 31
0.0
  0
LINE
  5
123
330
37
100
AcDbEntity
  8
Visible (ANSI)
100
AcDbLine
 10
0.9739469421495549
 20
1.515517725921937
 30
0.0
 11
0.9739469421495549
 21
1.497017725922078
 31
0.0
  0
LINE
  5
124
330
37
100
AcDbEntity
  8
Visible (ANSI)
100
AcDbLine
 10
0.9739469421495549
 20
1.515517725921937
 30
0.0
 11
1.043646942149623
 21
1.515517725921937
 31
0.0
  0
CIRCLE
  5
125
330
37
100
AcDbEntity
  8
Visible (ANSI)
100
AcDbCircle
 10
0.9205711521496603
 20
1.147517725922074
 30
0.0
 40
0.046875
  0
CIRCLE
  5
126
330
37
100
AcDbEntity
  8
Visible (ANSI)
100
AcDbCircle
 10
0.3585863521496457
 20
1.265517725922137
 30
0.0
 40
0.046875
  0
INSERT
  5
143
330
37
100
AcDbEntity
  8
Detail Boundary (ANSI)
100
AcDbBlockReference
  2
2dDetail0
 10
0.0
 20
0.0
 30
0.0
 41
0.2
 42
0.2
 43
0.2
  0
LINE
  5
144
330
37
100
AcDbEntity
  8
Break Line (ANSI)
100
AcDbLine
 10
0.2586952464380159
 20
0.7840744407818191
 30
0.0
 11
0.2799768977730116
 21
0.8270132263399812
 31
0.0
  0
LINE
  5
145
330
37
100
AcDbEntity
  8
Break Line (ANSI)
100
AcDbLine
 10
0.229949390917696
 20
0.718085634610712
 30
0.0
 11
0.2586952464380159
 21
0.7840744407818191
 31
0.0
  0
LINE
  5
146
330
37
100
AcDbEntity
  8
Break Line (ANSI)
100
AcDbLine
 10
0.1701357145293872
 20
0.6462447787715236
 30
0.0
 11
0.229949390917696
 21
0.718085634610712
 31
0.0
  0
LINE
  5
147
330
37
100
AcDbEntity
  8
Break Line (ANSI)
100
AcDbLine
 10
0.1849743859192109
 20
0.5664736160938125
 30
0.0
 11
0.1701357145293872
 21
0.6462447787715236
 31
0.0
  0
LINE
  5
148
330
37
100
AcDbEntity
  8
Break Line (ANSI)
100
AcDbLine
 10
0.2094131040945558
 20
0.4904778838675794
 30
0.0
 11
0.1849743859192109
 21
0.5664736160938125
 31
0.0
  0
LINE
  5
149
330
37
100
AcDbEntity
  8
Break Line (ANSI)
100
AcDbLine
 10
0.2846379758332437
 20
0.4425895781456548
 30
0.0
 11
0.2094131040945558
 21
0.4904778838675794
 31
0.0
  0
LINE
  5
14A
330
37
100
AcDbEntity
  8
Break Line (ANSI)
100
AcDbLine
 10
0.3037062768738347
 20
0.3662600103238878
 30
0.0
 11
0.2846379758332437
 21
0.4425895781456548
 31
0.0
  0
LINE
  5
14B
330
37
100
AcDbEntity
  8
Break Line (ANSI)
100
AcDbLine
 10
0.3559697666992357
 20
0.3108741584216523
 30
0.0
 11
0.3037062768738347
 21
0.3662600103238878
 31
0.0
  0
LINE
  5
14C
330
37
100
AcDbEntity
  8
Break Line (ANSI)
100
AcDbLine
 10
0.4371197963188225
 20
0.299385437205861
 30
0.0
 11
0.3559697666992357
 21
0.3108741584216523
 31
0.0
  0
LINE
  5
14D
330
37
100
AcDbEntity
  8
Break Line (ANSI)
100
AcDbLine
 10
0.4778826063860705
 20
0.2080316801699141
 30
0.0
 11
0.4371197963188225
 21
0.299385437205861
 31
0.0
  0
LINE
  5
14E
330
37
100
AcDbEntity
  8
Break Line (ANSI)
100
AcDbLine
 10
0.5614127284935944
 20
0.2154179039294602
 30
0.0
 11
0.4778826063860705
 21
0.2080316801699141
 31
0.0
  0
LINE
  5
14F
330
37
100
AcDbEntity
  8
Break Line (ANSI)
100
AcDbLine
 10
0.6373791305424933
 20
0.2513590394435625
 30
0.0
 11
0.5614127284935944
 21
0.2154179039294602
 31
0.0
  0
LINE
  5
150
330
37
100
AcDbEntity
  8
Break Line (ANSI)
100
AcDbLine
 10
0.7101268485733838
 20
0.2336719680846097
 30
0.0
 11
0.6373791305424933
 21
0.2513590394435625
 31
0.0
  0
LINE
  5
151
330
37
100
AcDbEntity
  8
Break Line (ANSI)
100
AcDbLine
 10
0.7695063787070654
 20
0.2832281479440578
 30
0.0
 11
0.7101268485733838
 21
0.2336719680846097
 31
0.0
  0
LINE
  5
152
330
37
100
AcDbEntity
  8
Break Line (ANSI)
100
AcDbLine
 10
0.8657225657140848
 20
0.2507423474792552
 30
0.0
 11
0.7695063787070654
 21
0.2832281479440578
 31
0.0
  0
LINE
  5
153
330
37
100
AcDbEntity
  8
Break Line (ANSI)
100
AcDbLine
 10
0.9188836900926173
 20
0.3107607085956719
 30
0.0
 11
0.8657225657140848
 21
0.2507423474792552
 31
0.0
  0
LINE
  5
154
330
37
100
AcDbEntity
  8
Break Line (ANSI)
100
AcDbLine
 10
0.9409141376826891
 20
0.3915486662305101
 30
0.0
 11
0.9188836900926173
 21
0.3107607085956719
 31
0.0
  0
LINE
  5
155
330
37
100
AcDbEntity
  8
Break Line (ANSI)
100
AcDbLine
 10
0.968548235063152
 20
0.40335877074855
 30
0.0
 11
0.9409141376826891
 21
0.3915486662305101
 31
0.0
  0
LINE
  5
156
330
37
100
AcDbEntity
  8
Visible (ANSI)
100
AcDbLine
 10
0.968548235063152
 20
0.40335877074855
 30
0.0
 11
0.968548235063152
 21
0.7610132263401133
 31
0.0
  0
LINE
  5
157
330
37
100
AcDbEntity
  8
Visible (ANSI)
100
AcDbLine
 10
0.968548235063152
 20
0.7610132263401133
 30
0.0
 11
0.788548235063434
 21
0.7610132263401133
 31
0.0
  0
LINE
  5
158
330
37
100
AcDbEntity
  8
Visible (ANSI)
100
AcDbLine
 10
0.788548235063434
 20
0.7610132263401133
 30
0.0
 11
0.788548235063434
 21
0.5270132263401646
 31
0.0
  0
ARC
  5
159
330
37
100
AcDbEntity
  8
Visible (ANSI)
100
AcDbCircle
 10
0.5657982350634498
 20
0.5270132263401646
 30
0.0
 40
0.2227499999999573
100
AcDbArc
 50
180.0
 51
0.0
  0
LINE
  5
15A
330
37
100
AcDbEntity
  8
Visible (ANSI)
100
AcDbLine
 10
0.3430482350633224
 20
0.5270132263401646
 30
0.0
 11
0.3430482350633224
 21
0.8270132263399812
 31
0.0
  0
LINE
  5
15B
330
37
100
AcDbEntity
  8
Visible (ANSI)
100
AcDbLine
 10
0.2799768977730116
 20
0.8270132263399812
 30
0.0
 11
0.3430482350633224
 21
0.8270132263399812
 31
0.0
  0
LINE
  5
15C
330
37
100
AcDbEntity
  8
Visible (ANSI)
100
AcDbLine
 10
0.968548235063152
 20
0.8270132263399812
 30
0.0
 11
0.968548235063152
 21
0.7610132263405783
 31
0.0
  0
LINE
  5
15D
330
37
100
AcDbEntity
  8
Visible (ANSI)
100
AcDbLine
 10
0.3430482350633224
 20
0.8270132263399812
 30
0.0
 11
0.3985482350633286
 21
0.8270132263399812
 31
0.0
  0
LINE
  5
15E
330
37
100
AcDbEntity
  8
Visible (ANSI)
100
AcDbLine
 10
0.3985482350633286
 20
0.8270132263399812
 30
0.0
 11
0.4930482350635172
 21
0.8270132263399812
 31
0.0
  0
LINE
  5
15F
330
37
100
AcDbEntity
  8
Visible (ANSI)
100
AcDbLine
 10
0.4930482350632934
 20
0.8270132263399812
 30
0.0
 11
0.5485482350632118
 21
0.8270132263399812
 31
0.0
  0
LINE
  5
160
330
37
100
AcDbEntity
  8
Visible (ANSI)
100
AcDbLine
 10
0.7576482350632827
 20
0.8270132263399812
 30
0.0
 11
0.7885482350632972
 21
0.8270132263399812
 31
0.0
  0
LINE
  5
161
330
37
100
AcDbEntity
  8
Visible (ANSI)
100
AcDbLine
 10
0.788548235063434
 20
0.8270132263399812
 30
0.0
 11
0.968548235063152
 21
0.8270132263399812
 31
0.0
  0
LINE
  5
162
330
37
100
AcDbEntity
  8
Visible (ANSI)
100
AcDbLine
 10
0.788548235063434
 20
0.7715132263404048
 30
0.0
 11
0.7330482350634277
 21
0.7715132263404048
 31
0.0
  0
LINE
  5
163
330
37
100
AcDbEntity
  8
Visible (ANSI)
100
AcDbLine
 10
0.3985482350633286
 20
0.8270132263399812
 30
0.0
 11
0.3985482350633286
 21
0.5270132263401646
 31
0.0
  0
ARC
  5
164
330
37
100
AcDbEntity
  8
Visible (ANSI)
100
AcDbCircle
 10
0.5657982350634498
 20
0.5270132263401646
 30
0.0
 40
0.1672500000000317
100
AcDbArc
 50
180.0
 51
0.0
  0
ARC
  5
165
330
37
100
AcDbEntity
  8
Visible (ANSI)
100
AcDbCircle
 10
0.7435482350630032
 20
0.7910132263407825
 30
0.0
 40
0.0104999999996738
100
AcDbArc
 50
89.99999999853459
 51
180.0
  0
LINE
  5
166
330
37
100
AcDbEntity
  8
Visible (ANSI)
100
AcDbLine
 10
0.7435482350632896
 20
0.8015132263405011
 30
0.0
 11
0.7576482350633005
 21
0.8015132263405011
 31
0.0
  0
LINE
  5
167
330
37
100
AcDbEntity
  8
Visible (ANSI)
100
AcDbLine
 10
0.7576482350633005
 20
0.8015132263405011
 30
0.0
 11
0.7576482350633005
 21
0.8270132263399812
 31
0.0
  0
LINE
  5
168
330
37
100
AcDbEntity
  8
Visible (ANSI)
100
AcDbLine
 10
0.7330482350634277
 20
0.5270132263401646
 30
0.0
 11
0.7330482350634277
 21
0.7910132263402096
 31
0.0
  0
LINE
  5
169
330
37
100
AcDbEntity
  8
Visible (ANSI)
100
AcDbLine
 10
0.5485482350632369
 20
0.7715132263404048
 30
0.0
 11
0.4930482350635172
 21
0.7715132263404048
 31
0.0
  0
LINE
  5
16A
330
37
100
AcDbEntity
  8
Visible (ANSI)
100
AcDbLine
 10
0.788548235063434
 20
0.7610132263401133
 30
0.0
 11
0.788548235063434
 21
0.8270132263399812
 31
0.0
  0
LINE
  5
16B
330
37
100
AcDbEntity
  8
Visible (ANSI)
100
AcDbLine
 10
0.4930482350635172
 20
0.7715132263404048
 30
0.0
 11
0.4930482350635172
 21
0.8270132263399812
 31
0.0
  0
LINE
  5
16C
330
37
100
AcDbEntity
  8
Visible (ANSI)
100
AcDbLine
 10
0.5485482350632369
 20
0.8270132263399812
 30
0.0
 11
0.5485482350632369
 21
0.7715132263404048
 31
0.0
  0
LINE
  5
16D
330
37
100
AcDbEntity
  8
Visible (ANSI)
100
AcDbLine
 10
0.5485482350632369
 20
0.8270132263399812
 30
0.0
 11
0.7576482350633005
 21
0.8270132263399812
 31
0.0
  0
MTEXT
  5
16E
330
37
100
AcDbEntity
  8
Symbol (ANSI)
100
AcDbMText
 10
0.9520518728374256
 20
0.214072715908293
 30
0.0
 40
0.0359999992716031
 41
0.0
 71
     7
 72
     1
  1
DETAIL  A
  7
Text Style30
 73
     1
 44
1.0
1001
ACAD
1000
MTEXTBEGIN
1070
    73
1070
     1
1070
    44
1040
1.0
1070
    74
1070
     0
1000
MTEXTEND
  0
MTEXT
  5
16F
330
37
100
AcDbEntity
  8
Symbol (ANSI)
100
AcDbMText
 10
0.9196141991335334
 20
0.1540411569298311
 30
0.0
 40
0.0359999992716031
 41
0.0
 71
     7
 72
     1
  1
SCALE 15 : 1
  7
Text Style30
 73
     1
 44
1.0
1001
ACAD
1000
MTEXTBEGIN
1070
    73
1070
     1
1070
    44
1040
1.0
1070
    74
1070
     0
1000
MTEXTEND
  0
DIMENSION
  5
170
330
37
100
AcDbEntity
  8
Dimension (ANSI)
100
AcDbDimension
  2
*D6
 10
0.7435482350633378
 20
0.7910132263403723
 30
0.0
 11
1.105986316726598
 21
0.6364428882819454
 31
0.0
 70
   164
  1
<>
 42
0.0035
  3
Default (ANSI)
100
AcDbRadialDimension
 15
0.7345773292712785
 25
0.7964696765848077
 35
0.0
 40
0.0
1001
ACAD
1000
DSTYLE
1002
{
1070
   271
1070
     4
1070
   144
1040
0.3333333333333333
1070
   141
1040
0.0
1070
   272
1070
     4
1070
    48
1040
0.0
1070
    47
1040
0.0
1002
}
  0
DIMENSION
  5
20C
330
37
100
AcDbEntity
  8
Dimension (ANSI)
100
AcDbDimension
  2
*D7
 10
0.7330482350633955
 20
0.8922435876452027
 30
0.0
 11
0.6208994255208812
 21
0.8922435876452027
 31
0.0
 70
   160
  1
<>
 42
0.0081999999999755
  3
Default (ANSI)
100
AcDbAlignedDimension
 13
0.7576482350633219
 23
0.8270132263402516
 33
0.0
 14
0.7330482350633955
 24
0.7910132263403725
 34
0.0
100
AcDbRotatedDimension
1001
ACAD
1000
DSTYLE
1002
{
1070
    73
1070
     0
1070
    74
1070
     0
1070
   271
1070
     4
1070
   144
1040
0.3333333333333333
1070
   272
1070
     4
1070
    48
1040
0.0
1070
    47
1040
0.0
1002
}
  0
DIMENSION
  5
2F6
330
37
100
AcDbEntity
  8
Dimension (ANSI)
100
AcDbDimension
  2
*D8
 10
0.6809241839251657
 20
0.7715132263404604
 30
0.0
 11
0.6752585192369861
 21
0.4746445515713574
 31
0.0
 70
   160
  1
<>
 42
0.0184999999999305
  3
Default (ANSI)
100
AcDbAlignedDimension
 13
0.7885482350633359
 23
0.8270132263402516
 33
0.0
 14
0.7885482350634554
 24
0.7715132263404603
 34
0.0
 50
90.0
100
AcDbRotatedDimension
1001
ACAD
1000
DSTYLE
1002
{
1070
   279
1070
     1
1070
   271
1070
     4
1070
   144
1040
0.3333333333333333
1070
    75
1070
     1
1070
   272
1070
     4
1070
    48
1040
0.0
1070
    47
1040
0.0
1002
}
  0
DIMENSION
  5
3EB
330
37
100
AcDbEntity
  8
Dimension (ANSI)
100
AcDbDimension
  2
*D9
 10
0.3985482350633321
 20
0.9057533838205666
 30
0.0
 11
0.2022418978344962
 21
0.9057533838205666
 31
0.0
 70
   160
  1
<>
 42
0.0184999999999752
  3
Default (ANSI)
100
AcDbAlignedDimension
 13
0.3430482350634064
 23
0.8270132263402516
 33
0.0
 14
0.3985482350633321
 24
0.8270132263402516
 34
0.0
100
AcDbRotatedDimension
1001
ACAD
1000
DSTYLE
1002
{
1070
    73
1070
     0
1070
    74
1070
     0
1070
   271
1070
     4
1070
   144
1040
0.3333333333333333
1070
   272
1070
     4
1070
    48
1040
0.0
1070
    47
1040
0.0
1002
}
  0
LINE
  5
4D5
330
37
100
AcDbEntity
  8
Centerline (ANSI)
  6
CHAIN
 48
0.9524481296539306
100
AcDbLine
 10
0.5657982350633639
 20
1.014321363026991
 30
0.0
 11
0.5657982350633639
 21
0.5020132263403634
 31
0.0
  0
DIMENSION
  5
4D6
330
37
100
AcDbEntity
  8
Dimension (ANSI)
100
AcDbDimension
  2
*D10
 10
0.5657982350634981
 20
0.5270132263403635
 30
0.0
 11
0.2982769747323487
 21
0.2083299141924353
 31
0.0
 70
   164
  1
<>
 42
0.05575
  3
Default (ANSI)
100
AcDbRadialDimension
 15
0.491050829415393
 25
0.3773957546036788
 35
0.0
 40
0.0
1001
ACAD
1000
DSTYLE
1002
{
1070
   271
1070
     4
1070
   144
1040
0.3333333333333333
1070
   141
1040
0.0
1070
   272
1070
     4
1070
    48
1040
0.0
1070
    47
1040
0.0
1002
}
  0
DIMENSION
  5
573
330
37
100
AcDbEntity
  8
Dimension (ANSI)
100
AcDbDimension
  2
*D11
 10
0.5657982350634978
 20
0.5270132263403635
 30
0.0
 11
0.7771009530601657
 21
0.1402522169018212
 31
0.0
 70
   164
  1
<>
 42
0.07425
  3
Default (ANSI)
100
AcDbRadialDimension
 15
0.6184070513133816
 25
0.3105649069826332
 35
0.0
 40
0.0
1001
ACAD
1000
DSTYLE
1002
{
1070
   271
1070
     4
1070
   144
1040
0.3333333333333333
1070
   141
1040
0.0
1070
   272
1070
     4
1070
    48
1040
0.0
1070
    47
1040
0.0
1002
}
  0
DIMENSION
  5
610
330
37
100
AcDbEntity
  8
Dimension (ANSI)
100
AcDbDimension
  2
*D12
 10
0.5657982350633639
 20
0.999289098806847
 30
0.0
 11
0.6662205223224614
 21
0.999289098806847
 31
0.0
 70
   160
  1
<>
 42
0.063949999999986
  3
Default (ANSI)
100
AcDbAlignedDimension
 13
0.7576482350633219
 23
0.8270132263402516
 33
0.0
 14
0.5657982350633639
 24
0.8996582127189252
 34
0.0
100
AcDbRotatedDimension
1001
ACAD
1000
DSTYLE
1002
{
1070
    73
1070
     0
1070
    74
1070
     0
1070
   271
1070
     3
1070
   144
1040
0.3333333333333333
1070
    76
1070
     1
1070
   272
1070
     4
1070
    48
1040
0.0
1070
    47
1040
0.0
1002
}
  0
DIMENSION
  5
6F4
330
37
100
AcDbEntity
  8
Dimension (ANSI)
100
AcDbDimension
  2
*D13
 10
0.4698080775829612
 20
0.5270132263403635
 30
0.0
 11
0.4647788650941719
 21
0.9651658762224251
 31
0.0
 70
   160
  1
<>
 42
0.0999999999999628
  3
Default (ANSI)
100
AcDbAlignedDimension
 13
0.5485482350632763
 23
0.8270132263402516
 33
0.0
 14
0.5657982350634981
 24
0.5270132263403635
 34
0.0
 50
270.0
100
AcDbRotatedDimension
1001
ACAD
1000
DSTYLE
1002
{
1070
   279
1070
     1
1070
   271
1070
     3
1070
   144
1040
0.3333333333333333
1070
   272
1070
     4
1070
    48
1040
0.0
1070
    47
1040
0.0
1002
}
  0
DIMENSION
  5
7EC
330
37
100
AcDbEntity
  8
Dimension (ANSI)
100
AcDbDimension
  2
*D14
 10
0.968548235063254
 20
0.9950236959837944
 30
0.0
 11
1.081872038490401
 21
0.9950236959837944
 31
0.0
 70
   160
  1
<>
 42
0.0599999999999329
  3
Default (ANSI)
100
AcDbAlignedDimension
 13
0.7885482350634554
 23
0.7940132263402516
 33
0.0
 14
0.968548235063254
 24
0.7940132263402516
 34
0.0
 50
180.0
100
AcDbRotatedDimension
1001
ACAD
1000
DSTYLE
1002
{
1070
    73
1070
     0
1070
    74
1070
     0
1070
   271
1070
     3
1070
   144
1040
0.3333333333333333
1070
   272
1070
     4
1070
    48
1040
0.0
1070
    47
1040
0.0
1002
}
  0
LINE
  5
8D6
330
37
100
AcDbEntity
  8
Visible (ANSI)
100
AcDbLine
 10
1.434811562330076
 20
1.065517725921925
 30
0.0
 11
1.434811562330076
 21
1.493517725921981
 31
0.0
  0
LINE
  5
8D7
330
37
100
AcDbEntity
  8
Visible (ANSI)
100
AcDbLine
 10
1.884811562330076
 20
1.065517725921925
 30
0.0
 11
1.884811562330076
 21
1.515517725921937
 31
0.0
  0
LINE
  5
8D8
330
37
100
AcDbEntity
  8
Visible (ANSI)
100
AcDbLine
 10
1.884811562330076
 20
1.065517725921925
 30
0.0
 11
1.434811562330076
 21
1.065517725921925
 31
0.0
  0
LINE
  5
8D9
330
37
100
AcDbEntity
  8
Visible (ANSI)
100
AcDbLine
 10
1.456811562330075
 20
1.515517725921937
 30
0.0
 11
1.884811562330076
 21
1.515517725921937
 31
0.0
  0
ARC
  5
8DA
330
37
100
AcDbEntity
  8
Visible (ANSI)
100
AcDbCircle
 10
1.434811562330274
 20
1.515517725921937
 30
0.0
 40
0.0219999999998011
100
AcDbArc
 50
269.999999999482
 51
0.0
  0
LINE
  5
8DB
330
37
100
AcDbEntity
  8
Visible (ANSI)
100
AcDbLine
 10
1.434811562330057
 20
1.50351772592212
 30
0.0
 11
1.434811562330057
 21
1.507017725922191
 31
0.0
  0
LINE
  5
8DC
330
37
100
AcDbEntity
  8
Visible (ANSI)
100
AcDbLine
 10
1.446811562330057
 20
1.503517725922013
 30
0.0
 11
1.443311562330057
 21
1.507017725922013
 31
0.0
  0
LINE
  5
8DD
330
37
100
AcDbEntity
  8
Visible (ANSI)
100
AcDbLine
 10
1.443311562330058
 20
1.50701772592211
 30
0.0
 11
1.434811562330058
 21
1.50701772592211
 31
0.0
  0
LINE
  5
8DE
330
37
100
AcDbEntity
  8
Visible (ANSI)
100
AcDbLine
 10
1.434811562330058
 20
1.50701772592211
 30
0.0
 11
1.434811562330058
 21
1.515517725921937
 31
0.0
  0
LINE
  5
8DF
330
37
100
AcDbEntity
  8
Visible (ANSI)
100
AcDbLine
 10
1.443311562330058
 20
1.50701772592211
 30
0.0
 11
1.443311562330058
 21
1.515517725921937
 31
0.0
  0
LINE
  5
8E0
330
37
100
AcDbEntity
  8
Visible (ANSI)
100
AcDbLine
 10
1.434811562330058
 20
1.515517725921937
 30
0.0
 11
1.443311562330058
 21
1.515517725921937
 31
0.0
  0
LINE
  5
8E1
330
37
100
AcDbEntity
  8
Visible (ANSI)
100
AcDbLine
 10
1.443311562330057
 20
1.515517725921937
 30
0.0
 11
1.446811562330057
 21
1.515517725921937
 31
0.0
  0
LINE
  5
8E2
330
37
100
AcDbEntity
  8
Visible (ANSI)
100
AcDbLine
 10
1.434811562330057
 20
1.493517725921981
 30
0.0
 11
1.434811562330057
 21
1.503517725922013
 31
0.0
  0
LINE
  5
8E3
330
37
100
AcDbEntity
  8
Visible (ANSI)
100
AcDbLine
 10
1.446811562330057
 20
1.515517725921937
 30
0.0
 11
1.456811562330057
 21
1.515517725921937
 31
0.0
  0
CIRCLE
  5
8E4
330
37
100
AcDbEntity
  8
Visible (ANSI)
100
AcDbCircle
 10
1.764811562330075
 20
1.185517725922167
 30
0.0
 40
0.043
  0
CIRCLE
  5
8E5
330
37
100
AcDbEntity
  8
Visible (ANSI)
100
AcDbCircle
 10
1.764811562330075
 20
1.185517725922167
 30
0.0
 40
0.0459999999999452
  0
CIRCLE
  5
8E6
330
37
100
AcDbEntity
  8
Visible (ANSI)
100
AcDbCircle
 10
1.633685344205075
 20
1.316643944047091
 30
0.0
 40
0.0347499999999452
  0
CIRCLE
  5
8E7
330
37
100
AcDbEntity
  8
Visible (ANSI)
100
AcDbCircle
 10
1.633685344205075
 20
1.316643944047091
 30
0.0
 40
0.03175
  0
CIRCLE
  5
8E8
330
37
100
AcDbEntity
  8
Hidden Narrow (ANSI)
 48
1.089247584342956
100
AcDbCircle
 10
1.764811562330075
 20
1.185517725922167
 30
0.0
 40
0.043
  0
CIRCLE
  5
8E9
330
37
100
AcDbEntity
  8
Hidden Narrow (ANSI)
 48
1.14316713809967
100
AcDbCircle
 10
1.764811562330075
 20
1.185517725922167
 30
0.0
 40
0.05265
  0
INSERT
  5
905
330
37
100
AcDbEntity
  8
Detail Boundary (ANSI)
100
AcDbBlockReference
  2
2dDetail1
 10
0.0
 20
0.0
 30
0.0
 41
0.2
 42
0.2
 43
0.2
  0
LINE
  5
906
330
37
100
AcDbEntity
  8
Break Line (ANSI)
100
AcDbLine
 10
1.44189116372482
 20
0.4640862802723029
 30
0.0
 11
1.42944244657387
 21
0.4688808728948118
 31
0.0
  0
LINE
  5
907
330
37
100
AcDbEntity
  8
Break Line (ANSI)
100
AcDbLine
 10
1.492529633108234
 20
0.4597867796476885
 30
0.0
 11
1.44189116372482
 21
0.4640862802723029
 31
0.0
  0
LINE
  5
908
330
37
100
AcDbEntity
  8
Break Line (ANSI)
100
AcDbLine
 10
1.54108910972586
 20
0.47587683414786
 30
0.0
 11
1.492529633108234
 21
0.4597867796476885
 31
0.0
  0
LINE
  5
909
330
37
100
AcDbEntity
  8
Break Line (ANSI)
100
AcDbLine
 10
1.585634803860867
 20
0.4954669567820292
 30
0.0
 11
1.54108910972586
 21
0.47587683414786
 31
0.0
  0
LINE
  5
90A
330
37
100
AcDbEntity
  8
Break Line (ANSI)
100
AcDbLine
 10
1.753474150075002
 20
0.8189689157453665
 30
0.0
 11
1.774892756708679
 21
0.8010595481067952
 31
0.0
  0
LINE
  5
90B
330
37
100
AcDbEntity
  8
Break Line (ANSI)
100
AcDbLine
 10
1.774892756708679
 20
0.8010595481067952
 30
0.0
 11
1.769736104980339
 21
0.7512713110597583
 31
0.0
  0
LINE
  5
90C
330
37
100
AcDbEntity
  8
Break Line (ANSI)
100
AcDbLine
 10
1.769736104980339
 20
0.7512713110597583
 30
0.0
 11
1.751357886423142
 21
0.7056329066297506
 31
0.0
  0
LINE
  5
90D
330
37
100
AcDbEntity
  8
Break Line (ANSI)
100
AcDbLine
 10
1.751357886423142
 20
0.7056329066297506
 30
0.0
 11
1.73379511001739
 21
0.6634578589080946
 31
0.0
  0
LINE
  5
90E
330
37
100
AcDbEntity
  8
Break Line (ANSI)
100
AcDbLine
 10
1.73379511001739
 20
0.6634578589080946
 30
0.0
 11
1.753585582063401
 21
0.6005505886561133
 31
0.0
  0
LINE
  5
90F
330
37
100
AcDbEntity
  8
Break Line (ANSI)
100
AcDbLine
 10
1.753585582063401
 20
0.6005505886561133
 30
0.0
 11
1.700374754376041
 21
0.5768685464617314
 31
0.0
  0
LINE
  5
910
330
37
100
AcDbEntity
  8
Break Line (ANSI)
100
AcDbLine
 10
1.700374754376041
 20
0.5768685464617314
 30
0.0
 11
1.673591258517939
 21
0.5354904684966419
 31
0.0
  0
LINE
  5
911
330
37
100
AcDbEntity
  8
Break Line (ANSI)
100
AcDbLine
 10
1.673591258517939
 20
0.5354904684966419
 30
0.0
 11
1.617628658532793
 21
0.5345934430468648
 31
0.0
  0
LINE
  5
912
330
37
100
AcDbEntity
  8
Break Line (ANSI)
100
AcDbLine
 10
1.617628658532793
 20
0.5345934430468648
 30
0.0
 11
1.585634803860867
 21
0.4954669567820292
 31
0.0
  0
LINE
  5
913
330
37
100
AcDbEntity
  8
Visible (ANSI)
100
AcDbLine
 10
1.429442446573813
 20
0.7529689157454987
 30
0.0
 11
1.429442446573813
 21
0.7829689157455949
 31
0.0
  0
LINE
  5
914
330
37
100
AcDbEntity
  8
Visible (ANSI)
100
AcDbLine
 10
1.429442446573813
 20
0.7829689157456307
 30
0.0
 11
1.429442446573816
 21
0.7934689157458416
 31
0.0
  0
LINE
  5
915
330
37
100
AcDbEntity
  8
Visible (ANSI)
100
AcDbLine
 10
1.429442446573819
 20
0.7934689157458865
 30
0.0
 11
1.429442446573819
 21
0.8189689157453665
 31
0.0
  0
LINE
  5
916
330
37
100
AcDbEntity
  8
Visible (ANSI)
100
AcDbLine
 10
1.42944244657387
 20
0.4688808728948118
 30
0.0
 11
1.42944244657387
 21
0.7529689157454987
 31
0.0
  0
LINE
  5
917
330
37
100
AcDbEntity
  8
Visible (ANSI)
100
AcDbLine
 10
1.49544244657387
 20
0.8189689157453665
 30
0.0
 11
1.753474150075002
 21
0.8189689157453665
 31
0.0
  0
ARC
  5
918
330
37
100
AcDbEntity
  8
Visible (ANSI)
100
AcDbCircle
 10
1.429442446574467
 20
0.8189689157453665
 30
0.0
 40
0.0659999999994031
100
AcDbArc
 50
269.9999999994818
 51
0.0
  0
LINE
  5
919
330
37
100
AcDbEntity
  8
Visible (ANSI)
100
AcDbLine
 10
1.429442446573819
 20
0.8189689157453665
 30
0.0
 11
1.454942446573819
 21
0.8189689157453665
 31
0.0
  0
LINE
  5
91A
330
37
100
AcDbEntity
  8
Visible (ANSI)
100
AcDbLine
 10
1.454942446573816
 20
0.8189689157453665
 30
0.0
 11
1.465442446573813
 21
0.8189689157453665
 31
0.0
  0
LINE
  5
91B
330
37
100
AcDbEntity
  8
Visible (ANSI)
100
AcDbLine
 10
1.465442446573813
 20
0.8189689157453665
 30
0.0
 11
1.495442446573813
 21
0.8189689157453665
 31
0.0
  0
LINE
  5
91C
330
37
100
AcDbEntity
  8
Visible (ANSI)
100
AcDbLine
 10
1.465442446573813
 20
0.7829689157455949
 30
0.0
 11
1.454942446573816
 21
0.7934689157455949
 31
0.0
  0
LINE
  5
91D
330
37
100
AcDbEntity
  8
Visible (ANSI)
100
AcDbLine
 10
1.454942446573819
 20
0.7934689157458865
 30
0.0
 11
1.429442446573819
 21
0.7934689157458865
 31
0.0
  0
LINE
  5
91E
330
37
100
AcDbEntity
  8
Visible (ANSI)
100
AcDbLine
 10
1.454942446573819
 20
0.7934689157458865
 30
0.0
 11
1.454942446573819
 21
0.8189689157453665
 31
0.0
  0
MTEXT
  5
91F
330
37
100
AcDbEntity
  8
Symbol (ANSI)
100
AcDbMText
 10
1.495399776113429
 20
0.3590678761655057
 30
0.0
 40
0.0359999992716031
 41
0.0
 71
     7
 72
     1
  1
DETAIL  B
  7
Text Style30
 73
     1
 44
1.0
1001
ACAD
1000
MTEXTBEGIN
1070
    73
1070
     1
1070
    44
1040
1.0
1070
    74
1070
     0
1000
MTEXTEND
  0
MTEXT
  5
920
330
37
100
AcDbEntity
  8
Symbol (ANSI)
100
AcDbMText
 10
1.462466154218773
 20
0.2990363171870437
 30
0.0
 40
0.0359999992716031
 41
0.0
 71
     7
 72
     1
  1
SCALE 15 : 1
  7
Text Style30
 73
     1
 44
1.0
1001
ACAD
1000
MTEXTBEGIN
1070
    73
1070
     1
1070
    44
1040
1.0
1070
    74
1070
     0
1000
MTEXTEND
  0
DIMENSION
  5
921
330
37
100
AcDbEntity
  8
Dimension (ANSI)
100
AcDbDimension
  2
*D16
 10
1.42944244657387
 20
0.8189689157458346
 30
0.0
 11
1.852341449440453
 21
0.4953752911933901
 31
0.0
 70
   164
  1
<>
 42
0.022
  3
Default (ANSI)
100
AcDbRadialDimension
 15
1.47611149413239
 25
0.77229986818773
 35
0.0
 40
0.0
1001
ACAD
1000
DSTYLE
1002
{
1070
   271
1070
     3
1070
   144
1040
0.3333333333333333
1070
   141
1040
0.0
1070
   272
1070
     4
1070
    48
1040
0.0
1070
    47
1040
0.0
1002
}
  0
DIMENSION
  5
9BE
330
37
100
AcDbEntity
  8
Dimension (ANSI)
100
AcDbDimension
  2
*D17
 10
1.42944244657382
 20
0.8631334859781627
 30
0.0
 11
1.59574878380273
 21
0.8631334859781627
 31
0.0
 70
   160
  1
<>
 42
0.0085
  3
Default (ANSI)
100
AcDbAlignedDimension
 13
1.45494244657382
 23
0.8189689157458349
 33
0.0
 14
1.42944244657382
 24
0.8189689157458349
 34
0.0
100
AcDbRotatedDimension
1001
ACAD
1000
DSTYLE
1002
{
1070
    73
1070
     0
1070
    74
1070
     0
1070
   271
1070
     4
1070
   144
1040
0.3333333333333333
1070
   272
1070
     4
1070
    48
1040
0.0
1070
    47
1040
0.0
1002
}
  0
DIMENSION
  5
AA8
330
37
100
AcDbEntity
  8
Dimension (ANSI)
100
AcDbDimension
  2
*D18
 10
1.445792821583065
 20
0.8189689157458349
 30
0.0
 11
1.353329050964768
 21
0.7360693829717874
 31
0.0
 70
   160
  1
<>
 42
0.0084999999999342
  3
Default (ANSI)
100
AcDbAlignedDimension
 13
1.42944244657382
 23
0.7934689157460326
 33
0.0
 14
1.42944244657382
 24
0.8189689157458349
 34
0.0
 50
90.0
100
AcDbRotatedDimension
1001
ACAD
1000
DSTYLE
1002
{
1070
   271
1070
     4
1070
   144
1040
0.3333333333333333
1070
   272
1070
     4
1070
    48
1040
0.0
1070
    47
1040
0.0
1002
}
  0
MTEXT
  5
B8D
102
{ACAD_REACTORS
330
B8E
102
}
330
37
100
AcDbEntity
  8
Symbol (ANSI)
100
AcDbMText
 10
1.072162772262859
 20
0.9390820812838311
 30
0.0
 40
0.0240000002966153
 41
0.208395466091126
 71
     1
 72
     1
  1
{TUNING STUB}
  7
Note Text (ANSI)
 73
     1
 44
1.0
1001
ACAD
1000
MTEXTBEGIN
1070
    73
1070
     1
1070
    44
1040
1.0
1070
    74
1070
     0
1000
MTEXTEND
  0
LEADER
  5
B8E
330
37
100
AcDbEntity
  8
Symbol (ANSI)
100
AcDbLeader
  3
Default (ANSI)$7
 73
     0
 40
0.0249348559159596
 41
0.2077152476981065
 76
     3
 10
0.7451423017568577
 20
0.8141518080411799
 30
0.0
 10
1.035008905104841
 20
0.9270820811355235
 30
0.0
 10
1.065863559664434
 20
0.9270820811355235
 30
0.0
340
B8D
213
0.0
223
-0.0120000001483076
233
0.0
1001
ACAD
1000
DSTYLE
1002
{
1070
    77
1070
     0
1002
}
  0
MTEXT
  5
B8F
102
{ACAD_REACTORS
330
B90
102
}
330
37
100
AcDbEntity
  8
Symbol (ANSI)
100
AcDbMText
 10
1.305264301826019
 20
0.9429837062145676
 30
0.0
 40
0.0240000002966153
 41
0.0
 71
     3
 72
     1
  1
{ }
  7
Note Text (ANSI)
 73
     1
 44
1.0
1001
ACAD
1000
MTEXTBEGIN
1070
    73
1070
     1
1070
    44
1040
1.0
1070
    74
1070
     0
1000
MTEXTEND
  0
LEADER
  5
B90
330
37
100
AcDbEntity
  8
Symbol (ANSI)
100
AcDbLeader
  3
Default (ANSI)$7
 73
     0
 40
0.0240161184969488
 41
0.0103156482134545
 76
     3
 10
1.441700192517049
 20
0.8074786725197188
 30
0.0
 10
1.324949341196097
 20
0.93098370606626
 30
0.0
 10
1.311563514424444
 20
0.93098370606626
 30
0.0
340
B8F
210
0.0
220
0.0
230
-1.0
213
0.0
223
-0.0120000001483076
233
0.0
1001
ACAD
1000
DSTYLE
1002
{
1070
    77
1070
     0
1002
}
  0
LINE
  5
B91
330
37
100
AcDbEntity
  8
Centerline (ANSI)
  6
CHAIN
 48
0.9524481296539306
100
AcDbLine
 10
0.3707982350633693
 20
0.5020132263403634
 30
0.0
 11
0.3707982350633693
 21
0.8520132263402516
 31
0.0
  0
LINE
  5
B92
330
37
100
AcDbEntity
  8
Centerline (ANSI)
  6
CHAIN
 48
0.9524481296539306
100
AcDbLine
 10
0.7607982350634255
 20
0.5020132263403634
 30
0.0
 11
0.7607982350634255
 21
0.8771007875502514
 31
0.0
  0
DIMENSION
  5
B93
330
37
100
AcDbEntity
  8
Dimension (ANSI)
100
AcDbDimension
  2
*D19
 10
0.7576482350633219
 20
0.9461219801396897
 30
0.0
 11
0.8792654098537131
 21
0.9461219801396897
 31
0.0
 70
   160
  1
<>
 42
0.0010500000000345
  3
Default (ANSI)
100
AcDbAlignedDimension
 13
0.7607982350634255
 23
0.855531664866052
 33
0.0
 14
0.7576482350633219
 24
0.8270132263402516
 34
0.0
100
AcDbRotatedDimension
1001
ACAD
1000
DSTYLE
1002
{
1070
    73
1070
     0
1070
    74
1070
     0
1070
   271
1070
     3
1070
   144
1040
0.3333333333333333
1070
   272
1070
     4
1070
    48
1040
0.0
1070
    47
1040
0.0
1002
}
  0
DIMENSION
  5
C7D
330
37
100
AcDbEntity
  8
Dimension (ANSI)
100
AcDbDimension
  2
*D20
 10
0.7607982350634255
 20
0.5775631849071652
 30
0.0
 11
0.8688434790914552
 21
0.5775631849071652
 31
0.0
 70
   160
  1
<>
 42
0.1300000000000187
  3
Default (ANSI)
100
AcDbAlignedDimension
 13
0.3707982350633693
 23
0.54925012275042
 33
0.0
 14
0.7607982350634255
 24
0.54925012275042
 34
0.0
100
AcDbRotatedDimension
1001
ACAD
1000
DSTYLE
1002
{
1070
    73
1070
     0
1070
    74
1070
     0
1070
   271
1070
     3
1070
   144
1040
0.3333333333333333
1070
    76
1070
     1
1070
    75
1070
     1
1070
   272
1070
     4
1070
    48
1040
0.0
1070
    47
1040
0.0
1002
}
  0
MTEXT
  5
D5A
102
{ACAD_REACTORS
330
D5C
102
}
330
37
100
AcDbEntity
  8
Symbol (ANSI)
100
AcDbMText
 10
0.263324860276641
 20
0.3309459700917379
 30
0.0
 40
0.0240000002966153
 41
0.1383378820156488
 71
     3
 72
     1
  1
{\fAIGDT|b0|i0;\H0.0240;x\fTahoma|b0|i0;\H0.0240; 0.0185}
  7
Note Text (ANSI)
 73
     1
 44
1.0
1001
ACAD
1000
MTEXTBEGIN
1070
    73
1070
     1
1070
    44
1040
1.0
1070
    74
1070
     0
1000
MTEXTEND
  0
LEADER
  5
D5C
330
37
100
AcDbEntity
  8
Symbol (ANSI)
100
AcDbLeader
  3
Default (ANSI)$7
 73
     0
 40
0.0250960376091337
 41
0.1248676964405641
 76
     3
 10
0.3844786957093792
 20
0.4597156416906728
 30
0.0
 10
0.2830098996467197
 20
0.3189459699434303
 30
0.0
 10
0.2696240728750662
 20
0.3189459699434303
 30
0.0
340
D5A
213
0.0
223
-0.0120000001483076
233
0.0
1001
ACAD
1000
DSTYLE
1002
{
1070
    77
1070
     0
1070
    41
1040
0.0492125984251969
1070
   341
1005
D5D
1002
}
  0
MTEXT
  5
D62
330
37
100
AcDbEntity
  8
Symbol (ANSI)
100
AcDbMText
 10
1.782938404093986
 20
1.565260667005629
 30
0.0
 40
0.0240000002966153
 41
0.2492576884472464
 71
     1
 72
     1
  1
{3 OF 4 (BLOCK4)}
  7
Note Text (ANSI)
 73
     1
 44
1.0
1001
ACAD
1000
MTEXTBEGIN
1070
    73
1070
     1
1070
    44
1040
1.0
1070
    74
1070
     0
1000
MTEXTEND
  0
ENDSEC
  0
SECTION
  2
OBJECTS
  0
DICTIONARY
  5
C
330
0
100
AcDbDictionary
281
     1
  3
ACAD_COLOR
350
30
  3
ACAD_GROUP
350
D
  3
ACAD_LAYOUT
350
2F
  3
ACAD_MATERIAL
350
10
  3
ACAD_MLINESTYLE
350
2C
  3
ACAD_PLOTSETTINGS
350
2E
  3
ACAD_PLOTSTYLENAME
350
E
  3
ACAD_TABLESTYLE
350
31
  3
ACAD_VISUALSTYLE
350
14
  3
AcDbVariableDictionary
350
D63
  3
DWGPROPS
350
D69
  0
DICTIONARY
  5
30
102
{ACAD_REACTORS
330
C
102
}
330
C
100
AcDbDictionary
281
     1
  0
DICTIONARY
  5
D
102
{ACAD_REACTORS
330
C
102
}
330
C
100
AcDbDictionary
281
     1
  0
DICTIONARY
  5
2F
102
{ACAD_REACTORS
330
C
102
}
330
C
100
AcDbDictionary
281
     1
  3
Layout1
350
36
  3
Layout2
350
3E
  3
Model
350
3A
  0
DICTIONARY
  5
10
102
{ACAD_REACTORS
330
C
102
}
330
C
100
AcDbDictionary
281
     1
  3
ByBlock
350
12
  3
ByLayer
350
11
  3
Global
350
13
  0
DICTIONARY
  5
2C
102
{ACAD_REACTORS
330
C
102
}
330
C
100
AcDbDictionary
281
     1
  3
Standard
350
2D
  0
DICTIONARY
  5
2E
102
{ACAD_REACTORS
330
C
102
}
330
C
100
AcDbDictionary
281
     1
  0
ACDBDICTIONARYWDFLT
  5
E
102
{ACAD_REACTORS
330
C
102
}
330
C
100
AcDbDictionary
281
     1
  3
Normal
350
F
100
AcDbDictionaryWithDefault
340
F
  0
DICTIONARY
  5
31
102
{ACAD_REACTORS
330
C
102
}
330
C
100
AcDbDictionary
281
     1
  3
Standard
350
32
  0
DICTIONARY
  5
14
102
{ACAD_REACTORS
330
C
102
}
330
C
100
AcDbDictionary
281
     1
  3
2dWireframe
350
1A
  3
3D Hidden
350
1C
  3
3dWireframe
350
1B
  3
Basic
350
19
  3
Brighten
350
20
  3
ColorChange
350
24
  3
Conceptual
350
1D
  3
Dim
350
1F
  3
Facepattern
350
23
  3
Flat
350
15
  3
FlatWithEdges
350
16
  3
Gouraud
350
17
  3
GouraudWithEdges
350
18
  3
Linepattern
350
22
  3
Realistic
350
1E
  3
Thicken
350
21
  0
DICTIONARY
  5
D63
102
{ACAD_REACTORS
330
C
102
}
330
C
100
AcDbDictionary
281
     1
  3
CTABLESTYLE
350
D64
  3
DIMASSOC
350
D68
  3
HIDETEXT
350
D67
  3
INDEXCTL
350
D66
  3
SORTENTS
350
D65
  0
XRECORD
  5
D69
102
{ACAD_REACTORS
330
C
102
}
330
C
100
AcDbXrecord
280
     1
  1
DWGPROPS COOKIE
  2

  3

  4
Da Chow
  6

  7

  8

  9

300
Manager=
301
Company=
302
Category=
303
Part Number=Block4-V61
304
Description=
305
Project=
306
Designer=Da Chow
307
Engineer=
308
Authority=
309
Cost Center=
 40
0.0000336342592593
 41
2454846.639357998
 42
2454846.639357998
  1

 90
       18
300
Vendor=
300
User Status=
300
Design Status=WorkInProgress
300
Checked by=
300
Date Checked=01/14/2009
300
Engr Approved by=
300
Mfg Approved by=
300
Telephone number=510 2076
  0
LAYOUT
  5
36
102
{ACAD_XDICTIONARY
360
D72
102
}
102
{ACAD_REACTORS
330
2F
102
}
330
2F
100
AcDbPlotSettings
  1

  2

  4

  6

 40
0.0
 41
0.0
 42
0.0
 43
0.0
 44
0.0
 45
0.0
 46
0.0
 47
0.0
 48
0.0
 49
0.0
140
0.0
141
0.0
142
1.0
143
1.0
 70
   688
 72
     0
 73
     0
 74
     5
  7

 75
    16
147
1.0
148
0.0
149
0.0
100
AcDbLayout
  1
Layout1
 70
     1
 71
     1
 10
0.0
 20
0.0
 11
12.0
 21
9.0
 12
0.0
 22
0.0
 32
0.0
 14
0.0
 24
0.0
 34
0.0
 15
0.0
 25
0.0
 35
0.0
146
0.0
 13
0.0
 23
0.0
 33
0.0
 16
1.0
 26
0.0
 36
0.0
 17
0.0
 27
1.0
 37
0.0
 76
     0
330
33
  0
LAYOUT
  5
3E
102
{ACAD_XDICTIONARY
360
D76
102
}
102
{ACAD_REACTORS
330
2F
102
}
330
2F
100
AcDbPlotSettings
  1

  2

  4

  6

 40
0.0
 41
0.0
 42
0.0
 43
0.0
 44
0.0
 45
0.0
 46
0.0
 47
0.0
 48
0.0
 49
0.0
140
0.0
141
0.0
142
1.0
143
1.0
 70
   688
 72
     0
 73
     0
 74
     5
  7

 75
    16
147
1.0
148
0.0
149
0.0
100
AcDbLayout
  1
Layout2
 70
     1
 71
     2
 10
0.0
 20
0.0
 11
12.0
 21
9.0
 12
0.0
 22
0.0
 32
0.0
 14
0.0
 24
0.0
 34
0.0
 15
0.0
 25
0.0
 35
0.0
146
0.0
 13
0.0
 23
0.0
 33
0.0
 16
1.0
 26
0.0
 36
0.0
 17
0.0
 27
1.0
 37
0.0
 76
     0
330
3B
  0
LAYOUT
  5
3A
102
{ACAD_XDICTIONARY
360
D74
102
}
102
{ACAD_REACTORS
330
2F
102
}
330
2F
100
AcDbPlotSettings
  1

  2

  4

  6

 40
0.0
 41
0.0
 42
0.0
 43
0.0
 44
0.0
 45
0.0
 46
0.0
 47
0.0
 48
0.0
 49
0.0
140
0.0
141
0.0
142
1.0
143
1.0
 70
  1712
 72
     0
 73
     0
 74
     0
  7

 75
     0
147
1.0
148
0.0
149
0.0
100
AcDbLayout
  1
Model
 70
     1
 71
     0
 10
0.0
 20
0.0
 11
12.0
 21
9.0
 12
0.0
 22
0.0
 32
0.0
 14
0.0
 24
0.0
 34
0.0
 15
0.0
 25
0.0
 35
0.0
146
0.0
 13
0.0
 23
0.0
 33
0.0
 16
1.0
 26
0.0
 36
0.0
 17
0.0
 27
1.0
 37
0.0
 76
     0
330
37
  0
MATERIAL
  5
12
102
{ACAD_XDICTIONARY
360
D6C
102
}
102
{ACAD_REACTORS
330
10
102
}
330
10
100
AcDbMaterial
  1
ByBlock
  0
MATERIAL
  5
11
102
{ACAD_XDICTIONARY
360
D6A
102
}
102
{ACAD_REACTORS
330
10
102
}
330
10
100
AcDbMaterial
  1
ByLayer
  0
MATERIAL
  5
13
102
{ACAD_XDICTIONARY
360
D6E
102
}
102
{ACAD_REACTORS
330
10
102
}
330
10
100
AcDbMaterial
  1
Global
  0
MLINESTYLE
  5
2D
102
{ACAD_REACTORS
330
2C
102
}
330
2C
100
AcDbMlineStyle
  2
STANDARD
 70
     0
  3

 62
   256
 51
90.0
 52
90.0
 71
     2
 49
0.5
 62
   256
  6
BYLAYER
 49
-0.5
 62
   256
  6
BYLAYER
  0
ACDBPLACEHOLDER
  5
F
102
{ACAD_REACTORS
330
E
102
}
330
E
  0
TABLESTYLE
  5
32
102
{ACAD_XDICTIONARY
360
D70
102
}
102
{ACAD_REACTORS
330
31
102
}
330
31
100
AcDbTableStyle
  3
Standard
 70
     0
 71
     0
 40
0.06
 41
0.06
280
     0
281
     0
  7
Standard
140
0.18
170
     2
 62
     0
 63
     7
283
     0
274
    -2
284
     1
 64
     0
275
    -2
285
     1
 65
     0
276
    -2
286
     1
 66
     0
277
    -2
287
     1
 67
     0
278
    -2
288
     1
 68
     0
279
    -2
289
     1
 69
     0
  7
Standard
140
0.25
170
     5
 62
     0
 63
     7
283
     0
274
    -2
284
     1
 64
     0
275
    -2
285
     1
 65
     0
276
    -2
286
     1
 66
     0
277
    -2
287
     1
 67
     0
278
    -2
288
     1
 68
     0
279
    -2
289
     1
 69
     0
  7
Standard
140
0.18
170
     5
 62
     0
 63
     7
283
     0
274
    -2
284
     1
 64
     0
275
    -2
285
     1
 65
     0
276
    -2
286
     1
 66
     0
277
    -2
287
     1
 67
     0
278
    -2
288
     1
 68
     0
279
    -2
289
     1
 69
     0
  0
VISUALSTYLE
  5
1A
102
{ACAD_REACTORS
330
14
102
}
330
14
100
AcDbVisualStyle
  2
2dWireframe
 70
     4
 71
     0
 72
     2
 73
     0
 90
        0
 40
-0.6
 41
-30.0
 62
     5
 63
     7
 74
     1
 91
        4
 64
     7
 65
   257
 75
     1
175
     1
 42
1.0
 92
        0
 66
   257
 43
1.0
 76
     1
 77
     6
 78
     2
 67
     7
 79
     5
170
     0
171
     0
290
     0
174
     0
 93
        1
 44
0.0
173
     0
291
     0
 45
0.0
1001
ACAD
1000
AcDbSavedByObjectVersion
1070
     0
  0
VISUALSTYLE
  5
1C
102
{ACAD_REACTORS
330
14
102
}
330
14
100
AcDbVisualStyle
  2
3D Hidden
 70
     6
 71
     1
 72
     2
 73
     2
 90
        0
 40
-0.6
 41
-30.0
 62
     5
 63
     7
 74
     2
 91
        2
 64
     7
 65
   257
 75
     2
175
     1
 42
40.0
 92
        0
 66
   257
 43
1.0
 76
     1
 77
     6
 78
     2
 67
     7
 79
     3
170
     0
171
     0
290
     0
174
     0
 93
        1
 44
0.0
173
     0
291
     0
 45
0.0
1001
ACAD
1000
AcDbSavedByObjectVersion
1070
     0
  0
VISUALSTYLE
  5
1B
102
{ACAD_REACTORS
330
14
102
}
330
14
100
AcDbVisualStyle
  2
3dWireframe
 70
     5
 71
     0
 72
     2
 73
     0
 90
        0
 40
-0.6
 41
-30.0
 62
     5
 63
     7
 74
     1
 91
        4
 64
     7
 65
   257
 75
     1
175
     1
 42
1.0
 92
        0
 66
   257
 43
1.0
 76
     1
 77
     6
 78
     2
 67
     7
 79
     5
170
     0
171
     0
290
     0
174
     0
 93
        1
 44
0.0
173
     0
291
     0
 45
0.0
1001
ACAD
1000
AcDbSavedByObjectVersion
1070
     0
  0
VISUALSTYLE
  5
19
102
{ACAD_REACTORS
330
14
102
}
330
14
100
AcDbVisualStyle
  2
Basic
 70
     7
 71
     1
 72
     0
 73
     1
 90
        0
 40
-0.6
 41
-30.0
 62
     5
 63
     7
 74
     0
 91
        4
 64
     7
 65
   257
 75
     1
175
     1
 42
1.0
 92
        8
 66
     7
 43
1.0
 76
     1
 77
     6
 78
     2
 67
     7
 79
     5
170
     0
171
     0
290
     0
174
     0
 93
        1
 44
0.0
173
     0
291
     1
 45
0.0
1001
ACAD
1000
AcDbSavedByObjectVersion
1070
     0
  0
VISUALSTYLE
  5
20
102
{ACAD_REACTORS
330
14
102
}
330
14
100
AcDbVisualStyle
  2
Brighten
 70
    12
 71
     2
 72
     2
 73
     0
 90
        0
 40
-0.6
 41
-30.0
 62
     5
 63
     7
 74
     1
 91
        4
 64
     7
 65
   257
 75
     1
175
     1
 42
1.0
 92
        8
 66
     7
 43
1.0
 76
     1
 77
     6
 78
     2
 67
     7
 79
     5
170
     0
171
     0
290
     0
174
     0
 93
        1
 44
50.0
173
     0
291
     1
 45
0.0
1001
ACAD
1000
AcDbSavedByObjectVersion
1070
     0
  0
VISUALSTYLE
  5
24
102
{ACAD_REACTORS
330
14
102
}
330
14
100
AcDbVisualStyle
  2
ColorChange
 70
    16
 71
     2
 72
     2
 73
     3
 90
        0
 40
-0.6
 41
-30.0
 62
     5
 63
     8
 74
     1
 91
        4
 64
     7
 65
   257
 75
     1
175
     1
 42
1.0
 92
        8
 66
     8
 43
1.0
 76
     1
 77
     6
 78
     2
 67
     7
 79
     5
170
     0
171
     0
290
     0
174
     0
 93
        1
 44
0.0
173
     0
291
     1
 45
0.0
1001
ACAD
1000
AcDbSavedByObjectVersion
1070
     0
  0
VISUALSTYLE
  5
1D
102
{ACAD_REACTORS
330
14
102
}
330
14
100
AcDbVisualStyle
  2
Conceptual
 70
     9
 71
     3
 72
     2
 73
     0
 90
        0
 40
-0.6
 41
-30.0
 62
     5
 63
     7
 74
     2
 91
        2
 64
     7
 65
   257
 75
     1
175
     1
 42
40.0
 92
        8
 66
     7
 43
1.0
 76
     1
 77
     6
 78
     2
 67
     7
 79
     3
170
     0
171
     0
290
     0
174
     0
 93
        1
 44
0.0
173
     0
291
     0
 45
0.0
1001
ACAD
1000
AcDbSavedByObjectVersion
1070
     0
  0
VISUALSTYLE
  5
1F
102
{ACAD_REACTORS
330
14
102
}
330
14
100
AcDbVisualStyle
  2
Dim
 70
    11
 71
     2
 72
     2
 73
     0
 90
        0
 40
-0.6
 41
-30.0
 62
     5
 63
     7
 74
     1
 91
        4
 64
     7
 65
   257
 75
     1
175
     1
 42
1.0
 92
        8
 66
     7
 43
1.0
 76
     1
 77
     6
 78
     2
 67
     7
 79
     5
170
     0
171
     0
290
     0
174
     0
 93
        1
 44
-50.0
173
     0
291
     1
 45
0.0
1001
ACAD
1000
AcDbSavedByObjectVersion
1070
     0
  0
VISUALSTYLE
  5
23
102
{ACAD_REACTORS
330
14
102
}
330
14
100
AcDbVisualStyle
  2
Facepattern
 70
    15
 71
     2
 72
     2
 73
     0
 90
        0
 40
-0.6
 41
-30.0
 62
     5
 63
     7
 74
     1
 91
        4
 64
     7
 65
   257
 75
     1
175
     1
 42
1.0
 92
        8
 66
     7
 43
1.0
 76
     1
 77
     6
 78
     2
 67
     7
 79
     5
170
     0
171
     0
290
     0
174
     0
 93
        1
 44
0.0
173
     0
291
     1
 45
0.0
1001
ACAD
1000
AcDbSavedByObjectVersion
1070
     0
  0
VISUALSTYLE
  5
15
102
{ACAD_REACTORS
330
14
102
}
330
14
100
AcDbVisualStyle
  2
Flat
 70
     0
 71
     2
 72
     1
 73
     1
 90
        2
 40
-0.6
 41
30.0
 62
     5
 63
     7
 74
     0
 91
        4
 64
     7
 65
   257
 75
     1
175
     1
 42
1.0
 92
        8
 66
     7
 43
1.0
 76
     1
 77
     6
 78
     2
 67
     7
 79
     5
170
     0
171
     0
290
     0
174
     0
 93
       13
 44
0.0
173
     0
291
     1
 45
0.0
1001
ACAD
1000
AcDbSavedByObjectVersion
1070
     0
  0
VISUALSTYLE
  5
16
102
{ACAD_REACTORS
330
14
102
}
330
14
100
AcDbVisualStyle
  2
FlatWithEdges
 70
     1
 71
     2
 72
     1
 73
     1
 90
        2
 40
-0.6
 41
30.0
 62
     5
 63
     7
 74
     1
 91
        4
 64
     7
 65
   257
 75
     1
175
     1
 42
1.0
 92
        0
 66
   257
 43
1.0
 76
     1
 77
     6
 78
     2
 67
     7
 79
     5
170
     0
171
     0
290
     0
174
     0
 93
       13
 44
0.0
173
     0
291
     1
 45
0.0
1001
ACAD
1000
AcDbSavedByObjectVersion
1070
     0
  0
VISUALSTYLE
  5
17
102
{ACAD_REACTORS
330
14
102
}
330
14
100
AcDbVisualStyle
  2
Gouraud
 70
     2
 71
     2
 72
     2
 73
     1
 90
        2
 40
-0.6
 41
30.0
 62
     5
 63
     7
 74
     0
 91
        4
 64
     7
 65
   257
 75
     1
175
     1
 42
1.0
 92
        0
 66
     7
 43
1.0
 76
     1
 77
     6
 78
     2
 67
     7
 79
     5
170
     0
171
     0
290
     0
174
     0
 93
       13
 44
0.0
173
     0
291
     1
 45
0.0
1001
ACAD
1000
AcDbSavedByObjectVersion
1070
     0
  0
VISUALSTYLE
  5
18
102
{ACAD_REACTORS
330
14
102
}
330
14
100
AcDbVisualStyle
  2
GouraudWithEdges
 70
     3
 71
     2
 72
     2
 73
     1
 90
        2
 40
-0.6
 41
30.0
 62
     5
 63
     7
 74
     1
 91
        4
 64
     7
 65
   257
 75
     1
175
     1
 42
1.0
 92
        0
 66
   257
 43
1.0
 76
     1
 77
     6
 78
     2
 67
     7
 79
     5
170
     0
171
     0
290
     0
174
     0
 93
       13
 44
0.0
173
     0
291
     1
 45
0.0
1001
ACAD
1000
AcDbSavedByObjectVersion
1070
     0
  0
VISUALSTYLE
  5
22
102
{ACAD_REACTORS
330
14
102
}
330
14
100
AcDbVisualStyle
  2
Linepattern
 70
    14
 71
     2
 72
     2
 73
     0
 90
        0
 40
-0.6
 41
-30.0
 62
     5
 63
     7
 74
     1
 91
        4
 64
     7
 65
   257
 75
     7
175
     7
 42
1.0
 92
        8
 66
     7
 43
1.0
 76
     1
 77
     6
 78
     2
 67
     7
 79
     5
170
     0
171
     0
290
     0
174
     0
 93
        1
 44
0.0
173
     0
291
     1
 45
0.0
1001
ACAD
1000
AcDbSavedByObjectVersion
1070
     0
  0
VISUALSTYLE
  5
1E
102
{ACAD_REACTORS
330
14
102
}
330
14
100
AcDbVisualStyle
  2
Realistic
 70
     8
 71
     2
 72
     2
 73
     0
 90
        0
 40
-0.6
 41
-30.0
 62
     5
 63
     7
 74
     1
 91
        0
 64
     7
 65
   257
 75
     1
175
     1
 42
1.0
 92
        8
 66
     8
 43
1.0
 76
     1
 77
     6
 78
     2
 67
     7
 79
     5
170
     0
171
     0
290
     0
174
     0
 93
       13
 44
0.0
173
     0
291
     0
 45
0.0
1001
ACAD
1000
AcDbSavedByObjectVersion
1070
     0
  0
VISUALSTYLE
  5
21
102
{ACAD_REACTORS
330
14
102
}
330
14
100
AcDbVisualStyle
  2
Thicken
 70
    13
 71
     2
 72
     2
 73
     0
 90
        0
 40
-0.6
 41
-30.0
 62
     5
 63
     7
 74
     1
 91
        4
 64
     7
 65
   257
 75
     1
175
     1
 42
1.0
 92
       12
 66
     7
 43
1.0
 76
     1
 77
     6
 78
     2
 67
     7
 79
     5
170
     0
171
     0
290
     0
174
     0
 93
        1
 44
0.0
173
     0
291
     1
 45
0.0
1001
ACAD
1000
AcDbSavedByObjectVersion
1070
     0
  0
DICTIONARYVAR
  5
D64
102
{ACAD_REACTORS
330
D63
102
}
330
D63
100
DictionaryVariables
280
     0
  1
STANDARD
  0
DICTIONARYVAR
  5
D68
102
{ACAD_REACTORS
330
D63
102
}
330
D63
100
DictionaryVariables
280
     0
  1
1
  0
DICTIONARYVAR
  5
D67
102
{ACAD_REACTORS
330
D63
102
}
330
D63
100
DictionaryVariables
280
     0
  1
1
  0
DICTIONARYVAR
  5
D66
102
{ACAD_REACTORS
330
D63
102
}
330
D63
100
DictionaryVariables
280
     0
  1
0
  0
DICTIONARYVAR
  5
D65
102
{ACAD_REACTORS
330
D63
102
}
330
D63
100
DictionaryVariables
280
     0
  1
127
  0
DICTIONARY
  5
D72
330
36
100
AcDbDictionary
280
     1
281
     1
  3
ACAD_XREC_ROUNDTRIP
360
D73
  0
DICTIONARY
  5
D76
330
3E
100
AcDbDictionary
280
     1
281
     1
  3
ACAD_XREC_ROUNDTRIP
360
D77
  0
DICTIONARY
  5
D74
330
3A
100
AcDbDictionary
280
     1
281
     1
  3
ACAD_XREC_ROUNDTRIP
360
D75
  0
DICTIONARY
  5
D6C
330
12
100
AcDbDictionary
280
     1
281
     1
  3
ACAD_XREC_ROUNDTRIP
360
D6D
  0
DICTIONARY
  5
D6A
330
11
100
AcDbDictionary
280
     1
281
     1
  3
ACAD_XREC_ROUNDTRIP
360
D6B
  0
DICTIONARY
  5
D6E
330
13
100
AcDbDictionary
280
     1
281
     1
  3
ACAD_XREC_ROUNDTRIP
360
D6F
  0
DICTIONARY
  5
D70
330
32
100
AcDbDictionary
280
     1
281
     1
  3
ACAD_XREC_ROUNDTRIP
360
D71
  0
XRECORD
  5
D73
102
{ACAD_REACTORS
330
D72
102
}
330
D72
100
AcDbXrecord
280
     1
102
SHADEPLOT
 70
     0
102
SHADEPLOTRESLEVEL
 70
     2
102
SHADEPLOTCUSTOMDPI
 70
   300
  0
XRECORD
  5
D77
102
{ACAD_REACTORS
330
D76
102
}
330
D76
100
AcDbXrecord
280
     1
102
SHADEPLOT
 70
     0
102
SHADEPLOTRESLEVEL
 70
     2
102
SHADEPLOTCUSTOMDPI
 70
   300
  0
XRECORD
  5
D75
102
{ACAD_REACTORS
330
D74
102
}
330
D74
100
AcDbXrecord
280
     1
102
SHADEPLOT
 70
     0
102
SHADEPLOTRESLEVEL
 70
     2
102
SHADEPLOTCUSTOMDPI
 70
   300
  0
XRECORD
  5
D6D
102
{ACAD_REACTORS
330
D6C
102
}
330
D6C
100
AcDbXrecord
280
     1
102
MATERIAL
148
0.0
149
0.0
149
0.0
 93
        0
 94
       63
282
     0
 72
     1
 77
     1
171
     1
175
     1
179
     1
273
     0
  0
XRECORD
  5
D6B
102
{ACAD_REACTORS
330
D6A
102
}
330
D6A
100
AcDbXrecord
280
     1
102
MATERIAL
148
0.0
149
0.0
149
0.0
 93
        0
 94
       63
282
     0
 72
     1
 77
     1
171
     1
175
     1
179
     1
273
     0
  0
XRECORD
  5
D6F
102
{ACAD_REACTORS
330
D6E
102
}
330
D6E
100
AcDbXrecord
280
     1
102
MATERIAL
148
0.0
149
0.0
149
0.0
 93
        0
 94
       63
282
     0
 72
     1
 77
     1
171
     1
175
     1
179
     1
273
     0
  0
XRECORD
  5
D71
102
{ACAD_REACTORS
330
D70
102
}
330
D70
100
AcDbXrecord
280
     1
102
ACAD_ROUNDTRIP_PRE2007_TABLESTYLE
 90
      512
 91
        0
  1

 92
      512
 93
        0
  2

 94
      512
 95
        0
  3

  0
ENDSEC
  0
EOF
